  0
SECTION
  2
HEADER
  9
$ACADVER
  1
AC1018
  9
$ACADMAINTVER
 70
   104
  9
$DWGCODEPAGE
  3
ANSI_932
  9
$LASTSAVEDBY
  1
0147suzuki
  9
$INSBASE
 10
0.0
 20
0.0
 30
0.0
  9
$EXTMIN
 10
-56.81117193185241
 20
164.6349990621389
 30
0.0
  9
$EXTMAX
 10
356.7823421651004
 20
457.3822871146171
 30
0.0
  9
$LIMMIN
 10
-60.06021765304331
 20
162.6907024186789
  9
$LIMMAX
 10
359.9287655012536
 20
459.6590251725851
  9
$ORTHOMODE
 70
     0
  9
$REGENMODE
 70
     1
  9
$FILLMODE
 70
     1
  9
$QTEXTMODE
 70
     0
  9
$MIRRTEXT
 70
     0
  9
$LTSCALE
 40
1.0
  9
$ATTMODE
 70
     1
  9
$TEXTSIZE
 40
3.0
  9
$TRACEWID
 40
1.0
  9
$TEXTSTYLE
  7
ATOM
  9
$CLAYER
  8
0
  9
$CELTYPE
  6
ByLayer
  9
$CECOLOR
 62
   256
  9
$CELTSCALE
 40
1.0
  9
$DISPSILH
 70
     0
  9
$DIMSCALE
 40
0.0
  9
$DIMASZ
 40
2.0
  9
$DIMEXO
 40
2.0
  9
$DIMDLI
 40
7.0
  9
$DIMRND
 40
0.0
  9
$DIMDLE
 40
0.0
  9
$DIMEXE
 40
1.0
  9
$DIMTP
 40
0.1
  9
$DIMTM
 40
0.1
  9
$DIMTXT
 40
3.0
  9
$DIMCEN
 40
-2.5
  9
$DIMTSZ
 40
0.0
  9
$DIMTOL
 70
     0
  9
$DIMLIM
 70
     0
  9
$DIMTIH
 70
     0
  9
$DIMTOH
 70
     0
  9
$DIMSE1
 70
     0
  9
$DIMSE2
 70
     0
  9
$DIMTAD
 70
     1
  9
$DIMZIN
 70
     8
  9
$DIMBLK
  1
Open30
  9
$DIMASO
 70
     1
  9
$DIMSHO
 70
     1
  9
$DIMPOST
  1

  9
$DIMAPOST
  1

  9
$DIMALT
 70
     0
  9
$DIMALTD
 70
     3
  9
$DIMALTF
 40
0.03937007874016
  9
$DIMLFAC
 40
1.0
  9
$DIMTOFL
 70
     1
  9
$DIMTVP
 40
0.0
  9
$DIMTIX
 70
     0
  9
$DIMSOXD
 70
     0
  9
$DIMSAH
 70
     0
  9
$DIMBLK1
  1

  9
$DIMBLK2
  1

  9
$DIMSTYLE
  2
ATOM
  9
$DIMCLRD
 70
     0
  9
$DIMCLRE
 70
     0
  9
$DIMCLRT
 70
     3
  9
$DIMTFAC
 40
0.4999999999999997
  9
$DIMGAP
 40
0.625
  9
$DIMJUST
 70
     0
  9
$DIMSD1
 70
     0
  9
$DIMSD2
 70
     0
  9
$DIMTOLJ
 70
     0
  9
$DIMTZIN
 70
     8
  9
$DIMALTZ
 70
     0
  9
$DIMALTTZ
 70
     0
  9
$DIMUPT
 70
     0
  9
$DIMDEC
 70
     2
  9
$DIMTDEC
 70
     2
  9
$DIMALTU
 70
     2
  9
$DIMALTTD
 70
     3
  9
$DIMTXSTY
  7
ATOM
  9
$DIMAUNIT
 70
     0
  9
$DIMADEC
 70
     0
  9
$DIMALTRND
 40
0.0
  9
$DIMAZIN
 70
     0
  9
$DIMDSEP
 70
    46
  9
$DIMATFIT
 70
     0
  9
$DIMFRAC
 70
     2
  9
$DIMLDRBLK
  1
Open30
  9
$DIMLUNIT
 70
     2
  9
$DIMLWD
 70
    -2
  9
$DIMLWE
 70
    -2
  9
$DIMTMOVE
 70
     1
  9
$LUNITS
 70
     2
  9
$LUPREC
 70
     4
  9
$SKETCHINC
 40
1.0
  9
$FILLETRAD
 40
0.0
  9
$AUNITS
 70
     0
  9
$AUPREC
 70
     0
  9
$MENU
  1
.
  9
$ELEVATION
 40
0.0
  9
$PELEVATION
 40
0.0
  9
$THICKNESS
 40
0.0
  9
$LIMCHECK
 70
     0
  9
$CHAMFERA
 40
0.0
  9
$CHAMFERB
 40
0.0
  9
$CHAMFERC
 40
0.0
  9
$CHAMFERD
 40
0.0
  9
$SKPOLY
 70
     0
  9
$TDCREATE
 40
2454537.483808797
  9
$TDUCREATE
 40
2454537.108808796
  9
$TDUPDATE
 40
2454537.484327997
  9
$TDUUPDATE
 40
2454537.109327997
  9
$TDINDWG
 40
0.0004967245
  9
$TDUSRTIMER
 40
0.0004967245
  9
$USRTIMER
 70
     1
  9
$ANGBASE
 50
0.0
  9
$ANGDIR
 70
     0
  9
$PDMODE
 70
     0
  9
$PDSIZE
 40
0.0
  9
$PLINEWID
 40
0.0
  9
$SPLFRAME
 70
     0
  9
$SPLINETYPE
 70
     6
  9
$SPLINESEGS
 70
     8
  9
$HANDSEED
  5
6C1
  9
$SURFTAB1
 70
     6
  9
$SURFTAB2
 70
     6
  9
$SURFTYPE
 70
     6
  9
$SURFU
 70
     6
  9
$SURFV
 70
     6
  9
$UCSBASE
  2

  9
$UCSNAME
  2

  9
$UCSORG
 10
0.0
 20
0.0
 30
0.0
  9
$UCSXDIR
 10
1.0
 20
0.0
 30
0.0
  9
$UCSYDIR
 10
0.0
 20
1.0
 30
0.0
  9
$UCSORTHOREF
  2

  9
$UCSORTHOVIEW
 70
     0
  9
$UCSORGTOP
 10
0.0
 20
0.0
 30
0.0
  9
$UCSORGBOTTOM
 10
0.0
 20
0.0
 30
0.0
  9
$UCSORGLEFT
 10
0.0
 20
0.0
 30
0.0
  9
$UCSORGRIGHT
 10
0.0
 20
0.0
 30
0.0
  9
$UCSORGFRONT
 10
0.0
 20
0.0
 30
0.0
  9
$UCSORGBACK
 10
0.0
 20
0.0
 30
0.0
  9
$PUCSBASE
  2

  9
$PUCSNAME
  2

  9
$PUCSORG
 10
0.0
 20
0.0
 30
0.0
  9
$PUCSXDIR
 10
1.0
 20
0.0
 30
0.0
  9
$PUCSYDIR
 10
0.0
 20
1.0
 30
0.0
  9
$PUCSORTHOREF
  2

  9
$PUCSORTHOVIEW
 70
     0
  9
$PUCSORGTOP
 10
0.0
 20
0.0
 30
0.0
  9
$PUCSORGBOTTOM
 10
0.0
 20
0.0
 30
0.0
  9
$PUCSORGLEFT
 10
0.0
 20
0.0
 30
0.0
  9
$PUCSORGRIGHT
 10
0.0
 20
0.0
 30
0.0
  9
$PUCSORGFRONT
 10
0.0
 20
0.0
 30
0.0
  9
$PUCSORGBACK
 10
0.0
 20
0.0
 30
0.0
  9
$USERI1
 70
     0
  9
$USERI2
 70
     0
  9
$USERI3
 70
     0
  9
$USERI4
 70
     0
  9
$USERI5
 70
     0
  9
$USERR1
 40
0.0
  9
$USERR2
 40
0.0
  9
$USERR3
 40
0.0
  9
$USERR4
 40
0.0
  9
$USERR5
 40
0.0
  9
$WORLDVIEW
 70
     1
  9
$SHADEDGE
 70
     3
  9
$SHADEDIF
 70
    70
  9
$TILEMODE
 70
     1
  9
$MAXACTVP
 70
    64
  9
$PINSBASE
 10
0.0
 20
0.0
 30
0.0
  9
$PLIMCHECK
 70
     0
  9
$PEXTMIN
 10
1.000000000000000E+20
 20
1.000000000000000E+20
 30
1.000000000000000E+20
  9
$PEXTMAX
 10
-1.000000000000000E+20
 20
-1.000000000000000E+20
 30
-1.000000000000000E+20
  9
$PLIMMIN
 10
0.0
 20
0.0
  9
$PLIMMAX
 10
12.0
 20
9.0
  9
$UNITMODE
 70
     0
  9
$VISRETAIN
 70
     1
  9
$PLINEGEN
 70
     0
  9
$PSLTSCALE
 70
     1
  9
$TREEDEPTH
 70
  3020
  9
$CMLSTYLE
  2
__Standard
  9
$CMLJUST
 70
     0
  9
$CMLSCALE
 40
10.0
  9
$PROXYGRAPHICS
 70
     1
  9
$MEASUREMENT
 70
     1
  9
$CELWEIGHT
370
    -1
  9
$ENDCAPS
280
     0
  9
$JOINSTYLE
280
     0
  9
$LWDISPLAY
290
     0
  9
$INSUNITS
 70
     4
  9
$HYPERLINKBASE
  1

  9
$STYLESHEET
  1

  9
$XEDIT
290
     1
  9
$CEPSNTYPE
380
     0
  9
$PSTYLEMODE
290
     0
  9
$FINGERPRINTGUID
  2
{2D860BA6-DE55-44A1-A26A-400F75262758}
  9
$VERSIONGUID
  2
{A02FF2E1-C11F-4B43-BF09-FE238504A290}
  9
$EXTNAMES
290
     1
  9
$PSVPSCALE
 40
0.0
  9
$OLESTARTUP
290
     0
  9
$SORTENTS
280
   127
  9
$INDEXCTL
280
     0
  9
$HIDETEXT
280
     1
  9
$XCLIPFRAME
290
     0
  9
$HALOGAP
280
     0
  9
$OBSCOLOR
 70
   257
  9
$OBSLTYPE
280
     0
  9
$INTERSECTIONDISPLAY
280
     0
  9
$INTERSECTIONCOLOR
 70
   257
  9
$DIMASSOC
280
     2
  9
$PROJECTNAME
  1

  0
ENDSEC
  0
SECTION
  2
CLASSES
  0
CLASS
  1
ACDBDICTIONARYWDFLT
  2
AcDbDictionaryWithDefault
  3
ObjectDBX Classes
 90
        0
 91
        1
280
     0
281
     0
  0
CLASS
  1
MATERIAL
  2
AcDbMaterial
  3
ObjectDBX Classes
 90
     1153
 91
        3
280
     0
281
     0
  0
CLASS
  1
VISUALSTYLE
  2
AcDbVisualStyle
  3
ObjectDBX Classes
 90
     4095
 91
       16
280
     0
281
     0
  0
CLASS
  1
SCALE
  2
AcDbScale
  3
ObjectDBX Classes
 90
     1153
 91
       35
280
     0
281
     0
  0
CLASS
  1
TABLESTYLE
  2
AcDbTableStyle
  3
ObjectDBX Classes
 90
     4095
 91
        2
280
     0
281
     0
  0
CLASS
  1
MLEADERSTYLE
  2
AcDbMLeaderStyle
  3
ACDB_MLEADERSTYLE_CLASS
 90
     4095
 91
        2
280
     0
281
     0
  0
CLASS
  1
SORTENTSTABLE
  2
AcDbSortentsTable
  3
ObjectDBX Classes
 90
        0
 91
        1
280
     0
281
     0
  0
CLASS
  1
CELLSTYLEMAP
  2
AcDbCellStyleMap
  3
ObjectDBX Classes
 90
     1152
 91
        3
280
     0
281
     0
  0
CLASS
  1
DICTIONARYVAR
  2
AcDbDictionaryVar
  3
ObjectDBX Classes
 90
        0
 91
        6
280
     0
281
     0
  0
ENDSEC
  0
SECTION
  2
TABLES
  0
TABLE
  2
VPORT
  5
8
330
0
100
AcDbSymbolTable
 70
     1
  0
VPORT
  5
5F
330
8
100
AcDbSymbolTableRecord
100
AcDbViewportTableRecord
  2
*Active
 70
     0
 10
0.0
 20
0.0
 11
1.0
 21
1.0
 12
197.8348525615732
 22
311.0090808306554
 13
0.0
 23
0.0
 14
10.0
 24
10.0
 15
10.0
 25
10.0
 16
0.0
 26
0.0
 36
1.0
 17
0.0
 27
0.0
 37
0.0
 40
305.2639061918708
 41
1.674197384066587
 42
50.0
 43
0.0
 44
0.0
 50
0.0
 51
0.0
 71
     0
 72
   100
 73
     1
 74
     1
 75
     0
 76
     0
 77
     0
 78
     0
281
     0
 65
     1
110
0.0
120
0.0
130
0.0
111
1.0
121
0.0
131
0.0
112
0.0
122
1.0
132
0.0
 79
     0
146
0.0
  0
ENDTAB
  0
TABLE
  2
LTYPE
  5
5
330
0
100
AcDbSymbolTable
 70
    11
  0
LTYPE
  5
63
330
5
100
AcDbSymbolTableRecord
100
AcDbLinetypeTableRecord
  2
ByBlock
 70
     0
  3

 72
    65
 73
     0
 40
0.0
  0
LTYPE
  5
64
330
5
100
AcDbSymbolTableRecord
100
AcDbLinetypeTableRecord
  2
ByLayer
 70
     0
  3

 72
    65
 73
     0
 40
0.0
  0
LTYPE
  5
65
330
5
100
AcDbSymbolTableRecord
100
AcDbLinetypeTableRecord
  2
Continuous
 70
     0
  3
Solid line
 72
    65
 73
     0
 40
0.0
  0
LTYPE
  5
86
330
5
100
AcDbSymbolTableRecord
100
AcDbLinetypeTableRecord
  2
JIS_08_15
 70
     0
  3
1SASEN15 ____ _ ____ _ ____ _ ____ _ ____
 72
    65
 73
     4
 40
17.25
 49
15.0
 74
     0
 49
-0.75
 74
     0
 49
0.75
 74
     0
 49
-0.75
 74
     0
  0
LTYPE
  5
87
330
5
100
AcDbSymbolTableRecord
100
AcDbLinetypeTableRecord
  2
JIS_02_1.0
 70
     0
  3
HIDDEN01 _ _ _ _ _ _ _ _ _ _ _ _ _ _ _ _ _
 72
    65
 73
     2
 40
2.0
 49
1.0
 74
     0
 49
-1.0
 74
     0
  0
LTYPE
  5
88
330
5
100
AcDbSymbolTableRecord
100
AcDbLinetypeTableRecord
  2
JIS_09_15
 70
     0
  3
2SASEN15 ___ _ _ ___ _ _ ___ _ _ ___ _ _ ___
 72
    65
 73
     6
 40
18.9
 49
15.0
 74
     0
 49
-0.9
 74
     0
 49
0.6
 74
     0
 49
-0.9
 74
     0
 49
0.6
 74
     0
 49
-0.9
 74
     0
  0
LTYPE
  5
89
330
5
100
AcDbSymbolTableRecord
100
AcDbLinetypeTableRecord
  2
DASHED
 70
     0
  3
Dashed
 72
    65
 73
     2
 40
15.0
 49
7.0
 74
     0
 49
-8.0
 74
     0
  0
LTYPE
  5
8A
330
5
100
AcDbSymbolTableRecord
100
AcDbLinetypeTableRecord
  2
DASHED_NEW
 70
     0
  3
 _ _ _ _ _ _ _ _
 72
    65
 73
     2
 40
1.6
 49
0.8
 74
     0
 49
-0.8
 74
     0
  0
LTYPE
  5
8B
330
5
100
AcDbSymbolTableRecord
100
AcDbLinetypeTableRecord
  2
CENTER_NEW
 70
     0
  3
－ － － － － －
 72
    65
 73
     4
 40
7.5
 49
6.0
 74
     0
 49
-0.5
 74
     0
 49
0.5
 74
     0
 49
-0.5
 74
     0
  0
LTYPE
  5
8C
330
5
100
AcDbSymbolTableRecord
100
AcDbLinetypeTableRecord
  2
LONG_DASHED
 70
     0
  3
Long_Dashed
 72
    65
 73
     2
 40
15.0
 49
10.0
 74
     0
 49
-5.0
 74
     0
  0
LTYPE
  5
8D
330
5
100
AcDbSymbolTableRecord
100
AcDbLinetypeTableRecord
  2
DASH_CENTER
 70
     0
  3
Dash_Center
 72
    65
 73
     4
 40
14.0
 49
11.0
 74
     0
 49
-1.0
 74
     0
 49
1.0
 74
     0
 49
-1.0
 74
     0
  0
LTYPE
  5
8E
330
5
100
AcDbSymbolTableRecord
100
AcDbLinetypeTableRecord
  2
PHANTOM_NEW
 70
     0
  3
－ － － － － －
 72
    65
 73
     6
 40
7.5
 49
5.0
 74
     0
 49
-0.5
 74
     0
 49
0.5
 74
     0
 49
-0.5
 74
     0
 49
0.5
 74
     0
 49
-0.5
 74
     0
  0
LTYPE
  5
8F
330
5
100
AcDbSymbolTableRecord
100
AcDbLinetypeTableRecord
  2
CENTER_DASH_DASH_NEW
 70
     0
  3
－ － － － － －
 72
    65
 73
     6
 40
7.5
 49
4.0
 74
     0
 49
-0.5
 74
     0
 49
1.0
 74
     0
 49
-0.5
 74
     0
 49
1.0
 74
     0
 49
-0.5
 74
     0
  0
ENDTAB
  0
TABLE
  2
LAYER
  5
2
330
0
100
AcDbSymbolTable
 70
     4
  0
LAYER
  5
5C
102
{ACAD_XDICTIONARY
360
6B5
102
}
330
2
100
AcDbSymbolTableRecord
100
AcDbLayerTableRecord
  2
0
 70
     0
 62
     7
  6
Continuous
370
    35
390
AC
1001
AcAecLayerStandard
1000

1000

  0
LAYER
  5
7E
330
2
100
AcDbSymbolTableRecord
100
AcDbLayerTableRecord
  2
Defpoints
 70
     0
 62
     7
  6
Continuous
290
     0
370
    -3
390
AC
1001
AcAecLayerStandard
1000

1000

  0
LAYER
  5
B0
102
{ACAD_XDICTIONARY
360
B1
102
}
330
2
100
AcDbSymbolTableRecord
100
AcDbLayerTableRecord
  2
viewports
 70
     0
 62
     5
  6
Continuous
290
     0
370
    18
390
AC
1001
AcAecLayerStandard
1000

1000

  0
LAYER
  5
B5
102
{ACAD_XDICTIONARY
360
B6
102
}
330
2
100
AcDbSymbolTableRecord
100
AcDbLayerTableRecord
  2
1
 70
     0
 62
     7
  6
Continuous
370
    -3
390
AC
  0
ENDTAB
  0
TABLE
  2
STYLE
  5
3
330
0
100
AcDbSymbolTable
 70
     9
  0
STYLE
  5
5D
330
3
100
AcDbSymbolTableRecord
100
AcDbTextStyleTableRecord
  2
Standard
 70
     0
 40
0.0
 41
1.0
 50
0.0
 71
     0
 42
2.5
  3
txt
  4

  0
STYLE
  5
62
330
3
100
AcDbSymbolTableRecord
100
AcDbTextStyleTableRecord
  2
Annotative
 70
     0
 40
0.0
 41
1.0
 50
0.0
 71
     0
 42
3.0
  3

  4

1001
AcadAnnotative
1000
AnnotativeData
1002
{
1070
     1
1070
     1
1002
}
  0
STYLE
  5
7F
330
3
100
AcDbSymbolTableRecord
100
AcDbTextStyleTableRecord
  2
ATOM
 70
     0
 40
0.0
 41
0.9
 50
0.0
 71
     0
 42
3.0
  3
txt.shx
  4
extfont.shx
1001
AcadAnnotative
1000
AnnotativeData
1002
{
1070
     1
1070
     1
1002
}
  0
STYLE
  5
80
330
3
100
AcDbSymbolTableRecord
100
AcDbTextStyleTableRecord
  2

 70
     1
 40
0.0
 41
1.0
 50
0.0
 71
     0
 42
0.2
  3
ltypeshp.shx
  4

  0
STYLE
  5
81
330
3
100
AcDbSymbolTableRecord
100
AcDbTextStyleTableRecord
  2
ATOM_KANJI
 70
     0
 40
3.0
 41
0.9
 50
0.0
 71
     0
 42
3.0
  3
txt.shx
  4
extfont.shx
1001
AcadAnnotative
1000
AnnotativeData
1002
{
1070
     1
1070
     1
1002
}
  0
STYLE
  5
82
330
3
100
AcDbSymbolTableRecord
100
AcDbTextStyleTableRecord
  2
CONVERTER_11
 70
     0
 40
0.0
 41
0.5607
 50
0.0
 71
     0
 42
0.2
  3
simplex.shx
  4
extfont2.shx
  0
STYLE
  5
83
330
3
100
AcDbSymbolTableRecord
100
AcDbTextStyleTableRecord
  2
CONVERTER_12
 70
     0
 40
0.0
 41
0.8009999999999999
 50
0.0
 71
     0
 42
0.2
  3
simplex.shx
  4
extfont2.shx
  0
STYLE
  5
84
330
3
100
AcDbSymbolTableRecord
100
AcDbTextStyleTableRecord
  2
CONVERTER_13
 70
     0
 40
0.0
 41
0.5670000000000001
 50
0.0
 71
     0
 42
0.2
  3
simplex.shx
  4

  0
STYLE
  5
85
330
3
100
AcDbSymbolTableRecord
100
AcDbTextStyleTableRecord
  2
CONVERTER_14
 70
     0
 40
0.0
 41
0.5985000000000001
 50
0.0
 71
     0
 42
0.2
  3
simplex.shx
  4

  0
ENDTAB
  0
TABLE
  2
VIEW
  5
6
330
0
100
AcDbSymbolTable
 70
     0
  0
ENDTAB
  0
TABLE
  2
UCS
  5
7
330
0
100
AcDbSymbolTable
 70
     0
  0
ENDTAB
  0
TABLE
  2
APPID
  5
9
330
0
100
AcDbSymbolTable
 70
     8
  0
APPID
  5
5E
330
9
100
AcDbSymbolTableRecord
100
AcDbRegAppTableRecord
  2
ACAD
 70
     0
  0
APPID
  5
66
330
9
100
AcDbSymbolTableRecord
100
AcDbRegAppTableRecord
  2
AcadAnnotative
 70
     0
  0
APPID
  5
70
330
9
100
AcDbSymbolTableRecord
100
AcDbRegAppTableRecord
  2
ACAD_MLEADERVER
 70
     0
  0
APPID
  5
7D
330
9
100
AcDbSymbolTableRecord
100
AcDbRegAppTableRecord
  2
ACAD_PSEXT
 70
     0
  0
APPID
  5
99
330
9
100
AcDbSymbolTableRecord
100
AcDbRegAppTableRecord
  2
ACAD_DSTYLE_DIMBREAK
 70
     0
  0
APPID
  5
9A
330
9
100
AcDbSymbolTableRecord
100
AcDbRegAppTableRecord
  2
ACAD_DSTYLE_DIMJAG
 70
     0
  0
APPID
  5
9B
330
9
100
AcDbSymbolTableRecord
100
AcDbRegAppTableRecord
  2
ACAD_DSTYLE_DIMTALN
 70
     0
  0
APPID
  5
B3
330
9
100
AcDbSymbolTableRecord
100
AcDbRegAppTableRecord
  2
AcAecLayerStandard
 70
     0
  0
ENDTAB
  0
TABLE
  2
DIMSTYLE
  5
A
330
0
100
AcDbSymbolTable
 70
    13
100
AcDbDimStyleTable
 71
     1
340
91
  0
DIMSTYLE
105
60
330
A
100
AcDbSymbolTableRecord
100
AcDbDimStyleTableRecord
  2
Standard
 70
     0
340
5D
  0
DIMSTYLE
105
61
330
A
100
AcDbSymbolTableRecord
100
AcDbDimStyleTableRecord
  2
Annotative
 70
     0
340
5D
1001
AcadAnnotative
1000
AnnotativeData
1002
{
1070
     1
1070
     1
1002
}
  0
DIMSTYLE
105
91
330
A
100
AcDbSymbolTableRecord
100
AcDbDimStyleTableRecord
  2
ATOM
 70
     0
 40
0.0
 41
2.0
 42
2.0
 43
7.0
 44
1.0
 47
0.1
 48
0.1
 73
     0
 74
     0
 77
     1
 78
     8
140
3.0
141
-2.5
143
0.03937007874016
146
0.4999999999999997
147
0.625
171
     3
172
     1
178
     3
271
     2
272
     2
274
     3
276
     2
279
     1
283
     0
284
     8
289
     0
340
7F
341
93
342
93
1001
ACAD_DSTYLE_DIMBREAK
1070
   391
1040
3.75
1001
AcadAnnotative
1000
AnnotativeData
1002
{
1070
     1
1070
     1
1002
}
1001
ACAD_DSTYLE_DIMJAG
1070
   388
1040
1.5
1001
ACAD_DSTYLE_DIMTALN
1070
   392
1070
     0
  0
DIMSTYLE
105
9C
102
{ACAD_REACTORS
330
3F5
102
}
330
A
100
AcDbSymbolTableRecord
100
AcDbDimStyleTableRecord
  2
ME10_DIM_10
 70
     0
 41
2.45
 42
1.0
 44
1.0
 73
     0
 74
     0
 77
     1
 78
     8
140
3.5
147
1.0
172
     1
173
     1
176
     2
177
     2
178
     3
271
     2
340
85
343
93
344
93
  0
DIMSTYLE
105
9E
102
{ACAD_REACTORS
330
403
102
}
330
A
100
AcDbSymbolTableRecord
100
AcDbDimStyleTableRecord
  2
ME10_DIM_11
 70
     0
 41
2.45
 42
1.0
 44
1.0
 73
     0
 74
     0
 77
     1
 78
     8
140
3.5
147
1.0
172
     1
173
     1
176
     2
177
     2
178
     3
271
     2
340
85
343
93
344
93
  0
DIMSTYLE
105
9F
102
{ACAD_REACTORS
330
411
102
}
330
A
100
AcDbSymbolTableRecord
100
AcDbDimStyleTableRecord
  2
ME10_DIM_12
 70
     0
 41
2.45
 42
1.0
 44
1.0
 73
     0
 74
     0
 77
     1
 78
     8
140
3.5
147
1.0
172
     1
173
     1
176
     2
177
     2
178
     3
271
     2
340
85
343
93
344
93
  0
DIMSTYLE
105
A0
102
{ACAD_REACTORS
330
41F
102
}
330
A
100
AcDbSymbolTableRecord
100
AcDbDimStyleTableRecord
  2
ME10_DIM_13
 70
     0
 41
2.45
 42
1.0
 44
1.0
 73
     0
 74
     0
 77
     1
 78
     8
140
3.5
147
1.0
172
     1
173
     1
176
     2
177
     2
178
     3
271
     2
340
82
343
93
344
93
  0
DIMSTYLE
105
A2
102
{ACAD_REACTORS
330
42E
102
}
330
A
100
AcDbSymbolTableRecord
100
AcDbDimStyleTableRecord
  2
ME10_DIM_14
 70
     0
 41
2.45
 42
1.0
 44
1.0
 73
     0
 74
     0
 77
     1
 78
     8
140
3.5
147
1.0
172
     1
173
     1
176
     2
177
     2
178
     3
271
     2
340
85
343
93
344
93
  0
DIMSTYLE
105
A3
102
{ACAD_REACTORS
330
43C
102
}
330
A
100
AcDbSymbolTableRecord
100
AcDbDimStyleTableRecord
  2
ME10_DIM_15
 70
     0
 41
2.45
 42
1.0
 44
1.0
 73
     0
 74
     0
 77
     1
 78
     8
140
3.5
147
1.0
172
     1
173
     1
176
     2
177
     2
178
     3
271
     2
340
85
343
93
344
93
  0
DIMSTYLE
105
A4
102
{ACAD_REACTORS
330
44A
102
}
330
A
100
AcDbSymbolTableRecord
100
AcDbDimStyleTableRecord
  2
ME10_DIM_16
 70
     0
 41
2.45
 42
1.0
 44
1.0
 73
     0
 74
     0
 77
     1
 78
     8
140
3.5
147
1.0
172
     1
173
     1
176
     2
177
     2
178
     3
271
     2
340
85
343
93
344
93
  0
DIMSTYLE
105
A5
102
{ACAD_REACTORS
330
45A
102
}
330
A
100
AcDbSymbolTableRecord
100
AcDbDimStyleTableRecord
  2
ME10_DIM_17
 70
     0
 41
2.45
 42
1.0
 44
1.0
 73
     0
 74
     0
 77
     1
 78
     8
140
3.5
147
1.0
172
     1
173
     1
176
     2
177
     2
178
     3
271
     2
340
85
343
93
344
A6
  0
DIMSTYLE
105
A9
102
{ACAD_REACTORS
330
467
102
}
330
A
100
AcDbSymbolTableRecord
100
AcDbDimStyleTableRecord
  2
ME10_DIM_18
 70
     0
 41
2.45
 42
1.0
 44
1.0
 73
     0
 74
     0
 77
     1
 78
     8
140
3.5
147
1.0
172
     1
173
     1
176
     2
177
     2
178
     3
271
     2
340
85
343
93
344
93
  0
DIMSTYLE
105
AA
102
{ACAD_REACTORS
330
475
102
}
330
A
100
AcDbSymbolTableRecord
100
AcDbDimStyleTableRecord
  2
ME10_DIM_19
 70
     0
 41
2.45
 42
1.0
 44
1.0
 73
     0
 74
     0
 77
     1
 78
     8
140
3.5
147
1.0
172
     1
173
     1
176
     2
177
     2
178
     3
271
     2
340
85
343
93
344
93
  0
ENDTAB
  0
TABLE
  2
BLOCK_RECORD
  5
1
330
0
100
AcDbSymbolTable
 70
    30
  0
BLOCK_RECORD
  5
75
102
{ACAD_XDICTIONARY
360
639
102
}
330
1
100
AcDbSymbolTableRecord
100
AcDbBlockTableRecord
  2
*Model_Space
340
78
  0
BLOCK_RECORD
  5
71
330
1
100
AcDbSymbolTableRecord
100
AcDbBlockTableRecord
  2
*Paper_Space
340
74
  0
BLOCK_RECORD
  5
79
330
1
100
AcDbSymbolTableRecord
100
AcDbBlockTableRecord
  2
*Paper_Space0
340
7C
  0
BLOCK_RECORD
  5
93
330
1
100
AcDbSymbolTableRecord
100
AcDbBlockTableRecord
  2
_Open30
340
0
310
2800000020000000200000000100080000000000000400000000000000000000000000000000000000000000000080000080000000808000800000008000800080800000C0C0C000C0DCC000F0CAA6000020400000206000002080000020A0000020C0000020E00000400000004020000040400000406000004080000040A0
310
000040C0000040E00000600000006020000060400000606000006080000060A0000060C0000060E00000800000008020000080400000806000008080000080A0000080C0000080E00000A0000000A0200000A0400000A0600000A0800000A0A00000A0C00000A0E00000C0000000C0200000C0400000C0600000C0800000C0
310
A00000C0C00000C0E00000E0000000E0200000E0400000E0600000E0800000E0A00000E0C00000E0E00040000000400020004000400040006000400080004000A0004000C0004000E00040200000402020004020400040206000402080004020A0004020C0004020E000404000004040200040404000404060004040800040
310
40A0004040C0004040E00040600000406020004060400040606000406080004060A0004060C0004060E00040800000408020004080400040806000408080004080A0004080C0004080E00040A0000040A0200040A0400040A0600040A0800040A0A00040A0C00040A0E00040C0000040C0200040C0400040C0600040C08000
310
40C0A00040C0C00040C0E00040E0000040E0200040E0400040E0600040E0800040E0A00040E0C00040E0E00080000000800020008000400080006000800080008000A0008000C0008000E00080200000802020008020400080206000802080008020A0008020C0008020E00080400000804020008040400080406000804080
310
008040A0008040C0008040E00080600000806020008060400080606000806080008060A0008060C0008060E00080800000808020008080400080806000808080008080A0008080C0008080E00080A0000080A0200080A0400080A0600080A0800080A0A00080A0C00080A0E00080C0000080C0200080C0400080C0600080C0
310
800080C0A00080C0C00080C0E00080E0000080E0200080E0400080E0600080E0800080E0A00080E0C00080E0E000C0000000C0002000C0004000C0006000C0008000C000A000C000C000C000E000C0200000C0202000C0204000C0206000C0208000C020A000C020C000C020E000C0400000C0402000C0404000C0406000C0
310
408000C040A000C040C000C040E000C0600000C0602000C0604000C0606000C0608000C060A000C060C000C060E000C0800000C0802000C0804000C0806000C0808000C080A000C080C000C080E000C0A00000C0A02000C0A04000C0A06000C0A08000C0A0A000C0A0C000C0A0E000C0C00000C0C02000C0C04000C0C06000
310
C0C08000C0C0A000F0FBFF00A4A0A000808080000000FF0000FF000000FFFF00FF000000FF00FF00FFFF0000FFFFFF0000000000000000000000000000000000000000000000000000000000000000000000000000000000000000000000000000000000000000000000000000000000000000000000000000000000000000
310
00000000000000000000000000000000000000000000000000000000000000000000000000000000000000000000000000000000000000000000000000000000000000000000000000000000000000000000000000000000000000000000000000000000000000000000000000000000000000000000000000000000000000
310
000000000000000000000000000000000000000000000000000000000000000000000000000000000000000000000000000000FFFF0000000000000000000000000000000000000000000000000000000000000000FFFFFFFF0000000000000000000000000000000000000000000000000000000000000000FFFFFFFF0000
310
000000000000000000000000000000000000000000000000000000000000FFFFFF0000000000000000000000000000000000000000000000000000000000000000FFFFFFFF0000000000000000000000000000000000000000000000000000000000000000FFFFFF0000000000000000000000000000000000000000000000
310
000000000000000000FFFFFFFF0000000000000000000000000000000000000000000000000000000000000000FFFFFFFF00000000FFFFFFFFFFFFFFFFFFFFFFFFFFFFFFFFFFFFFFFFFFFFFFFFFFFFFFFFFFFF00000000000000000000000000000000000000000000000000FFFFFFFF000000000000000000000000000000
310
000000000000000000FFFFFFFF000000000000000000000000000000000000000000000000FFFFFFFF000000000000000000000000000000000000000000000000FFFFFFFF000000000000000000000000000000000000000000000000FFFFFFFF000000000000000000000000000000000000000000000000FFFFFFFF0000
310
0000000000000000000000000000000000000000000000FFFFFF0000000000000000000000000000000000000000000000000000000000000000000000000000000000000000000000000000000000000000000000000000000000000000000000000000000000000000000000000000000000000000000000000000000000
310
00000000000000000000000000000000000000000000000000000000000000000000000000000000000000000000000000000000000000000000000000000000000000000000000000000000000000000000000000000000000000000000000000000000000000000000000000000000000000000000000000000000000000
310
0000000000000000000000000000000000000000000000000000000000000000000000000000000000000000000000000000000000000000
102
{BLKREFS
331
3FC
331
3FD
331
40A
331
40B
331
418
331
419
331
427
331
428
331
435
331
436
331
443
331
444
331
453
331
454
331
461
331
46E
331
46F
331
47C
331
47D
331
641
331
642
331
64B
331
64C
331
655
331
656
331
660
331
661
331
66A
331
66B
331
674
331
675
331
680
331
681
331
68A
331
693
331
694
331
69D
331
69E
102
}
  0
BLOCK_RECORD
  5
A6
330
1
100
AcDbSymbolTableRecord
100
AcDbBlockTableRecord
  2
_None
340
0
  0
BLOCK_RECORD
  5
29F
330
1
100
AcDbSymbolTableRecord
100
AcDbBlockTableRecord
  2
Top__1
340
0
102
{BLKREFS
331
29E
102
}
  0
BLOCK_RECORD
  5
2D3
330
1
100
AcDbSymbolTableRecord
100
AcDbBlockTableRecord
  2
_5__2
340
0
102
{BLKREFS
331
2D2
102
}
  0
BLOCK_RECORD
  5
2D0
330
1
100
AcDbSymbolTableRecord
100
AcDbBlockTableRecord
  2
Top__3
340
0
102
{BLKREFS
331
2CF
102
}
  0
BLOCK_RECORD
  5
3A4
330
1
100
AcDbSymbolTableRecord
100
AcDbBlockTableRecord
  2
_4
340
0
102
{BLKREFS
331
3A3
102
}
  0
BLOCK_RECORD
  5
3AA
330
1
100
AcDbSymbolTableRecord
100
AcDbBlockTableRecord
  2
_5__4
340
0
102
{BLKREFS
331
3A9
102
}
  0
BLOCK_RECORD
  5
3B3
330
1
100
AcDbSymbolTableRecord
100
AcDbBlockTableRecord
  2
_6
340
0
102
{BLKREFS
331
3B2
102
}
  0
BLOCK_RECORD
  5
3A1
330
1
100
AcDbSymbolTableRecord
100
AcDbBlockTableRecord
  2
Top__5
340
0
102
{BLKREFS
331
3A0
102
}
  0
BLOCK_RECORD
  5
483
330
1
100
AcDbSymbolTableRecord
100
AcDbBlockTableRecord
  2
*D20
340
0
  0
BLOCK_RECORD
  5
490
330
1
100
AcDbSymbolTableRecord
100
AcDbBlockTableRecord
  2
*D21
340
0
  0
BLOCK_RECORD
  5
49D
330
1
100
AcDbSymbolTableRecord
100
AcDbBlockTableRecord
  2
*D22
340
0
  0
BLOCK_RECORD
  5
4AA
330
1
100
AcDbSymbolTableRecord
100
AcDbBlockTableRecord
  2
*D23
340
0
  0
BLOCK_RECORD
  5
4B8
330
1
100
AcDbSymbolTableRecord
100
AcDbBlockTableRecord
  2
*D24
340
0
  0
BLOCK_RECORD
  5
4C5
330
1
100
AcDbSymbolTableRecord
100
AcDbBlockTableRecord
  2
*D25
340
0
  0
BLOCK_RECORD
  5
4D2
330
1
100
AcDbSymbolTableRecord
100
AcDbBlockTableRecord
  2
*D26
340
0
  0
BLOCK_RECORD
  5
4E1
330
1
100
AcDbSymbolTableRecord
100
AcDbBlockTableRecord
  2
*D27
340
0
  0
BLOCK_RECORD
  5
4ED
330
1
100
AcDbSymbolTableRecord
100
AcDbBlockTableRecord
  2
*D28
340
0
  0
BLOCK_RECORD
  5
4FA
330
1
100
AcDbSymbolTableRecord
100
AcDbBlockTableRecord
  2
*D29
340
0
  0
ENDTAB
  0
ENDSEC
  0
SECTION
  2
BLOCKS
  0
BLOCK
  5
76
330
75
100
AcDbEntity
  8
0
100
AcDbBlockBegin
  2
*Model_Space
 70
     0
 10
0.0
 20
0.0
 30
0.0
  3
*Model_Space
  1

  0
ENDBLK
  5
77
330
75
100
AcDbEntity
  8
0
100
AcDbBlockEnd
  0
BLOCK
  5
72
330
71
100
AcDbEntity
 67
     1
  8
0
100
AcDbBlockBegin
  2
*Paper_Space
 70
     0
 10
0.0
 20
0.0
 30
0.0
  3
*Paper_Space
  1

  0
ENDBLK
  5
73
330
71
100
AcDbEntity
 67
     1
  8
0
100
AcDbBlockEnd
  0
BLOCK
  5
7A
330
79
100
AcDbEntity
 67
     1
  8
0
100
AcDbBlockBegin
  2
*Paper_Space0
 70
     0
 10
0.0
 20
0.0
 30
0.0
  3
*Paper_Space0
  1

  0
ENDBLK
  5
7B
330
79
100
AcDbEntity
 67
     1
  8
0
100
AcDbBlockEnd
  0
BLOCK
  5
94
330
93
100
AcDbEntity
  8
0
100
AcDbBlockBegin
  2
_Open30
 70
     0
 10
0.0
 20
0.0
 30
0.0
  3
_Open30
  1

  0
LINE
  5
95
330
93
100
AcDbEntity
  8
0
  6
ByBlock
 62
     0
370
    -2
100
AcDbLine
 10
-1.0
 20
0.26794919
 30
0.0
 11
0.0
 21
0.0
 31
0.0
  0
LINE
  5
96
330
93
100
AcDbEntity
  8
0
  6
ByBlock
 62
     0
370
    -2
100
AcDbLine
 10
0.0
 20
0.0
 30
0.0
 11
-1.0
 21
-0.26794919
 31
0.0
  0
LINE
  5
97
330
93
100
AcDbEntity
  8
0
  6
ByBlock
 62
     0
370
    -2
100
AcDbLine
 10
0.0
 20
0.0
 30
0.0
 11
-1.0
 21
0.0
 31
0.0
  0
ENDBLK
  5
98
330
93
100
AcDbEntity
  8
0
100
AcDbBlockEnd
  0
BLOCK
  5
A7
330
A6
100
AcDbEntity
  8
0
100
AcDbBlockBegin
  2
_None
 70
     0
 10
0.0
 20
0.0
 30
0.0
  3
_None
  1

  0
ENDBLK
  5
A8
330
A6
100
AcDbEntity
  8
0
100
AcDbBlockEnd
  0
BLOCK
  5
2A0
330
29F
100
AcDbEntity
  8
0
100
AcDbBlockBegin
  2
Top__1
 70
     0
 10
-179.537207921306
 20
-1199.83784756683
 30
0.0
  3
Top__1
  1

  0
LINE
  5
2A1
330
29F
100
AcDbEntity
  8
1
  6
PHANTOM_NEW
 62
     7
100
AcDbLine
 10
198.8
 20
-367.6700548394251
 30
0.0
 11
213.0
 21
-367.6700548394251
 31
0.0
  0
LINE
  5
2A2
330
29F
100
AcDbEntity
  8
1
  6
PHANTOM_NEW
 62
     7
100
AcDbLine
 10
198.8
 20
-365.1700548394251
 30
0.0
 11
210.0
 21
-365.1700548394251
 31
0.0
  0
LINE
  5
2A3
330
29F
100
AcDbEntity
  8
1
  6
PHANTOM_NEW
 62
     7
100
AcDbLine
 10
198.5
 20
-365.4700548394251
 30
0.0
 11
198.5
 21
-367.3700548394252
 31
0.0
  0
LINE
  5
2A4
330
29F
100
AcDbEntity
  8
1
  6
PHANTOM_NEW
 62
     7
100
AcDbLine
 10
186.5
 20
-365.4700548394251
 30
0.0
 11
186.5
 21
-367.3700548394252
 31
0.0
  0
LINE
  5
2A5
330
29F
100
AcDbEntity
  8
1
  6
PHANTOM_NEW
 62
     7
100
AcDbLine
 10
192.5
 20
-341.8700548394252
 30
0.0
 11
192.8
 21
-342.1700548394251
 31
0.0
  0
LINE
  5
2A6
330
29F
100
AcDbEntity
  8
1
  6
PHANTOM_NEW
 62
     7
100
AcDbLine
 10
192.2000000000001
 20
-342.1700548394251
 30
0.0
 11
173.8
 21
-342.1700548394251
 31
0.0
  0
LINE
  5
2A7
330
29F
100
AcDbEntity
  8
1
  6
CENTER_NEW
 62
     3
100
AcDbLine
 10
192.5
 20
-341.8700548394252
 30
0.0
 11
192.5
 21
-404.2200548394251
 31
0.0
  0
LINE
  5
2A8
330
29F
100
AcDbEntity
  8
1
  6
PHANTOM_NEW
 62
     7
100
AcDbLine
 10
192.2000000000001
 20
-342.1700548394251
 30
0.0
 11
192.5
 21
-341.8700548394252
 31
0.0
  0
LINE
  5
2A9
330
29F
100
AcDbEntity
  8
1
  6
PHANTOM_NEW
 62
     7
100
AcDbLine
 10
206.5
 20
-345.8700548394252
 30
0.0
 11
206.5
 21
-346.8700548394252
 31
0.0
  0
LINE
  5
2AA
330
29F
100
AcDbEntity
  8
1
  6
PHANTOM_NEW
 62
     7
100
AcDbLine
 10
178.5
 20
-345.8700548394252
 30
0.0
 11
178.5
 21
-346.8700548394252
 31
0.0
  0
LINE
  5
2AB
330
29F
100
AcDbEntity
  8
1
  6
PHANTOM_NEW
 62
     7
100
AcDbLine
 10
173.5
 20
-347.6700548394251
 30
0.0
 11
173.5
 21
-363.6700548394251
 31
0.0
  0
LINE
  5
2AC
330
29F
100
AcDbEntity
  8
1
  6
PHANTOM_NEW
 62
     7
100
AcDbLine
 10
178.0
 20
-347.3700548394252
 30
0.0
 11
173.8
 21
-347.3700548394252
 31
0.0
  0
LINE
  5
2AD
330
29F
100
AcDbEntity
  8
1
  6
PHANTOM_NEW
 62
     7
100
AcDbLine
 10
211.2000000000001
 20
-347.3700548394252
 30
0.0
 11
207.0
 21
-347.3700548394252
 31
0.0
  0
LINE
  5
2AE
330
29F
100
AcDbEntity
  8
1
  6
PHANTOM_NEW
 62
     7
100
AcDbLine
 10
211.5
 20
-345.0700548394252
 30
0.0
 11
211.5
 21
-342.4700548394251
 31
0.0
  0
LINE
  5
2AF
330
29F
100
AcDbEntity
  8
1
  6
PHANTOM_NEW
 62
     7
100
AcDbLine
 10
207.0
 20
-345.3700548394252
 30
0.0
 11
211.2000000000001
 21
-345.3700548394252
 31
0.0
  0
LINE
  5
2B0
330
29F
100
AcDbEntity
  8
1
  6
PHANTOM_NEW
 62
     7
100
AcDbLine
 10
173.8
 20
-345.3700548394252
 30
0.0
 11
178.0
 21
-345.3700548394252
 31
0.0
  0
LINE
  5
2B1
330
29F
100
AcDbEntity
  8
1
  6
PHANTOM_NEW
 62
     3
100
AcDbLine
 10
192.5
 20
-336.2214991972581
 30
0.0
 11
192.5
 21
-341.8700548394252
 31
0.0
  0
LINE
  5
2B2
330
29F
100
AcDbEntity
  8
1
  6
PHANTOM_NEW
 62
     7
100
AcDbLine
 10
173.5
 20
-342.4700548394251
 30
0.0
 11
173.5
 21
-345.0700548394252
 31
0.0
  0
LINE
  5
2B3
330
29F
100
AcDbEntity
  8
1
  6
PHANTOM_NEW
 62
     7
100
AcDbLine
 10
211.2000000000001
 20
-342.1700548394251
 30
0.0
 11
192.8
 21
-342.1700548394251
 31
0.0
  0
LINE
  5
2B4
330
29F
100
AcDbEntity
  8
1
  6
PHANTOM_NEW
 62
     7
100
AcDbLine
 10
211.5
 20
-363.6700548394251
 30
0.0
 11
211.5
 21
-347.6700548394251
 31
0.0
  0
LINE
  5
2B5
330
29F
100
AcDbEntity
  8
1
  6
PHANTOM_NEW
 62
     7
100
AcDbLine
 10
175.0
 20
-365.1700548394251
 30
0.0
 11
186.2000000000001
 21
-365.1700548394251
 31
0.0
  0
LINE
  5
2B6
330
29F
100
AcDbEntity
  8
1
  6
PHANTOM_NEW
 62
     7
100
AcDbLine
 10
171.0
 20
-340.6700548394251
 30
0.0
 11
171.0
 21
-366.6700548394251
 31
0.0
  0
LINE
  5
2B7
330
29F
100
AcDbEntity
  8
1
  6
PHANTOM_NEW
 62
     7
100
AcDbLine
 10
213.0
 20
-339.6700548394251
 30
0.0
 11
172.0
 21
-339.6700548394251
 31
0.0
  0
LINE
  5
2B8
330
29F
100
AcDbEntity
  8
1
  6
PHANTOM_NEW
 62
     7
100
AcDbLine
 10
214.0
 20
-366.6700548394251
 30
0.0
 11
214.0
 21
-340.6700548394251
 31
0.0
  0
LINE
  5
2B9
330
29F
100
AcDbEntity
  8
1
  6
PHANTOM_NEW
 62
     7
100
AcDbLine
 10
172.0
 20
-367.6700548394251
 30
0.0
 11
186.2000000000001
 21
-367.6700548394251
 31
0.0
  0
ARC
  5
2BA
330
29F
100
AcDbEntity
  8
1
  6
PHANTOM_NEW
 62
     7
100
AcDbCircle
 10
198.8
 20
-367.3700548394252
 30
0.0
 40
0.3000000000000114
100
AcDbArc
 50
180.0
 51
-90.0
  0
ARC
  5
2BB
330
29F
100
AcDbEntity
  8
1
  6
PHANTOM_NEW
 62
     7
100
AcDbCircle
 10
198.8
 20
-365.4700548394251
 30
0.0
 40
0.2999999999999545
100
AcDbArc
 50
90.0
 51
180.0
  0
ARC
  5
2BC
330
29F
100
AcDbEntity
  8
1
  6
PHANTOM_NEW
 62
     7
100
AcDbCircle
 10
186.2000000000001
 20
-367.3700548394252
 30
0.0
 40
0.2999999999998977
100
AcDbArc
 50
-90.0
 51
0.0
  0
ARC
  5
2BD
330
29F
100
AcDbEntity
  8
1
  6
PHANTOM_NEW
 62
     7
100
AcDbCircle
 10
186.2000000000001
 20
-365.4700548394251
 30
0.0
 40
0.2999999999998977
100
AcDbArc
 50
0.0
 51
90.0
  0
ARC
  5
2BE
330
29F
100
AcDbEntity
  8
1
  6
PHANTOM_NEW
 62
     7
100
AcDbCircle
 10
211.2000000000001
 20
-347.6700548394251
 30
0.0
 40
0.2999999999998977
100
AcDbArc
 50
0.0
 51
90.0
  0
ARC
  5
2BF
330
29F
100
AcDbEntity
  8
1
  6
PHANTOM_NEW
 62
     7
100
AcDbCircle
 10
173.8
 20
-347.6700548394251
 30
0.0
 40
0.2999999999998977
100
AcDbArc
 50
90.0
 51
180.0
  0
ARC
  5
2C0
330
29F
100
AcDbEntity
  8
1
  6
PHANTOM_NEW
 62
     7
100
AcDbCircle
 10
211.2000000000001
 20
-345.0700548394252
 30
0.0
 40
0.3000000000000114
100
AcDbArc
 50
-90.0
 51
0.0
  0
ARC
  5
2C1
330
29F
100
AcDbEntity
  8
1
  6
PHANTOM_NEW
 62
     7
100
AcDbCircle
 10
173.8
 20
-345.0700548394252
 30
0.0
 40
0.3000000000000114
100
AcDbArc
 50
180.0
 51
-90.0
  0
ARC
  5
2C2
330
29F
100
AcDbEntity
  8
1
  6
PHANTOM_NEW
 62
     7
100
AcDbCircle
 10
207.0
 20
-346.8700548394252
 30
0.0
 40
0.5
100
AcDbArc
 50
180.0
 51
-90.0
  0
ARC
  5
2C3
330
29F
100
AcDbEntity
  8
1
  6
PHANTOM_NEW
 62
     7
100
AcDbCircle
 10
207.0
 20
-345.8700548394252
 30
0.0
 40
0.5
100
AcDbArc
 50
90.0
 51
180.0
  0
ARC
  5
2C4
330
29F
100
AcDbEntity
  8
1
  6
PHANTOM_NEW
 62
     7
100
AcDbCircle
 10
178.0
 20
-346.8700548394252
 30
0.0
 40
0.5
100
AcDbArc
 50
-90.0
 51
0.0
  0
ARC
  5
2C5
330
29F
100
AcDbEntity
  8
1
  6
PHANTOM_NEW
 62
     7
100
AcDbCircle
 10
178.0
 20
-345.8700548394252
 30
0.0
 40
0.5
100
AcDbArc
 50
0.0
 51
90.0
  0
ARC
  5
2C6
330
29F
100
AcDbEntity
  8
1
  6
PHANTOM_NEW
 62
     7
100
AcDbCircle
 10
211.2000000000001
 20
-342.4700548394251
 30
0.0
 40
0.2999999999998977
100
AcDbArc
 50
0.0
 51
90.0
  0
ARC
  5
2C7
330
29F
100
AcDbEntity
  8
1
  6
PHANTOM_NEW
 62
     7
100
AcDbCircle
 10
173.8
 20
-342.4700548394251
 30
0.0
 40
0.2999999999999545
100
AcDbArc
 50
90.0
 51
180.0
  0
ARC
  5
2C8
330
29F
100
AcDbEntity
  8
1
  6
PHANTOM_NEW
 62
     7
100
AcDbCircle
 10
213.0
 20
-340.6700548394251
 30
0.0
 40
1.0
100
AcDbArc
 50
0.0
 51
90.0
  0
ARC
  5
2C9
330
29F
100
AcDbEntity
  8
1
  6
PHANTOM_NEW
 62
     7
100
AcDbCircle
 10
213.0
 20
-366.6700548394251
 30
0.0
 40
1.0
100
AcDbArc
 50
-90.0
 51
0.0
  0
ARC
  5
2CA
330
29F
100
AcDbEntity
  8
1
  6
PHANTOM_NEW
 62
     7
100
AcDbCircle
 10
172.0
 20
-366.6700548394251
 30
0.0
 40
1.0
100
AcDbArc
 50
180.0
 51
-90.0
  0
ARC
  5
2CB
330
29F
100
AcDbEntity
  8
1
  6
PHANTOM_NEW
 62
     7
100
AcDbCircle
 10
172.0
 20
-340.6700548394251
 30
0.0
 40
1.0
100
AcDbArc
 50
90.0
 51
180.0
  0
ARC
  5
2CC
330
29F
100
AcDbEntity
  8
1
  6
PHANTOM_NEW
 62
     7
100
AcDbCircle
 10
210.0
 20
-363.6700548394251
 30
0.0
 40
1.5
100
AcDbArc
 50
-90.0
 51
0.0
  0
ARC
  5
2CD
330
29F
100
AcDbEntity
  8
1
  6
PHANTOM_NEW
 62
     7
100
AcDbCircle
 10
175.0
 20
-363.6700548394251
 30
0.0
 40
1.5
100
AcDbArc
 50
180.0
 51
-90.0
  0
ENDBLK
  5
2CE
330
29F
100
AcDbEntity
  8
0
100
AcDbBlockEnd
  0
BLOCK
  5
2D4
330
2D3
100
AcDbEntity
  8
0
100
AcDbBlockBegin
  2
_5__2
 70
     0
 10
232.4987167268777
 20
-1046.957424348958
 30
0.0
  3
_5__2
  1

  0
LINE
  5
2D5
330
2D3
100
AcDbEntity
  8
1
  6
Continuous
 62
     7
100
AcDbLine
 10
183.6
 20
-370.6700548394251
 30
0.0
 11
201.4
 21
-370.6700548394251
 31
0.0
  0
LINE
  5
2D6
330
2D3
100
AcDbEntity
  8
1
  6
CENTER_NEW
 62
     2
100
AcDbLine
 10
192.5
 20
-404.2200548394251
 30
0.0
 11
192.5
 21
-414.1200548394251
 31
0.0
  0
LINE
  5
2D7
330
2D3
100
AcDbEntity
  8
1
  6
CENTER_NEW
 62
     2
100
AcDbLine
 10
197.45
 20
-409.1700548394251
 30
0.0
 11
187.55
 21
-409.1700548394251
 31
0.0
  0
LINE
  5
2D8
330
2D3
100
AcDbEntity
  8
1
  6
Continuous
 62
     7
100
AcDbLine
 10
183.6
 20
-370.6700548394251
 30
0.0
 11
183.6
 21
-406.2700548394251
 31
0.0
  0
LINE
  5
2D9
330
2D3
100
AcDbEntity
  8
1
  6
Continuous
 62
     7
100
AcDbLine
 10
201.4
 20
-406.2700548394251
 30
0.0
 11
201.4
 21
-370.6700548394251
 31
0.0
  0
LINE
  5
2DA
330
2D3
100
AcDbEntity
  8
1
  6
Continuous
 62
     3
100
AcDbLine
 10
192.4999999999999
 20
-375.1700548394251
 30
0.0
 11
185.6930693069306
 21
-375.1700548394251
 31
0.0
  0
LINE
  5
2DB
330
2D3
100
AcDbEntity
  8
1
  6
Continuous
 62
     3
100
AcDbLine
 10
189.6039603960394
 20
-376.3829261265538
 30
0.0
 11
189.6039603960394
 21
-379.0066885027915
 31
0.0
  0
LINE
  5
2DC
330
2D3
100
AcDbEntity
  8
1
  6
Continuous
 62
     3
100
AcDbLine
 10
190.5445544554455
 20
-379.0066885027915
 30
0.0
 11
190.5445544554455
 21
-376.3829261265538
 31
0.0
  0
LINE
  5
2DD
330
2D3
100
AcDbEntity
  8
1
  6
Continuous
 62
     3
100
AcDbLine
 10
190.7673267326733
 20
-379.1304508790291
 30
0.0
 11
190.6683168316831
 21
-379.1304508790291
 31
0.0
  0
LINE
  5
2DE
330
2D3
100
AcDbEntity
  8
1
  6
Continuous
 62
     3
100
AcDbLine
 10
190.8168316831682
 20
-379.3779756315042
 30
0.0
 11
190.8168316831682
 21
-379.1799558295242
 31
0.0
  0
LINE
  5
2DF
330
2D3
100
AcDbEntity
  8
1
  6
Continuous
 62
     3
100
AcDbLine
 10
189.3316831683168
 20
-379.3779756315042
 30
0.0
 11
190.8168316831682
 21
-379.3779756315042
 31
0.0
  0
LINE
  5
2E0
330
2D3
100
AcDbEntity
  8
1
  6
Continuous
 62
     3
100
AcDbLine
 10
189.3316831683168
 20
-379.1799558295242
 30
0.0
 11
189.3316831683168
 21
-379.3779756315042
 31
0.0
  0
LINE
  5
2E1
330
2D3
100
AcDbEntity
  8
1
  6
Continuous
 62
     3
100
AcDbLine
 10
189.4801980198018
 20
-379.1304508790291
 30
0.0
 11
189.3811881188118
 21
-379.1304508790291
 31
0.0
  0
LINE
  5
2E2
330
2D3
100
AcDbEntity
  8
1
  6
Continuous
 62
     3
100
AcDbLine
 10
190.7178217821781
 20
-376.2096587998211
 30
0.0
 11
190.7928601650452
 21
-376.2096587998211
 31
0.0
  0
LINE
  5
2E3
330
2D3
100
AcDbEntity
  8
1
  6
Continuous
 62
     3
100
AcDbLine
 10
189.3556546864397
 20
-376.2096587998211
 30
0.0
 11
189.4306930693068
 21
-376.2096587998211
 31
0.0
  0
LINE
  5
2E4
330
2D3
100
AcDbEntity
  8
1
  6
Continuous
 62
     3
100
AcDbLine
 10
191.2128712871286
 20
-376.7294607800192
 30
0.0
 11
191.1226601811009
 21
-376.4498063513331
 31
0.0
  0
LINE
  5
2E5
330
2D3
100
AcDbEntity
  8
1
  6
Continuous
 62
     3
100
AcDbLine
 10
191.4356435643563
 20
-375.9621340473459
 30
0.0
 11
191.4601387373663
 21
-376.7214844106567
 31
0.0
  0
LINE
  5
2E6
330
2D3
100
AcDbEntity
  8
1
  6
Continuous
 62
     3
100
AcDbLine
 10
188.9356435643563
 20
-376.7294607800192
 30
0.0
 11
189.025854670384
 21
-376.4498063513331
 31
0.0
  0
LINE
  5
2E7
330
2D3
100
AcDbEntity
  8
1
  6
Continuous
 62
     3
100
AcDbLine
 10
188.7128712871287
 20
-375.9621340473459
 30
0.0
 11
188.6883761141186
 21
-376.7214844106567
 31
0.0
  0
LINE
  5
2E8
330
2D3
100
AcDbEntity
  8
1
  6
Continuous
 62
     3
100
AcDbLine
 10
188.7128712871287
 20
-375.9621340473459
 30
0.0
 11
189.1831683168316
 21
-375.9621340473459
 31
0.0
  0
LINE
  5
2E9
330
2D3
100
AcDbEntity
  8
1
  6
Continuous
 62
     3
100
AcDbLine
 10
187.3383862887755
 20
-377.7968589207576
 30
0.0
 11
187.1615812570445
 21
-377.218555719759
 31
0.0
  0
LINE
  5
2EA
330
2D3
100
AcDbEntity
  8
1
  6
Continuous
 62
     3
100
AcDbLine
 10
186.5940125792414
 20
-377.8928271166528
 30
0.0
 11
187.2673735593723
 21
-377.8928271166528
 31
0.0
  0
LINE
  5
2EB
330
2D3
100
AcDbEntity
  8
1
  6
Continuous
 62
     3
100
AcDbLine
 10
186.8596803399036
 20
-376.6956266582346
 30
0.0
 11
186.6685188731757
 21
-377.3208876422348
 31
0.0
  0
LINE
  5
2EC
330
2D3
100
AcDbEntity
  8
1
  6
Continuous
 62
     3
100
AcDbLine
 10
187.4648227883861
 20
-378.2104140765813
 30
0.0
 11
187.706985704393
 21
-379.0024932845021
 31
0.0
  0
LINE
  5
2ED
330
2D3
100
AcDbEntity
  8
1
  6
Continuous
 62
     3
100
AcDbLine
 10
186.472931121238
 20
-378.140351869128
 30
0.0
 11
187.3701391491819
 21
-378.140351869128
 31
0.0
  0
LINE
  5
2EE
330
2D3
100
AcDbEntity
  8
1
  6
Continuous
 62
     3
100
AcDbLine
 10
188.5734852164557
 20
-379.0428731197126
 30
0.0
 11
187.9427212804796
 21
-376.9797372480796
 31
0.0
  0
LINE
  5
2EF
330
2D3
100
AcDbEntity
  8
1
  6
Continuous
 62
     3
100
AcDbLine
 10
188.8613861386138
 20
-379.1304508790291
 30
0.0
 11
188.6918397654611
 21
-379.1304508790291
 31
0.0
  0
LINE
  5
2F0
330
2D3
100
AcDbEntity
  8
1
  6
Continuous
 62
     3
100
AcDbLine
 10
188.9108910891088
 20
-379.3779756315042
 30
0.0
 11
188.9108910891088
 21
-379.1799558295242
 31
0.0
  0
LINE
  5
2F1
330
2D3
100
AcDbEntity
  8
1
  6
Continuous
 62
     3
100
AcDbLine
 10
187.4257425742574
 20
-379.1799558295242
 30
0.0
 11
187.4257425742574
 21
-379.3779756315042
 31
0.0
  0
LINE
  5
2F2
330
2D3
100
AcDbEntity
  8
1
  6
Continuous
 62
     3
100
AcDbLine
 10
187.6123020651888
 20
-379.1304508790291
 30
0.0
 11
187.4752475247524
 21
-379.1304508790291
 31
0.0
  0
LINE
  5
2F3
330
2D3
100
AcDbEntity
  8
1
  6
Continuous
 62
     3
100
AcDbLine
 10
185.8832204864947
 20
-379.0428731197126
 30
0.0
 11
186.4318097751651
 21
-377.2485184083924
 31
0.0
  0
LINE
  5
2F4
330
2D3
100
AcDbEntity
  8
1
  6
Continuous
 62
     3
100
AcDbLine
 10
185.6435643564356
 20
-379.1304508790291
 30
0.0
 11
185.7648659374893
 21
-379.1304508790291
 31
0.0
  0
LINE
  5
2F5
330
2D3
100
AcDbEntity
  8
1
  6
Continuous
 62
     3
100
AcDbLine
 10
186.1446202935776
 20
-379.0344826831338
 30
0.0
 11
186.4019183918348
 21
-378.192898524718
 31
0.0
  0
LINE
  5
2F6
330
2D3
100
AcDbEntity
  8
1
  6
Continuous
 62
     3
100
AcDbLine
 10
186.3366336633662
 20
-379.1304508790291
 30
0.0
 11
186.2156330229807
 21
-379.1304508790291
 31
0.0
  0
LINE
  5
2F7
330
2D3
100
AcDbEntity
  8
1
  6
Continuous
 62
     3
100
AcDbLine
 10
186.3861386138613
 20
-379.3779756315042
 30
0.0
 11
186.3861386138613
 21
-379.1799558295242
 31
0.0
  0
LINE
  5
2F8
330
2D3
100
AcDbEntity
  8
1
  6
Continuous
 62
     3
100
AcDbLine
 10
185.5940594059406
 20
-379.1799558295242
 30
0.0
 11
185.5940594059406
 21
-379.3779756315042
 31
0.0
  0
LINE
  5
2F9
330
2D3
100
AcDbEntity
  8
1
  6
Continuous
 62
     3
100
AcDbLine
 10
185.6930693069306
 20
-380.1700548394251
 30
0.0
 11
199.3069306930691
 21
-380.1700548394251
 31
0.0
  0
LINE
  5
2FA
330
2D3
100
AcDbEntity
  8
1
  6
Continuous
 62
     3
100
AcDbLine
 10
185.0
 20
-375.8631241463557
 30
0.0
 11
185.0
 21
-379.4769855324944
 31
0.0
  0
LINE
  5
2FB
330
2D3
100
AcDbEntity
  8
1
  6
Continuous
 62
     3
100
AcDbLine
 10
199.3069306930691
 20
-375.1700548394251
 30
0.0
 11
192.4999999999999
 21
-375.1700548394251
 31
0.0
  0
LINE
  5
2FC
330
2D3
100
AcDbEntity
  8
1
  6
Continuous
 62
     3
100
AcDbLine
 10
200.0
 20
-379.4769855324944
 30
0.0
 11
200.0
 21
-375.8631241463557
 31
0.0
  0
LINE
  5
2FD
330
2D3
100
AcDbEntity
  8
1
  6
Continuous
 62
     3
100
AcDbLine
 10
193.9336710449697
 20
-376.5673883242084
 30
0.0
 11
192.2884225936941
 21
-378.212636775484
 31
0.0
  0
LINE
  5
2FE
330
2D3
100
AcDbEntity
  8
1
  6
Continuous
 62
     3
100
AcDbLine
 10
192.8485071728518
 20
-378.7727213546417
 30
0.0
 11
194.4937556241274
 21
-377.1274729033661
 31
0.0
  0
LINE
  5
2FF
330
2D3
100
AcDbEntity
  8
1
  6
Continuous
 62
     3
100
AcDbLine
 10
191.4601387373663
 20
-376.7214844106567
 30
0.0
 11
191.4603960396039
 21
-376.7294607800192
 31
0.0
  0
LINE
  5
300
330
2D3
100
AcDbEntity
  8
1
  6
Continuous
 62
     3
100
AcDbLine
 10
188.6883761141186
 20
-376.7214844106567
 30
0.0
 11
188.6881188118811
 21
-376.7294607800192
 31
0.0
  0
LINE
  5
301
330
2D3
100
AcDbEntity
  8
1
  6
Continuous
 62
     3
100
AcDbLine
 10
196.8811881188119
 20
-375.9621340473459
 30
0.0
 11
195.4455445544554
 21
-375.9621340473459
 31
0.0
  0
LINE
  5
302
330
2D3
100
AcDbEntity
  8
1
  6
Continuous
 62
     3
100
AcDbLine
 10
195.4455445544554
 20
-375.9621340473459
 30
0.0
 11
195.4455445544554
 21
-376.1601538493261
 31
0.0
  0
LINE
  5
303
330
2D3
100
AcDbEntity
  8
1
  6
Continuous
 62
     3
100
AcDbLine
 10
195.4950495049504
 20
-376.2096587998211
 30
0.0
 11
195.6188118811881
 21
-376.2096587998211
 31
0.0
  0
LINE
  5
304
330
2D3
100
AcDbEntity
  8
1
  6
Continuous
 62
     3
100
AcDbLine
 10
195.6930693069307
 20
-376.2839162255638
 30
0.0
 11
195.6930693069307
 21
-379.0561934532865
 31
0.0
  0
LINE
  5
305
330
2D3
100
AcDbEntity
  8
1
  6
Continuous
 62
     3
100
AcDbLine
 10
195.6188118811881
 20
-379.1304508790291
 30
0.0
 11
195.4950495049504
 21
-379.1304508790291
 31
0.0
  0
LINE
  5
306
330
2D3
100
AcDbEntity
  8
1
  6
Continuous
 62
     3
100
AcDbLine
 10
195.4455445544554
 20
-379.1799558295242
 30
0.0
 11
195.4455445544554
 21
-379.3779756315042
 31
0.0
  0
LINE
  5
307
330
2D3
100
AcDbEntity
  8
1
  6
Continuous
 62
     3
100
AcDbLine
 10
195.4455445544554
 20
-379.3779756315042
 30
0.0
 11
196.138613861386
 21
-379.3779756315042
 31
0.0
  0
LINE
  5
308
330
2D3
100
AcDbEntity
  8
1
  6
Continuous
 62
     3
100
AcDbLine
 10
196.138613861386
 20
-379.3779756315042
 30
0.0
 11
196.138613861386
 21
-379.1799558295242
 31
0.0
  0
LINE
  5
309
330
2D3
100
AcDbEntity
  8
1
  6
Continuous
 62
     3
100
AcDbLine
 10
196.089108910891
 20
-379.1304508790291
 30
0.0
 11
196.0148514851484
 21
-379.1304508790291
 31
0.0
  0
LINE
  5
30A
330
2D3
100
AcDbEntity
  8
1
  6
Continuous
 62
     3
100
AcDbLine
 10
197.8217821782177
 20
-375.9621340473459
 30
0.0
 11
197.6224972460256
 21
-376.7058755394702
 31
0.0
  0
LINE
  5
30B
330
2D3
100
AcDbEntity
  8
1
  6
Continuous
 62
     3
100
AcDbLine
 10
197.2797579831962
 20
-377.4496170315946
 30
0.0
 11
197.080473051004
 21
-376.7058755394702
 31
0.0
  0
LINE
  5
30C
330
2D3
100
AcDbEntity
  8
1
  6
Continuous
 62
     3
100
AcDbLine
 10
195.9405940594058
 20
-376.2674618697685
 30
0.0
 11
195.9405940594058
 21
-379.0561934532865
 31
0.0
  0
LINE
  5
30D
330
2D3
100
AcDbEntity
  8
1
  6
Continuous
 62
     3
100
AcDbLine
 10
197.9975797653745
 20
-376.2624107244754
 30
0.0
 11
197.8615877970871
 21
-376.7699396595451
 31
0.0
  0
LINE
  5
30E
330
2D3
100
AcDbEntity
  8
1
  6
Continuous
 62
     3
100
AcDbLine
 10
198.1435643564356
 20
-379.0066885027915
 30
0.0
 11
198.1435643564356
 21
-376.281629960498
 31
0.0
  0
LINE
  5
30F
330
2D3
100
AcDbEntity
  8
1
  6
Continuous
 62
     3
100
AcDbLine
 10
197.1627666645694
 20
-379.3779756315042
 30
0.0
 11
196.9251880797413
 21
-379.3779756315042
 31
0.0
  0
LINE
  5
310
330
2D3
100
AcDbEntity
  8
1
  6
Continuous
 62
     3
100
AcDbLine
 10
196.9251880797413
 20
-379.3779756315042
 30
0.0
 11
196.2675651773944
 21
-376.9236935477248
 31
0.0
  0
LINE
  5
311
330
2D3
100
AcDbEntity
  8
1
  6
Continuous
 62
     3
100
AcDbLine
 10
189.1831683168316
 20
-375.9621340473459
 30
0.0
 11
190.9653465346534
 21
-375.9621340473459
 31
0.0
  0
LINE
  5
312
330
2D3
100
AcDbEntity
  8
1
  6
Continuous
 62
     3
100
AcDbLine
 10
190.9653465346534
 20
-375.9621340473459
 30
0.0
 11
191.4356435643563
 21
-375.9621340473459
 31
0.0
  0
LINE
  5
313
330
2D3
100
AcDbEntity
  8
1
  6
Continuous
 62
     3
100
AcDbLine
 10
186.8250969424856
 20
-375.9621340473459
 30
0.0
 11
187.6316087604648
 21
-375.9621340473459
 31
0.0
  0
LINE
  5
314
330
2D3
100
AcDbEntity
  8
1
  6
Continuous
 62
     3
100
AcDbLine
 10
197.8217821782177
 20
-375.9621340473459
 30
0.0
 11
199.2574257425742
 21
-375.9621340473459
 31
0.0
  0
LINE
  5
315
330
2D3
100
AcDbEntity
  8
1
  6
Continuous
 62
     3
100
AcDbLine
 10
199.2574257425742
 20
-375.9621340473459
 30
0.0
 11
199.2574257425742
 21
-376.1601538493261
 31
0.0
  0
LINE
  5
316
330
2D3
100
AcDbEntity
  8
1
  6
Continuous
 62
     3
100
AcDbLine
 10
199.2079207920792
 20
-376.2096587998211
 30
0.0
 11
199.108910891089
 21
-376.2096587998211
 31
0.0
  0
LINE
  5
317
330
2D3
100
AcDbEntity
  8
1
  6
Continuous
 62
     3
100
AcDbLine
 10
198.9851485148514
 20
-376.3334211760588
 30
0.0
 11
198.9851485148514
 21
-379.0066885027915
 31
0.0
  0
LINE
  5
318
330
2D3
100
AcDbEntity
  8
1
  6
Continuous
 62
     3
100
AcDbLine
 10
199.108910891089
 20
-379.1304508790291
 30
0.0
 11
199.2079207920792
 21
-379.1304508790291
 31
0.0
  0
LINE
  5
319
330
2D3
100
AcDbEntity
  8
1
  6
Continuous
 62
     3
100
AcDbLine
 10
199.2574257425742
 20
-379.1799558295242
 30
0.0
 11
199.2574257425742
 21
-379.3779756315042
 31
0.0
  0
LINE
  5
31A
330
2D3
100
AcDbEntity
  8
1
  6
Continuous
 62
     3
100
AcDbLine
 10
199.2574257425742
 20
-379.3779756315042
 30
0.0
 11
197.8712871287127
 21
-379.3779756315042
 31
0.0
  0
LINE
  5
31B
330
2D3
100
AcDbEntity
  8
1
  6
Continuous
 62
     3
100
AcDbLine
 10
197.8712871287127
 20
-379.3779756315042
 30
0.0
 11
197.8712871287127
 21
-379.1799558295242
 31
0.0
  0
LINE
  5
31C
330
2D3
100
AcDbEntity
  8
1
  6
Continuous
 62
     3
100
AcDbLine
 10
197.9207920792078
 20
-379.1304508790291
 30
0.0
 11
198.0198019801979
 21
-379.1304508790291
 31
0.0
  0
LINE
  5
31D
330
2D3
100
AcDbEntity
  8
1
  6
Continuous
 62
     3
100
AcDbLine
 10
186.3861386138613
 20
-379.3779756315042
 30
0.0
 11
185.5940594059406
 21
-379.3779756315042
 31
0.0
  0
LINE
  5
31E
330
2D3
100
AcDbEntity
  8
1
  6
Continuous
 62
     3
100
AcDbLine
 10
188.9108910891088
 20
-379.3779756315042
 30
0.0
 11
187.4257425742574
 21
-379.3779756315042
 31
0.0
  0
LINE
  5
31F
330
2D3
100
AcDbEntity
  8
1
  6
Continuous
 62
     3
100
AcDbLine
 10
187.1615812570445
 20
-377.218555719759
 30
0.0
 11
187.0017057987101
 21
-376.6956266582346
 31
0.0
  0
LINE
  5
320
330
2D3
100
AcDbEntity
  8
1
  6
Continuous
 62
     3
100
AcDbLine
 10
187.9427212804796
 20
-376.9797372480796
 30
0.0
 11
187.6316087604648
 21
-375.9621340473459
 31
0.0
  0
LINE
  5
321
330
2D3
100
AcDbEntity
  8
1
  6
Continuous
 62
     3
100
AcDbLine
 10
186.6685188731757
 20
-377.3208876422348
 30
0.0
 11
186.5229998498382
 21
-377.7968589207576
 31
0.0
  0
LINE
  5
322
330
2D3
100
AcDbEntity
  8
1
  6
Continuous
 62
     3
100
AcDbLine
 10
186.4318097751651
 20
-377.2485184083924
 30
0.0
 11
186.8250969424856
 21
-375.9621340473459
 31
0.0
  0
LINE
  5
323
330
2D3
100
AcDbEntity
  8
1
  6
Continuous
 62
     3
100
AcDbLine
 10
197.080473051004
 20
-376.7058755394702
 30
0.0
 11
196.8811881188119
 21
-375.9621340473459
 31
0.0
  0
LINE
  5
324
330
2D3
100
AcDbEntity
  8
1
  6
Continuous
 62
     3
100
AcDbLine
 10
196.2675651773944
 20
-376.9236935477248
 30
0.0
 11
196.086578650467
 21
-376.248242633746
 31
0.0
  0
LINE
  5
325
330
2D3
100
AcDbEntity
  8
1
  6
Continuous
 62
     3
100
AcDbLine
 10
197.6224972460256
 20
-376.7058755394702
 30
0.0
 11
197.4232123138332
 21
-377.4496170315946
 31
0.0
  0
LINE
  5
326
330
2D3
100
AcDbEntity
  8
1
  6
Continuous
 62
     3
100
AcDbLine
 10
197.8615877970871
 20
-376.7699396595451
 30
0.0
 11
197.1627666645694
 21
-379.3779756315042
 31
0.0
  0
LINE
  5
327
330
2D3
100
AcDbEntity
  8
1
  6
CENTER_NEW
 62
     2
100
AcDbLine
 10
188.565331462105
 20
-385.6700548394251
 30
0.0
 11
196.434668537895
 21
-385.6700548394251
 31
0.0
  0
LINE
  5
328
330
2D3
100
AcDbEntity
  8
1
  6
CENTER_NEW
 62
     2
100
AcDbLine
 10
187.9180672140724
 20
-395.6700548394251
 30
0.0
 11
197.0819327859276
 21
-395.6700548394251
 31
0.0
  0
LINE
  5
329
330
2D3
100
AcDbEntity
  8
1
  6
Continuous
 62
     3
100
AcDbLine
 10
186.4378221735089
 20
-392.1700548394251
 30
0.0
 11
186.0048094716167
 21
-391.9200548394251
 31
0.0
  0
LINE
  5
32A
330
2D3
100
AcDbEntity
  8
1
  6
Continuous
 62
     3
100
AcDbLine
 10
187.3038475772933
 20
-392.670054839425
 30
0.0
 11
186.8708348754012
 21
-392.4200548394251
 31
0.0
  0
LINE
  5
32B
330
2D3
100
AcDbEntity
  8
1
  6
Continuous
 62
     3
100
AcDbLine
 10
198.9951905283833
 20
-391.9200548394251
 30
0.0
 11
198.5621778264911
 21
-392.1700548394251
 31
0.0
  0
LINE
  5
32C
330
2D3
100
AcDbEntity
  8
1
  6
Continuous
 62
     3
100
AcDbLine
 10
198.1291651245988
 20
-392.4200548394251
 30
0.0
 11
197.6961524227068
 21
-392.670054839425
 31
0.0
  0
LINE
  5
32D
330
2D3
100
AcDbEntity
  8
1
  6
Continuous
 62
     3
100
AcDbLine
 10
184.6
 20
-384.1700548394251
 30
0.0
 11
188.6
 21
-384.1700548394251
 31
0.0
  0
LINE
  5
32E
330
2D3
100
AcDbEntity
  8
1
  6
Continuous
 62
     3
100
AcDbLine
 10
188.6
 20
-384.1700548394251
 30
0.0
 11
188.6
 21
-384.5700548394251
 31
0.0
  0
LINE
  5
32F
330
2D3
100
AcDbEntity
  8
1
  6
Continuous
 62
     3
100
AcDbLine
 10
188.6
 20
-384.5700548394251
 30
0.0
 11
186.8
 21
-384.5700548394251
 31
0.0
  0
LINE
  5
330
330
2D3
100
AcDbEntity
  8
1
  6
Continuous
 62
     3
100
AcDbLine
 10
186.8
 20
-384.5700548394251
 30
0.0
 11
186.8
 21
-385.9700548394251
 31
0.0
  0
LINE
  5
331
330
2D3
100
AcDbEntity
  8
1
  6
Continuous
 62
     3
100
AcDbLine
 10
186.8
 20
-385.9700548394251
 30
0.0
 11
188.1
 21
-385.9700548394251
 31
0.0
  0
LINE
  5
332
330
2D3
100
AcDbEntity
  8
1
  6
Continuous
 62
     3
100
AcDbLine
 10
188.1
 20
-385.9700548394251
 30
0.0
 11
188.1
 21
-386.3700548394252
 31
0.0
  0
LINE
  5
333
330
2D3
100
AcDbEntity
  8
1
  6
Continuous
 62
     3
100
AcDbLine
 10
188.1
 20
-386.3700548394252
 30
0.0
 11
186.8
 21
-386.3700548394252
 31
0.0
  0
LINE
  5
334
330
2D3
100
AcDbEntity
  8
1
  6
Continuous
 62
     3
100
AcDbLine
 10
186.8
 20
-386.3700548394252
 30
0.0
 11
186.8
 21
-388.1700548394251
 31
0.0
  0
LINE
  5
335
330
2D3
100
AcDbEntity
  8
1
  6
Continuous
 62
     3
100
AcDbLine
 10
186.8
 20
-388.1700548394251
 30
0.0
 11
186.4
 21
-388.1700548394251
 31
0.0
  0
LINE
  5
336
330
2D3
100
AcDbEntity
  8
1
  6
Continuous
 62
     3
100
AcDbLine
 10
186.4
 20
-388.1700548394251
 30
0.0
 11
186.4
 21
-384.5700548394251
 31
0.0
  0
LINE
  5
337
330
2D3
100
AcDbEntity
  8
1
  6
Continuous
 62
     3
100
AcDbLine
 10
186.4
 20
-384.5700548394251
 30
0.0
 11
184.6
 21
-384.5700548394251
 31
0.0
  0
LINE
  5
338
330
2D3
100
AcDbEntity
  8
1
  6
Continuous
 62
     3
100
AcDbLine
 10
184.6
 20
-384.5700548394251
 30
0.0
 11
184.6
 21
-384.1700548394251
 31
0.0
  0
LINE
  5
339
330
2D3
100
AcDbEntity
  8
1
  6
Continuous
 62
     3
100
AcDbLine
 10
200.4
 20
-388.1700548394251
 30
0.0
 11
196.4
 21
-388.1700548394251
 31
0.0
  0
LINE
  5
33A
330
2D3
100
AcDbEntity
  8
1
  6
Continuous
 62
     3
100
AcDbLine
 10
200.4
 20
-387.7700548394251
 30
0.0
 11
200.4
 21
-388.1700548394251
 31
0.0
  0
LINE
  5
33B
330
2D3
100
AcDbEntity
  8
1
  6
Continuous
 62
     3
100
AcDbLine
 10
198.6
 20
-387.7700548394251
 30
0.0
 11
200.4
 21
-387.7700548394251
 31
0.0
  0
LINE
  5
33C
330
2D3
100
AcDbEntity
  8
1
  6
Continuous
 62
     3
100
AcDbLine
 10
198.6
 20
-386.3700548394252
 30
0.0
 11
198.6
 21
-387.7700548394251
 31
0.0
  0
LINE
  5
33D
330
2D3
100
AcDbEntity
  8
1
  6
Continuous
 62
     3
100
AcDbLine
 10
199.9
 20
-386.3700548394252
 30
0.0
 11
198.6
 21
-386.3700548394252
 31
0.0
  0
LINE
  5
33E
330
2D3
100
AcDbEntity
  8
1
  6
Continuous
 62
     3
100
AcDbLine
 10
199.9
 20
-385.9700548394251
 30
0.0
 11
199.9
 21
-386.3700548394252
 31
0.0
  0
LINE
  5
33F
330
2D3
100
AcDbEntity
  8
1
  6
Continuous
 62
     3
100
AcDbLine
 10
198.6
 20
-385.9700548394251
 30
0.0
 11
199.9
 21
-385.9700548394251
 31
0.0
  0
LINE
  5
340
330
2D3
100
AcDbEntity
  8
1
  6
Continuous
 62
     3
100
AcDbLine
 10
198.6
 20
-384.1700548394251
 30
0.0
 11
198.6
 21
-385.9700548394251
 31
0.0
  0
LINE
  5
341
330
2D3
100
AcDbEntity
  8
1
  6
Continuous
 62
     3
100
AcDbLine
 10
198.2
 20
-384.1700548394251
 30
0.0
 11
198.6
 21
-384.1700548394251
 31
0.0
  0
LINE
  5
342
330
2D3
100
AcDbEntity
  8
1
  6
Continuous
 62
     3
100
AcDbLine
 10
198.2
 20
-387.7700548394251
 30
0.0
 11
198.2
 21
-384.1700548394251
 31
0.0
  0
LINE
  5
343
330
2D3
100
AcDbEntity
  8
1
  6
Continuous
 62
     3
100
AcDbLine
 10
196.4
 20
-387.7700548394251
 30
0.0
 11
198.2
 21
-387.7700548394251
 31
0.0
  0
LINE
  5
344
330
2D3
100
AcDbEntity
  8
1
  6
Continuous
 62
     3
100
AcDbLine
 10
196.4
 20
-388.1700548394251
 30
0.0
 11
196.4
 21
-387.7700548394251
 31
0.0
  0
LINE
  5
345
330
2D3
100
AcDbEntity
  8
1
  6
Continuous
 62
     7
100
AcDbLine
 10
192.2
 20
-393.4200548394251
 30
0.0
 11
192.8
 21
-393.4200548394251
 31
0.0
  0
LINE
  5
346
330
2D3
100
AcDbEntity
  8
1
  6
Continuous
 62
     7
100
AcDbLine
 10
192.2
 20
-397.9200548394251
 30
0.0
 11
192.8
 21
-397.9200548394251
 31
0.0
  0
LINE
  5
347
330
2D3
100
AcDbEntity
  8
1
  6
Continuous
 62
     7
100
AcDbLine
 10
190.45
 20
-395.1700548394251
 30
0.0
 11
191.0
 21
-395.1700548394251
 31
0.0
  0
LINE
  5
348
330
2D3
100
AcDbEntity
  8
1
  6
Continuous
 62
     7
100
AcDbLine
 10
190.25
 20
-395.3700548394251
 30
0.0
 11
190.25
 21
-395.9700548394251
 31
0.0
  0
LINE
  5
349
330
2D3
100
AcDbEntity
  8
1
  6
Continuous
 62
     7
100
AcDbLine
 10
193.5
 20
-395.1700548394251
 30
0.0
 11
194.55
 21
-395.1700548394251
 31
0.0
  0
LINE
  5
34A
330
2D3
100
AcDbEntity
  8
1
  6
Continuous
 62
     7
100
AcDbLine
 10
194.75
 20
-395.3700548394251
 30
0.0
 11
194.75
 21
-395.9700548394251
 31
0.0
  0
LINE
  5
34B
330
2D3
100
AcDbEntity
  8
1
  6
Continuous
 62
     7
100
AcDbLine
 10
194.55
 20
-396.1700548394251
 30
0.0
 11
193.5
 21
-396.1700548394251
 31
0.0
  0
LINE
  5
34C
330
2D3
100
AcDbEntity
  8
1
  6
Continuous
 62
     7
100
AcDbLine
 10
191.0
 20
-396.1700548394251
 30
0.0
 11
190.45
 21
-396.1700548394251
 31
0.0
  0
LINE
  5
34D
330
2D3
100
AcDbEntity
  8
1
  6
Continuous
 62
     7
100
AcDbLine
 10
192.0
 20
-393.6200548394251
 30
0.0
 11
192.0
 21
-394.6700548394251
 31
0.0
  0
LINE
  5
34E
330
2D3
100
AcDbEntity
  8
1
  6
Continuous
 62
     7
100
AcDbLine
 10
193.0
 20
-393.6200548394251
 30
0.0
 11
193.0
 21
-394.6700548394251
 31
0.0
  0
LINE
  5
34F
330
2D3
100
AcDbEntity
  8
1
  6
Continuous
 62
     7
100
AcDbLine
 10
193.0
 20
-396.6700548394251
 30
0.0
 11
193.0
 21
-397.7200548394252
 31
0.0
  0
LINE
  5
350
330
2D3
100
AcDbEntity
  8
1
  6
Continuous
 62
     7
100
AcDbLine
 10
192.0
 20
-396.6700548394251
 30
0.0
 11
192.0
 21
-397.7200548394252
 31
0.0
  0
ARC
  5
351
330
2D3
100
AcDbEntity
  8
1
  6
Continuous
 62
     7
100
AcDbCircle
 10
192.5
 20
-406.2700548394251
 30
0.0
 40
8.900000000000005
100
AcDbArc
 50
180.0
 51
-90.0
  0
ARC
  5
352
330
2D3
100
AcDbEntity
  8
1
  6
Continuous
 62
     7
100
AcDbCircle
 10
192.5
 20
-406.2700548394251
 30
0.0
 40
8.900000000000034
100
AcDbArc
 50
-90.0
 51
0.0
  0
ARC
  5
353
330
2D3
100
AcDbEntity
  8
1
  6
Continuous
 62
     3
100
AcDbCircle
 10
192.5684648832729
 20
-378.4926790650629
 30
0.0
 40
0.3960396039603751
100
AcDbArc
 50
-134.9999999999971
 51
-44.99999999999128
  0
ARC
  5
354
330
2D3
100
AcDbEntity
  8
1
  6
Continuous
 62
     3
100
AcDbCircle
 10
191.3366336633663
 20
-376.7294607800192
 30
0.0
 40
0.123762376237579
100
AcDbArc
 50
0.0
 51
3.69522053198771
  0
ARC
  5
355
330
2D3
100
AcDbEntity
  8
1
  6
Continuous
 62
     3
100
AcDbCircle
 10
188.8118811881187
 20
-376.7294607800192
 30
0.0
 40
0.123762376237579
100
AcDbArc
 50
180.0
 51
0.0
  0
ARC
  5
356
330
2D3
100
AcDbEntity
  8
1
  6
Continuous
 62
     3
100
AcDbCircle
 10
188.8118811881187
 20
-376.7294607800192
 30
0.0
 40
0.1237623762375924
100
AcDbArc
 50
176.3047794680157
 51
180.0
  0
ARC
  5
357
330
2D3
100
AcDbEntity
  8
1
  6
Continuous
 62
     3
100
AcDbCircle
 10
191.3366336633663
 20
-376.7294607800192
 30
0.0
 40
0.1237623762377211
100
AcDbArc
 50
180.0
 51
0.0
  0
ARC
  5
358
330
2D3
100
AcDbEntity
  8
1
  6
Continuous
 62
     3
100
AcDbCircle
 10
192.5684648832729
 20
-378.4926790650629
 30
0.0
 40
0.3960396039604154
100
AcDbArc
 50
134.9999999999913
 51
-134.9999999999971
  0
ARC
  5
359
330
2D3
100
AcDbEntity
  8
1
  6
Continuous
 62
     3
100
AcDbCircle
 10
193.3910891089108
 20
-377.6700548394251
 30
0.0
 40
1.806930693069267
100
AcDbArc
 50
-135.0
 51
0.0
  0
ARC
  5
35A
330
2D3
100
AcDbEntity
  8
1
  6
Continuous
 62
     3
100
AcDbCircle
 10
194.2137133345486
 20
-376.8474306137873
 30
0.0
 40
0.396039603960335
100
AcDbArc
 50
-44.99999999999708
 51
135.0
  0
ARC
  5
35B
330
2D3
100
AcDbEntity
  8
1
  6
Continuous
 62
     3
100
AcDbCircle
 10
193.3910891089108
 20
-377.6700548394251
 30
0.0
 40
1.806930693069318
100
AcDbArc
 50
0.0
 51
-135.0
  0
ARC
  5
35C
330
2D3
100
AcDbEntity
  8
1
  6
Continuous
 62
     3
100
AcDbCircle
 10
191.5623782243611
 20
-394.1813441969647
 30
0.0
 40
6.000000000000222
100
AcDbArc
 50
157.8593474607452
 51
-165.6338009279804
  0
ARC
  5
35D
330
2D3
100
AcDbEntity
  8
1
  6
Continuous
 62
     3
100
AcDbCircle
 10
189.7464884569817
 20
-395.8376257593691
 30
0.0
 40
4.00000000000002
100
AcDbArc
 50
127.6372564872112
 51
177.5990207432309
  0
ARC
  5
35E
330
2D3
100
AcDbEntity
  8
1
  6
Continuous
 62
     3
100
AcDbCircle
 10
192.5
 20
-395.6700548394251
 30
0.0
 40
7.0
100
AcDbArc
 50
90.0
 51
150.0000000000002
  0
ARC
  5
35F
330
2D3
100
AcDbEntity
  8
1
  6
Continuous
 62
     3
100
AcDbCircle
 10
192.5
 20
-395.6700548394251
 30
0.0
 40
6.5
100
AcDbArc
 50
90.0
 51
149.9999999999998
  0
ARC
  5
360
330
2D3
100
AcDbEntity
  8
1
  6
Continuous
 62
     3
100
AcDbCircle
 10
193.4376217756389
 20
-394.1813441969647
 30
0.0
 40
5.999999999999989
100
AcDbArc
 50
-14.36619907201958
 51
22.14065253925478
  0
ARC
  5
361
330
2D3
100
AcDbEntity
  8
1
  6
Continuous
 62
     3
100
AcDbCircle
 10
195.2535115430183
 20
-395.8376257593691
 30
0.0
 40
3.99999999999965
100
AcDbArc
 50
2.400979256769149
 51
52.36274351278754
  0
ARC
  5
362
330
2D3
100
AcDbEntity
  8
1
  6
Continuous
 62
     3
100
AcDbCircle
 10
192.5
 20
-395.6700548394251
 30
0.0
 40
6.499999999999967
100
AcDbArc
 50
30.00000000000017
 51
90.0
  0
ARC
  5
363
330
2D3
100
AcDbEntity
  8
1
  6
Continuous
 62
     3
100
AcDbCircle
 10
192.5
 20
-395.6700548394251
 30
0.0
 40
7.000000000000032
100
AcDbArc
 50
29.99999999999984
 51
90.0
  0
LWPOLYLINE
  5
364
330
2D3
100
AcDbEntity
  8
1
  6
Continuous
 62
     7
100
AcDbPolyline
 90
        2
 70
     1
 43
0.0
 10
192.5
 20
-392.6700548394251
 42
1.0
 10
192.5
 20
-398.6700548394251
 42
1.0
  0
CIRCLE
  5
365
330
2D3
100
AcDbEntity
  8
1
  6
Continuous
 62
     7
100
AcDbCircle
 10
192.5
 20
-385.6700548394251
 30
0.0
 40
1.650000000000005
  0
CIRCLE
  5
366
330
2D3
100
AcDbEntity
  8
1
  6
Continuous
 62
     7
100
AcDbCircle
 10
192.5
 20
-385.6700548394251
 30
0.0
 40
2.5
  0
CIRCLE
  5
367
330
2D3
100
AcDbEntity
  8
1
  6
Continuous
 62
     7
100
AcDbCircle
 10
192.5
 20
-395.6700548394251
 30
0.0
 40
3.5
  0
CIRCLE
  5
368
330
2D3
100
AcDbEntity
  8
1
  6
Continuous
 62
     7
100
AcDbCircle
 10
192.5
 20
-409.1700548394251
 30
0.0
 40
2.25
  0
CIRCLE
  5
369
330
2D3
100
AcDbEntity
  8
1
  6
Continuous
 62
     7
100
AcDbCircle
 10
192.5
 20
-409.1700548394251
 30
0.0
 40
4.5
  0
ARC
  5
36A
330
2D3
100
AcDbEntity
  8
1
  6
Continuous
 62
     3
100
AcDbCircle
 10
190.7673267326733
 20
-379.1799558295242
 30
0.0
 40
0.0495049504949066
100
AcDbArc
 50
0.0
 51
90.0
  0
ARC
  5
36B
330
2D3
100
AcDbEntity
  8
1
  6
Continuous
 62
     3
100
AcDbCircle
 10
189.3811881188118
 20
-379.1799558295242
 30
0.0
 40
0.0495049504950771
100
AcDbArc
 50
90.0
 51
180.0
  0
ARC
  5
36C
330
2D3
100
AcDbEntity
  8
1
  6
Continuous
 62
     3
100
AcDbCircle
 10
190.6683168316831
 20
-379.0066885027915
 30
0.0
 40
0.123762376237579
100
AcDbArc
 50
180.0
 51
-90.0
  0
ARC
  5
36D
330
2D3
100
AcDbEntity
  8
1
  6
Continuous
 62
     3
100
AcDbCircle
 10
189.4801980198018
 20
-379.0066885027915
 30
0.0
 40
0.1237623762376074
100
AcDbArc
 50
-90.0
 51
0.0
  0
ARC
  5
36E
330
2D3
100
AcDbEntity
  8
1
  6
Continuous
 62
     3
100
AcDbCircle
 10
190.7178217821781
 20
-376.3829261265538
 30
0.0
 40
0.1732673267326845
100
AcDbArc
 50
90.0
 51
180.0
  0
ARC
  5
36F
330
2D3
100
AcDbEntity
  8
1
  6
Continuous
 62
     3
100
AcDbCircle
 10
189.4306930693068
 20
-376.3829261265538
 30
0.0
 40
0.1732673267325993
100
AcDbArc
 50
0.0
 51
90.0
  0
ARC
  5
370
330
2D3
100
AcDbEntity
  8
1
  6
Continuous
 62
     3
100
AcDbCircle
 10
190.7928601650452
 20
-376.5561934532865
 30
0.0
 40
0.3465346534654024
100
AcDbArc
 50
17.87869659582835
 51
90.0
  0
ARC
  5
371
330
2D3
100
AcDbEntity
  8
1
  6
Continuous
 62
     3
100
AcDbCircle
 10
189.3556546864397
 20
-376.5561934532865
 30
0.0
 40
0.346534653465369
100
AcDbArc
 50
90.0
 51
162.1213034041659
  0
ARC
  5
372
330
2D3
100
AcDbEntity
  8
1
  6
Continuous
 62
     3
100
AcDbCircle
 10
187.4752475247524
 20
-379.1799558295242
 30
0.0
 40
0.0495049504950771
100
AcDbArc
 50
90.0
 51
180.0
  0
ARC
  5
373
330
2D3
100
AcDbEntity
  8
1
  6
Continuous
 62
     3
100
AcDbCircle
 10
186.3366336633662
 20
-379.1799558295242
 30
0.0
 40
0.0495049504951055
100
AcDbArc
 50
0.0
 51
90.0
  0
ARC
  5
374
330
2D3
100
AcDbEntity
  8
1
  6
Continuous
 62
     3
100
AcDbCircle
 10
188.8613861386138
 20
-379.1799558295242
 30
0.0
 40
0.0495049504949918
100
AcDbArc
 50
0.0
 51
90.0
  0
ARC
  5
375
330
2D3
100
AcDbEntity
  8
1
  6
Continuous
 62
     3
100
AcDbCircle
 10
185.6435643564356
 20
-379.1799558295242
 30
0.0
 40
0.0495049504950771
100
AcDbArc
 50
90.0
 51
180.0
  0
ARC
  5
376
330
2D3
100
AcDbEntity
  8
1
  6
Continuous
 62
     3
100
AcDbCircle
 10
188.6918397654611
 20
-379.0066885027915
 30
0.0
 40
0.1237623762376896
100
AcDbArc
 50
-163.0000000000219
 51
-90.0
  0
ARC
  5
377
330
2D3
100
AcDbEntity
  8
1
  6
Continuous
 62
     3
100
AcDbCircle
 10
185.7648659374893
 20
-379.0066885027915
 30
0.0
 40
0.1237623762376074
100
AcDbArc
 50
-90.0
 51
-16.99999999997813
  0
ARC
  5
378
330
2D3
100
AcDbEntity
  8
1
  6
Continuous
 62
     3
100
AcDbCircle
 10
187.3701391491819
 20
-378.2393617701182
 30
0.0
 40
0.0990099009900333
100
AcDbArc
 50
17.00000000001283
 51
90.0
  0
ARC
  5
379
330
2D3
100
AcDbEntity
  8
1
  6
Continuous
 62
     3
100
AcDbCircle
 10
187.6123020651888
 20
-379.031440978039
 30
0.0
 40
0.0990099009901542
100
AcDbArc
 50
-90.0
 51
16.99999999998137
  0
ARC
  5
37A
330
2D3
100
AcDbEntity
  8
1
  6
Continuous
 62
     3
100
AcDbCircle
 10
186.472931121238
 20
-378.2146092948707
 30
0.0
 40
0.0742574257427009
100
AcDbArc
 50
90.0
 51
162.9999999999742
  0
ARC
  5
37B
330
2D3
100
AcDbEntity
  8
1
  6
Continuous
 62
     3
100
AcDbCircle
 10
186.2156330229807
 20
-379.0561934532865
 30
0.0
 40
0.0742574257425129
100
AcDbArc
 50
162.9999999999614
 51
-90.0
  0
ARC
  5
37C
330
2D3
100
AcDbEntity
  8
1
  6
Continuous
 62
     3
100
AcDbCircle
 10
187.2673735593723
 20
-377.8185696909103
 30
0.0
 40
0.0742574257425304
100
AcDbArc
 50
-90.0
 51
17.00000000001937
  0
ARC
  5
37D
330
2D3
100
AcDbEntity
  8
1
  6
Continuous
 62
     3
100
AcDbCircle
 10
186.5940125792414
 20
-377.8185696909103
 30
0.0
 40
0.0742574257425945
100
AcDbArc
 50
162.9999999999806
 51
-90.0
  0
ARC
  5
37E
330
2D3
100
AcDbEntity
  8
1
  6
Continuous
 62
     3
100
AcDbCircle
 10
186.9306930693068
 20
-376.7173374283873
 30
0.0
 40
0.074257425742676
100
AcDbArc
 50
17.00000000000014
 51
162.9999999999806
  0
ARC
  5
37F
330
2D3
100
AcDbEntity
  8
1
  6
Continuous
 62
     3
100
AcDbCircle
 10
199.3069306930691
 20
-379.4769855324944
 30
0.0
 40
0.6930693069307381
100
AcDbArc
 50
-90.0
 51
0.0
  0
ARC
  5
380
330
2D3
100
AcDbEntity
  8
1
  6
Continuous
 62
     3
100
AcDbCircle
 10
199.3069306930691
 20
-375.8631241463557
 30
0.0
 40
0.6930693069309087
100
AcDbArc
 50
0.0
 51
90.0
  0
ARC
  5
381
330
2D3
100
AcDbEntity
  8
1
  6
Continuous
 62
     3
100
AcDbCircle
 10
185.6930693069306
 20
-375.8631241463557
 30
0.0
 40
0.6930693069305676
100
AcDbArc
 50
90.0
 51
180.0
  0
ARC
  5
382
330
2D3
100
AcDbEntity
  8
1
  6
Continuous
 62
     3
100
AcDbCircle
 10
185.6930693069306
 20
-379.4769855324944
 30
0.0
 40
0.693069306930596
100
AcDbArc
 50
180.0
 51
-90.0
  0
ARC
  5
383
330
2D3
100
AcDbEntity
  8
1
  6
Continuous
 62
     3
100
AcDbCircle
 10
198.069306930693
 20
-376.281629960498
 30
0.0
 40
0.0742574257426156
100
AcDbArc
 50
0.0
 51
164.9999999999035
  0
ARC
  5
384
330
2D3
100
AcDbEntity
  8
1
  6
Continuous
 62
     3
100
AcDbCircle
 10
196.0148514851484
 20
-376.2674618697685
 30
0.0
 40
0.0742574257426999
100
AcDbArc
 50
15.00000000003143
 51
180.0
  0
ARC
  5
385
330
2D3
100
AcDbEntity
  8
1
  6
Continuous
 62
     3
100
AcDbCircle
 10
195.6188118811881
 20
-376.2839162255638
 30
0.0
 40
0.0742574257426156
100
AcDbArc
 50
0.0
 51
90.0
  0
ARC
  5
386
330
2D3
100
AcDbEntity
  8
1
  6
Continuous
 62
     3
100
AcDbCircle
 10
195.6188118811881
 20
-379.0561934532865
 30
0.0
 40
0.074257425742644
100
AcDbArc
 50
-90.0
 51
0.0
  0
ARC
  5
387
330
2D3
100
AcDbEntity
  8
1
  6
Continuous
 62
     3
100
AcDbCircle
 10
196.0148514851484
 20
-379.0561934532865
 30
0.0
 40
0.0742574257425872
100
AcDbArc
 50
180.0
 51
-90.0
  0
ARC
  5
388
330
2D3
100
AcDbEntity
  8
1
  6
Continuous
 62
     3
100
AcDbCircle
 10
198.0198019801979
 20
-379.0066885027915
 30
0.0
 40
0.1237623762376074
100
AcDbArc
 50
-90.0
 51
0.0
  0
ARC
  5
389
330
2D3
100
AcDbEntity
  8
1
  6
Continuous
 62
     3
100
AcDbCircle
 10
195.4950495049504
 20
-379.1799558295242
 30
0.0
 40
0.0495049504950771
100
AcDbArc
 50
90.0
 51
180.0
  0
ARC
  5
38A
330
2D3
100
AcDbEntity
  8
1
  6
Continuous
 62
     3
100
AcDbCircle
 10
196.089108910891
 20
-379.1799558295242
 30
0.0
 40
0.0495049504949918
100
AcDbArc
 50
0.0
 51
90.0
  0
ARC
  5
38B
330
2D3
100
AcDbEntity
  8
1
  6
Continuous
 62
     3
100
AcDbCircle
 10
195.4950495049504
 20
-376.1601538493261
 30
0.0
 40
0.0495049504949918
100
AcDbArc
 50
180.0
 51
-90.0
  0
ARC
  5
38C
330
2D3
100
AcDbEntity
  8
1
  6
Continuous
 62
     3
100
AcDbCircle
 10
197.3514851485147
 20
-377.4303977955722
 30
0.0
 40
0.0742574257425734
100
AcDbArc
 50
-165.0000000000786
 51
-14.99999999992703
  0
ARC
  5
38D
330
2D3
100
AcDbEntity
  8
1
  6
Continuous
 62
     3
100
AcDbCircle
 10
199.108910891089
 20
-379.0066885027915
 30
0.0
 40
0.1237623762376074
100
AcDbArc
 50
180.0
 51
-90.0
  0
ARC
  5
38E
330
2D3
100
AcDbEntity
  8
1
  6
Continuous
 62
     3
100
AcDbCircle
 10
199.2079207920792
 20
-379.1799558295242
 30
0.0
 40
0.0495049504950202
100
AcDbArc
 50
0.0
 51
90.0
  0
ARC
  5
38F
330
2D3
100
AcDbEntity
  8
1
  6
Continuous
 62
     3
100
AcDbCircle
 10
199.108910891089
 20
-376.3334211760588
 30
0.0
 40
0.1237623762376643
100
AcDbArc
 50
90.0
 51
180.0
  0
ARC
  5
390
330
2D3
100
AcDbEntity
  8
1
  6
Continuous
 62
     3
100
AcDbCircle
 10
199.2079207920792
 20
-376.1601538493261
 30
0.0
 40
0.0495049504950202
100
AcDbArc
 50
-90.0
 51
0.0
  0
ARC
  5
391
330
2D3
100
AcDbEntity
  8
1
  6
Continuous
 62
     3
100
AcDbCircle
 10
197.9207920792078
 20
-379.1799558295242
 30
0.0
 40
0.0495049504950771
100
AcDbArc
 50
90.0
 51
180.0
  0
ARC
  5
392
330
2D3
100
AcDbEntity
  8
1
  6
Continuous
 62
     7
100
AcDbCircle
 10
191.25
 20
-394.4200548394251
 30
0.0
 40
0.7905694150420949
100
AcDbArc
 50
-108.434948822922
 51
-18.43494882292201
  0
ARC
  5
393
330
2D3
100
AcDbEntity
  8
1
  6
Continuous
 62
     7
100
AcDbCircle
 10
193.5
 20
-394.6700548394251
 30
0.0
 40
0.5
100
AcDbArc
 50
180.0
 51
-90.0
  0
ARC
  5
394
330
2D3
100
AcDbEntity
  8
1
  6
Continuous
 62
     7
100
AcDbCircle
 10
193.5
 20
-396.6700548394251
 30
0.0
 40
0.5
100
AcDbArc
 50
90.0
 51
180.0
  0
ARC
  5
395
330
2D3
100
AcDbEntity
  8
1
  6
Continuous
 62
     7
100
AcDbCircle
 10
191.25
 20
-396.9200548394251
 30
0.0
 40
0.7905694150420949
100
AcDbArc
 50
18.43494882292201
 51
108.434948822922
  0
ARC
  5
396
330
2D3
100
AcDbEntity
  8
1
  6
Continuous
 62
     7
100
AcDbCircle
 10
190.45
 20
-395.3700548394251
 30
0.0
 40
0.1999999999999886
100
AcDbArc
 50
90.0
 51
180.0
  0
ARC
  5
397
330
2D3
100
AcDbEntity
  8
1
  6
Continuous
 62
     7
100
AcDbCircle
 10
190.45
 20
-395.9700548394251
 30
0.0
 40
0.1999999999999886
100
AcDbArc
 50
180.0
 51
-90.0
  0
ARC
  5
398
330
2D3
100
AcDbEntity
  8
1
  6
Continuous
 62
     7
100
AcDbCircle
 10
192.2
 20
-393.6200548394251
 30
0.0
 40
0.1999999999999886
100
AcDbArc
 50
90.0
 51
180.0
  0
ARC
  5
399
330
2D3
100
AcDbEntity
  8
1
  6
Continuous
 62
     7
100
AcDbCircle
 10
192.8
 20
-393.6200548394251
 30
0.0
 40
0.1999999999999886
100
AcDbArc
 50
0.0
 51
90.0
  0
ARC
  5
39A
330
2D3
100
AcDbEntity
  8
1
  6
Continuous
 62
     7
100
AcDbCircle
 10
194.55
 20
-395.3700548394251
 30
0.0
 40
0.1999999999999886
100
AcDbArc
 50
0.0
 51
90.0
  0
ARC
  5
39B
330
2D3
100
AcDbEntity
  8
1
  6
Continuous
 62
     7
100
AcDbCircle
 10
194.55
 20
-395.9700548394251
 30
0.0
 40
0.2000000000000455
100
AcDbArc
 50
-90.0
 51
0.0
  0
ARC
  5
39C
330
2D3
100
AcDbEntity
  8
1
  6
Continuous
 62
     7
100
AcDbCircle
 10
192.8
 20
-397.7200548394251
 30
0.0
 40
0.2000000000000455
100
AcDbArc
 50
-90.0
 51
-0.00000000003257
  0
ARC
  5
39D
330
2D3
100
AcDbEntity
  8
1
  6
Continuous
 62
     7
100
AcDbCircle
 10
192.2
 20
-397.7200548394251
 30
0.0
 40
0.1999999999999886
100
AcDbArc
 50
-179.9999999999674
 51
-90.0
  0
ENDBLK
  5
39E
330
2D3
100
AcDbEntity
  8
0
100
AcDbBlockEnd
  0
BLOCK
  5
2D1
330
2D0
100
AcDbEntity
  8
0
100
AcDbBlockBegin
  2
Top__3
 70
     0
 10
160.53574971995
 20
-777.520485131191
 30
0.0
  3
Top__3
  1

  0
INSERT
  5
2D2
330
2D0
100
AcDbEntity
  8
1
100
AcDbBlockReference
  2
_5__2
 10
232.4987167268777
 20
-1046.957424348958
 30
0.0
  0
ENDBLK
  5
39F
330
2D0
100
AcDbEntity
  8
0
100
AcDbBlockEnd
  0
BLOCK
  5
3A5
330
3A4
100
AcDbEntity
  8
0
100
AcDbBlockBegin
  2
_4
 70
     0
 10
722.2689356028528
 20
-1030.161721901639
 30
0.0
  3
_4
  1

  0
LINE
  5
3A6
330
3A4
100
AcDbEntity
  8
1
  6
Continuous
 62
     7
100
AcDbLine
 10
371.5000000000022
 20
-370.6700548394251
 30
0.0
 11
371.5000000000022
 21
-363.6700548394252
 31
0.0
  0
LINE
  5
3A7
330
3A4
100
AcDbEntity
  8
1
  6
Continuous
 62
     7
100
AcDbLine
 10
379.5000000000022
 20
-363.6700548394252
 30
0.0
 11
379.5000000000022
 21
-370.6700548394251
 31
0.0
  0
ENDBLK
  5
3A8
330
3A4
100
AcDbEntity
  8
0
100
AcDbBlockEnd
  0
BLOCK
  5
3AB
330
3AA
100
AcDbEntity
  8
0
100
AcDbBlockBegin
  2
_5__4
 70
     0
 10
741.0360434876848
 20
-1074.661721901639
 30
0.0
  3
_5__4
  1

  0
LINE
  5
3AC
330
3AA
100
AcDbEntity
  8
1
  6
Continuous
 62
     7
100
AcDbLine
 10
342.5000000000022
 20
-370.6700548394251
 30
0.0
 11
347.5000000000022
 21
-370.6700548394251
 31
0.0
  0
LINE
  5
3AD
330
3AA
100
AcDbEntity
  8
1
  6
Continuous
 62
     7
100
AcDbLine
 10
347.5000000000022
 20
-370.6700548394251
 30
0.0
 11
347.5000000000022
 21
-414.670054839425
 31
0.0
  0
LINE
  5
3AE
330
3AA
100
AcDbEntity
  8
1
  6
Continuous
 62
     7
100
AcDbLine
 10
347.0000000000022
 20
-415.170054839425
 30
0.0
 11
342.5000000000022
 21
-415.170054839425
 31
0.0
  0
LINE
  5
3AF
330
3AA
100
AcDbEntity
  8
1
  6
Continuous
 62
     7
100
AcDbLine
 10
342.5000000000022
 20
-415.170054839425
 30
0.0
 11
342.5000000000022
 21
-370.6700548394251
 31
0.0
  0
LINE
  5
3B0
330
3AA
100
AcDbEntity
  8
1
  6
Continuous
 62
     7
100
AcDbLine
 10
347.5000000000022
 20
-414.670054839425
 30
0.0
 11
347.0000000000022
 21
-415.170054839425
 31
0.0
  0
ENDBLK
  5
3B1
330
3AA
100
AcDbEntity
  8
0
100
AcDbBlockEnd
  0
BLOCK
  5
3B4
330
3B3
100
AcDbEntity
  8
0
100
AcDbBlockBegin
  2
_6
 70
     0
 10
717.3689356028528
 20
-1078.161721901639
 30
0.0
  3
_6
  1

  0
LINE
  5
3B5
330
3B3
100
AcDbEntity
  8
1
  6
Continuous
 62
     7
100
AcDbLine
 10
347.5000000000022
 20
-370.6700548394251
 30
0.0
 11
386.5000000000022
 21
-370.6700548394251
 31
0.0
  0
LINE
  5
3B6
330
3B3
100
AcDbEntity
  8
1
  6
Continuous
 62
     7
100
AcDbLine
 10
386.5000000000022
 20
-370.6700548394251
 30
0.0
 11
386.5000000000022
 21
-415.170054839425
 31
0.0
  0
LINE
  5
3B7
330
3B3
100
AcDbEntity
  8
1
  6
Continuous
 62
     7
100
AcDbLine
 10
386.0000000000022
 20
-415.6700548394251
 30
0.0
 11
347.5000000000022
 21
-415.6700548394251
 31
0.0
  0
LINE
  5
3B8
330
3B3
100
AcDbEntity
  8
1
  6
Continuous
 62
     7
100
AcDbLine
 10
347.5000000000022
 20
-415.6700548394251
 30
0.0
 11
347.5000000000022
 21
-370.6700548394251
 31
0.0
  0
LINE
  5
3B9
330
3B3
100
AcDbEntity
  8
1
  6
Continuous
 62
     7
100
AcDbLine
 10
386.5000000000022
 20
-415.170054839425
 30
0.0
 11
386.0000000000022
 21
-415.6700548394251
 31
0.0
  0
LINE
  5
3BA
330
3B3
100
AcDbEntity
  8
1
  6
CENTER_NEW
 62
     7
100
AcDbLine
 10
375.5000000000022
 20
-350.944128573745
 30
0.0
 11
375.5000000000022
 21
-422.944128573745
 31
0.0
  0
ENDBLK
  5
3BB
330
3B3
100
AcDbEntity
  8
0
100
AcDbBlockEnd
  0
BLOCK
  5
3A2
330
3A1
100
AcDbEntity
  8
0
100
AcDbBlockBegin
  2
Top__5
 70
     0
 10
669.0730764807569
 20
-805.2247826838719
 30
0.0
  3
Top__5
  1

  0
INSERT
  5
3A3
330
3A1
100
AcDbEntity
  8
1
100
AcDbBlockReference
  2
_4
 10
722.2689356028528
 20
-1030.161721901639
 30
0.0
  0
INSERT
  5
3A9
330
3A1
100
AcDbEntity
  8
1
100
AcDbBlockReference
  2
_5__4
 10
741.0360434876848
 20
-1074.661721901639
 30
0.0
  0
INSERT
  5
3B2
330
3A1
100
AcDbEntity
  8
1
100
AcDbBlockReference
  2
_6
 10
717.3689356028528
 20
-1078.161721901639
 30
0.0
  0
ENDBLK
  5
3BC
330
3A1
100
AcDbEntity
  8
0
100
AcDbBlockEnd
  0
BLOCK
  5
484
330
483
100
AcDbEntity
  8
0
100
AcDbBlockBegin
  2
*D20
 70
     1
 10
0.0
 20
0.0
 30
0.0
  3
*D20
  1

  0
LINE
  5
63D
330
483
100
AcDbEntity
  8
1
 62
     2
370
    -2
100
AcDbLine
 10
32.56315972754084
 20
382.0392107967207
 30
0.0
 11
14.91235304312383
 21
382.0392107967207
 31
0.0
  0
LINE
  5
63E
330
483
100
AcDbEntity
  8
1
 62
     2
370
    -2
100
AcDbLine
 10
34.06315972754084
 20
394.0392107967207
 30
0.0
 11
14.91235304312383
 21
394.0392107967207
 31
0.0
  0
LINE
  5
63F
330
483
100
AcDbEntity
  8
1
 62
     2
370
    -2
100
AcDbLine
 10
15.91235304312383
 20
384.4892107967207
 30
0.0
 11
15.91235304312383
 21
385.5429607967207
 31
0.0
  0
LINE
  5
640
330
483
100
AcDbEntity
  8
1
 62
     2
370
    -2
100
AcDbLine
 10
15.91235304312383
 20
391.5892107967207
 30
0.0
 11
15.91235304312383
 21
390.5354607967207
 31
0.0
  0
INSERT
  5
641
330
483
100
AcDbEntity
  8
1
 62
     2
370
    -2
100
AcDbBlockReference
  2
_Open30
 10
15.91235304312383
 20
382.0392107967207
 30
0.0
 41
2.45
 42
2.45
 43
2.45
 50
270.0
  0
INSERT
  5
642
330
483
100
AcDbEntity
  8
1
 62
     2
370
    -2
100
AcDbBlockReference
  2
_Open30
 10
15.91235304312383
 20
394.0392107967207
 30
0.0
 41
2.45
 42
2.45
 43
2.45
 50
90.0
  0
MTEXT
  5
643
330
483
100
AcDbEntity
  8
1
 62
     3
100
AcDbMText
 10
15.91235304312376
 20
388.0392107967207
 30
0.0
 40
3.5
 41
0.0
 71
     5
 72
     1
  1
\A1;12
  7
CONVERTER_14
 11
0.0000000000000001
 21
1.0
 31
0.0
 73
     1
 44
1.0
  0
POINT
  5
644
330
483
100
AcDbEntity
  8
Defpoints
 62
     0
100
AcDbPoint
 10
33.56315972754084
 20
382.0392107967207
 30
0.0
  0
POINT
  5
645
330
483
100
AcDbEntity
  8
Defpoints
 62
     0
100
AcDbPoint
 10
35.06315972754084
 20
394.0392107967207
 30
0.0
  0
POINT
  5
646
330
483
100
AcDbEntity
  8
Defpoints
 62
     0
100
AcDbPoint
 10
15.91235304312383
 20
394.0392107967207
 30
0.0
  0
ENDBLK
  5
485
330
483
100
AcDbEntity
  8
0
100
AcDbBlockEnd
  0
BLOCK
  5
491
330
490
100
AcDbEntity
  8
0
100
AcDbBlockBegin
  2
*D21
 70
     1
 10
0.0
 20
0.0
 30
0.0
  3
*D21
  1

  0
LINE
  5
647
330
490
100
AcDbEntity
  8
1
 62
     2
370
    -2
100
AcDbLine
 10
50.06315972754084
 20
332.0392107967207
 30
0.0
 11
14.91235304312382
 21
332.0392107967207
 31
0.0
  0
LINE
  5
648
330
490
100
AcDbEntity
  8
1
 62
     2
370
    -2
100
AcDbLine
 10
41.16315972754082
 20
376.5392107967207
 30
0.0
 11
14.91235304312383
 21
376.5392107967207
 31
0.0
  0
LINE
  5
649
330
490
100
AcDbEntity
  8
1
 62
     2
370
    -2
100
AcDbLine
 10
15.91235304312382
 20
334.4892107967207
 30
0.0
 11
15.91235304312382
 21
351.5934607967207
 31
0.0
  0
LINE
  5
64A
330
490
100
AcDbEntity
  8
1
 62
     2
370
    -2
100
AcDbLine
 10
15.91235304312383
 20
374.0892107967207
 30
0.0
 11
15.91235304312382
 21
356.9849607967207
 31
0.0
  0
INSERT
  5
64B
330
490
100
AcDbEntity
  8
1
 62
     2
370
    -2
100
AcDbBlockReference
  2
_Open30
 10
15.91235304312382
 20
332.0392107967207
 30
0.0
 41
2.45
 42
2.45
 43
2.45
 50
270.0
  0
INSERT
  5
64C
330
490
100
AcDbEntity
  8
1
 62
     2
370
    -2
100
AcDbBlockReference
  2
_Open30
 10
15.91235304312383
 20
376.5392107967207
 30
0.0
 41
2.45
 42
2.45
 43
2.45
 50
90.0
  0
MTEXT
  5
64D
330
490
100
AcDbEntity
  8
1
 62
     3
100
AcDbMText
 10
15.91235304312377
 20
354.2892107967207
 30
0.0
 40
3.5
 41
0.0
 71
     5
 72
     1
  1
\A1;45
  7
CONVERTER_14
 11
0.0000000000000001
 21
1.0
 31
0.0
 73
     1
 44
1.0
  0
POINT
  5
64E
330
490
100
AcDbEntity
  8
Defpoints
 62
     0
100
AcDbPoint
 10
51.06315972754083
 20
332.0392107967207
 30
0.0
  0
POINT
  5
64F
330
490
100
AcDbEntity
  8
Defpoints
 62
     0
100
AcDbPoint
 10
42.16315972754083
 20
376.5392107967207
 30
0.0
  0
POINT
  5
650
330
490
100
AcDbEntity
  8
Defpoints
 62
     0
100
AcDbPoint
 10
15.91235304312383
 20
376.5392107967207
 30
0.0
  0
ENDBLK
  5
492
330
490
100
AcDbEntity
  8
0
100
AcDbBlockEnd
  0
BLOCK
  5
49E
330
49D
100
AcDbEntity
  8
0
100
AcDbBlockBegin
  2
*D22
 70
     1
 10
0.0
 20
0.0
 30
0.0
  3
*D22
  1

  0
LINE
  5
651
330
49D
100
AcDbEntity
  8
1
 62
     2
370
    -2
100
AcDbLine
 10
59.96315972754084
 20
339.9392107967207
 30
0.0
 11
59.96315972754084
 21
297.1854153258578
 31
0.0
  0
LINE
  5
652
330
49D
100
AcDbEntity
  8
1
 62
     2
370
    -2
100
AcDbLine
 10
42.16315972754083
 20
339.9392107967207
 30
0.0
 11
42.16315972754083
 21
297.1854153258578
 31
0.0
  0
LINE
  5
653
330
49D
100
AcDbEntity
  8
1
 62
     2
370
    -2
100
AcDbLine
 10
57.51315972754084
 20
298.1854153258577
 30
0.0
 11
55.05565972755256
 21
298.1854153258577
 31
0.0
  0
LINE
  5
654
330
49D
100
AcDbEntity
  8
1
 62
     2
370
    -2
100
AcDbLine
 10
44.61315972754083
 20
298.1854153258577
 30
0.0
 11
47.0706597275291
 21
298.1854153258577
 31
0.0
  0
INSERT
  5
655
330
49D
100
AcDbEntity
  8
1
 62
     2
370
    -2
100
AcDbBlockReference
  2
_Open30
 10
59.96315972754084
 20
298.1854153258577
 30
0.0
 41
2.45
 42
2.45
 43
2.45
  0
INSERT
  5
656
330
49D
100
AcDbEntity
  8
1
 62
     2
370
    -2
100
AcDbBlockReference
  2
_Open30
 10
42.16315972754083
 20
298.1854153258577
 30
0.0
 41
2.45
 42
2.45
 43
2.45
 50
180.0
  0
MTEXT
  5
657
330
49D
100
AcDbEntity
  8
1
 62
     3
100
AcDbMText
 10
51.06315972754083
 20
298.1854153258577
 30
0.0
 40
3.5
 41
0.0
 71
     5
 72
     1
  1
\A1;17.8
  7
CONVERTER_14
 11
0.9999999999970619
 21
0.0000024240684056
 31
0.0
 73
     1
 44
1.0
  0
POINT
  5
658
330
49D
100
AcDbEntity
  8
Defpoints
 62
     0
100
AcDbPoint
 10
59.96315972754084
 20
340.9392107967207
 30
0.0
  0
POINT
  5
659
330
49D
100
AcDbEntity
  8
Defpoints
 62
     0
100
AcDbPoint
 10
42.16315972754083
 20
340.9392107967207
 30
0.0
  0
POINT
  5
65A
330
49D
100
AcDbEntity
  8
Defpoints
 62
     0
100
AcDbPoint
 10
42.16315972754083
 20
298.1854153258577
 30
0.0
  0
ENDBLK
  5
49F
330
49D
100
AcDbEntity
  8
0
100
AcDbBlockEnd
  0
BLOCK
  5
4AB
330
4AA
100
AcDbEntity
  8
0
100
AcDbBlockBegin
  2
*D23
 70
     1
 10
0.0
 20
0.0
 30
0.0
  3
*D23
  1

  0
LINE
  5
65B
330
4AA
100
AcDbEntity
  8
1
 62
     2
370
    -2
100
AcDbLine
 10
72.56315972754084
 20
379.5392107967207
 30
0.0
 11
98.27796126900484
 21
379.5392107967207
 31
0.0
  0
LINE
  5
65C
330
4AA
100
AcDbEntity
  8
1
 62
     2
370
    -2
100
AcDbLine
 10
60.96315972754084
 20
376.5392107967207
 30
0.0
 11
98.27796126900484
 21
376.5392107967207
 31
0.0
  0
LINE
  5
65D
330
4AA
100
AcDbEntity
  8
1
 62
     2
370
    -2
100
AcDbLine
 10
97.27796126900484
 20
381.9892107967207
 30
0.0
 11
97.27796126900484
 21
384.4392107967207
 31
0.0
  0
LINE
  5
65E
330
4AA
100
AcDbEntity
  8
1
 62
     2
370
    -2
100
AcDbLine
 10
97.27796126900484
 20
374.0892107967207
 30
0.0
 11
97.27796126900484
 21
371.6392107967207
 31
0.0
  0
LINE
  5
65F
330
4AA
100
AcDbEntity
  8
1
 62
     2
370
    -2
100
AcDbLine
 10
97.27796126900484
 20
379.5392107967207
 30
0.0
 11
97.27796126900484
 21
376.5392107967207
 31
0.0
  0
INSERT
  5
660
330
4AA
100
AcDbEntity
  8
1
 62
     2
370
    -2
100
AcDbBlockReference
  2
_Open30
 10
97.27796126900484
 20
379.5392107967207
 30
0.0
 41
2.45
 42
2.45
 43
2.45
 50
270.0
  0
INSERT
  5
661
330
4AA
100
AcDbEntity
  8
1
 62
     2
370
    -2
100
AcDbBlockReference
  2
_Open30
 10
97.27796126900484
 20
376.5392107967207
 30
0.0
 41
2.45
 42
2.45
 43
2.45
 50
90.0
  0
MTEXT
  5
662
330
4AA
100
AcDbEntity
  8
1
 62
     3
100
AcDbMText
 10
90.70834126900477
 20
371.6392107967207
 30
0.0
 40
3.5
 41
0.0
 71
     5
 72
     1
  1
\A1;2.5～9.5
  7
CONVERTER_11
 11
0.0000000000000001
 21
1.0
 31
0.0
 73
     1
 44
1.0
  0
POINT
  5
663
330
4AA
100
AcDbEntity
  8
Defpoints
 62
     0
100
AcDbPoint
 10
71.56315972754083
 20
379.5392107967207
 30
0.0
  0
POINT
  5
664
330
4AA
100
AcDbEntity
  8
Defpoints
 62
     0
100
AcDbPoint
 10
59.96315972754084
 20
376.5392107967207
 30
0.0
  0
POINT
  5
665
330
4AA
100
AcDbEntity
  8
Defpoints
 62
     0
100
AcDbPoint
 10
97.27796126900484
 20
376.5392107967207
 30
0.0
  0
ENDBLK
  5
4AC
330
4AA
100
AcDbEntity
  8
0
100
AcDbBlockEnd
  0
BLOCK
  5
4B9
330
4B8
100
AcDbEntity
  8
0
100
AcDbBlockBegin
  2
*D24
 70
     1
 10
0.0
 20
0.0
 30
0.0
  3
*D24
  1

  0
LINE
  5
666
330
4B8
100
AcDbEntity
  8
1
 62
     2
370
    -2
100
AcDbLine
 10
72.56315972754084
 20
407.5392107967206
 30
0.0
 11
85.25843004850484
 21
407.5392107967206
 31
0.0
  0
LINE
  5
667
330
4B8
100
AcDbEntity
  8
1
 62
     2
370
    -2
100
AcDbLine
 10
72.56315972754084
 20
379.5392107967207
 30
0.0
 11
85.25843004850484
 21
379.5392107967207
 31
0.0
  0
LINE
  5
668
330
4B8
100
AcDbEntity
  8
1
 62
     2
370
    -2
100
AcDbLine
 10
84.25843004850483
 20
405.0892107967206
 30
0.0
 11
84.25843004850483
 21
396.2349607967206
 31
0.0
  0
LINE
  5
669
330
4B8
100
AcDbEntity
  8
1
 62
     2
370
    -2
100
AcDbLine
 10
84.25843004850483
 20
381.9892107967207
 30
0.0
 11
84.25843004850483
 21
390.8434607967207
 31
0.0
  0
INSERT
  5
66A
330
4B8
100
AcDbEntity
  8
1
 62
     2
370
    -2
100
AcDbBlockReference
  2
_Open30
 10
84.25843004850483
 20
407.5392107967206
 30
0.0
 41
2.45
 42
2.45
 43
2.45
 50
90.0
  0
INSERT
  5
66B
330
4B8
100
AcDbEntity
  8
1
 62
     2
370
    -2
100
AcDbBlockReference
  2
_Open30
 10
84.25843004850483
 20
379.5392107967207
 30
0.0
 41
2.45
 42
2.45
 43
2.45
 50
270.0
  0
MTEXT
  5
66C
330
4B8
100
AcDbEntity
  8
1
 62
     3
100
AcDbMText
 10
84.25843004850477
 20
393.5392107967207
 30
0.0
 40
3.5
 41
0.0
 71
     5
 72
     1
  1
\A1;28
  7
CONVERTER_14
 11
0.0000000000000001
 21
1.0
 31
0.0
 73
     1
 44
1.0
  0
POINT
  5
66D
330
4B8
100
AcDbEntity
  8
Defpoints
 62
     0
100
AcDbPoint
 10
71.56315972754083
 20
407.5392107967206
 30
0.0
  0
POINT
  5
66E
330
4B8
100
AcDbEntity
  8
Defpoints
 62
     0
100
AcDbPoint
 10
71.56315972754083
 20
379.5392107967207
 30
0.0
  0
POINT
  5
66F
330
4B8
100
AcDbEntity
  8
Defpoints
 62
     0
100
AcDbPoint
 10
84.25843004850483
 20
379.5392107967207
 30
0.0
  0
ENDBLK
  5
4BA
330
4B8
100
AcDbEntity
  8
0
100
AcDbBlockEnd
  0
BLOCK
  5
4C6
330
4C5
100
AcDbEntity
  8
0
100
AcDbBlockBegin
  2
*D25
 70
     1
 10
0.0
 20
0.0
 30
0.0
  3
*D25
  1

  0
LINE
  5
670
330
4C5
100
AcDbEntity
  8
1
 62
     2
370
    -2
100
AcDbLine
 10
56.64509251346842
 20
351.5392107967207
 30
0.0
 11
85.25843004850482
 21
351.5392107967207
 31
0.0
  0
LINE
  5
671
330
4C5
100
AcDbEntity
  8
1
 62
     2
370
    -2
100
AcDbLine
 10
60.96315972754084
 20
376.5392107967207
 30
0.0
 11
85.25843004850484
 21
376.5392107967207
 31
0.0
  0
LINE
  5
672
330
4C5
100
AcDbEntity
  8
1
 62
     2
370
    -2
100
AcDbLine
 10
84.25843004850483
 20
353.9892107967207
 30
0.0
 11
84.25843004850483
 21
361.3434607967207
 31
0.0
  0
LINE
  5
673
330
4C5
100
AcDbEntity
  8
1
 62
     2
370
    -2
100
AcDbLine
 10
84.25843004850483
 20
374.0892107967207
 30
0.0
 11
84.25843004850483
 21
366.7349607967206
 31
0.0
  0
INSERT
  5
674
330
4C5
100
AcDbEntity
  8
1
 62
     2
370
    -2
100
AcDbBlockReference
  2
_Open30
 10
84.25843004850483
 20
351.5392107967207
 30
0.0
 41
2.45
 42
2.45
 43
2.45
 50
270.0
  0
INSERT
  5
675
330
4C5
100
AcDbEntity
  8
1
 62
     2
370
    -2
100
AcDbBlockReference
  2
_Open30
 10
84.25843004850483
 20
376.5392107967207
 30
0.0
 41
2.45
 42
2.45
 43
2.45
 50
90.0
  0
MTEXT
  5
676
330
4C5
100
AcDbEntity
  8
1
 62
     3
100
AcDbMText
 10
84.25843004850477
 20
364.0392107967207
 30
0.0
 40
3.5
 41
0.0
 71
     5
 72
     1
  1
\A1;25
  7
CONVERTER_14
 11
0.0000000000000001
 21
1.0
 31
0.0
 73
     1
 44
1.0
  0
POINT
  5
677
330
4C5
100
AcDbEntity
  8
Defpoints
 62
     0
100
AcDbPoint
 10
55.64509251346843
 20
351.5392107967207
 30
0.0
  0
POINT
  5
678
330
4C5
100
AcDbEntity
  8
Defpoints
 62
     0
100
AcDbPoint
 10
59.96315972754084
 20
376.5392107967207
 30
0.0
  0
POINT
  5
679
330
4C5
100
AcDbEntity
  8
Defpoints
 62
     0
100
AcDbPoint
 10
84.25843004850483
 20
376.5392107967207
 30
0.0
  0
ENDBLK
  5
4C7
330
4C5
100
AcDbEntity
  8
0
100
AcDbBlockEnd
  0
BLOCK
  5
4D3
330
4D2
100
AcDbEntity
  8
0
100
AcDbBlockBegin
  2
*D26
 70
     1
 10
0.0
 20
0.0
 30
0.0
  3
*D26
  1

  0
LINE
  5
67A
330
4D2
100
AcDbEntity
  8
1
 62
     2
370
    -2
100
AcDbLine
 10
57.01315972754082
 20
338.0392107967207
 30
0.0
 11
85.25843004850484
 21
338.0392107967207
 31
0.0
  0
LINE
  5
67B
330
4D2
100
AcDbEntity
  8
1
 62
     2
370
    -2
100
AcDbLine
 10
56.64509251346842
 20
351.5392107967207
 30
0.0
 11
85.25843004850484
 21
351.5392107967207
 31
0.0
  0
LINE
  5
67C
330
4D2
100
AcDbEntity
  8
1
 62
     2
370
    -2
100
AcDbLine
 10
84.25843004850483
 20
335.5892107967207
 30
0.0
 11
84.25843004850483
 21
333.1392107967207
 31
0.0
  0
LINE
  5
67D
330
4D2
100
AcDbEntity
  8
1
 62
     2
370
    -2
100
AcDbLine
 10
84.25843004850484
 20
353.9892107967207
 30
0.0
 11
84.25843004850484
 21
356.4392107967206
 31
0.0
  0
LINE
  5
67E
330
4D2
100
AcDbEntity
  8
1
 62
     2
370
    -2
100
AcDbLine
 10
84.25843004850483
 20
338.0392107967207
 30
0.0
 11
84.25843004850483
 21
340.7967107967207
 31
0.0
  0
LINE
  5
67F
330
4D2
100
AcDbEntity
  8
1
 62
     2
370
    -2
100
AcDbLine
 10
84.25843004850483
 20
351.5392107967207
 30
0.0
 11
84.25843004850483
 21
348.7817107967207
 31
0.0
  0
INSERT
  5
680
330
4D2
100
AcDbEntity
  8
1
 62
     2
370
    -2
100
AcDbBlockReference
  2
_Open30
 10
84.25843004850483
 20
338.0392107967207
 30
0.0
 41
2.45
 42
2.45
 43
2.45
 50
90.0
  0
INSERT
  5
681
330
4D2
100
AcDbEntity
  8
1
 62
     2
370
    -2
100
AcDbBlockReference
  2
_Open30
 10
84.25843004850483
 20
351.5392107967207
 30
0.0
 41
2.45
 42
2.45
 43
2.45
 50
270.0
  0
MTEXT
  5
682
330
4D2
100
AcDbEntity
  8
1
 62
     3
100
AcDbMText
 10
84.25843004850477
 20
344.7892107967207
 30
0.0
 40
3.5
 41
0.0
 71
     5
 72
     1
  1
\A1;13.5
  7
CONVERTER_14
 11
0.0000000000000001
 21
1.0
 31
0.0
 73
     1
 44
1.0
  0
POINT
  5
683
330
4D2
100
AcDbEntity
  8
Defpoints
 62
     0
100
AcDbPoint
 10
56.01315972754083
 20
338.0392107967207
 30
0.0
  0
POINT
  5
684
330
4D2
100
AcDbEntity
  8
Defpoints
 62
     0
100
AcDbPoint
 10
55.64509251346843
 20
351.5392107967207
 30
0.0
  0
POINT
  5
685
330
4D2
100
AcDbEntity
  8
Defpoints
 62
     0
100
AcDbPoint
 10
84.25843004850483
 20
351.5392107967207
 30
0.0
  0
ENDBLK
  5
4D4
330
4D2
100
AcDbEntity
  8
0
100
AcDbBlockEnd
  0
BLOCK
  5
4E2
330
4E1
100
AcDbEntity
  8
0
100
AcDbBlockBegin
  2
*D27
 70
     1
 10
0.0
 20
0.0
 30
0.0
  3
*D27
  1

  0
LINE
  5
686
330
4E1
100
AcDbEntity
  8
1
 62
     2
370
    -2
100
AcDbLine
 10
52.06315972754083
 20
332.0392107967207
 30
0.0
 11
85.25843004850484
 21
332.0392107967207
 31
0.0
  0
LINE
  5
687
330
4E1
100
AcDbEntity
  8
1
 62
     2
370
    -2
100
AcDbLine
 10
57.01315972754082
 20
338.0392107967207
 30
0.0
 11
85.25843004850484
 21
338.0392107967207
 31
0.0
  0
LINE
  5
688
330
4E1
100
AcDbEntity
  8
1
 62
     2
370
    -2
100
AcDbLine
 10
84.25843004850483
 20
334.4892107967207
 30
0.0
 11
84.25843004850483
 21
338.0392107967207
 31
0.0
  0
LINE
  5
689
330
4E1
100
AcDbEntity
  8
1
 62
     2
370
    -2
100
AcDbLine
 10
84.25843004850483
 20
338.0392107967207
 30
0.0
 11
84.25843004850483
 21
340.4892107967207
 31
0.0
  0
INSERT
  5
68A
330
4E1
100
AcDbEntity
  8
1
 62
     2
370
    -2
100
AcDbBlockReference
  2
_Open30
 10
84.25843004850483
 20
332.0392107967207
 30
0.0
 41
2.45
 42
2.45
 43
2.45
 50
270.0
  0
MTEXT
  5
68B
330
4E1
100
AcDbEntity
  8
1
 62
     3
100
AcDbMText
 10
85.90680504850478
 20
340.4892107967207
 30
0.0
 40
3.5
 41
0.0
 71
     5
 72
     1
  1
\A1;6
  7
CONVERTER_14
 11
0.0000000000000001
 21
1.0
 31
0.0
 73
     1
 44
1.0
  0
POINT
  5
68C
330
4E1
100
AcDbEntity
  8
Defpoints
 62
     0
100
AcDbPoint
 10
51.06315972754083
 20
332.0392107967207
 30
0.0
  0
POINT
  5
68D
330
4E1
100
AcDbEntity
  8
Defpoints
 62
     0
100
AcDbPoint
 10
56.01315972754083
 20
338.0392107967207
 30
0.0
  0
POINT
  5
68E
330
4E1
100
AcDbEntity
  8
Defpoints
 62
     0
100
AcDbPoint
 10
84.25843004850483
 20
338.0392107967207
 30
0.0
  0
ENDBLK
  5
4E3
330
4E1
100
AcDbEntity
  8
0
100
AcDbBlockEnd
  0
BLOCK
  5
4EE
330
4ED
100
AcDbEntity
  8
0
100
AcDbBlockBegin
  2
*D28
 70
     1
 10
0.0
 20
0.0
 30
0.0
  3
*D28
  1

  0
LINE
  5
68F
330
4ED
100
AcDbEntity
  8
1
 62
     2
370
    -2
100
AcDbLine
 10
234.0631597275431
 20
323.2651370624008
 30
0.0
 11
234.0631597275431
 21
317.9760740507968
 31
0.0
  0
LINE
  5
690
330
4ED
100
AcDbEntity
  8
1
 62
     2
370
    -2
100
AcDbLine
 10
201.063159727543
 20
331.0392107967207
 30
0.0
 11
201.063159727543
 21
317.9760740507968
 31
0.0
  0
LINE
  5
691
330
4ED
100
AcDbEntity
  8
1
 62
     2
370
    -2
100
AcDbLine
 10
231.6131597275431
 20
318.9760740507968
 30
0.0
 11
220.258909727551
 21
318.9760740507968
 31
0.0
  0
LINE
  5
692
330
4ED
100
AcDbEntity
  8
1
 62
     2
370
    -2
100
AcDbLine
 10
203.513159727543
 20
318.9760740507968
 30
0.0
 11
214.8674097275351
 21
318.9760740507968
 31
0.0
  0
INSERT
  5
693
330
4ED
100
AcDbEntity
  8
1
 62
     2
370
    -2
100
AcDbBlockReference
  2
_Open30
 10
234.0631597275431
 20
318.9760740507968
 30
0.0
 41
2.45
 42
2.45
 43
2.45
  0
INSERT
  5
694
330
4ED
100
AcDbEntity
  8
1
 62
     2
370
    -2
100
AcDbBlockReference
  2
_Open30
 10
201.063159727543
 20
318.9760740507968
 30
0.0
 41
2.45
 42
2.45
 43
2.45
 50
180.0
  0
MTEXT
  5
695
330
4ED
100
AcDbEntity
  8
1
 62
     3
100
AcDbMText
 10
217.563159727543
 20
318.9760740507968
 30
0.0
 40
3.5
 41
0.0
 71
     5
 72
     1
  1
\A1;33
  7
CONVERTER_14
 11
0.9999999999970619
 21
0.0000024240684056
 31
0.0
 73
     1
 44
1.0
  0
POINT
  5
696
330
4ED
100
AcDbEntity
  8
Defpoints
 62
     0
100
AcDbPoint
 10
234.0631597275431
 20
324.2651370624008
 30
0.0
  0
POINT
  5
697
330
4ED
100
AcDbEntity
  8
Defpoints
 62
     0
100
AcDbPoint
 10
201.063159727543
 20
332.0392107967207
 30
0.0
  0
POINT
  5
698
330
4ED
100
AcDbEntity
  8
Defpoints
 62
     0
100
AcDbPoint
 10
201.063159727543
 20
318.9760740507968
 30
0.0
  0
ENDBLK
  5
4EF
330
4ED
100
AcDbEntity
  8
0
100
AcDbBlockEnd
  0
BLOCK
  5
4FB
330
4FA
100
AcDbEntity
  8
0
100
AcDbBlockBegin
  2
*D29
 70
     1
 10
0.0
 20
0.0
 30
0.0
  3
*D29
  1

  0
LINE
  5
699
330
4FA
100
AcDbEntity
  8
1
 62
     2
370
    -2
100
AcDbLine
 10
245.063159727543
 20
331.0392107967207
 30
0.0
 11
245.063159727543
 21
309.2022940131998
 31
0.0
  0
LINE
  5
69A
330
4FA
100
AcDbEntity
  8
1
 62
     2
370
    -2
100
AcDbLine
 10
201.063159727543
 20
331.0392107967207
 30
0.0
 11
201.063159727543
 21
309.2022940131998
 31
0.0
  0
LINE
  5
69B
330
4FA
100
AcDbEntity
  8
1
 62
     2
370
    -2
100
AcDbLine
 10
242.6131597275431
 20
310.2022940131998
 30
0.0
 11
225.758909727551
 21
310.2022940131998
 31
0.0
  0
LINE
  5
69C
330
4FA
100
AcDbEntity
  8
1
 62
     2
370
    -2
100
AcDbLine
 10
203.513159727543
 20
310.2022940131998
 30
0.0
 11
220.3674097275351
 21
310.2022940131998
 31
0.0
  0
INSERT
  5
69D
330
4FA
100
AcDbEntity
  8
1
 62
     2
370
    -2
100
AcDbBlockReference
  2
_Open30
 10
245.063159727543
 20
310.2022940131998
 30
0.0
 41
2.45
 42
2.45
 43
2.45
  0
INSERT
  5
69E
330
4FA
100
AcDbEntity
  8
1
 62
     2
370
    -2
100
AcDbBlockReference
  2
_Open30
 10
201.063159727543
 20
310.2022940131998
 30
0.0
 41
2.45
 42
2.45
 43
2.45
 50
180.0
  0
MTEXT
  5
69F
330
4FA
100
AcDbEntity
  8
1
 62
     3
100
AcDbMText
 10
223.0631597275431
 20
310.2022940131998
 30
0.0
 40
3.5
 41
0.0
 71
     5
 72
     1
  1
\A1;45
  7
CONVERTER_14
 11
0.9999999999970619
 21
0.0000024240684056
 31
0.0
 73
     1
 44
1.0
  0
POINT
  5
6A0
330
4FA
100
AcDbEntity
  8
Defpoints
 62
     0
100
AcDbPoint
 10
245.063159727543
 20
332.0392107967207
 30
0.0
  0
POINT
  5
6A1
330
4FA
100
AcDbEntity
  8
Defpoints
 62
     0
100
AcDbPoint
 10
201.063159727543
 20
332.0392107967207
 30
0.0
  0
POINT
  5
6A2
330
4FA
100
AcDbEntity
  8
Defpoints
 62
     0
100
AcDbPoint
 10
201.063159727543
 20
310.2022940131998
 30
0.0
  0
ENDBLK
  5
4FC
330
4FA
100
AcDbEntity
  8
0
100
AcDbBlockEnd
  0
ENDSEC
  0
SECTION
  2
ENTITIES
  0
LWPOLYLINE
  5
AF
330
75
100
AcDbEntity
  8
viewports
100
AcDbPolyline
 90
        4
 70
     1
 43
0.0
 10
-56.81117193185241
 20
164.6349990621389
 10
356.7823421651004
 20
164.6349990621389
 10
356.7823421651004
 20
457.3822871146171
 10
-56.81117193185241
 20
457.3822871146171
  0
LINE
  5
B4
330
75
100
AcDbEntity
  8
1
  6
Continuous
 62
     7
100
AcDbLine
 10
208.4739160831368
 20
190.1089884441209
 30
0.0
 11
208.4739160831369
 21
182.1312808275515
 31
0.0
  0
LINE
  5
B8
330
75
100
AcDbEntity
  8
1
  6
Continuous
 62
     7
100
AcDbLine
 10
205.6025953040501
 20
181.0443243058125
 30
0.0
 11
208.0465409035087
 21
190.1652534539259
 31
0.0
  0
LINE
  5
B9
330
75
100
AcDbEntity
  8
1
  6
Continuous
 62
     7
100
AcDbLine
 10
202.4520159004458
 20
190.206731052873
 30
0.0
 11
204.9070753890463
 21
181.0443243058125
 31
0.0
  0
LINE
  5
BA
330
75
100
AcDbEntity
  8
1
  6
Continuous
 62
     7
100
AcDbLine
 10
202.024640720818
 20
181.9863532913198
 30
0.0
 11
202.024640720818
 21
190.1504660430681
 31
0.0
  0
LINE
  5
BB
330
75
100
AcDbEntity
  8
1
  6
Continuous
 62
     7
100
AcDbLine
 10
205.6025953040501
 20
181.0443243058125
 30
0.0
 11
204.9070753890463
 21
181.0443243058125
 31
0.0
  0
LINE
  5
BC
330
75
100
AcDbEntity
  8
1
  6
Continuous
 62
     7
100
AcDbLine
 10
207.8217421700932
 20
181.7689619869719
 30
0.0
 11
208.1115972425573
 21
181.7689619869719
 31
0.0
  0
LINE
  5
BD
330
75
100
AcDbEntity
  8
1
  6
Continuous
 62
     7
100
AcDbLine
 10
207.6768146338614
 20
181.0443243058125
 30
0.0
 11
207.6768146338614
 21
181.62403445074
 31
0.0
  0
LINE
  5
BE
330
75
100
AcDbEntity
  8
1
  6
Continuous
 62
     7
100
AcDbLine
 10
211.7347856483539
 20
181.0443243058125
 30
0.0
 11
207.6768146338614
 21
181.0443243058125
 31
0.0
  0
LINE
  5
BF
330
75
100
AcDbEntity
  8
1
  6
Continuous
 62
     7
100
AcDbLine
 10
211.7347856483539
 20
181.62403445074
 30
0.0
 11
211.7347856483539
 21
181.0443243058125
 31
0.0
  0
LINE
  5
C0
330
75
100
AcDbEntity
  8
1
  6
Continuous
 62
     7
100
AcDbLine
 10
211.3000030396585
 20
181.7689619869719
 30
0.0
 11
211.5898581121224
 21
181.7689619869719
 31
0.0
  0
LINE
  5
C1
330
75
100
AcDbEntity
  8
1
  6
Continuous
 62
     7
100
AcDbLine
 10
210.937684199079
 20
189.9573677840734
 30
0.0
 11
210.937684199079
 21
182.1312808275515
 31
0.0
  0
LINE
  5
C2
330
75
100
AcDbEntity
  8
1
  6
Continuous
 62
     7
100
AcDbLine
 10
211.5898581121224
 20
190.3196866246531
 30
0.0
 11
211.3000030396585
 21
190.3196866246531
 31
0.0
  0
LINE
  5
C3
330
75
100
AcDbEntity
  8
1
  6
Continuous
 62
     7
100
AcDbLine
 10
211.7347856483539
 20
191.0443243058125
 30
0.0
 11
211.7347856483539
 21
190.464614160885
 31
0.0
  0
LINE
  5
C4
330
75
100
AcDbEntity
  8
1
  6
Continuous
 62
     7
100
AcDbLine
 10
207.5318870976297
 20
191.0443243058125
 30
0.0
 11
211.7347856483539
 21
191.0443243058125
 31
0.0
  0
LINE
  5
C5
330
75
100
AcDbEntity
  8
1
  6
Continuous
 62
     7
100
AcDbLine
 10
200.5753653584989
 20
191.0443243058125
 30
0.0
 11
204.7782639092237
 21
191.0443243058125
 31
0.0
  0
LINE
  5
C6
330
75
100
AcDbEntity
  8
1
  6
Continuous
 62
     7
100
AcDbLine
 10
200.5753653584989
 20
190.464614160885
 30
0.0
 11
200.5753653584989
 21
191.0443243058125
 31
0.0
  0
LINE
  5
C7
330
75
100
AcDbEntity
  8
1
  6
Continuous
 62
     7
100
AcDbLine
 10
201.0826117353107
 20
190.3196866246531
 30
0.0
 11
200.720292894731
 21
190.3196866246531
 31
0.0
  0
LINE
  5
C8
330
75
100
AcDbEntity
  8
1
  6
Continuous
 62
     7
100
AcDbLine
 10
201.3000030396585
 20
181.9863532913198
 30
0.0
 11
201.3000030396585
 21
190.1022953203053
 31
0.0
  0
LINE
  5
C9
330
75
100
AcDbEntity
  8
1
  6
Continuous
 62
     7
100
AcDbLine
 10
200.720292894731
 20
181.7689619869719
 30
0.0
 11
201.0826117353107
 21
181.7689619869719
 31
0.0
  0
LINE
  5
CA
330
75
100
AcDbEntity
  8
1
  6
Continuous
 62
     7
100
AcDbLine
 10
200.5753653584989
 20
181.0443243058125
 30
0.0
 11
200.5753653584991
 21
181.6240344507399
 31
0.0
  0
LINE
  5
CB
330
75
100
AcDbEntity
  8
1
  6
Continuous
 62
     7
100
AcDbLine
 10
202.6043508657454
 20
181.0443243058125
 30
0.0
 11
200.5753653584989
 21
181.0443243058125
 31
0.0
  0
LINE
  5
CC
330
75
100
AcDbEntity
  8
1
  6
Continuous
 62
     7
100
AcDbLine
 10
202.6043508657454
 20
181.62403445074
 30
0.0
 11
202.6043508657454
 21
181.0443243058125
 31
0.0
  0
LINE
  5
CD
330
75
100
AcDbEntity
  8
1
  6
Continuous
 62
     7
100
AcDbLine
 10
202.2420320251657
 20
181.7689619869719
 30
0.0
 11
202.4594233295134
 21
181.7689619869719
 31
0.0
  0
LINE
  5
CE
330
75
100
AcDbEntity
  8
1
  6
Continuous
 62
     7
100
AcDbLine
 10
206.3650593787069
 20
186.6896639751135
 30
0.0
 11
207.5318870976297
 21
191.0443243058125
 31
0.0
  0
LINE
  5
CF
330
75
100
AcDbEntity
  8
1
  6
Continuous
 62
     7
100
AcDbLine
 10
204.7782639092237
 20
191.0443243058125
 30
0.0
 11
205.9450916281463
 21
186.6896639751135
 31
0.0
  0
LINE
  5
D0
330
75
100
AcDbEntity
  8
1
  6
Continuous
 62
     7
100
AcDbLine
 10
191.3327764298936
 20
184.4558960292339
 30
0.0
 11
196.1493008814544
 21
189.2724204807946
 31
0.0
  0
LINE
  5
D1
330
75
100
AcDbEntity
  8
1
  6
Continuous
 62
     7
100
AcDbLine
 10
197.7889687798578
 20
187.632752582391
 30
0.0
 11
192.9724443282973
 21
182.8162281308305
 31
0.0
  0
LINE
  5
D2
330
75
100
AcDbEntity
  8
1
  6
Continuous
 62
     7
100
AcDbLine
 10
184.8507276773394
 20
181.0443243058125
 30
0.0
 11
182.6768146338611
 21
181.0443243058125
 31
0.0
  0
LINE
  5
D3
330
75
100
AcDbEntity
  8
1
  6
Continuous
 62
     7
100
AcDbLine
 10
182.6768146338611
 20
181.0443243058125
 30
0.0
 11
182.6768146338611
 21
181.62403445074
 31
0.0
  0
LINE
  5
D4
330
75
100
AcDbEntity
  8
1
  6
Continuous
 62
     7
100
AcDbLine
 10
182.8217421700932
 20
181.7689619869719
 30
0.0
 11
183.1115972425569
 21
181.7689619869719
 31
0.0
  0
LINE
  5
D5
330
75
100
AcDbEntity
  8
1
  6
Continuous
 62
     7
100
AcDbLine
 10
183.4739160831365
 20
182.1312808275515
 30
0.0
 11
183.4739160831365
 21
189.8124402478415
 31
0.0
  0
LINE
  5
D6
330
75
100
AcDbEntity
  8
1
  6
Continuous
 62
     7
100
AcDbLine
 10
182.9666697063249
 20
190.3196866246531
 30
0.0
 11
182.7581576399805
 21
190.3196866246531
 31
0.0
  0
LINE
  5
D7
330
75
100
AcDbEntity
  8
1
  6
Continuous
 62
     7
100
AcDbLine
 10
181.7904744439699
 20
189.6097998120634
 30
0.0
 11
181.5006766448587
 21
188.6891596581348
 31
0.0
  0
LINE
  5
D8
330
75
100
AcDbEntity
  8
1
  6
Continuous
 62
     7
100
AcDbLine
 10
180.792946012648
 20
188.8096596309856
 30
0.0
 11
180.8652204309626
 21
191.0443243058125
 31
0.0
  0
LINE
  5
D9
330
75
100
AcDbEntity
  8
1
  6
Continuous
 62
     7
100
AcDbLine
 10
180.8652204309626
 20
191.0443243058125
 30
0.0
 11
184.8507276773394
 21
191.0443243058125
 31
0.0
  0
LINE
  5
DA
330
75
100
AcDbEntity
  8
1
  6
Continuous
 62
     7
100
AcDbLine
 10
187.0246407208179
 20
181.0443243058125
 30
0.0
 11
184.8507276773394
 21
181.0443243058125
 31
0.0
  0
LINE
  5
DB
330
75
100
AcDbEntity
  8
1
  6
Continuous
 62
     7
100
AcDbLine
 10
187.0246407208179
 20
181.62403445074
 30
0.0
 11
187.0246407208179
 21
181.0443243058125
 31
0.0
  0
LINE
  5
DC
330
75
100
AcDbEntity
  8
1
  6
Continuous
 62
     7
100
AcDbLine
 10
186.5898581121222
 20
181.7689619869719
 30
0.0
 11
186.8797131845862
 21
181.7689619869719
 31
0.0
  0
LINE
  5
DD
330
75
100
AcDbEntity
  8
1
  6
Continuous
 62
     7
100
AcDbLine
 10
186.2275392715424
 20
189.8124402478415
 30
0.0
 11
186.2275392715424
 21
182.1312808275515
 31
0.0
  0
LINE
  5
DE
330
75
100
AcDbEntity
  8
1
  6
Continuous
 62
     7
100
AcDbLine
 10
186.9432977146986
 20
190.3196866246531
 30
0.0
 11
186.7347856483542
 21
190.3196866246531
 31
0.0
  0
LINE
  5
DF
330
75
100
AcDbEntity
  8
1
  6
Continuous
 62
     7
100
AcDbLine
 10
188.2007787098205
 20
188.6891596581348
 30
0.0
 11
187.9109809107092
 21
189.6097998120634
 31
0.0
  0
LINE
  5
E0
330
75
100
AcDbEntity
  8
1
  6
Continuous
 62
     7
100
AcDbLine
 10
188.8362349237164
 20
191.0443243058125
 30
0.0
 11
188.908509342031
 21
188.8096596309856
 31
0.0
  0
LINE
  5
E1
330
75
100
AcDbEntity
  8
1
  6
Continuous
 62
     7
100
AcDbLine
 10
184.8507276773394
 20
191.0443243058125
 30
0.0
 11
188.8362349237164
 21
191.0443243058125
 31
0.0
  0
LINE
  5
E2
330
75
100
AcDbEntity
  8
1
  6
Continuous
 62
     7
100
AcDbLine
 10
176.8413657981029
 20
185.6731007633608
 30
0.0
 11
175.8557214648679
 21
188.8969981116166
 31
0.0
  0
LINE
  5
E3
330
75
100
AcDbEntity
  8
1
  6
Continuous
 62
     7
100
AcDbLine
 10
174.6621847933798
 20
185.392150392769
 30
0.0
 11
176.6334734598499
 21
185.3921503927689
 31
0.0
  0
LINE
  5
E4
330
75
100
AcDbEntity
  8
1
  6
Continuous
 62
     7
100
AcDbLine
 10
175.4399367883621
 20
188.8969981116166
 30
0.0
 11
174.4542924551271
 21
185.6731007633608
 31
0.0
  0
LINE
  5
E5
330
75
100
AcDbEntity
  8
1
  6
Continuous
 62
     7
100
AcDbLine
 10
174.0536262280639
 20
181.62403445074
 30
0.0
 11
174.0536262280639
 21
181.0443243058124
 31
0.0
  0
LINE
  5
E6
330
75
100
AcDbEntity
  8
1
  6
Continuous
 62
     7
100
AcDbLine
 10
173.5544649330226
 20
181.7689619869719
 30
0.0
 11
173.9086986918323
 21
181.7689619869719
 31
0.0
  0
LINE
  5
E7
330
75
100
AcDbEntity
  8
1
  6
Continuous
 62
     7
100
AcDbLine
 10
174.0998220998127
 20
184.5136804735059
 30
0.0
 11
173.3465725947698
 21
182.0499123575637
 31
0.0
  0
LINE
  5
E8
330
75
100
AcDbEntity
  8
1
  6
Continuous
 62
     7
100
AcDbLine
 10
176.9343234474086
 20
184.6675127116094
 30
0.0
 11
174.3077144380656
 21
184.6675127116094
 31
0.0
  0
LINE
  5
E9
330
75
100
AcDbEntity
  8
1
  6
Continuous
 62
     7
100
AcDbLine
 10
177.9204539423744
 20
182.1435624810945
 30
0.0
 11
177.2115132317458
 21
184.4624030608047
 31
0.0
  0
LINE
  5
EA
330
75
100
AcDbEntity
  8
1
  6
Continuous
 62
     7
100
AcDbLine
 10
177.2420320251657
 20
181.7689619869719
 30
0.0
 11
177.6432641580373
 21
181.7689619869719
 31
0.0
  0
LINE
  5
EB
330
75
100
AcDbEntity
  8
1
  6
Continuous
 62
     7
100
AcDbLine
 10
177.0971044889336
 20
181.0443243058125
 30
0.0
 11
177.0971044889336
 21
181.62403445074
 31
0.0
  0
LINE
  5
EC
330
75
100
AcDbEntity
  8
1
  6
Continuous
 62
     7
100
AcDbLine
 10
181.4449305758901
 20
181.0443243058125
 30
0.0
 11
177.0971044889336
 21
181.0443243058125
 31
0.0
  0
LINE
  5
ED
330
75
100
AcDbEntity
  8
1
  6
Continuous
 62
     7
100
AcDbLine
 10
181.4449305758901
 20
181.62403445074
 30
0.0
 11
181.4449305758901
 21
181.0443243058125
 31
0.0
  0
LINE
  5
EE
330
75
100
AcDbEntity
  8
1
  6
Continuous
 62
     7
100
AcDbLine
 10
180.8036498892693
 20
181.7689619869719
 30
0.0
 11
181.3000030396585
 21
181.7689619869719
 31
0.0
  0
LINE
  5
EF
330
75
100
AcDbEntity
  8
1
  6
Continuous
 62
     7
100
AcDbLine
 10
177.6997852079758
 20
191.0443243058125
 30
0.0
 11
180.457162658848
 21
182.0253490504782
 31
0.0
  0
LINE
  5
F0
330
75
100
AcDbEntity
  8
1
  6
Continuous
 62
     7
100
AcDbLine
 10
175.3386926393991
 20
191.0443243058125
 30
0.0
 11
177.6997852079758
 21
191.0443243058125
 31
0.0
  0
LINE
  5
F1
330
75
100
AcDbEntity
  8
1
  6
Continuous
 62
     7
100
AcDbLine
 10
172.5813151885272
 20
182.0253490504782
 30
0.0
 11
175.3386926393991
 21
191.0443243058125
 31
0.0
  0
LINE
  5
F2
330
75
100
AcDbEntity
  8
1
  6
Continuous
 62
     7
100
AcDbLine
 10
171.8797131845859
 20
181.7689619869719
 30
0.0
 11
172.2348279581057
 21
181.7689619869719
 31
0.0
  0
LINE
  5
F3
330
75
100
AcDbEntity
  8
1
  6
Continuous
 62
     7
100
AcDbLine
 10
171.7347856483539
 20
181.0443243058125
 30
0.0
 11
171.7347856483539
 21
181.62403445074
 31
0.0
  0
LINE
  5
F4
330
75
100
AcDbEntity
  8
1
  6
Continuous
 62
     7
100
AcDbLine
 10
174.0536262280639
 20
181.0443243058124
 30
0.0
 11
171.7347856483539
 21
181.0443243058125
 31
0.0
  0
LINE
  5
F5
330
75
100
AcDbEntity
  8
1
  6
Continuous
 62
     5
100
AcDbLine
 10
307.9755430547663
 20
214.5129316908676
 30
0.0
 11
349.9755430547663
 21
214.5129316908676
 31
0.0
  0
LINE
  5
F6
330
75
100
AcDbEntity
  8
1
  6
Continuous
 62
     7
100
AcDbLine
 10
307.9755430547663
 20
207.5129316908676
 30
0.0
 11
349.9755430547663
 21
207.5129316908676
 31
0.0
  0
LINE
  5
F7
330
75
100
AcDbEntity
  8
1
  6
Continuous
 62
     7
100
AcDbLine
 10
349.9755430547663
 20
179.5129316908676
 30
0.0
 11
349.9755430547663
 21
172.5129316908671
 31
0.0
  0
LINE
  5
F8
330
75
100
AcDbEntity
  8
1
  6
Continuous
 62
     5
100
AcDbLine
 10
172.9755430547662
 20
214.5129316908676
 30
0.0
 11
222.9755430547663
 21
214.5129316908676
 31
0.0
  0
LINE
  5
F9
330
75
100
AcDbEntity
  8
1
  6
Continuous
 62
     5
100
AcDbLine
 10
172.9755430547662
 20
214.5129316908676
 30
0.0
 11
172.9755430547662
 21
207.5129316908676
 31
0.0
  0
LINE
  5
FA
330
75
100
AcDbEntity
  8
1
  6
Continuous
 62
     5
100
AcDbLine
 10
222.9755430547663
 20
214.5129316908676
 30
0.0
 11
250.9755430547663
 21
214.5129316908676
 31
0.0
  0
LINE
  5
FB
330
75
100
AcDbEntity
  8
1
  6
Continuous
 62
     5
100
AcDbLine
 10
222.9755430547663
 20
214.5129316908676
 30
0.0
 11
222.9755430547663
 21
207.5129316908676
 31
0.0
  0
LINE
  5
FC
330
75
100
AcDbEntity
  8
1
  6
Continuous
 62
     5
100
AcDbLine
 10
250.9755430547663
 20
214.5129316908676
 30
0.0
 11
257.9755430547663
 21
214.5129316908676
 31
0.0
  0
LINE
  5
FD
330
75
100
AcDbEntity
  8
1
  6
Continuous
 62
     5
100
AcDbLine
 10
250.9755430547663
 20
214.5129316908676
 30
0.0
 11
250.9755430547663
 21
207.5129316908676
 31
0.0
  0
LINE
  5
FE
330
75
100
AcDbEntity
  8
1
  6
Continuous
 62
     5
100
AcDbLine
 10
257.9755430547663
 20
214.5129316908676
 30
0.0
 11
307.9755430547663
 21
214.5129316908676
 31
0.0
  0
LINE
  5
FF
330
75
100
AcDbEntity
  8
1
  6
Continuous
 62
     5
100
AcDbLine
 10
257.9755430547663
 20
214.5129316908676
 30
0.0
 11
257.9755430547663
 21
207.5129316908676
 31
0.0
  0
LINE
  5
100
330
75
100
AcDbEntity
  8
1
  6
Continuous
 62
     5
100
AcDbLine
 10
307.9755430547663
 20
214.5129316908676
 30
0.0
 11
307.9755430547663
 21
207.5129316908676
 31
0.0
  0
LINE
  5
101
330
75
100
AcDbEntity
  8
1
  6
Continuous
 62
     5
100
AcDbLine
 10
165.9755430547662
 20
214.5129316908676
 30
0.0
 11
172.9755430547662
 21
214.5129316908676
 31
0.0
  0
LINE
  5
102
330
75
100
AcDbEntity
  8
1
  6
Continuous
 62
     5
100
AcDbLine
 10
165.9755430547662
 20
207.5129316908676
 30
0.0
 11
165.9755430547662
 21
214.5129316908676
 31
0.0
  0
LINE
  5
103
330
75
100
AcDbEntity
  8
1
  6
Continuous
 62
     7
100
AcDbLine
 10
172.9755430547662
 20
207.5129316908676
 30
0.0
 11
165.9755430547662
 21
207.5129316908676
 31
0.0
  0
LINE
  5
104
330
75
100
AcDbEntity
  8
1
  6
Continuous
 62
     7
100
AcDbLine
 10
172.9755430547662
 20
207.5129316908676
 30
0.0
 11
172.9755430547662
 21
200.5129316908676
 31
0.0
  0
LINE
  5
105
330
75
100
AcDbEntity
  8
1
  6
Continuous
 62
     7
100
AcDbLine
 10
222.9755430547663
 20
207.5129316908676
 30
0.0
 11
172.9755430547662
 21
207.5129316908676
 31
0.0
  0
LINE
  5
106
330
75
100
AcDbEntity
  8
1
  6
Continuous
 62
     7
100
AcDbLine
 10
250.9755430547663
 20
207.5129316908676
 30
0.0
 11
222.9755430547663
 21
207.5129316908676
 31
0.0
  0
LINE
  5
107
330
75
100
AcDbEntity
  8
1
  6
Continuous
 62
     7
100
AcDbLine
 10
250.9755430547663
 20
207.5129316908676
 30
0.0
 11
250.9755430547663
 21
200.5129316908676
 31
0.0
  0
LINE
  5
108
330
75
100
AcDbEntity
  8
1
  6
Continuous
 62
     7
100
AcDbLine
 10
257.9755430547663
 20
207.5129316908676
 30
0.0
 11
250.9755430547663
 21
207.5129316908676
 31
0.0
  0
LINE
  5
109
330
75
100
AcDbEntity
  8
1
  6
Continuous
 62
     7
100
AcDbLine
 10
257.9755430547663
 20
207.5129316908676
 30
0.0
 11
257.9755430547663
 21
200.5129316908676
 31
0.0
  0
LINE
  5
10A
330
75
100
AcDbEntity
  8
1
  6
Continuous
 62
     7
100
AcDbLine
 10
307.9755430547663
 20
207.5129316908676
 30
0.0
 11
257.9755430547663
 21
207.5129316908676
 31
0.0
  0
LINE
  5
10B
330
75
100
AcDbEntity
  8
1
  6
Continuous
 62
     7
100
AcDbLine
 10
307.9755430547663
 20
207.5129316908676
 30
0.0
 11
307.9755430547663
 21
200.5129316908676
 31
0.0
  0
LINE
  5
10C
330
75
100
AcDbEntity
  8
1
  6
Continuous
 62
     7
100
AcDbLine
 10
165.9755430547662
 20
207.5129316908676
 30
0.0
 11
165.9755430547662
 21
200.5129316908676
 31
0.0
  0
LINE
  5
10D
330
75
100
AcDbEntity
  8
1
  6
Continuous
 62
     7
100
AcDbLine
 10
296.9755430547663
 20
172.5129316908676
 30
0.0
 11
296.9755430547663
 21
179.5129316908677
 31
0.0
  0
LINE
  5
10E
330
75
100
AcDbEntity
  8
1
  6
Continuous
 62
     7
100
AcDbLine
 10
293.9755430547663
 20
172.5129316908676
 30
0.0
 11
293.9755430547663
 21
179.5129316908677
 31
0.0
  0
LINE
  5
10F
330
75
100
AcDbEntity
  8
1
  6
Continuous
 62
     7
100
AcDbLine
 10
296.9755430547663
 20
179.5129316908677
 30
0.0
 11
296.9755430547663
 21
186.5129316908676
 31
0.0
  0
LINE
  5
110
330
75
100
AcDbEntity
  8
1
  6
Continuous
 62
     7
100
AcDbLine
 10
296.9755430547663
 20
186.5129316908676
 30
0.0
 11
296.9755430547663
 21
193.5129316908676
 31
0.0
  0
LINE
  5
111
330
75
100
AcDbEntity
  8
1
  6
Continuous
 62
     7
100
AcDbLine
 10
293.9755430547663
 20
186.5129316908676
 30
0.0
 11
293.9755430547663
 21
193.5129316908676
 31
0.0
  0
LINE
  5
112
330
75
100
AcDbEntity
  8
1
  6
Continuous
 62
     4
100
AcDbLine
 10
339.4755430547663
 20
172.5129316908676
 30
0.0
 11
339.4755430547663
 21
179.5129316908676
 31
0.0
  0
LINE
  5
113
330
75
100
AcDbEntity
  8
1
  6
Continuous
 62
     7
100
AcDbLine
 10
339.4755430547663
 20
179.5129316908676
 30
0.0
 11
349.9755430547663
 21
179.5129316908676
 31
0.0
  0
LINE
  5
114
330
75
100
AcDbEntity
  8
1
  6
Continuous
 62
     7
100
AcDbLine
 10
339.4755430547663
 20
172.5129316908676
 30
0.0
 11
349.9755430547663
 21
172.5129316908671
 31
0.0
  0
LINE
  5
115
330
75
100
AcDbEntity
  8
1
  6
Continuous
 62
     7
100
AcDbLine
 10
293.9755430547663
 20
179.5129316908677
 30
0.0
 11
293.9755430547663
 21
186.5129316908676
 31
0.0
  0
LINE
  5
116
330
75
100
AcDbEntity
  8
1
  6
Continuous
 62
     7
100
AcDbLine
 10
293.9755430547663
 20
200.5129316908676
 30
0.0
 11
293.9755430547663
 21
193.5129316908676
 31
0.0
  0
LINE
  5
117
330
75
100
AcDbEntity
  8
1
  6
Continuous
 62
     7
100
AcDbLine
 10
293.4755430547663
 20
200.5129316908676
 30
0.0
 11
293.9755430547663
 21
200.5129316908676
 31
0.0
  0
LINE
  5
118
330
75
100
AcDbEntity
  8
1
  6
Continuous
 62
     7
100
AcDbLine
 10
203.9755430547663
 20
200.5129316908676
 30
0.0
 11
203.9755430547663
 21
193.5129316908676
 31
0.0
  0
LINE
  5
119
330
75
100
AcDbEntity
  8
1
  6
Continuous
 62
     7
100
AcDbLine
 10
200.9755430547663
 20
200.5129316908676
 30
0.0
 11
200.9755430547663
 21
193.5129316908676
 31
0.0
  0
LINE
  5
11A
330
75
100
AcDbEntity
  8
1
  6
Continuous
 62
     7
100
AcDbLine
 10
296.9755430547662
 20
200.5129316908676
 30
0.0
 11
296.9755430547663
 21
193.5129316908676
 31
0.0
  0
LINE
  5
11B
330
75
100
AcDbEntity
  8
1
  6
Continuous
 62
     7
100
AcDbLine
 10
255.4755430547662
 20
186.5129316908676
 30
0.0
 11
255.4755430547663
 21
179.5129316908676
 31
0.0
  0
LINE
  5
11C
330
75
100
AcDbEntity
  8
1
  6
Continuous
 62
     7
100
AcDbLine
 10
255.4755430547663
 20
172.5129316908676
 30
0.0
 11
258.4755430547663
 21
172.5129316908676
 31
0.0
  0
LINE
  5
11D
330
75
100
AcDbEntity
  8
1
  6
Continuous
 62
     7
100
AcDbLine
 10
255.4755430547663
 20
179.5129316908676
 30
0.0
 11
255.4755430547663
 21
172.5129316908676
 31
0.0
  0
LINE
  5
11E
330
75
100
AcDbEntity
  8
1
  6
Continuous
 62
     4
100
AcDbLine
 10
271.9755430547662
 20
200.5129316908676
 30
0.0
 11
271.9755430547663
 21
172.5129316908676
 31
0.0
  0
LINE
  5
11F
330
75
100
AcDbEntity
  8
1
  6
Continuous
 62
     7
100
AcDbLine
 10
258.4755430547663
 20
200.5129316908676
 30
0.0
 11
258.4755430547661
 21
193.5129316908676
 31
0.0
  0
LINE
  5
120
330
75
100
AcDbEntity
  8
1
  6
Continuous
 62
     7
100
AcDbLine
 10
255.4755430547662
 20
193.5129316908676
 30
0.0
 11
255.4755430547662
 21
186.5129316908676
 31
0.0
  0
LINE
  5
121
330
75
100
AcDbEntity
  8
1
  6
Continuous
 62
     7
100
AcDbLine
 10
255.4755430547662
 20
200.5129316908676
 30
0.0
 11
255.4755430547662
 21
193.5129316908676
 31
0.0
  0
LINE
  5
122
330
75
100
AcDbEntity
  8
1
  6
Continuous
 62
     7
100
AcDbLine
 10
255.4755430547662
 20
193.5129316908676
 30
0.0
 11
258.4755430547661
 21
193.5129316908676
 31
0.0
  0
LINE
  5
123
330
75
100
AcDbEntity
  8
1
  6
Continuous
 62
     7
100
AcDbLine
 10
178.9755430547662
 20
200.5129316908677
 30
0.0
 11
178.9755430547662
 21
193.5129316908677
 31
0.0
  0
LINE
  5
124
330
75
100
AcDbEntity
  8
1
  6
Continuous
 62
     7
100
AcDbLine
 10
178.9755430547662
 20
193.5129316908677
 30
0.0
 11
181.9755430547662
 21
193.5129316908677
 31
0.0
  0
LINE
  5
125
330
75
100
AcDbEntity
  8
1
  6
Continuous
 62
     7
100
AcDbLine
 10
181.9755430547662
 20
193.5129316908677
 30
0.0
 11
181.9755430547662
 21
200.5129316908677
 31
0.0
  0
LINE
  5
126
330
75
100
AcDbEntity
  8
1
  6
Continuous
 62
     7
100
AcDbLine
 10
173.5697560797313
 20
195.7242174117734
 30
0.0
 11
173.5697560797313
 21
197.9721726435418
 31
0.0
  0
LINE
  5
127
330
75
100
AcDbEntity
  8
1
  6
Continuous
 62
     7
100
AcDbLine
 10
173.5697560797313
 20
197.9721726435418
 30
0.0
 11
177.5755430547661
 21
199.1589231131717
 31
0.0
  0
LINE
  5
128
330
75
100
AcDbEntity
  8
1
  6
Continuous
 62
     7
100
AcDbLine
 10
177.5755430547661
 20
199.1589231131717
 30
0.0
 11
177.5755430547661
 21
194.5374669421436
 31
0.0
  0
LINE
  5
129
330
75
100
AcDbEntity
  8
1
  6
Continuous
 62
     7
100
AcDbLine
 10
177.5755430547661
 20
194.5374669421436
 30
0.0
 11
173.7524210159464
 21
195.6881226085879
 31
0.0
  0
LINE
  5
12A
330
75
100
AcDbEntity
  8
1
  6
DASH_CENTER
 62
     2
100
AcDbLine
 10
166.7755430547661
 20
196.8481950276576
 30
0.0
 11
178.1755430547662
 21
196.8481950276576
 31
0.0
  0
LINE
  5
12B
330
75
100
AcDbEntity
  8
1
  6
DASH_CENTER
 62
     2
100
AcDbLine
 10
169.6741186685552
 20
199.674901578228
 30
0.0
 11
169.6741186685552
 21
193.8701438463432
 31
0.0
  0
LINE
  5
12C
330
75
100
AcDbEntity
  8
1
  6
Continuous
 62
     7
100
AcDbLine
 10
222.9755430547663
 20
200.5129316908676
 30
0.0
 11
222.9755430547663
 21
207.5129316908676
 31
0.0
  0
LINE
  5
12D
330
75
100
AcDbEntity
  8
1
  6
Continuous
 62
     7
100
AcDbLine
 10
293.4755430547663
 20
200.5129316908676
 30
0.0
 11
293.9755430547663
 21
200.5129316908676
 31
0.0
  0
LINE
  5
12E
330
75
100
AcDbEntity
  8
1
  6
Continuous
 62
     7
100
AcDbLine
 10
349.9755430547663
 20
207.5129316908676
 30
0.0
 11
349.9755430547663
 21
200.5129316908676
 31
0.0
  0
LINE
  5
12F
330
75
100
AcDbEntity
  8
1
  6
Continuous
 62
     7
100
AcDbLine
 10
165.9755430547662
 20
193.5129316908676
 30
0.0
 11
178.9755430547662
 21
193.5129316908677
 31
0.0
  0
LINE
  5
130
330
75
100
AcDbEntity
  8
1
  6
Continuous
 62
     7
100
AcDbLine
 10
293.9755430547663
 20
200.5129316908676
 30
0.0
 11
349.9755430547663
 21
200.5129316908676
 31
0.0
  0
LINE
  5
131
330
75
100
AcDbEntity
  8
1
  6
Continuous
 62
     7
100
AcDbLine
 10
349.9755430547663
 20
200.5129316908676
 30
0.0
 11
349.9755430547663
 21
193.5129316908676
 31
0.0
  0
LINE
  5
132
330
75
100
AcDbEntity
  8
1
  6
Continuous
 62
     7
100
AcDbLine
 10
293.9755430547663
 20
193.5129316908676
 30
0.0
 11
349.9755430547663
 21
193.5129316908676
 31
0.0
  0
LINE
  5
133
330
75
100
AcDbEntity
  8
1
  6
Continuous
 62
     7
100
AcDbLine
 10
349.9755430547663
 20
193.5129316908676
 30
0.0
 11
349.9755430547663
 21
186.5129316908676
 31
0.0
  0
LINE
  5
134
330
75
100
AcDbEntity
  8
1
  6
Continuous
 62
     7
100
AcDbLine
 10
293.9755430547663
 20
186.5129316908676
 30
0.0
 11
349.9755430547663
 21
186.5129316908676
 31
0.0
  0
LINE
  5
135
330
75
100
AcDbEntity
  8
1
  6
Continuous
 62
     7
100
AcDbLine
 10
349.9755430547663
 20
186.5129316908676
 30
0.0
 11
349.9755430547663
 21
179.5129316908676
 31
0.0
  0
LINE
  5
136
330
75
100
AcDbEntity
  8
1
  6
Continuous
 62
     7
100
AcDbLine
 10
293.9755430547663
 20
179.5129316908677
 30
0.0
 11
339.4755430547663
 21
179.5129316908676
 31
0.0
  0
LINE
  5
137
330
75
100
AcDbEntity
  8
1
  6
Continuous
 62
     7
100
AcDbLine
 10
293.9755430547663
 20
179.5129316908677
 30
0.0
 11
339.4755430547663
 21
179.5129316908676
 31
0.0
  0
LINE
  5
138
330
75
100
AcDbEntity
  8
1
  6
Continuous
 62
     7
100
AcDbLine
 10
293.9755430547663
 20
172.5129316908676
 30
0.0
 11
339.4755430547663
 21
172.5129316908676
 31
0.0
  0
LINE
  5
139
330
75
100
AcDbEntity
  8
1
  6
Continuous
 62
     7
100
AcDbLine
 10
349.9755430547663
 20
207.5129316908676
 30
0.0
 11
349.9755430547663
 21
214.5129316908676
 31
0.0
  0
LINE
  5
13A
330
75
100
AcDbEntity
  8
1
  6
Continuous
 62
     7
100
AcDbLine
 10
165.9755430547662
 20
172.5129316908671
 30
0.0
 11
255.4755430547663
 21
172.5129316908676
 31
0.0
  0
LINE
  5
13B
330
75
100
AcDbEntity
  8
1
  6
Continuous
 62
     7
100
AcDbLine
 10
165.9755430547662
 20
200.5129316908676
 30
0.0
 11
293.4755430547663
 21
200.5129316908676
 31
0.0
  0
LINE
  5
13C
330
75
100
AcDbEntity
  8
1
  6
Continuous
 62
     7
100
AcDbLine
 10
165.9755430547662
 20
200.5129316908676
 30
0.0
 11
165.9755430547662
 21
172.5129316908671
 31
0.0
  0
LINE
  5
13D
330
75
100
AcDbEntity
  8
1
  6
Continuous
 62
     7
100
AcDbLine
 10
258.4755430547661
 20
193.5129316908676
 30
0.0
 11
293.9755430547663
 21
193.5129316908676
 31
0.0
  0
LINE
  5
13E
330
75
100
AcDbEntity
  8
1
  6
Continuous
 62
     7
100
AcDbLine
 10
258.4755430547661
 20
193.5129316908676
 30
0.0
 11
258.4755430547661
 21
186.5129316908676
 31
0.0
  0
LINE
  5
13F
330
75
100
AcDbEntity
  8
1
  6
Continuous
 62
     7
100
AcDbLine
 10
255.4755430547662
 20
186.5129316908676
 30
0.0
 11
258.4755430547661
 21
186.5129316908676
 31
0.0
  0
LINE
  5
140
330
75
100
AcDbEntity
  8
1
  6
Continuous
 62
     7
100
AcDbLine
 10
258.4755430547661
 20
186.5129316908676
 30
0.0
 11
258.4755430547663
 21
179.5129316908676
 31
0.0
  0
LINE
  5
141
330
75
100
AcDbEntity
  8
1
  6
Continuous
 62
     7
100
AcDbLine
 10
258.4755430547661
 20
186.5129316908676
 30
0.0
 11
293.9755430547663
 21
186.5129316908676
 31
0.0
  0
LINE
  5
142
330
75
100
AcDbEntity
  8
1
  6
Continuous
 62
     7
100
AcDbLine
 10
255.4755430547663
 20
179.5129316908676
 30
0.0
 11
258.4755430547663
 21
179.5129316908676
 31
0.0
  0
LINE
  5
143
330
75
100
AcDbEntity
  8
1
  6
Continuous
 62
     7
100
AcDbLine
 10
258.4755430547663
 20
179.5129316908676
 30
0.0
 11
258.4755430547663
 21
172.5129316908676
 31
0.0
  0
LINE
  5
144
330
75
100
AcDbEntity
  8
1
  6
Continuous
 62
     7
100
AcDbLine
 10
258.4755430547663
 20
179.5129316908676
 30
0.0
 11
293.9755430547663
 21
179.5129316908677
 31
0.0
  0
LINE
  5
145
330
75
100
AcDbEntity
  8
1
  6
Continuous
 62
     7
100
AcDbLine
 10
258.4755430547663
 20
172.5129316908676
 30
0.0
 11
293.9755430547663
 21
172.5129316908676
 31
0.0
  0
LINE
  5
146
330
75
100
AcDbEntity
  8
1
  6
Continuous
 62
     7
100
AcDbLine
 10
181.9755430547662
 20
193.5129316908677
 30
0.0
 11
200.9755430547663
 21
193.5129316908676
 31
0.0
  0
LINE
  5
147
330
75
100
AcDbEntity
  8
1
  6
Continuous
 62
     7
100
AcDbLine
 10
200.9755430547663
 20
193.5129316908676
 30
0.0
 11
203.9755430547663
 21
193.5129316908676
 31
0.0
  0
LINE
  5
148
330
75
100
AcDbEntity
  8
1
  6
Continuous
 62
     7
100
AcDbLine
 10
203.9755430547663
 20
193.5129316908676
 30
0.0
 11
255.4755430547662
 21
193.5129316908676
 31
0.0
  0
LINE
  5
149
330
75
100
AcDbEntity
  8
1
  6
Continuous
 62
     7
100
AcDbLine
 10
193.9755430547663
 20
200.5129316908675
 30
0.0
 11
193.9755430547663
 21
193.5129316908676
 31
0.0
  0
LINE
  5
14A
330
75
100
AcDbEntity
  8
1
  6
Continuous
 62
     5
100
AcDbLine
 10
172.9755430547662
 20
435.5129316908675
 30
0.0
 11
269.9755430547664
 21
435.5129316908675
 31
0.0
  0
LINE
  5
14B
330
75
100
AcDbEntity
  8
1
  6
Continuous
 62
     5
100
AcDbLine
 10
172.9755430547662
 20
442.5129316908676
 30
0.0
 11
172.9755430547662
 21
435.5129316908675
 31
0.0
  0
LINE
  5
14C
330
75
100
AcDbEntity
  8
1
  6
Continuous
 62
     5
100
AcDbLine
 10
269.9755430547664
 20
435.5129316908675
 30
0.0
 11
284.9755430547664
 21
435.5129316908675
 31
0.0
  0
LINE
  5
14D
330
75
100
AcDbEntity
  8
1
  6
Continuous
 62
     7
100
AcDbLine
 10
269.9755430547664
 20
442.5129316908676
 30
0.0
 11
284.9755430547664
 21
442.5129316908676
 31
0.0
  0
LINE
  5
14E
330
75
100
AcDbEntity
  8
1
  6
Continuous
 62
     5
100
AcDbLine
 10
269.9755430547664
 20
442.5129316908676
 30
0.0
 11
269.9755430547664
 21
435.5129316908675
 31
0.0
  0
LINE
  5
14F
330
75
100
AcDbEntity
  8
1
  6
Continuous
 62
     5
100
AcDbLine
 10
284.9755430547664
 20
435.5129316908675
 30
0.0
 11
309.9755430547664
 21
435.5129316908675
 31
0.0
  0
LINE
  5
150
330
75
100
AcDbEntity
  8
1
  6
Continuous
 62
     5
100
AcDbLine
 10
284.9755430547664
 20
442.5129316908676
 30
0.0
 11
284.9755430547664
 21
435.5129316908675
 31
0.0
  0
LINE
  5
151
330
75
100
AcDbEntity
  8
1
  6
Continuous
 62
     5
100
AcDbLine
 10
309.9755430547664
 20
435.5129316908675
 30
0.0
 11
324.9755430547665
 21
435.5129316908675
 31
0.0
  0
LINE
  5
152
330
75
100
AcDbEntity
  8
1
  6
Continuous
 62
     5
100
AcDbLine
 10
309.9755430547664
 20
442.5129316908676
 30
0.0
 11
309.9755430547664
 21
435.5129316908675
 31
0.0
  0
LINE
  5
153
330
75
100
AcDbEntity
  8
1
  6
Continuous
 62
     5
100
AcDbLine
 10
165.9755430547662
 20
435.5129316908675
 30
0.0
 11
172.9755430547662
 21
435.5129316908675
 31
0.0
  0
LINE
  5
154
330
75
100
AcDbEntity
  8
1
  6
Continuous
 62
     5
100
AcDbLine
 10
165.9755430547662
 20
442.5129316908676
 30
0.0
 11
165.9755430547662
 21
435.5129316908675
 31
0.0
  0
LINE
  5
155
330
75
100
AcDbEntity
  8
1
  6
Continuous
 62
     7
100
AcDbLine
 10
269.9755430547664
 20
449.5129316908676
 30
0.0
 11
269.9755430547664
 21
442.5129316908676
 31
0.0
  0
LINE
  5
156
330
75
100
AcDbEntity
  8
1
  6
Continuous
 62
     7
100
AcDbLine
 10
284.9755430547664
 20
442.5129316908676
 30
0.0
 11
309.9755430547664
 21
442.5129316908676
 31
0.0
  0
LINE
  5
157
330
75
100
AcDbEntity
  8
1
  6
Continuous
 62
     7
100
AcDbLine
 10
284.9755430547664
 20
449.5129316908676
 30
0.0
 11
284.9755430547664
 21
442.5129316908676
 31
0.0
  0
LINE
  5
158
330
75
100
AcDbEntity
  8
1
  6
Continuous
 62
     7
100
AcDbLine
 10
309.9755430547664
 20
442.5129316908676
 30
0.0
 11
324.9755430547665
 21
442.5129316908676
 31
0.0
  0
LINE
  5
159
330
75
100
AcDbEntity
  8
1
  6
Continuous
 62
     7
100
AcDbLine
 10
309.9755430547664
 20
449.5129316908676
 30
0.0
 11
309.9755430547664
 21
442.5129316908676
 31
0.0
  0
LINE
  5
15A
330
75
100
AcDbEntity
  8
1
  6
Continuous
 62
     7
100
AcDbLine
 10
172.9755430547662
 20
449.5129316908676
 30
0.0
 11
172.9755430547662
 21
442.5129316908676
 31
0.0
  0
LINE
  5
15B
330
75
100
AcDbEntity
  8
1
  6
Continuous
 62
     7
100
AcDbLine
 10
172.9755430547662
 20
442.5129316908676
 30
0.0
 11
269.9755430547664
 21
442.5129316908676
 31
0.0
  0
LINE
  5
15C
330
75
100
AcDbEntity
  8
1
  6
Continuous
 62
     7
100
AcDbLine
 10
165.9755430547662
 20
442.5129316908676
 30
0.0
 11
172.9755430547662
 21
442.5129316908676
 31
0.0
  0
LINE
  5
15D
330
75
100
AcDbEntity
  8
1
  6
Continuous
 62
     7
100
AcDbLine
 10
165.9755430547662
 20
449.5129316908676
 30
0.0
 11
165.9755430547662
 21
442.5129316908676
 31
0.0
  0
LINE
  5
15E
330
75
100
AcDbEntity
  8
1
  6
Continuous
 62
     7
100
AcDbLine
 10
324.9755430547665
 20
449.5129316908676
 30
0.0
 11
324.9755430547665
 21
442.5129316908676
 31
0.0
  0
LINE
  5
15F
330
75
100
AcDbEntity
  8
1
  6
Continuous
 62
     5
100
AcDbLine
 10
324.9755430547665
 20
442.5129316908676
 30
0.0
 11
324.9755430547665
 21
435.5129316908675
 31
0.0
  0
LINE
  5
160
330
75
100
AcDbEntity
  8
1
  6
Continuous
 62
     7
100
AcDbLine
 10
324.9755430547665
 20
442.5129316908676
 30
0.0
 11
349.9755430547665
 21
442.5129316908676
 31
0.0
  0
LINE
  5
161
330
75
100
AcDbEntity
  8
1
  6
Continuous
 62
     5
100
AcDbLine
 10
324.9755430547665
 20
435.5129316908675
 30
0.0
 11
349.9755430547665
 21
435.5129316908676
 31
0.0
  0
LINE
  5
162
330
75
100
AcDbEntity
  8
1
  6
Continuous
 62
     5
100
AcDbLine
 10
307.9755430547663
 20
221.5129316908676
 30
0.0
 11
307.9755430547663
 21
214.5129316908676
 31
0.0
  0
LINE
  5
163
330
75
100
AcDbEntity
  8
1
  6
Continuous
 62
     5
100
AcDbLine
 10
307.9755430547663
 20
221.5129316908676
 30
0.0
 11
349.9755430547663
 21
221.5129316908676
 31
0.0
  0
LINE
  5
164
330
75
100
AcDbEntity
  8
1
  6
Continuous
 62
     5
100
AcDbLine
 10
307.9755430547663
 20
228.5129316908676
 30
0.0
 11
349.9755430547663
 21
228.5129316908676
 31
0.0
  0
LINE
  5
165
330
75
100
AcDbEntity
  8
1
  6
Continuous
 62
     5
100
AcDbLine
 10
307.9755430547663
 20
235.5129316908676
 30
0.0
 11
349.9755430547663
 21
235.5129316908676
 31
0.0
  0
LINE
  5
166
330
75
100
AcDbEntity
  8
1
  6
Continuous
 62
     5
100
AcDbLine
 10
307.9755430547663
 20
242.5129316908676
 30
0.0
 11
349.9755430547663
 21
242.5129316908676
 31
0.0
  0
LINE
  5
167
330
75
100
AcDbEntity
  8
1
  6
Continuous
 62
     5
100
AcDbLine
 10
307.9755430547663
 20
249.5129316908676
 30
0.0
 11
349.9755430547663
 21
249.5129316908676
 31
0.0
  0
LINE
  5
168
330
75
100
AcDbEntity
  8
1
  6
Continuous
 62
     5
100
AcDbLine
 10
307.9755430547663
 20
256.5129316908676
 30
0.0
 11
349.9755430547663
 21
256.5129316908676
 31
0.0
  0
LINE
  5
169
330
75
100
AcDbEntity
  8
1
  6
Continuous
 62
     5
100
AcDbLine
 10
307.9755430547663
 20
263.5129316908676
 30
0.0
 11
349.9755430547663
 21
263.5129316908676
 31
0.0
  0
LINE
  5
16A
330
75
100
AcDbEntity
  8
1
  6
Continuous
 62
     5
100
AcDbLine
 10
307.9755430547663
 20
270.5129316908676
 30
0.0
 11
349.9755430547663
 21
270.5129316908676
 31
0.0
  0
LINE
  5
16B
330
75
100
AcDbEntity
  8
1
  6
Continuous
 62
     5
100
AcDbLine
 10
307.9755430547663
 20
277.5129316908676
 30
0.0
 11
349.9755430547663
 21
277.5129316908676
 31
0.0
  0
LINE
  5
16C
330
75
100
AcDbEntity
  8
1
  6
Continuous
 62
     5
100
AcDbLine
 10
307.9755430547663
 20
284.5129316908676
 30
0.0
 11
349.9755430547663
 21
284.5129316908676
 31
0.0
  0
LINE
  5
16D
330
75
100
AcDbEntity
  8
1
  6
Continuous
 62
     5
100
AcDbLine
 10
307.9755430547663
 20
291.5129316908676
 30
0.0
 11
349.9755430547663
 21
291.5129316908676
 31
0.0
  0
LINE
  5
16E
330
75
100
AcDbEntity
  8
1
  6
Continuous
 62
     5
100
AcDbLine
 10
307.9755430547663
 20
298.5129316908676
 30
0.0
 11
349.9755430547663
 21
298.5129316908676
 31
0.0
  0
LINE
  5
16F
330
75
100
AcDbEntity
  8
1
  6
Continuous
 62
     5
100
AcDbLine
 10
307.9755430547663
 20
305.5129316908676
 30
0.0
 11
349.9755430547663
 21
305.5129316908676
 31
0.0
  0
LINE
  5
170
330
75
100
AcDbEntity
  8
1
  6
Continuous
 62
     5
100
AcDbLine
 10
307.9755430547663
 20
228.5129316908676
 30
0.0
 11
307.9755430547663
 21
221.5129316908676
 31
0.0
  0
LINE
  5
171
330
75
100
AcDbEntity
  8
1
  6
Continuous
 62
     5
100
AcDbLine
 10
307.9755430547663
 20
235.5129316908676
 30
0.0
 11
307.9755430547663
 21
228.5129316908676
 31
0.0
  0
LINE
  5
172
330
75
100
AcDbEntity
  8
1
  6
Continuous
 62
     5
100
AcDbLine
 10
307.9755430547663
 20
242.5129316908676
 30
0.0
 11
307.9755430547663
 21
235.5129316908676
 31
0.0
  0
LINE
  5
173
330
75
100
AcDbEntity
  8
1
  6
Continuous
 62
     5
100
AcDbLine
 10
307.9755430547663
 20
249.5129316908676
 30
0.0
 11
307.9755430547663
 21
242.5129316908676
 31
0.0
  0
LINE
  5
174
330
75
100
AcDbEntity
  8
1
  6
Continuous
 62
     5
100
AcDbLine
 10
307.9755430547663
 20
256.5129316908676
 30
0.0
 11
307.9755430547663
 21
249.5129316908676
 31
0.0
  0
LINE
  5
175
330
75
100
AcDbEntity
  8
1
  6
Continuous
 62
     5
100
AcDbLine
 10
307.9755430547663
 20
263.5129316908676
 30
0.0
 11
307.9755430547663
 21
256.5129316908676
 31
0.0
  0
LINE
  5
176
330
75
100
AcDbEntity
  8
1
  6
Continuous
 62
     5
100
AcDbLine
 10
307.9755430547663
 20
270.5129316908676
 30
0.0
 11
307.9755430547663
 21
263.5129316908676
 31
0.0
  0
LINE
  5
177
330
75
100
AcDbEntity
  8
1
  6
Continuous
 62
     5
100
AcDbLine
 10
307.9755430547663
 20
277.5129316908676
 30
0.0
 11
307.9755430547663
 21
270.5129316908676
 31
0.0
  0
LINE
  5
178
330
75
100
AcDbEntity
  8
1
  6
Continuous
 62
     5
100
AcDbLine
 10
307.9755430547663
 20
284.5129316908676
 30
0.0
 11
307.9755430547663
 21
277.5129316908676
 31
0.0
  0
LINE
  5
179
330
75
100
AcDbEntity
  8
1
  6
Continuous
 62
     5
100
AcDbLine
 10
307.9755430547663
 20
291.5129316908676
 30
0.0
 11
307.9755430547663
 21
284.5129316908676
 31
0.0
  0
LINE
  5
17A
330
75
100
AcDbEntity
  8
1
  6
Continuous
 62
     5
100
AcDbLine
 10
307.9755430547663
 20
298.5129316908676
 30
0.0
 11
307.9755430547663
 21
291.5129316908676
 31
0.0
  0
LINE
  5
17B
330
75
100
AcDbEntity
  8
1
  6
Continuous
 62
     5
100
AcDbLine
 10
307.9755430547663
 20
305.5129316908676
 30
0.0
 11
307.9755430547663
 21
298.5129316908676
 31
0.0
  0
LINE
  5
17C
330
75
100
AcDbEntity
  8
1
  6
Continuous
 62
     5
100
AcDbLine
 10
257.9755430547663
 20
221.5129316908676
 30
0.0
 11
307.9755430547663
 21
221.5129316908676
 31
0.0
  0
LINE
  5
17D
330
75
100
AcDbEntity
  8
1
  6
Continuous
 62
     5
100
AcDbLine
 10
257.9755430547663
 20
228.5129316908676
 30
0.0
 11
307.9755430547663
 21
228.5129316908676
 31
0.0
  0
LINE
  5
17E
330
75
100
AcDbEntity
  8
1
  6
Continuous
 62
     5
100
AcDbLine
 10
257.9755430547663
 20
235.5129316908676
 30
0.0
 11
307.9755430547663
 21
235.5129316908676
 31
0.0
  0
LINE
  5
17F
330
75
100
AcDbEntity
  8
1
  6
Continuous
 62
     5
100
AcDbLine
 10
257.9755430547663
 20
242.5129316908676
 30
0.0
 11
307.9755430547663
 21
242.5129316908676
 31
0.0
  0
LINE
  5
180
330
75
100
AcDbEntity
  8
1
  6
Continuous
 62
     5
100
AcDbLine
 10
257.9755430547663
 20
249.5129316908676
 30
0.0
 11
307.9755430547663
 21
249.5129316908676
 31
0.0
  0
LINE
  5
181
330
75
100
AcDbEntity
  8
1
  6
Continuous
 62
     5
100
AcDbLine
 10
257.9755430547663
 20
256.5129316908676
 30
0.0
 11
307.9755430547663
 21
256.5129316908676
 31
0.0
  0
LINE
  5
182
330
75
100
AcDbEntity
  8
1
  6
Continuous
 62
     5
100
AcDbLine
 10
257.9755430547663
 20
263.5129316908676
 30
0.0
 11
307.9755430547663
 21
263.5129316908676
 31
0.0
  0
LINE
  5
183
330
75
100
AcDbEntity
  8
1
  6
Continuous
 62
     5
100
AcDbLine
 10
257.9755430547663
 20
270.5129316908676
 30
0.0
 11
307.9755430547663
 21
270.5129316908676
 31
0.0
  0
LINE
  5
184
330
75
100
AcDbEntity
  8
1
  6
Continuous
 62
     5
100
AcDbLine
 10
257.9755430547663
 20
277.5129316908676
 30
0.0
 11
307.9755430547663
 21
277.5129316908676
 31
0.0
  0
LINE
  5
185
330
75
100
AcDbEntity
  8
1
  6
Continuous
 62
     5
100
AcDbLine
 10
257.9755430547663
 20
284.5129316908676
 30
0.0
 11
307.9755430547663
 21
284.5129316908676
 31
0.0
  0
LINE
  5
186
330
75
100
AcDbEntity
  8
1
  6
Continuous
 62
     5
100
AcDbLine
 10
257.9755430547663
 20
291.5129316908676
 30
0.0
 11
307.9755430547663
 21
291.5129316908676
 31
0.0
  0
LINE
  5
187
330
75
100
AcDbEntity
  8
1
  6
Continuous
 62
     5
100
AcDbLine
 10
257.9755430547663
 20
298.5129316908676
 30
0.0
 11
307.9755430547663
 21
298.5129316908676
 31
0.0
  0
LINE
  5
188
330
75
100
AcDbEntity
  8
1
  6
Continuous
 62
     5
100
AcDbLine
 10
257.9755430547663
 20
305.5129316908676
 30
0.0
 11
307.9755430547663
 21
305.5129316908676
 31
0.0
  0
LINE
  5
189
330
75
100
AcDbEntity
  8
1
  6
Continuous
 62
     5
100
AcDbLine
 10
257.9755430547663
 20
221.5129316908676
 30
0.0
 11
257.9755430547663
 21
214.5129316908676
 31
0.0
  0
LINE
  5
18A
330
75
100
AcDbEntity
  8
1
  6
Continuous
 62
     5
100
AcDbLine
 10
257.9755430547663
 20
228.5129316908676
 30
0.0
 11
257.9755430547663
 21
221.5129316908676
 31
0.0
  0
LINE
  5
18B
330
75
100
AcDbEntity
  8
1
  6
Continuous
 62
     5
100
AcDbLine
 10
250.9755430547663
 20
221.5129316908676
 30
0.0
 11
257.9755430547663
 21
221.5129316908676
 31
0.0
  0
LINE
  5
18C
330
75
100
AcDbEntity
  8
1
  6
Continuous
 62
     5
100
AcDbLine
 10
257.9755430547663
 20
235.5129316908676
 30
0.0
 11
257.9755430547663
 21
228.5129316908676
 31
0.0
  0
LINE
  5
18D
330
75
100
AcDbEntity
  8
1
  6
Continuous
 62
     5
100
AcDbLine
 10
250.9755430547663
 20
228.5129316908676
 30
0.0
 11
257.9755430547663
 21
228.5129316908676
 31
0.0
  0
LINE
  5
18E
330
75
100
AcDbEntity
  8
1
  6
Continuous
 62
     5
100
AcDbLine
 10
257.9755430547663
 20
242.5129316908676
 30
0.0
 11
257.9755430547663
 21
235.5129316908676
 31
0.0
  0
LINE
  5
18F
330
75
100
AcDbEntity
  8
1
  6
Continuous
 62
     5
100
AcDbLine
 10
250.9755430547663
 20
235.5129316908676
 30
0.0
 11
257.9755430547663
 21
235.5129316908676
 31
0.0
  0
LINE
  5
190
330
75
100
AcDbEntity
  8
1
  6
Continuous
 62
     5
100
AcDbLine
 10
257.9755430547663
 20
249.5129316908676
 30
0.0
 11
257.9755430547663
 21
242.5129316908676
 31
0.0
  0
LINE
  5
191
330
75
100
AcDbEntity
  8
1
  6
Continuous
 62
     5
100
AcDbLine
 10
250.9755430547663
 20
242.5129316908676
 30
0.0
 11
257.9755430547663
 21
242.5129316908676
 31
0.0
  0
LINE
  5
192
330
75
100
AcDbEntity
  8
1
  6
Continuous
 62
     5
100
AcDbLine
 10
257.9755430547663
 20
256.5129316908676
 30
0.0
 11
257.9755430547663
 21
249.5129316908676
 31
0.0
  0
LINE
  5
193
330
75
100
AcDbEntity
  8
1
  6
Continuous
 62
     5
100
AcDbLine
 10
250.9755430547663
 20
249.5129316908676
 30
0.0
 11
257.9755430547663
 21
249.5129316908676
 31
0.0
  0
LINE
  5
194
330
75
100
AcDbEntity
  8
1
  6
Continuous
 62
     5
100
AcDbLine
 10
257.9755430547663
 20
263.5129316908676
 30
0.0
 11
257.9755430547663
 21
256.5129316908676
 31
0.0
  0
LINE
  5
195
330
75
100
AcDbEntity
  8
1
  6
Continuous
 62
     5
100
AcDbLine
 10
250.9755430547663
 20
256.5129316908676
 30
0.0
 11
257.9755430547663
 21
256.5129316908676
 31
0.0
  0
LINE
  5
196
330
75
100
AcDbEntity
  8
1
  6
Continuous
 62
     5
100
AcDbLine
 10
257.9755430547663
 20
270.5129316908676
 30
0.0
 11
257.9755430547663
 21
263.5129316908676
 31
0.0
  0
LINE
  5
197
330
75
100
AcDbEntity
  8
1
  6
Continuous
 62
     5
100
AcDbLine
 10
250.9755430547663
 20
263.5129316908676
 30
0.0
 11
257.9755430547663
 21
263.5129316908676
 31
0.0
  0
LINE
  5
198
330
75
100
AcDbEntity
  8
1
  6
Continuous
 62
     5
100
AcDbLine
 10
250.9755430547663
 20
270.5129316908676
 30
0.0
 11
257.9755430547663
 21
270.5129316908676
 31
0.0
  0
LINE
  5
199
330
75
100
AcDbEntity
  8
1
  6
Continuous
 62
     5
100
AcDbLine
 10
257.9755430547663
 20
277.5129316908676
 30
0.0
 11
257.9755430547663
 21
270.5129316908676
 31
0.0
  0
LINE
  5
19A
330
75
100
AcDbEntity
  8
1
  6
Continuous
 62
     5
100
AcDbLine
 10
250.9755430547663
 20
277.5129316908676
 30
0.0
 11
257.9755430547663
 21
277.5129316908676
 31
0.0
  0
LINE
  5
19B
330
75
100
AcDbEntity
  8
1
  6
Continuous
 62
     5
100
AcDbLine
 10
257.9755430547663
 20
284.5129316908676
 30
0.0
 11
257.9755430547663
 21
277.5129316908676
 31
0.0
  0
LINE
  5
19C
330
75
100
AcDbEntity
  8
1
  6
Continuous
 62
     5
100
AcDbLine
 10
250.9755430547663
 20
284.5129316908676
 30
0.0
 11
257.9755430547663
 21
284.5129316908676
 31
0.0
  0
LINE
  5
19D
330
75
100
AcDbEntity
  8
1
  6
Continuous
 62
     5
100
AcDbLine
 10
257.9755430547663
 20
291.5129316908676
 30
0.0
 11
257.9755430547663
 21
284.5129316908676
 31
0.0
  0
LINE
  5
19E
330
75
100
AcDbEntity
  8
1
  6
Continuous
 62
     5
100
AcDbLine
 10
250.9755430547663
 20
291.5129316908676
 30
0.0
 11
257.9755430547663
 21
291.5129316908676
 31
0.0
  0
LINE
  5
19F
330
75
100
AcDbEntity
  8
1
  6
Continuous
 62
     5
100
AcDbLine
 10
257.9755430547663
 20
298.5129316908676
 30
0.0
 11
257.9755430547663
 21
291.5129316908676
 31
0.0
  0
LINE
  5
1A0
330
75
100
AcDbEntity
  8
1
  6
Continuous
 62
     5
100
AcDbLine
 10
250.9755430547663
 20
298.5129316908676
 30
0.0
 11
257.9755430547663
 21
298.5129316908676
 31
0.0
  0
LINE
  5
1A1
330
75
100
AcDbEntity
  8
1
  6
Continuous
 62
     5
100
AcDbLine
 10
257.9755430547663
 20
305.5129316908676
 30
0.0
 11
257.9755430547663
 21
298.5129316908676
 31
0.0
  0
LINE
  5
1A2
330
75
100
AcDbEntity
  8
1
  6
Continuous
 62
     5
100
AcDbLine
 10
250.9755430547663
 20
221.5129316908676
 30
0.0
 11
250.9755430547663
 21
214.5129316908676
 31
0.0
  0
LINE
  5
1A3
330
75
100
AcDbEntity
  8
1
  6
Continuous
 62
     5
100
AcDbLine
 10
250.9755430547663
 20
228.5129316908676
 30
0.0
 11
250.9755430547663
 21
221.5129316908676
 31
0.0
  0
LINE
  5
1A4
330
75
100
AcDbEntity
  8
1
  6
Continuous
 62
     5
100
AcDbLine
 10
250.9755430547663
 20
235.5129316908676
 30
0.0
 11
250.9755430547663
 21
228.5129316908676
 31
0.0
  0
LINE
  5
1A5
330
75
100
AcDbEntity
  8
1
  6
Continuous
 62
     5
100
AcDbLine
 10
250.9755430547663
 20
242.5129316908676
 30
0.0
 11
250.9755430547663
 21
235.5129316908676
 31
0.0
  0
LINE
  5
1A6
330
75
100
AcDbEntity
  8
1
  6
Continuous
 62
     5
100
AcDbLine
 10
250.9755430547663
 20
249.5129316908676
 30
0.0
 11
250.9755430547663
 21
242.5129316908676
 31
0.0
  0
LINE
  5
1A7
330
75
100
AcDbEntity
  8
1
  6
Continuous
 62
     5
100
AcDbLine
 10
250.9755430547663
 20
256.5129316908676
 30
0.0
 11
250.9755430547663
 21
249.5129316908676
 31
0.0
  0
LINE
  5
1A8
330
75
100
AcDbEntity
  8
1
  6
Continuous
 62
     5
100
AcDbLine
 10
250.9755430547663
 20
263.5129316908676
 30
0.0
 11
250.9755430547663
 21
256.5129316908676
 31
0.0
  0
LINE
  5
1A9
330
75
100
AcDbEntity
  8
1
  6
Continuous
 62
     5
100
AcDbLine
 10
250.9755430547663
 20
270.5129316908676
 30
0.0
 11
250.9755430547663
 21
263.5129316908676
 31
0.0
  0
LINE
  5
1AA
330
75
100
AcDbEntity
  8
1
  6
Continuous
 62
     5
100
AcDbLine
 10
250.9755430547663
 20
277.5129316908676
 30
0.0
 11
250.9755430547663
 21
270.5129316908676
 31
0.0
  0
LINE
  5
1AB
330
75
100
AcDbEntity
  8
1
  6
Continuous
 62
     5
100
AcDbLine
 10
250.9755430547663
 20
284.5129316908676
 30
0.0
 11
250.9755430547663
 21
277.5129316908676
 31
0.0
  0
LINE
  5
1AC
330
75
100
AcDbEntity
  8
1
  6
Continuous
 62
     5
100
AcDbLine
 10
250.9755430547663
 20
291.5129316908676
 30
0.0
 11
250.9755430547663
 21
284.5129316908676
 31
0.0
  0
LINE
  5
1AD
330
75
100
AcDbEntity
  8
1
  6
Continuous
 62
     5
100
AcDbLine
 10
250.9755430547663
 20
298.5129316908676
 30
0.0
 11
250.9755430547663
 21
291.5129316908676
 31
0.0
  0
LINE
  5
1AE
330
75
100
AcDbEntity
  8
1
  6
Continuous
 62
     5
100
AcDbLine
 10
250.9755430547663
 20
305.5129316908676
 30
0.0
 11
250.9755430547663
 21
298.5129316908676
 31
0.0
  0
LINE
  5
1AF
330
75
100
AcDbEntity
  8
1
  6
Continuous
 62
     5
100
AcDbLine
 10
250.9755430547663
 20
305.5129316908676
 30
0.0
 11
257.9755430547663
 21
305.5129316908676
 31
0.0
  0
LINE
  5
1B0
330
75
100
AcDbEntity
  8
1
  6
Continuous
 62
     5
100
AcDbLine
 10
222.9755430547663
 20
221.5129316908676
 30
0.0
 11
250.9755430547663
 21
221.5129316908676
 31
0.0
  0
LINE
  5
1B1
330
75
100
AcDbEntity
  8
1
  6
Continuous
 62
     5
100
AcDbLine
 10
222.9755430547663
 20
221.5129316908676
 30
0.0
 11
222.9755430547663
 21
214.5129316908676
 31
0.0
  0
LINE
  5
1B2
330
75
100
AcDbEntity
  8
1
  6
Continuous
 62
     5
100
AcDbLine
 10
172.9755430547662
 20
221.5129316908676
 30
0.0
 11
222.9755430547663
 21
221.5129316908676
 31
0.0
  0
LINE
  5
1B3
330
75
100
AcDbEntity
  8
1
  6
Continuous
 62
     5
100
AcDbLine
 10
222.9755430547663
 20
228.5129316908676
 30
0.0
 11
222.9755430547663
 21
221.5129316908676
 31
0.0
  0
LINE
  5
1B4
330
75
100
AcDbEntity
  8
1
  6
Continuous
 62
     5
100
AcDbLine
 10
222.9755430547663
 20
228.5129316908676
 30
0.0
 11
250.9755430547663
 21
228.5129316908676
 31
0.0
  0
LINE
  5
1B5
330
75
100
AcDbEntity
  8
1
  6
Continuous
 62
     5
100
AcDbLine
 10
222.9755430547663
 20
235.5129316908676
 30
0.0
 11
250.9755430547663
 21
235.5129316908676
 31
0.0
  0
LINE
  5
1B6
330
75
100
AcDbEntity
  8
1
  6
Continuous
 62
     5
100
AcDbLine
 10
222.9755430547663
 20
242.5129316908676
 30
0.0
 11
250.9755430547663
 21
242.5129316908676
 31
0.0
  0
LINE
  5
1B7
330
75
100
AcDbEntity
  8
1
  6
Continuous
 62
     5
100
AcDbLine
 10
222.9755430547663
 20
235.5129316908676
 30
0.0
 11
222.9755430547663
 21
228.5129316908676
 31
0.0
  0
LINE
  5
1B8
330
75
100
AcDbEntity
  8
1
  6
Continuous
 62
     5
100
AcDbLine
 10
222.9755430547663
 20
242.5129316908676
 30
0.0
 11
222.9755430547663
 21
235.5129316908676
 31
0.0
  0
LINE
  5
1B9
330
75
100
AcDbEntity
  8
1
  6
Continuous
 62
     5
100
AcDbLine
 10
172.9755430547662
 20
228.5129316908676
 30
0.0
 11
222.9755430547663
 21
228.5129316908676
 31
0.0
  0
LINE
  5
1BA
330
75
100
AcDbEntity
  8
1
  6
Continuous
 62
     5
100
AcDbLine
 10
172.9755430547662
 20
221.5129316908676
 30
0.0
 11
172.9755430547662
 21
214.5129316908676
 31
0.0
  0
LINE
  5
1BB
330
75
100
AcDbEntity
  8
1
  6
Continuous
 62
     5
100
AcDbLine
 10
172.9755430547662
 20
228.5129316908676
 30
0.0
 11
172.9755430547662
 21
221.5129316908676
 31
0.0
  0
LINE
  5
1BC
330
75
100
AcDbEntity
  8
1
  6
Continuous
 62
     5
100
AcDbLine
 10
165.9755430547662
 20
221.5129316908676
 30
0.0
 11
172.9755430547662
 21
221.5129316908676
 31
0.0
  0
LINE
  5
1BD
330
75
100
AcDbEntity
  8
1
  6
Continuous
 62
     5
100
AcDbLine
 10
165.9755430547662
 20
214.5129316908676
 30
0.0
 11
165.9755430547662
 21
221.5129316908676
 31
0.0
  0
LINE
  5
1BE
330
75
100
AcDbEntity
  8
1
  6
Continuous
 62
     5
100
AcDbLine
 10
165.9755430547662
 20
221.5129316908676
 30
0.0
 11
165.9755430547662
 21
228.5129316908676
 31
0.0
  0
LINE
  5
1BF
330
75
100
AcDbEntity
  8
1
  6
Continuous
 62
     5
100
AcDbLine
 10
165.9755430547662
 20
228.5129316908676
 30
0.0
 11
172.9755430547662
 21
228.5129316908676
 31
0.0
  0
LINE
  5
1C0
330
75
100
AcDbEntity
  8
1
  6
Continuous
 62
     5
100
AcDbLine
 10
172.9755430547662
 20
235.5129316908676
 30
0.0
 11
172.9755430547662
 21
228.5129316908676
 31
0.0
  0
LINE
  5
1C1
330
75
100
AcDbEntity
  8
1
  6
Continuous
 62
     5
100
AcDbLine
 10
165.9755430547662
 20
235.5129316908676
 30
0.0
 11
172.9755430547662
 21
235.5129316908676
 31
0.0
  0
LINE
  5
1C2
330
75
100
AcDbEntity
  8
1
  6
Continuous
 62
     5
100
AcDbLine
 10
165.9755430547662
 20
228.5129316908676
 30
0.0
 11
165.9755430547662
 21
235.5129316908676
 31
0.0
  0
LINE
  5
1C3
330
75
100
AcDbEntity
  8
1
  6
Continuous
 62
     5
100
AcDbLine
 10
165.9755430547662
 20
235.5129316908676
 30
0.0
 11
165.9755430547662
 21
242.5129316908676
 31
0.0
  0
LINE
  5
1C4
330
75
100
AcDbEntity
  8
1
  6
Continuous
 62
     5
100
AcDbLine
 10
165.9755430547662
 20
242.5129316908676
 30
0.0
 11
172.9755430547662
 21
242.5129316908676
 31
0.0
  0
LINE
  5
1C5
330
75
100
AcDbEntity
  8
1
  6
Continuous
 62
     5
100
AcDbLine
 10
172.9755430547662
 20
242.5129316908676
 30
0.0
 11
172.9755430547662
 21
235.5129316908676
 31
0.0
  0
LINE
  5
1C6
330
75
100
AcDbEntity
  8
1
  6
Continuous
 62
     5
100
AcDbLine
 10
172.9755430547662
 20
249.5129316908676
 30
0.0
 11
172.9755430547662
 21
242.5129316908676
 31
0.0
  0
LINE
  5
1C7
330
75
100
AcDbEntity
  8
1
  6
Continuous
 62
     5
100
AcDbLine
 10
165.9755430547662
 20
249.5129316908676
 30
0.0
 11
172.9755430547662
 21
249.5129316908676
 31
0.0
  0
LINE
  5
1C8
330
75
100
AcDbEntity
  8
1
  6
Continuous
 62
     5
100
AcDbLine
 10
165.9755430547662
 20
242.5129316908676
 30
0.0
 11
165.9755430547662
 21
249.5129316908676
 31
0.0
  0
LINE
  5
1C9
330
75
100
AcDbEntity
  8
1
  6
Continuous
 62
     5
100
AcDbLine
 10
165.9755430547662
 20
249.5129316908676
 30
0.0
 11
165.9755430547662
 21
256.5129316908676
 31
0.0
  0
LINE
  5
1CA
330
75
100
AcDbEntity
  8
1
  6
Continuous
 62
     5
100
AcDbLine
 10
165.9755430547662
 20
256.5129316908676
 30
0.0
 11
165.9755430547662
 21
263.5129316908676
 31
0.0
  0
LINE
  5
1CB
330
75
100
AcDbEntity
  8
1
  6
Continuous
 62
     5
100
AcDbLine
 10
165.9755430547662
 20
256.5129316908676
 30
0.0
 11
172.9755430547662
 21
256.5129316908676
 31
0.0
  0
LINE
  5
1CC
330
75
100
AcDbEntity
  8
1
  6
Continuous
 62
     5
100
AcDbLine
 10
165.9755430547662
 20
263.5129316908676
 30
0.0
 11
172.9755430547662
 21
263.5129316908676
 31
0.0
  0
LINE
  5
1CD
330
75
100
AcDbEntity
  8
1
  6
Continuous
 62
     5
100
AcDbLine
 10
172.9755430547662
 20
256.5129316908676
 30
0.0
 11
172.9755430547662
 21
249.5129316908676
 31
0.0
  0
LINE
  5
1CE
330
75
100
AcDbEntity
  8
1
  6
Continuous
 62
     5
100
AcDbLine
 10
172.9755430547662
 20
263.5129316908676
 30
0.0
 11
172.9755430547662
 21
256.5129316908676
 31
0.0
  0
LINE
  5
1CF
330
75
100
AcDbEntity
  8
1
  6
Continuous
 62
     5
100
AcDbLine
 10
165.9755430547662
 20
270.5129316908676
 30
0.0
 11
172.9755430547662
 21
270.5129316908676
 31
0.0
  0
LINE
  5
1D0
330
75
100
AcDbEntity
  8
1
  6
Continuous
 62
     5
100
AcDbLine
 10
165.9755430547662
 20
263.5129316908676
 30
0.0
 11
165.9755430547662
 21
270.5129316908676
 31
0.0
  0
LINE
  5
1D1
330
75
100
AcDbEntity
  8
1
  6
Continuous
 62
     5
100
AcDbLine
 10
172.9755430547662
 20
270.5129316908676
 30
0.0
 11
172.9755430547662
 21
263.5129316908676
 31
0.0
  0
LINE
  5
1D2
330
75
100
AcDbEntity
  8
1
  6
Continuous
 62
     5
100
AcDbLine
 10
165.9755430547662
 20
277.5129316908676
 30
0.0
 11
172.9755430547662
 21
277.5129316908676
 31
0.0
  0
LINE
  5
1D3
330
75
100
AcDbEntity
  8
1
  6
Continuous
 62
     5
100
AcDbLine
 10
172.9755430547662
 20
277.5129316908676
 30
0.0
 11
172.9755430547662
 21
270.5129316908676
 31
0.0
  0
LINE
  5
1D4
330
75
100
AcDbEntity
  8
1
  6
Continuous
 62
     5
100
AcDbLine
 10
165.9755430547662
 20
270.5129316908676
 30
0.0
 11
165.9755430547662
 21
277.5129316908676
 31
0.0
  0
LINE
  5
1D5
330
75
100
AcDbEntity
  8
1
  6
Continuous
 62
     5
100
AcDbLine
 10
165.9755430547662
 20
277.5129316908676
 30
0.0
 11
165.9755430547662
 21
284.5129316908676
 31
0.0
  0
LINE
  5
1D6
330
75
100
AcDbEntity
  8
1
  6
Continuous
 62
     5
100
AcDbLine
 10
172.9755430547662
 20
284.5129316908676
 30
0.0
 11
172.9755430547662
 21
277.5129316908676
 31
0.0
  0
LINE
  5
1D7
330
75
100
AcDbEntity
  8
1
  6
Continuous
 62
     5
100
AcDbLine
 10
165.9755430547662
 20
284.5129316908676
 30
0.0
 11
172.9755430547662
 21
284.5129316908676
 31
0.0
  0
LINE
  5
1D8
330
75
100
AcDbEntity
  8
1
  6
Continuous
 62
     5
100
AcDbLine
 10
172.9755430547662
 20
291.5129316908676
 30
0.0
 11
172.9755430547662
 21
284.5129316908676
 31
0.0
  0
LINE
  5
1D9
330
75
100
AcDbEntity
  8
1
  6
Continuous
 62
     5
100
AcDbLine
 10
165.9755430547662
 20
291.5129316908676
 30
0.0
 11
172.9755430547662
 21
291.5129316908676
 31
0.0
  0
LINE
  5
1DA
330
75
100
AcDbEntity
  8
1
  6
Continuous
 62
     5
100
AcDbLine
 10
165.9755430547662
 20
284.5129316908676
 30
0.0
 11
165.9755430547662
 21
291.5129316908676
 31
0.0
  0
LINE
  5
1DB
330
75
100
AcDbEntity
  8
1
  6
Continuous
 62
     5
100
AcDbLine
 10
172.9755430547662
 20
298.5129316908676
 30
0.0
 11
172.9755430547662
 21
291.5129316908676
 31
0.0
  0
LINE
  5
1DC
330
75
100
AcDbEntity
  8
1
  6
Continuous
 62
     5
100
AcDbLine
 10
165.9755430547662
 20
298.5129316908676
 30
0.0
 11
172.9755430547662
 21
298.5129316908676
 31
0.0
  0
LINE
  5
1DD
330
75
100
AcDbEntity
  8
1
  6
Continuous
 62
     5
100
AcDbLine
 10
165.9755430547662
 20
291.5129316908676
 30
0.0
 11
165.9755430547662
 21
298.5129316908676
 31
0.0
  0
LINE
  5
1DE
330
75
100
AcDbEntity
  8
1
  6
Continuous
 62
     5
100
AcDbLine
 10
172.9755430547662
 20
305.5129316908676
 30
0.0
 11
172.9755430547662
 21
298.5129316908676
 31
0.0
  0
LINE
  5
1DF
330
75
100
AcDbEntity
  8
1
  6
Continuous
 62
     5
100
AcDbLine
 10
165.9755430547662
 20
305.5129316908676
 30
0.0
 11
172.9755430547662
 21
305.5129316908676
 31
0.0
  0
LINE
  5
1E0
330
75
100
AcDbEntity
  8
1
  6
Continuous
 62
     5
100
AcDbLine
 10
165.9755430547662
 20
298.5129316908676
 30
0.0
 11
165.9755430547662
 21
305.5129316908676
 31
0.0
  0
LINE
  5
1E1
330
75
100
AcDbEntity
  8
1
  6
Continuous
 62
     5
100
AcDbLine
 10
172.9755430547662
 20
235.5129316908676
 30
0.0
 11
222.9755430547663
 21
235.5129316908676
 31
0.0
  0
LINE
  5
1E2
330
75
100
AcDbEntity
  8
1
  6
Continuous
 62
     5
100
AcDbLine
 10
172.9755430547662
 20
242.5129316908676
 30
0.0
 11
222.9755430547663
 21
242.5129316908676
 31
0.0
  0
LINE
  5
1E3
330
75
100
AcDbEntity
  8
1
  6
Continuous
 62
     5
100
AcDbLine
 10
172.9755430547662
 20
249.5129316908676
 30
0.0
 11
222.9755430547663
 21
249.5129316908676
 31
0.0
  0
LINE
  5
1E4
330
75
100
AcDbEntity
  8
1
  6
Continuous
 62
     5
100
AcDbLine
 10
172.9755430547662
 20
256.5129316908676
 30
0.0
 11
222.9755430547663
 21
256.5129316908676
 31
0.0
  0
LINE
  5
1E5
330
75
100
AcDbEntity
  8
1
  6
Continuous
 62
     5
100
AcDbLine
 10
172.9755430547662
 20
263.5129316908676
 30
0.0
 11
222.9755430547663
 21
263.5129316908676
 31
0.0
  0
LINE
  5
1E6
330
75
100
AcDbEntity
  8
1
  6
Continuous
 62
     5
100
AcDbLine
 10
172.9755430547662
 20
270.5129316908676
 30
0.0
 11
222.9755430547663
 21
270.5129316908676
 31
0.0
  0
LINE
  5
1E7
330
75
100
AcDbEntity
  8
1
  6
Continuous
 62
     5
100
AcDbLine
 10
172.9755430547662
 20
277.5129316908676
 30
0.0
 11
222.9755430547663
 21
277.5129316908676
 31
0.0
  0
LINE
  5
1E8
330
75
100
AcDbEntity
  8
1
  6
Continuous
 62
     5
100
AcDbLine
 10
172.9755430547662
 20
284.5129316908676
 30
0.0
 11
222.9755430547663
 21
284.5129316908676
 31
0.0
  0
LINE
  5
1E9
330
75
100
AcDbEntity
  8
1
  6
Continuous
 62
     5
100
AcDbLine
 10
172.9755430547662
 20
291.5129316908676
 30
0.0
 11
222.9755430547663
 21
291.5129316908676
 31
0.0
  0
LINE
  5
1EA
330
75
100
AcDbEntity
  8
1
  6
Continuous
 62
     5
100
AcDbLine
 10
172.9755430547662
 20
298.5129316908676
 30
0.0
 11
222.9755430547663
 21
298.5129316908676
 31
0.0
  0
LINE
  5
1EB
330
75
100
AcDbEntity
  8
1
  6
Continuous
 62
     5
100
AcDbLine
 10
172.9755430547662
 20
305.5129316908676
 30
0.0
 11
222.9755430547663
 21
305.5129316908676
 31
0.0
  0
LINE
  5
1EC
330
75
100
AcDbEntity
  8
1
  6
Continuous
 62
     5
100
AcDbLine
 10
222.9755430547663
 20
249.5129316908676
 30
0.0
 11
222.9755430547663
 21
242.5129316908676
 31
0.0
  0
LINE
  5
1ED
330
75
100
AcDbEntity
  8
1
  6
Continuous
 62
     5
100
AcDbLine
 10
222.9755430547663
 20
249.5129316908676
 30
0.0
 11
250.9755430547663
 21
249.5129316908676
 31
0.0
  0
LINE
  5
1EE
330
75
100
AcDbEntity
  8
1
  6
Continuous
 62
     5
100
AcDbLine
 10
222.9755430547663
 20
256.5129316908676
 30
0.0
 11
222.9755430547663
 21
249.5129316908676
 31
0.0
  0
LINE
  5
1EF
330
75
100
AcDbEntity
  8
1
  6
Continuous
 62
     5
100
AcDbLine
 10
222.9755430547663
 20
256.5129316908676
 30
0.0
 11
250.9755430547663
 21
256.5129316908676
 31
0.0
  0
LINE
  5
1F0
330
75
100
AcDbEntity
  8
1
  6
Continuous
 62
     5
100
AcDbLine
 10
222.9755430547663
 20
263.5129316908676
 30
0.0
 11
222.9755430547663
 21
256.5129316908676
 31
0.0
  0
LINE
  5
1F1
330
75
100
AcDbEntity
  8
1
  6
Continuous
 62
     5
100
AcDbLine
 10
222.9755430547663
 20
263.5129316908676
 30
0.0
 11
250.9755430547663
 21
263.5129316908676
 31
0.0
  0
LINE
  5
1F2
330
75
100
AcDbEntity
  8
1
  6
Continuous
 62
     5
100
AcDbLine
 10
222.9755430547663
 20
270.5129316908676
 30
0.0
 11
222.9755430547663
 21
263.5129316908676
 31
0.0
  0
LINE
  5
1F3
330
75
100
AcDbEntity
  8
1
  6
Continuous
 62
     5
100
AcDbLine
 10
222.9755430547663
 20
270.5129316908676
 30
0.0
 11
250.9755430547663
 21
270.5129316908676
 31
0.0
  0
LINE
  5
1F4
330
75
100
AcDbEntity
  8
1
  6
Continuous
 62
     5
100
AcDbLine
 10
222.9755430547663
 20
277.5129316908676
 30
0.0
 11
222.9755430547663
 21
270.5129316908676
 31
0.0
  0
LINE
  5
1F5
330
75
100
AcDbEntity
  8
1
  6
Continuous
 62
     5
100
AcDbLine
 10
222.9755430547663
 20
277.5129316908676
 30
0.0
 11
250.9755430547663
 21
277.5129316908676
 31
0.0
  0
LINE
  5
1F6
330
75
100
AcDbEntity
  8
1
  6
Continuous
 62
     5
100
AcDbLine
 10
222.9755430547663
 20
284.5129316908676
 30
0.0
 11
222.9755430547663
 21
277.5129316908676
 31
0.0
  0
LINE
  5
1F7
330
75
100
AcDbEntity
  8
1
  6
Continuous
 62
     5
100
AcDbLine
 10
222.9755430547663
 20
284.5129316908676
 30
0.0
 11
250.9755430547663
 21
284.5129316908676
 31
0.0
  0
LINE
  5
1F8
330
75
100
AcDbEntity
  8
1
  6
Continuous
 62
     5
100
AcDbLine
 10
222.9755430547663
 20
291.5129316908676
 30
0.0
 11
222.9755430547663
 21
284.5129316908676
 31
0.0
  0
LINE
  5
1F9
330
75
100
AcDbEntity
  8
1
  6
Continuous
 62
     5
100
AcDbLine
 10
222.9755430547663
 20
291.5129316908676
 30
0.0
 11
250.9755430547663
 21
291.5129316908676
 31
0.0
  0
LINE
  5
1FA
330
75
100
AcDbEntity
  8
1
  6
Continuous
 62
     5
100
AcDbLine
 10
222.9755430547663
 20
298.5129316908676
 30
0.0
 11
222.9755430547663
 21
291.5129316908676
 31
0.0
  0
LINE
  5
1FB
330
75
100
AcDbEntity
  8
1
  6
Continuous
 62
     5
100
AcDbLine
 10
222.9755430547663
 20
298.5129316908676
 30
0.0
 11
250.9755430547663
 21
298.5129316908676
 31
0.0
  0
LINE
  5
1FC
330
75
100
AcDbEntity
  8
1
  6
Continuous
 62
     5
100
AcDbLine
 10
222.9755430547663
 20
305.5129316908676
 30
0.0
 11
222.9755430547663
 21
298.5129316908676
 31
0.0
  0
LINE
  5
1FD
330
75
100
AcDbEntity
  8
1
  6
Continuous
 62
     5
100
AcDbLine
 10
222.9755430547663
 20
305.5129316908676
 30
0.0
 11
250.9755430547663
 21
305.5129316908676
 31
0.0
  0
LINE
  5
1FE
330
75
100
AcDbEntity
  8
1
  6
Continuous
 62
     5
100
AcDbLine
 10
250.9755430547663
 20
256.5129316908676
 30
0.0
 11
257.9755430547663
 21
256.5129316908676
 31
0.0
  0
ARC
  5
1FF
330
75
100
AcDbEntity
  8
1
  6
Continuous
 62
     7
100
AcDbCircle
 10
192.1526103790955
 20
183.6360620800321
 30
0.0
 40
1.159420289855171
100
AcDbArc
 50
135.0000000000069
 51
315.0000000000023
  0
ARC
  5
200
330
75
100
AcDbEntity
  8
1
  6
Continuous
 62
     7
100
AcDbCircle
 10
196.9691348306561
 20
188.4525865315928
 30
0.0
 40
1.15942028985501
100
AcDbArc
 50
314.9999999999988
 51
134.9999999999977
  0
ARC
  5
201
330
75
100
AcDbEntity
  8
1
  6
Continuous
 62
     7
100
AcDbCircle
 10
181.1550755034265
 20
188.7979474942183
 30
0.0
 40
0.3623188405798844
100
AcDbArc
 50
178.1475627146811
 51
342.527114729684
  0
ARC
  5
202
330
75
100
AcDbEntity
  8
1
  6
Continuous
 62
     7
100
AcDbCircle
 10
188.5463798512526
 20
188.7979474942183
 30
0.0
 40
0.3623188405795305
100
AcDbArc
 50
197.4728852703165
 51
1.85243728531883
  0
CIRCLE
  5
203
330
75
100
AcDbEntity
  8
1
  6
Continuous
 62
     7
100
AcDbCircle
 10
194.560872604876
 20
186.1443243058123
 30
0.0
 40
5.289855072463637
  0
CIRCLE
  5
204
330
75
100
AcDbEntity
  8
1
  6
Continuous
 62
     7
100
AcDbCircle
 10
169.6741186685552
 20
196.8481950276576
 30
0.0
 40
1.1239776158842
  0
CIRCLE
  5
205
330
75
100
AcDbEntity
  8
1
  6
Continuous
 62
     7
100
AcDbCircle
 10
169.6741186685552
 20
196.8481950276576
 30
0.0
 40
2.310728085514028
  0
ARC
  5
206
330
75
100
AcDbEntity
  8
1
  6
Continuous
 62
     7
100
AcDbCircle
 10
211.3000030396585
 20
182.1312808275515
 30
0.0
 40
0.3623188405795759
100
AcDbArc
 50
180.0
 51
270.0
  0
ARC
  5
207
330
75
100
AcDbEntity
  8
1
  6
Continuous
 62
     7
100
AcDbCircle
 10
208.1115972425573
 20
182.1312808275515
 30
0.0
 40
0.3623188405796327
100
AcDbArc
 50
270.0
 51
0.0
  0
ARC
  5
208
330
75
100
AcDbEntity
  8
1
  6
Continuous
 62
     7
100
AcDbCircle
 10
211.3000030396585
 20
189.9573677840734
 30
0.0
 40
0.3623188405797464
100
AcDbArc
 50
90.0
 51
180.0
  0
ARC
  5
209
330
75
100
AcDbEntity
  8
1
  6
Continuous
 62
     7
100
AcDbCircle
 10
208.2565247787889
 20
190.1089884441209
 30
0.0
 40
0.2173913043479843
100
AcDbArc
 50
0.0
 51
164.9999999999447
  0
ARC
  5
20A
330
75
100
AcDbEntity
  8
1
  6
Continuous
 62
     7
100
AcDbCircle
 10
206.1550755034267
 20
186.7459289849183
 30
0.0
 40
0.2173913043479108
100
AcDbArc
 50
194.9999999999873
 51
345.0000000000056
  0
ARC
  5
20B
330
75
100
AcDbEntity
  8
1
  6
Continuous
 62
     7
100
AcDbCircle
 10
202.2420320251657
 20
190.1504660430681
 30
0.0
 40
0.2173913043476912
100
AcDbArc
 50
15.00000000000116
 51
180.0
  0
ARC
  5
20C
330
75
100
AcDbEntity
  8
1
  6
Continuous
 62
     7
100
AcDbCircle
 10
202.2420320251657
 20
181.9863532913198
 30
0.0
 40
0.2173913043477
100
AcDbArc
 50
180.0
 51
270.0
  0
ARC
  5
20D
330
75
100
AcDbEntity
  8
1
  6
Continuous
 62
     7
100
AcDbCircle
 10
201.0826117353107
 20
181.9863532913198
 30
0.0
 40
0.2173913043478706
100
AcDbArc
 50
270.0
 51
0.0
  0
ARC
  5
20E
330
75
100
AcDbEntity
  8
1
  6
Continuous
 62
     7
100
AcDbCircle
 10
201.0826117353107
 20
190.1022953203053
 30
0.0
 40
0.2173913043477
100
AcDbArc
 50
0.0
 51
90.0
  0
ARC
  5
20F
330
75
100
AcDbEntity
  8
1
  6
Continuous
 62
     7
100
AcDbCircle
 10
202.4594233295134
 20
181.62403445074
 30
0.0
 40
0.1449275362320464
100
AcDbArc
 50
0.0
 51
90.0
  0
ARC
  5
210
330
75
100
AcDbEntity
  8
1
  6
Continuous
 62
     7
100
AcDbCircle
 10
200.720292894731
 20
181.62403445074
 30
0.0
 40
0.1449275362318758
100
AcDbArc
 50
90.0
 51
180.0000000000456
  0
ARC
  5
211
330
75
100
AcDbEntity
  8
1
  6
Continuous
 62
     7
100
AcDbCircle
 10
207.8217421700932
 20
181.62403445074
 30
0.0
 40
0.1449275362318758
100
AcDbArc
 50
90.0
 51
180.0
  0
ARC
  5
212
330
75
100
AcDbEntity
  8
1
  6
Continuous
 62
     7
100
AcDbCircle
 10
211.5898581121224
 20
181.62403445074
 30
0.0
 40
0.1449275362314779
100
AcDbArc
 50
0.0
 51
90.0
  0
ARC
  5
213
330
75
100
AcDbEntity
  8
1
  6
Continuous
 62
     7
100
AcDbCircle
 10
211.5898581121224
 20
190.464614160885
 30
0.0
 40
0.1449275362318758
100
AcDbArc
 50
270.0
 51
0.0
  0
ARC
  5
214
330
75
100
AcDbEntity
  8
1
  6
Continuous
 62
     7
100
AcDbCircle
 10
200.720292894731
 20
190.464614160885
 30
0.0
 40
0.1449275362320464
100
AcDbArc
 50
180.0
 51
270.0
  0
ARC
  5
215
330
75
100
AcDbEntity
  8
1
  6
Continuous
 62
     7
100
AcDbCircle
 10
182.8217421700932
 20
181.62403445074
 30
0.0
 40
0.1449275362318758
100
AcDbArc
 50
90.0
 51
180.0
  0
ARC
  5
216
330
75
100
AcDbEntity
  8
1
  6
Continuous
 62
     7
100
AcDbCircle
 10
186.8797131845862
 20
181.62403445074
 30
0.0
 40
0.1449275362317053
100
AcDbArc
 50
0.0
 51
90.0
  0
ARC
  5
217
330
75
100
AcDbEntity
  8
1
  6
Continuous
 62
     7
100
AcDbCircle
 10
186.5898581121222
 20
182.1312808275515
 30
0.0
 40
0.3623188405798032
100
AcDbArc
 50
180.0
 51
270.0
  0
ARC
  5
218
330
75
100
AcDbEntity
  8
1
  6
Continuous
 62
     7
100
AcDbCircle
 10
183.1115972425569
 20
182.1312808275515
 30
0.0
 40
0.3623188405796327
100
AcDbArc
 50
270.0
 51
0.0
  0
ARC
  5
219
330
75
100
AcDbEntity
  8
1
  6
Continuous
 62
     7
100
AcDbCircle
 10
182.7581576399805
 20
189.3051938710298
 30
0.0
 40
1.014492753623357
100
AcDbArc
 50
90.0
 51
162.5271147296978
  0
ARC
  5
21A
330
75
100
AcDbEntity
  8
1
  6
Continuous
 62
     7
100
AcDbCircle
 10
186.9432977146986
 20
189.3051938710298
 30
0.0
 40
1.014492753623313
100
AcDbArc
 50
17.47288527030217
 51
90.0
  0
ARC
  5
21B
330
75
100
AcDbEntity
  8
1
  6
Continuous
 62
     7
100
AcDbCircle
 10
186.7347856483542
 20
189.8124402478415
 30
0.0
 40
0.5072463768116223
100
AcDbArc
 50
90.0
 51
180.0
  0
ARC
  5
21C
330
75
100
AcDbEntity
  8
1
  6
Continuous
 62
     7
100
AcDbCircle
 10
182.9666697063249
 20
189.8124402478415
 30
0.0
 40
0.5072463768116223
100
AcDbArc
 50
0.0
 51
90.0
  0
ARC
  5
21D
330
75
100
AcDbEntity
  8
1
  6
Continuous
 62
     7
100
AcDbCircle
 10
181.3000030396585
 20
181.62403445074
 30
0.0
 40
0.1449275362316484
100
AcDbArc
 50
0.0
 51
90.0
  0
ARC
  5
21E
330
75
100
AcDbEntity
  8
1
  6
Continuous
 62
     7
100
AcDbCircle
 10
177.2420320251657
 20
181.62403445074
 30
0.0
 40
0.1449275362318758
100
AcDbArc
 50
90.0
 51
180.0
  0
ARC
  5
21F
330
75
100
AcDbEntity
  8
1
  6
Continuous
 62
     7
100
AcDbCircle
 10
173.9086986918323
 20
181.62403445074
 30
0.0
 40
0.1449275362315916
100
AcDbArc
 50
0.0
 51
90.0
  0
ARC
  5
220
330
75
100
AcDbEntity
  8
1
  6
Continuous
 62
     7
100
AcDbCircle
 10
171.8797131845859
 20
181.62403445074
 30
0.0
 40
0.1449275362318758
100
AcDbArc
 50
90.0
 51
180.0
  0
ARC
  5
221
330
75
100
AcDbEntity
  8
1
  6
Continuous
 62
     7
100
AcDbCircle
 10
180.8036498892693
 20
182.1312808275515
 30
0.0
 40
0.3623188405795427
100
AcDbArc
 50
196.9999999999884
 51
270.0
  0
ARC
  5
222
330
75
100
AcDbEntity
  8
1
  6
Continuous
 62
     7
100
AcDbCircle
 10
172.2348279581057
 20
182.1312808275515
 30
0.0
 40
0.3623188405796327
100
AcDbArc
 50
270.0
 51
343.000000000025
  0
ARC
  5
223
330
75
100
AcDbEntity
  8
1
  6
Continuous
 62
     7
100
AcDbCircle
 10
177.6432641580373
 20
182.0588170594355
 30
0.0
 40
0.289855072463638
100
AcDbArc
 50
270.0
 51
17.00000000002909
  0
ARC
  5
224
330
75
100
AcDbEntity
  8
1
  6
Continuous
 62
     7
100
AcDbCircle
 10
176.9343234474086
 20
184.3776576391459
 30
0.0
 40
0.2898550724638305
100
AcDbArc
 50
17.00000000000179
 51
90.0
  0
ARC
  5
225
330
75
100
AcDbEntity
  8
1
  6
Continuous
 62
     7
100
AcDbCircle
 10
173.5544649330226
 20
181.9863532913198
 30
0.0
 40
0.2173913043477467
100
AcDbArc
 50
163.0000000000394
 51
270.0
  0
ARC
  5
226
330
75
100
AcDbEntity
  8
1
  6
Continuous
 62
     7
100
AcDbCircle
 10
174.3077144380656
 20
184.4501214072617
 30
0.0
 40
0.2173913043477569
100
AcDbArc
 50
90.0
 51
162.9999999999642
  0
ARC
  5
227
330
75
100
AcDbEntity
  8
1
  6
Continuous
 62
     7
100
AcDbCircle
 10
176.6334734598499
 20
185.6095416971169
 30
0.0
 40
0.2173913043479843
100
AcDbArc
 50
270.0
 51
16.99999999994719
  0
ARC
  5
228
330
75
100
AcDbEntity
  8
1
  6
Continuous
 62
     7
100
AcDbCircle
 10
174.6621847933798
 20
185.6095416971169
 30
0.0
 40
0.217391304347638
100
AcDbArc
 50
163.0000000000322
 51
270.0
  0
ARC
  5
229
330
75
100
AcDbEntity
  8
1
  6
Continuous
 62
     7
100
AcDbCircle
 10
175.6478291266149
 20
188.8334390453727
 30
0.0
 40
0.2173913043479642
100
AcDbArc
 50
16.99999999994049
 51
163.0000000000389
  0
MTEXT
  5
22A
330
75
100
AcDbEntity
  8
1
 62
     3
100
AcDbMText
 10
169.3841089112013
 20
176.6802612544601
 30
0.0
 40
5.0
 41
0.0
 71
     4
 72
     1
  1
アトムリビンテック株式会社
  7
CONVERTER_11
 73
     1
 44
1.32052821128451
  0
MTEXT
  5
22B
330
75
100
AcDbEntity
  8
1
 62
     3
100
AcDbMText
 10
225.8454907190853
 20
179.9967109745967
 30
0.0
 40
2.5
 41
0.0
 71
     4
 72
     1
  1
〒110-8680
  7
CONVERTER_11
 73
     1
 44
1.32052821128451
  0
MTEXT
  5
22C
330
75
100
AcDbEntity
  8
1
 62
     3
100
AcDbMText
 10
225.8288410160503
 20
176.1532181831248
 30
0.0
 40
2.5
 41
0.0
 71
     4
 72
     1
  1
東京都 台東区 入谷 1-27-4
  7
CONVERTER_11
 73
     1
 44
1.32052821128451
  0
MTEXT
  5
22D
330
75
100
AcDbEntity
  8
1
 62
     3
100
AcDbMText
 10
225.8920588260203
 20
184.5517849629325
 30
0.0
 40
3.5
 41
0.0
 71
     4
 72
     1
  1
開  発  部
  7
CONVERTER_11
 73
     1
 44
1.32052821128451
  0
MTEXT
  5
22E
330
75
100
AcDbEntity
  8
1
 62
     4
100
AcDbMText
 10
328.7347091839809
 20
204.2762029935117
 30
0.0
 40
3.0
 41
0.0
 71
     5
 72
     1
  1
備    考
  7
CONVERTER_12
 73
     1
 44
1.200480192076829
  0
MTEXT
  5
22F
330
75
100
AcDbEntity
  8
1
 62
     4
100
AcDbMText
 10
283.05202703688
 20
204.0129316908676
 30
0.0
 40
3.0
 41
0.0
 71
     5
 72
     1
  1
表   面   処   理
  7
CONVERTER_12
 73
     1
 44
1.200480192076829
  0
MTEXT
  5
230
330
75
100
AcDbEntity
  8
1
 62
     4
100
AcDbMText
 10
254.4755430547663
 20
204.0129316908676
 30
0.0
 40
3.0
 41
0.0
 71
     5
 72
     1
  1
数量
  7
CONVERTER_12
 73
     1
 44
1.200480192076829
  0
MTEXT
  5
231
330
75
100
AcDbEntity
  8
1
 62
     4
100
AcDbMText
 10
236.9080440598559
 20
204.0129316908676
 30
0.0
 40
3.0
 41
0.0
 71
     5
 72
     1
  1
材   質
  7
CONVERTER_12
 73
     1
 44
1.200480192076829
  0
MTEXT
  5
232
330
75
100
AcDbEntity
  8
1
 62
     4
100
AcDbMText
 10
197.7755430547661
 20
204.0129316908676
 30
0.0
 40
3.0
 41
0.0
 71
     5
 72
     1
  1
部     品     名
  7
CONVERTER_12
 73
     1
 44
1.200480192076829
  0
MTEXT
  5
233
330
75
100
AcDbEntity
  8
1
 62
     4
100
AcDbMText
 10
169.2755430547661
 20
204.0129316908676
 30
0.0
 40
3.0
 41
0.0
 71
     5
 72
     1
  1
部番
  7
CONVERTER_12
 73
     1
 44
1.200480192076829
  0
MTEXT
  5
234
330
75
100
AcDbEntity
  8
1
 62
     4
100
AcDbMText
 10
294.5724934121529
 20
177.5322846911832
 30
0.0
 40
3.0
 41
0.0
 71
     4
 72
     1
  1
図
  7
CONVERTER_11
 73
     1
 44
1.32052821128451
  0
MTEXT
  5
235
330
75
100
AcDbEntity
  8
1
 62
     4
100
AcDbMText
 10
294.574945544363
 20
174.3818816257198
 30
0.0
 40
3.0
 41
0.0
 71
     4
 72
     1
  1
番
  7
CONVERTER_11
 73
     1
 44
1.32052821128451
  0
MTEXT
  5
236
330
75
100
AcDbEntity
  8
1
 62
     4
100
AcDbMText
 10
294.5724934121529
 20
191.5322846911832
 30
0.0
 40
3.0
 41
0.0
 71
     4
 72
     1
  1
品
  7
CONVERTER_11
 73
     1
 44
1.32052821128451
  0
MTEXT
  5
237
330
75
100
AcDbEntity
  8
1
 62
     4
100
AcDbMText
 10
294.5749455443631
 20
188.3818816257198
 30
0.0
 40
3.0
 41
0.0
 71
     4
 72
     1
  1
番
  7
CONVERTER_11
 73
     1
 44
1.32052821128451
  0
MTEXT
  5
238
330
75
100
AcDbEntity
  8
1
 62
     4
100
AcDbMText
 10
294.5724934121529
 20
184.5322846911832
 30
0.0
 40
3.0
 41
0.0
 71
     4
 72
     1
  1
図
  7
CONVERTER_11
 73
     1
 44
1.32052821128451
  0
MTEXT
  5
239
330
75
100
AcDbEntity
  8
1
 62
     4
100
AcDbMText
 10
294.574945544363
 20
181.3818816257198
 30
0.0
 40
3.0
 41
0.0
 71
     4
 72
     1
  1
名
  7
CONVERTER_11
 73
     1
 44
1.32052821128451
  0
MTEXT
  5
23A
330
75
100
AcDbEntity
  8
1
 62
     4
100
AcDbMText
 10
201.5724934121529
 20
198.5322846911832
 30
0.0
 40
3.0
 41
0.0
 71
     4
 72
     1
  1
名
  7
CONVERTER_11
 73
     1
 44
1.32052821128451
  0
MTEXT
  5
23B
330
75
100
AcDbEntity
  8
1
 62
     4
100
AcDbMText
 10
201.5749455443631
 20
195.3818816257198
 30
0.0
 40
3.0
 41
0.0
 71
     4
 72
     1
  1
称
  7
CONVERTER_11
 73
     1
 44
1.32052821128451
  0
MTEXT
  5
23C
330
75
100
AcDbEntity
  8
1
 62
     4
100
AcDbMText
 10
294.5724934121529
 20
198.5322846911833
 30
0.0
 40
3.0
 41
0.0
 71
     4
 72
     1
  1
品
  7
CONVERTER_11
 73
     1
 44
1.32052821128451
  0
MTEXT
  5
23D
330
75
100
AcDbEntity
  8
1
 62
     4
100
AcDbMText
 10
294.574945544363
 20
195.38188162572
 30
0.0
 40
3.0
 41
0.0
 71
     4
 72
     1
  1
名
  7
CONVERTER_11
 73
     1
 44
1.32052821128451
  0
MTEXT
  5
23E
330
75
100
AcDbEntity
  8
1
 62
     4
100
AcDbMText
 10
256.0749455443631
 20
181.38188162572
 30
0.0
 40
3.0
 41
0.0
 71
     4
 72
     1
  1
計
  7
CONVERTER_11
 73
     1
 44
1.32052821128451
  0
MTEXT
  5
23F
330
75
100
AcDbEntity
  8
1
 62
     4
100
AcDbMText
 10
256.0724934121529
 20
184.5322846911833
 30
0.0
 40
3.0
 41
0.0
 71
     4
 72
     1
  1
設
  7
CONVERTER_11
 73
     1
 44
1.32052821128451
  0
MTEXT
  5
240
330
75
100
AcDbEntity
  8
1
 62
     4
100
AcDbMText
 10
256.0749455443631
 20
174.3818816257198
 30
0.0
 40
3.0
 41
0.0
 71
     4
 72
     1
  1
図
  7
CONVERTER_11
 73
     1
 44
1.32052821128451
  0
MTEXT
  5
241
330
75
100
AcDbEntity
  8
1
 62
     4
100
AcDbMText
 10
256.0724934121529
 20
177.5322846911832
 30
0.0
 40
3.0
 41
0.0
 71
     4
 72
     1
  1
作
  7
CONVERTER_11
 73
     1
 44
1.32052821128451
  0
MTEXT
  5
242
330
75
100
AcDbEntity
  8
1
 62
     4
100
AcDbMText
 10
256.0749455443628
 20
188.3818816257198
 30
0.0
 40
3.0
 41
0.0
 71
     4
 72
     1
  1
図
  7
CONVERTER_11
 73
     1
 44
1.32052821128451
  0
MTEXT
  5
243
330
75
100
AcDbEntity
  8
1
 62
     4
100
AcDbMText
 10
256.0724934121527
 20
191.5322846911832
 30
0.0
 40
3.0
 41
0.0
 71
     4
 72
     1
  1
検
  7
CONVERTER_11
 73
     1
 44
1.32052821128451
  0
MTEXT
  5
244
330
75
100
AcDbEntity
  8
1
 62
     4
100
AcDbMText
 10
256.0749455443628
 20
195.38188162572
 30
0.0
 40
3.0
 41
0.0
 71
     4
 72
     1
  1
認
  7
CONVERTER_11
 73
     1
 44
1.32052821128451
  0
MTEXT
  5
245
330
75
100
AcDbEntity
  8
1
 62
     4
100
AcDbMText
 10
256.0724934121527
 20
198.5322846911833
 30
0.0
 40
3.0
 41
0.0
 71
     4
 72
     1
  1
承
  7
CONVERTER_11
 73
     1
 44
1.32052821128451
  0
MTEXT
  5
246
330
75
100
AcDbEntity
  8
1
 62
     4
100
AcDbMText
 10
179.5749455443629
 20
195.38188162572
 30
0.0
 40
3.0
 41
0.0
 71
     4
 72
     1
  1
度
  7
CONVERTER_11
 73
     1
 44
1.32052821128451
  0
MTEXT
  5
247
330
75
100
AcDbEntity
  8
1
 62
     4
100
AcDbMText
 10
179.5724934121527
 20
198.5322846911833
 30
0.0
 40
3.0
 41
0.0
 71
     4
 72
     1
  1
尺
  7
CONVERTER_11
 73
     1
 44
1.32052821128451
  0
MTEXT
  5
248
330
75
100
AcDbEntity
  8
1
 62
     3
100
AcDbMText
 10
195.438894430167
 20
196.9492644188736
 30
0.0
 40
3.5
 41
0.0
 71
     4
 72
     1
  1
A3
  7
CONVERTER_13
 73
     1
 44
1.32052821128451
  0
MTEXT
  5
249
330
75
100
AcDbEntity
  8
1
 62
     3
100
AcDbMText
 10
290.6182890826114
 20
445.9746934627595
 30
0.0
 40
4.0
 41
0.0
 71
     4
 72
     1
  1
改正承認日
  7
CONVERTER_11
 73
     1
 44
1.32052821128451
  0
MTEXT
  5
24A
330
75
100
AcDbEntity
  8
1
 62
     3
100
AcDbMText
 10
271.7317546524476
 20
445.737117380989
 30
0.0
 40
4.0
 41
0.0
 71
     4
 72
     1
  1
改正承認
  7
CONVERTER_11
 73
     1
 44
1.32052821128451
  0
MTEXT
  5
24B
330
75
100
AcDbEntity
  8
1
 62
     3
100
AcDbMText
 10
311.89919237744
 20
446.0638302147729
 30
0.0
 40
4.0
 41
0.0
 71
     4
 72
     1
  1
改正担当
  7
CONVERTER_11
 73
     1
 44
1.32052821128451
  0
MTEXT
  5
24C
330
75
100
AcDbEntity
  8
1
 62
     3
100
AcDbMText
 10
197.9866948312776
 20
445.8518219451719
 30
0.0
 40
4.0
 41
0.0
 71
     4
 72
     1
  1
改     正      理      由
  7
CONVERTER_11
 73
     1
 44
1.32052821128451
  0
MTEXT
  5
24D
330
75
100
AcDbEntity
  8
1
 62
     3
100
AcDbMText
 10
166.7911910714245
 20
446.128430564725
 30
0.0
 40
4.0
 41
0.0
 71
     4
 72
     1
  1
改番
  7
CONVERTER_11
 73
     1
 44
1.32052821128451
  0
MTEXT
  5
24E
330
75
100
AcDbEntity
  8
1
 62
     3
100
AcDbMText
 10
333.4182890826113
 20
445.9746934627595
 30
0.0
 40
4.0
 41
0.0
 71
     4
 72
     1
  1
改正日
  7
CONVERTER_11
 73
     1
 44
1.32052821128451
  0
MTEXT
  5
24F
330
75
100
AcDbEntity
  8
1
 62
     3
100
AcDbMText
 10
261.4399336111098
 20
182.9314446552698
 30
0.0
 40
5.0
 41
0.0
 71
     4
 72
     1
  1
関根
  7
CONVERTER_11
 73
     1
 44
1.32052821128451
  0
MTEXT
  5
250
330
75
100
AcDbEntity
  8
1
 62
     3
100
AcDbMText
 10
205.2603158596598
 20
196.8264290531508
 30
0.0
 40
5.0
 41
0.0
 71
     4
 72
     1
  1
新SWシステム金具
  7
CONVERTER_11
 73
     1
 44
1.32052821128451
  0
MTEXT
  5
251
330
75
100
AcDbEntity
  8
1
 62
     3
100
AcDbMText
 10
273.1240983275839
 20
196.8340766159658
 30
0.0
 40
4.0
 41
0.0
 71
     4
 72
     1
  1
2003.3.11
  7
CONVERTER_13
 73
     1
 44
1.32052821128451
  0
MTEXT
  5
252
330
75
100
AcDbEntity
  8
1
 62
     3
100
AcDbMText
 10
261.4399336111098
 20
189.9314446552698
 30
0.0
 40
5.0
 41
0.0
 71
     4
 72
     1
  1
中島
  7
CONVERTER_11
 73
     1
 44
1.32052821128451
  0
MTEXT
  5
253
330
75
100
AcDbEntity
  8
1
 62
     3
100
AcDbMText
 10
261.4399336111098
 20
196.9314446552698
 30
0.0
 40
5.0
 41
0.0
 71
     4
 72
     1
  1
逢坂
  7
CONVERTER_11
 73
     1
 44
1.32052821128451
  0
MTEXT
  5
254
330
75
100
AcDbEntity
  8
1
 62
     3
100
AcDbMText
 10
261.4399336111098
 20
175.9314446552697
 30
0.0
 40
5.0
 41
0.0
 71
     4
 72
     1
  1
関根
  7
CONVERTER_11
 73
     1
 44
1.32052821128451
  0
MTEXT
  5
255
330
75
100
AcDbEntity
  8
1
 62
     3
100
AcDbMText
 10
273.1240983275839
 20
189.8340766159658
 30
0.0
 40
4.0
 41
0.0
 71
     4
 72
     1
  1
2003.3.11
  7
CONVERTER_13
 73
     1
 44
1.32052821128451
  0
MTEXT
  5
256
330
75
100
AcDbEntity
  8
1
 62
     3
100
AcDbMText
 10
273.1240983275839
 20
182.8340766159658
 30
0.0
 40
4.0
 41
0.0
 71
     4
 72
     1
  1
2003.3.11
  7
CONVERTER_13
 73
     1
 44
1.32052821128451
  0
MTEXT
  5
257
330
75
100
AcDbEntity
  8
1
 62
     3
100
AcDbMText
 10
273.1240983275839
 20
175.8340766159658
 30
0.0
 40
4.0
 41
0.0
 71
     4
 72
     1
  1
2003.3.11
  7
CONVERTER_13
 73
     1
 44
1.32052821128451
  0
MTEXT
  5
258
330
75
100
AcDbEntity
  8
1
 62
     3
100
AcDbMText
 10
168.7992586402068
 20
210.7985273060478
 30
0.0
 40
5.0
 41
0.0
 71
     4
 72
     1
  1
1
  7
CONVERTER_13
 73
     1
 44
1.32052821128451
  0
MTEXT
  5
259
330
75
100
AcDbEntity
  8
1
 62
     3
100
AcDbMText
 10
168.7992586402068
 20
217.7985273060478
 30
0.0
 40
5.0
 41
0.0
 71
     4
 72
     1
  1
2
  7
CONVERTER_13
 73
     1
 44
1.32052821128451
  0
MTEXT
  5
25A
330
75
100
AcDbEntity
  8
1
 62
     3
100
AcDbMText
 10
168.7992586402068
 20
224.7985273060479
 30
0.0
 40
5.0
 41
0.0
 71
     4
 72
     1
  1
3
  7
CONVERTER_13
 73
     1
 44
1.32052821128451
  0
MTEXT
  5
25B
330
75
100
AcDbEntity
  8
1
 62
     3
100
AcDbMText
 10
168.7992586402068
 20
231.7985273060478
 30
0.0
 40
5.0
 41
0.0
 71
     4
 72
     1
  1
4
  7
CONVERTER_13
 73
     1
 44
1.32052821128451
  0
MTEXT
  5
25C
330
75
100
AcDbEntity
  8
1
 62
     3
100
AcDbMText
 10
168.7992586402068
 20
238.7985273060478
 30
0.0
 40
5.0
 41
0.0
 71
     4
 72
     1
  1
5
  7
CONVERTER_13
 73
     1
 44
1.32052821128451
  0
MTEXT
  5
25D
330
75
100
AcDbEntity
  8
1
 62
     3
100
AcDbMText
 10
168.7992586402068
 20
245.7985273060478
 30
0.0
 40
5.0
 41
0.0
 71
     4
 72
     1
  1
6
  7
CONVERTER_13
 73
     1
 44
1.32052821128451
  0
MTEXT
  5
25E
330
75
100
AcDbEntity
  8
1
 62
     3
100
AcDbMText
 10
168.7992586402068
 20
252.7985273060478
 30
0.0
 40
5.0
 41
0.0
 71
     4
 72
     1
  1
7
  7
CONVERTER_13
 73
     1
 44
1.32052821128451
  0
MTEXT
  5
25F
330
75
100
AcDbEntity
  8
1
 62
     3
100
AcDbMText
 10
168.7992586402068
 20
259.7985273060478
 30
0.0
 40
5.0
 41
0.0
 71
     4
 72
     1
  1
8
  7
CONVERTER_13
 73
     1
 44
1.32052821128451
  0
MTEXT
  5
260
330
75
100
AcDbEntity
  8
1
 62
     3
100
AcDbMText
 10
168.7992586402068
 20
266.7985273060478
 30
0.0
 40
5.0
 41
0.0
 71
     4
 72
     1
  1
9
  7
CONVERTER_13
 73
     1
 44
1.32052821128451
  0
MTEXT
  5
261
330
75
100
AcDbEntity
  8
1
 62
     3
100
AcDbMText
 10
167.2992586402068
 20
273.7985273060478
 30
0.0
 40
5.0
 41
0.0
 71
     4
 72
     1
  1
10
  7
CONVERTER_13
 73
     1
 44
1.32052821128451
  0
MTEXT
  5
262
330
75
100
AcDbEntity
  8
1
 62
     3
100
AcDbMText
 10
167.2992586402068
 20
280.7985273060478
 30
0.0
 40
5.0
 41
0.0
 71
     4
 72
     1
  1
11
  7
CONVERTER_13
 73
     1
 44
1.32052821128451
  0
MTEXT
  5
263
330
75
100
AcDbEntity
  8
1
 62
     3
100
AcDbMText
 10
167.2992586402068
 20
287.7985273060478
 30
0.0
 40
5.0
 41
0.0
 71
     4
 72
     1
  1
12
  7
CONVERTER_13
 73
     1
 44
1.32052821128451
  0
MTEXT
  5
264
330
75
100
AcDbEntity
  8
1
 62
     3
100
AcDbMText
 10
167.2992586402068
 20
294.7985273060478
 30
0.0
 40
5.0
 41
0.0
 71
     4
 72
     1
  1
13
  7
CONVERTER_13
 73
     1
 44
1.32052821128451
  0
MTEXT
  5
265
330
75
100
AcDbEntity
  8
1
 62
     3
100
AcDbMText
 10
175.0305912937928
 20
210.9606532951798
 30
0.0
 40
5.0
 41
0.0
 71
     4
 72
     1
  1
固定カップ
  7
CONVERTER_11
 73
     1
 44
1.32052821128451
  0
MTEXT
  5
266
330
75
100
AcDbEntity
  8
1
 62
     3
100
AcDbMText
 10
175.0305912937928
 20
217.9606532951798
 30
0.0
 40
5.0
 41
0.0
 71
     4
 72
     1
  1
着脱ホルダー
  7
CONVERTER_11
 73
     1
 44
1.32052821128451
  0
MTEXT
  5
267
330
75
100
AcDbEntity
  8
1
 62
     3
100
AcDbMText
 10
175.0305912937928
 20
224.9606532951798
 30
0.0
 40
5.0
 41
0.0
 71
     4
 72
     1
  1
回転軸
  7
CONVERTER_11
 73
     1
 44
1.32052821128451
  0
MTEXT
  5
268
330
75
100
AcDbEntity
  8
1
 62
     3
100
AcDbMText
 10
175.0305912937928
 20
231.9606532951798
 30
0.0
 40
5.0
 41
0.0
 71
     4
 72
     1
  1
角穴付板歯車
  7
CONVERTER_11
 73
     1
 44
1.32052821128451
  0
MTEXT
  5
269
330
75
100
AcDbEntity
  8
1
 62
     3
100
AcDbMText
 10
175.0305912937928
 20
238.9606532951798
 30
0.0
 40
5.0
 41
0.0
 71
     4
 72
     1
  1
メネジ付板歯車
  7
CONVERTER_11
 73
     1
 44
1.32052821128451
  0
MTEXT
  5
26A
330
75
100
AcDbEntity
  8
1
 62
     3
100
AcDbMText
 10
175.0305912937928
 20
245.9606532951798
 30
0.0
 40
5.0
 41
0.0
 71
     4
 72
     1
  1
吊軸
  7
CONVERTER_11
 73
     1
 44
1.32052821128451
  0
MTEXT
  5
26B
330
75
100
AcDbEntity
  8
1
 62
     3
100
AcDbMText
 10
175.0305912937928
 20
252.9606532951798
 30
0.0
 40
5.0
 41
0.0
 71
     4
 72
     1
  1
ピン
  7
CONVERTER_11
 73
     1
 44
1.32052821128451
  0
MTEXT
  5
26C
330
75
100
AcDbEntity
  8
1
 62
     3
100
AcDbMText
 10
175.0305912937928
 20
259.9606532951798
 30
0.0
 40
5.0
 41
0.0
 71
     4
 72
     1
  1
ランナー本体
  7
CONVERTER_11
 73
     1
 44
1.32052821128451
  0
MTEXT
  5
26D
330
75
100
AcDbEntity
  8
1
 62
     3
100
AcDbMText
 10
175.0305912937928
 20
266.9606532951798
 30
0.0
 40
5.0
 41
0.0
 71
     4
 72
     1
  1
ナイロン球
  7
CONVERTER_11
 73
     1
 44
1.32052821128451
  0
MTEXT
  5
26E
330
75
100
AcDbEntity
  8
1
 62
     3
100
AcDbMText
 10
175.0305912937928
 20
273.9606532951798
 30
0.0
 40
5.0
 41
0.0
 71
     4
 72
     1
  1
鋼球
  7
CONVERTER_11
 73
     1
 44
1.32052821128451
  0
MTEXT
  5
26F
330
75
100
AcDbEntity
  8
1
 62
     3
100
AcDbMText
 10
175.0305912937928
 20
280.9606532951798
 30
0.0
 40
5.0
 41
0.0
 71
     4
 72
     1
  1
カバー
  7
CONVERTER_11
 73
     1
 44
1.32052821128451
  0
MTEXT
  5
270
330
75
100
AcDbEntity
  8
1
 62
     3
100
AcDbMText
 10
175.0305912937928
 20
287.9606532951798
 30
0.0
 40
5.0
 41
0.0
 71
     4
 72
     1
  1
＋皿小ねじ
  7
CONVERTER_11
 73
     1
 44
1.32052821128451
  0
MTEXT
  5
271
330
75
100
AcDbEntity
  8
1
 62
     3
100
AcDbMText
 10
175.0305912937928
 20
294.9606532951798
 30
0.0
 40
5.0
 41
0.0
 71
     4
 72
     1
  1
＋なべタッピンねじ
  7
CONVERTER_11
 73
     1
 44
1.32052821128451
  0
MTEXT
  5
272
330
75
100
AcDbEntity
  8
1
 62
     3
100
AcDbMText
 10
298.2511106248288
 20
196.7336352358098
 30
0.0
 40
5.0
 41
0.0
 71
     4
 72
     1
  1
SW-750
  7
CONVERTER_13
 73
     1
 44
1.32052821128451
  0
MTEXT
  5
273
330
75
100
AcDbEntity
  8
1
 62
     3
100
AcDbMText
 10
224.9841686548488
 20
210.8081049621548
 30
0.0
 40
5.0
 41
0.0
 71
     4
 72
     1
  1
ZDC-2
  7
CONVERTER_13
 73
     1
 44
1.32052821128451
  0
MTEXT
  5
274
330
75
100
AcDbEntity
  8
1
 62
     3
100
AcDbMText
 10
224.9841686548488
 20
217.8081049621549
 30
0.0
 40
5.0
 41
0.0
 71
     4
 72
     1
  1
PBT
  7
CONVERTER_13
 73
     1
 44
1.32052821128451
  0
MTEXT
  5
275
330
75
100
AcDbEntity
  8
1
 62
     3
100
AcDbMText
 10
224.9841686548488
 20
224.8081049621549
 30
0.0
 40
5.0
 41
0.0
 71
     4
 72
     1
  1
SWCH10A
  7
CONVERTER_13
 73
     1
 44
1.32052821128451
  0
MTEXT
  5
276
330
75
100
AcDbEntity
  8
1
 62
     3
100
AcDbMText
 10
224.9841686548488
 20
231.8081049621548
 30
0.0
 40
5.0
 41
0.0
 71
     4
 72
     1
  1
SPCC t=2
  7
CONVERTER_13
 73
     1
 44
1.32052821128451
  0
MTEXT
  5
277
330
75
100
AcDbEntity
  8
1
 62
     3
100
AcDbMText
 10
224.9841686548488
 20
238.8081049621549
 30
0.0
 40
5.0
 41
0.0
 71
     4
 72
     1
  1
SPCC t=2
  7
CONVERTER_13
 73
     1
 44
1.32052821128451
  0
MTEXT
  5
278
330
75
100
AcDbEntity
  8
1
 62
     3
100
AcDbMText
 10
224.9841686548488
 20
245.8081049621549
 30
0.0
 40
5.0
 41
0.0
 71
     4
 72
     1
  1
SWCH10A
  7
CONVERTER_13
 73
     1
 44
1.32052821128451
  0
MTEXT
  5
279
330
75
100
AcDbEntity
  8
1
 62
     3
100
AcDbMText
 10
224.9841686548488
 20
252.8081049621549
 30
0.0
 40
5.0
 41
0.0
 71
     4
 72
     1
  1
ZDC-2
  7
CONVERTER_13
 73
     1
 44
1.32052821128451
  0
MTEXT
  5
27A
330
75
100
AcDbEntity
  8
1
 62
     3
100
AcDbMText
 10
224.9841686548488
 20
259.8081049621549
 30
0.0
 40
5.0
 41
0.0
 71
     4
 72
     1
  1
ポリアセタール
  7
CONVERTER_11
 73
     1
 44
1.32052821128451
  0
MTEXT
  5
27B
330
75
100
AcDbEntity
  8
1
 62
     3
100
AcDbMText
 10
224.9841686548488
 20
266.8081049621549
 30
0.0
 40
5.0
 41
0.0
 71
     4
 72
     1
  1
6ナイロン
  7
CONVERTER_11
 73
     1
 44
1.32052821128451
  0
MTEXT
  5
27C
330
75
100
AcDbEntity
  8
1
 62
     3
100
AcDbMText
 10
224.9841686548488
 20
273.8081049621549
 30
0.0
 40
5.0
 41
0.0
 71
     4
 72
     1
  1
カーボン球
  7
CONVERTER_11
 73
     1
 44
1.32052821128451
  0
MTEXT
  5
27D
330
75
100
AcDbEntity
  8
1
 62
     3
100
AcDbMText
 10
224.9841686548488
 20
280.8081049621549
 30
0.0
 40
5.0
 41
0.0
 71
     4
 72
     1
  1
ABS
  7
CONVERTER_13
 73
     1
 44
1.32052821128451
  0
MTEXT
  5
27E
330
75
100
AcDbEntity
  8
1
 62
     3
100
AcDbMText
 10
224.9841686548488
 20
287.8081049621549
 30
0.0
 40
5.0
 41
0.0
 71
     4
 72
     1
  1
SWCH10A
  7
CONVERTER_13
 73
     1
 44
1.32052821128451
  0
MTEXT
  5
27F
330
75
100
AcDbEntity
  8
1
 62
     3
100
AcDbMText
 10
224.9841686548488
 20
294.8081049621549
 30
0.0
 40
5.0
 41
0.0
 71
     4
 72
     1
  1
SWCH10A
  7
CONVERTER_13
 73
     1
 44
1.32052821128451
  0
MTEXT
  5
280
330
75
100
AcDbEntity
  8
1
 62
     3
100
AcDbMText
 10
253.4107156688508
 20
210.6645277417519
 30
0.0
 40
5.0
 41
0.0
 71
     4
 72
     1
  1
1
  7
CONVERTER_13
 73
     1
 44
1.32052821128451
  0
MTEXT
  5
281
330
75
100
AcDbEntity
  8
1
 62
     3
100
AcDbMText
 10
253.4107156688508
 20
217.6645277417518
 30
0.0
 40
5.0
 41
0.0
 71
     4
 72
     1
  1
1
  7
CONVERTER_13
 73
     1
 44
1.32052821128451
  0
MTEXT
  5
282
330
75
100
AcDbEntity
  8
1
 62
     3
100
AcDbMText
 10
253.4107156688508
 20
224.6645277417518
 30
0.0
 40
5.0
 41
0.0
 71
     4
 72
     1
  1
1
  7
CONVERTER_13
 73
     1
 44
1.32052821128451
  0
MTEXT
  5
283
330
75
100
AcDbEntity
  8
1
 62
     3
100
AcDbMText
 10
253.4107156688508
 20
231.6645277417519
 30
0.0
 40
5.0
 41
0.0
 71
     4
 72
     1
  1
1
  7
CONVERTER_13
 73
     1
 44
1.32052821128451
  0
MTEXT
  5
284
330
75
100
AcDbEntity
  8
1
 62
     3
100
AcDbMText
 10
253.4107156688508
 20
238.6645277417518
 30
0.0
 40
5.0
 41
0.0
 71
     4
 72
     1
  1
1
  7
CONVERTER_13
 73
     1
 44
1.32052821128451
  0
MTEXT
  5
285
330
75
100
AcDbEntity
  8
1
 62
     3
100
AcDbMText
 10
253.4107156688508
 20
245.6645277417518
 30
0.0
 40
5.0
 41
0.0
 71
     4
 72
     1
  1
1
  7
CONVERTER_13
 73
     1
 44
1.32052821128451
  0
MTEXT
  5
286
330
75
100
AcDbEntity
  8
1
 62
     3
100
AcDbMText
 10
253.4107156688508
 20
252.6645277417518
 30
0.0
 40
5.0
 41
0.0
 71
     4
 72
     1
  1
1
  7
CONVERTER_13
 73
     1
 44
1.32052821128451
  0
MTEXT
  5
287
330
75
100
AcDbEntity
  8
1
 62
     3
100
AcDbMText
 10
253.4107156688508
 20
259.6645277417518
 30
0.0
 40
5.0
 41
0.0
 71
     4
 72
     1
  1
1
  7
CONVERTER_13
 73
     1
 44
1.32052821128451
  0
MTEXT
  5
288
330
75
100
AcDbEntity
  8
1
 62
     3
100
AcDbMText
 10
253.4107156688508
 20
266.6645277417518
 30
0.0
 40
5.0
 41
0.0
 71
     4
 72
     1
  1
6
  7
CONVERTER_13
 73
     1
 44
1.32052821128451
  0
MTEXT
  5
289
330
75
100
AcDbEntity
  8
1
 62
     3
100
AcDbMText
 10
251.4107156688508
 20
273.6645277417518
 30
0.0
 40
5.0
 41
0.0
 71
     4
 72
     1
  1
60
  7
CONVERTER_13
 73
     1
 44
1.32052821128451
  0
MTEXT
  5
28A
330
75
100
AcDbEntity
  8
1
 62
     3
100
AcDbMText
 10
253.4107156688508
 20
280.6645277417518
 30
0.0
 40
5.0
 41
0.0
 71
     4
 72
     1
  1
1
  7
CONVERTER_13
 73
     1
 44
1.32052821128451
  0
MTEXT
  5
28B
330
75
100
AcDbEntity
  8
1
 62
     3
100
AcDbMText
 10
253.4107156688508
 20
287.6645277417518
 30
0.0
 40
5.0
 41
0.0
 71
     4
 72
     1
  1
1
  7
CONVERTER_13
 73
     1
 44
1.32052821128451
  0
MTEXT
  5
28C
330
75
100
AcDbEntity
  8
1
 62
     3
100
AcDbMText
 10
253.4107156688508
 20
294.6645277417518
 30
0.0
 40
5.0
 41
0.0
 71
     4
 72
     1
  1
1
  7
CONVERTER_13
 73
     1
 44
1.32052821128451
  0
MTEXT
  5
28D
330
75
100
AcDbEntity
  8
1
 62
     3
100
AcDbMText
 10
259.1415304743788
 20
210.8800548730948
 30
0.0
 40
5.0
 41
0.0
 71
     4
 72
     1
  1
クロメート処理
  7
CONVERTER_11
 73
     1
 44
1.32052821128451
  0
MTEXT
  5
28E
330
75
100
AcDbEntity
  8
1
 62
     3
100
AcDbMText
 10
259.1415304743788
 20
217.8800548730948
 30
0.0
 40
5.0
 41
0.0
 71
     4
 72
     1
  1
指定色
  7
CONVERTER_11
 73
     1
 44
1.32052821128451
  0
MTEXT
  5
28F
330
75
100
AcDbEntity
  8
1
 62
     3
100
AcDbMText
 10
259.1415304743788
 20
224.8800548730947
 30
0.0
 40
5.0
 41
0.0
 71
     4
 72
     1
  1
クロメート処理
  7
CONVERTER_11
 73
     1
 44
1.32052821128451
  0
MTEXT
  5
290
330
75
100
AcDbEntity
  8
1
 62
     3
100
AcDbMText
 10
259.1415304743788
 20
231.8800548730948
 30
0.0
 40
5.0
 41
0.0
 71
     4
 72
     1
  1
クロメート処理
  7
CONVERTER_11
 73
     1
 44
1.32052821128451
  0
MTEXT
  5
291
330
75
100
AcDbEntity
  8
1
 62
     3
100
AcDbMText
 10
259.1415304743788
 20
238.8800548730948
 30
0.0
 40
5.0
 41
0.0
 71
     4
 72
     1
  1
クロメート処理
  7
CONVERTER_11
 73
     1
 44
1.32052821128451
  0
MTEXT
  5
292
330
75
100
AcDbEntity
  8
1
 62
     3
100
AcDbMText
 10
259.1415304743788
 20
245.8800548730948
 30
0.0
 40
5.0
 41
0.0
 71
     4
 72
     1
  1
クロメート処理
  7
CONVERTER_11
 73
     1
 44
1.32052821128451
  0
MTEXT
  5
293
330
75
100
AcDbEntity
  8
1
 62
     3
100
AcDbMText
 10
259.1415304743788
 20
252.8800548730948
 30
0.0
 40
5.0
 41
0.0
 71
     4
 72
     1
  1
クロメート処理
  7
CONVERTER_11
 73
     1
 44
1.32052821128451
  0
MTEXT
  5
294
330
75
100
AcDbEntity
  8
1
 62
     3
100
AcDbMText
 10
259.1415304743788
 20
259.8800548730948
 30
0.0
 40
5.0
 41
0.0
 71
     4
 72
     1
  1
指定色
  7
CONVERTER_11
 73
     1
 44
1.32052821128451
  0
MTEXT
  5
295
330
75
100
AcDbEntity
  8
1
 62
     3
100
AcDbMText
 10
259.1415304743788
 20
280.8800548730948
 30
0.0
 40
5.0
 41
0.0
 71
     4
 72
     1
  1
指定色
  7
CONVERTER_11
 73
     1
 44
1.32052821128451
  0
MTEXT
  5
296
330
75
100
AcDbEntity
  8
1
 62
     3
100
AcDbMText
 10
259.1415304743788
 20
287.8800548730948
 30
0.0
 40
5.0
 41
0.0
 71
     4
 72
     1
  1
市販品
  7
CONVERTER_11
 73
     1
 44
1.32052821128451
  0
MTEXT
  5
297
330
75
100
AcDbEntity
  8
1
 62
     3
100
AcDbMText
 10
259.1415304743788
 20
294.8800548730948
 30
0.0
 40
5.0
 41
0.0
 71
     4
 72
     1
  1
市販品
  7
CONVERTER_11
 73
     1
 44
1.32052821128451
  0
MTEXT
  5
298
330
75
100
AcDbEntity
  8
1
 62
     3
100
AcDbMText
 10
272.4628774111129
 20
287.8622267640718
 30
0.0
 40
5.0
 41
0.0
 71
     4
 72
     1
  1
M4×16
  7
CONVERTER_11
 73
     1
 44
1.32052821128451
  0
MTEXT
  5
299
330
75
100
AcDbEntity
  8
1
 62
     3
100
AcDbMText
 10
271.5716591318539
 20
294.9919729981448
 30
0.0
 40
5.0
 41
0.0
 71
     4
 72
     1
  1
3.5×30
  7
CONVERTER_11
 73
     1
 44
1.32052821128451
  0
LINE
  5
29A
330
75
100
AcDbEntity
  8
1
  6
Continuous
 62
     7
100
AcDbLine
 10
165.9755430547662
 20
172.5129316908676
 30
0.0
 11
-50.02445694523379
 21
172.512931690868
 31
0.0
  0
LINE
  5
29B
330
75
100
AcDbEntity
  8
1
  6
Continuous
 62
     7
100
AcDbLine
 10
349.9755430547663
 20
214.5129316908676
 30
0.0
 11
349.9755430547665
 21
449.5129316908676
 31
0.0
  0
LINE
  5
29C
330
75
100
AcDbEntity
  8
1
  6
Continuous
 62
     7
100
AcDbLine
 10
349.9755430547665
 20
449.5129316908676
 30
0.0
 11
-50.02445694523363
 21
449.5129316908676
 31
0.0
  0
LINE
  5
29D
330
75
100
AcDbEntity
  8
1
  6
Continuous
 62
     7
100
AcDbLine
 10
-50.02445694523363
 20
449.5129316908676
 30
0.0
 11
-50.02445694523379
 21
172.512931690868
 31
0.0
  0
INSERT
  5
29E
330
75
100
AcDbEntity
  8
0
100
AcDbBlockReference
  2
Top__1
 10
-320.9740481937652
 20
-452.6285819306842
 30
0.0
  0
INSERT
  5
2CF
330
75
100
AcDbEntity
  8
0
100
AcDbBlockReference
  2
Top__3
 10
19.09890944749082
 20
-30.31121949504518
 30
0.0
  0
INSERT
  5
3A0
330
75
100
AcDbEntity
  8
0
100
AcDbBlockReference
  2
Top__5
 10
527.6362362082977
 20
-58.01551704772624
 30
0.0
  0
LINE
  5
3BD
330
75
100
AcDbEntity
  8
1
  6
Continuous
 62
     7
100
AcDbLine
 10
47.06315972754083
 20
384.0392107967207
 30
0.0
 11
47.06315972754524
 21
376.5392107967207
 31
0.0
  0
LINE
  5
3BE
330
75
100
AcDbEntity
  8
1
  6
Continuous
 62
     7
100
AcDbLine
 10
55.06315972754084
 20
384.0392107967207
 30
0.0
 11
55.06315972754084
 21
376.5392107967207
 31
0.0
  0
LINE
  5
3BF
330
75
100
AcDbEntity
  8
1
  6
Continuous
 62
     7
100
AcDbLine
 10
34.06315972754084
 20
384.0392107967207
 30
0.0
 11
68.06315972754084
 21
384.0392107967207
 31
0.0
  0
LINE
  5
3C0
330
75
100
AcDbEntity
  8
1
  6
Continuous
 62
     7
100
AcDbLine
 10
69.06315972754083
 20
385.0392107967207
 30
0.0
 11
69.06315972754083
 21
391.0392107967207
 31
0.0
  0
LINE
  5
3C1
330
75
100
AcDbEntity
  8
1
  6
Continuous
 62
     7
100
AcDbLine
 10
33.06315972754084
 20
391.0392107967207
 30
0.0
 11
35.06315972754084
 21
394.0392107967207
 31
0.0
  0
LINE
  5
3C2
330
75
100
AcDbEntity
  8
1
  6
Continuous
 62
     7
100
AcDbLine
 10
33.06315972754084
 20
391.0392107967207
 30
0.0
 11
33.06315972754084
 21
385.0392107967207
 31
0.0
  0
LINE
  5
3C3
330
75
100
AcDbEntity
  8
1
  6
Continuous
 62
     7
100
AcDbLine
 10
69.06315972754083
 20
391.0392107967207
 30
0.0
 11
67.06315972754083
 21
394.0392107967207
 31
0.0
  0
LINE
  5
3C4
330
75
100
AcDbEntity
  8
1
  6
Continuous
 62
     7
100
AcDbLine
 10
67.06315972754083
 20
394.0392107967207
 30
0.0
 11
35.06315972754084
 21
394.0392107967207
 31
0.0
  0
LINE
  5
3C5
330
75
100
AcDbEntity
  8
1
  6
Continuous
 62
     7
100
AcDbLine
 10
33.06315972754084
 20
391.0392107967207
 30
0.0
 11
69.06315972754083
 21
391.0392107967207
 31
0.0
  0
LINE
  5
3C6
330
75
100
AcDbEntity
  8
1
  6
Continuous
 62
     7
100
AcDbLine
 10
230.0631597275408
 20
384.0392107967207
 30
0.0
 11
230.0631597275452
 21
376.5392107967207
 31
0.0
  0
LINE
  5
3C7
330
75
100
AcDbEntity
  8
1
  6
Continuous
 62
     7
100
AcDbLine
 10
238.0631597275408
 20
384.0392107967207
 30
0.0
 11
238.0631597275408
 21
376.5392107967207
 31
0.0
  0
LINE
  5
3C8
330
75
100
AcDbEntity
  8
1
  6
Continuous
 62
     7
100
AcDbLine
 10
217.0631597275408
 20
384.0392107967207
 30
0.0
 11
251.0631597275408
 21
384.0392107967207
 31
0.0
  0
LINE
  5
3C9
330
75
100
AcDbEntity
  8
1
  6
Continuous
 62
     7
100
AcDbLine
 10
252.0631597275408
 20
385.0392107967207
 30
0.0
 11
252.0631597275408
 21
391.0392107967207
 31
0.0
  0
LINE
  5
3CA
330
75
100
AcDbEntity
  8
1
  6
Continuous
 62
     7
100
AcDbLine
 10
216.0631597275408
 20
391.0392107967207
 30
0.0
 11
218.0631597275408
 21
394.0392107967207
 31
0.0
  0
LINE
  5
3CB
330
75
100
AcDbEntity
  8
1
  6
Continuous
 62
     7
100
AcDbLine
 10
216.0631597275408
 20
391.0392107967207
 30
0.0
 11
216.0631597275408
 21
385.0392107967207
 31
0.0
  0
LINE
  5
3CC
330
75
100
AcDbEntity
  8
1
  6
Continuous
 62
     7
100
AcDbLine
 10
252.0631597275408
 20
391.0392107967207
 30
0.0
 11
250.0631597275408
 21
394.0392107967207
 31
0.0
  0
LINE
  5
3CD
330
75
100
AcDbEntity
  8
1
  6
Continuous
 62
     7
100
AcDbLine
 10
250.0631597275408
 20
394.0392107967207
 30
0.0
 11
218.0631597275408
 21
394.0392107967207
 31
0.0
  0
LINE
  5
3CE
330
75
100
AcDbEntity
  8
1
  6
Continuous
 62
     7
100
AcDbLine
 10
216.0631597275408
 20
391.0392107967207
 30
0.0
 11
252.0631597275408
 21
391.0392107967207
 31
0.0
  0
ARC
  5
3CF
330
75
100
AcDbEntity
  8
1
  6
Continuous
 62
     7
100
AcDbCircle
 10
63.06315972754084
 20
386.0392107967207
 30
0.0
 40
4.001952648395532
100
AcDbArc
 50
209.9838609190024
 51
330.0161390809976
  0
ARC
  5
3D0
330
75
100
AcDbEntity
  8
1
  6
Continuous
 62
     7
100
AcDbCircle
 10
39.06315972754084
 20
386.0392107967207
 30
0.0
 40
4.001952648395532
100
AcDbArc
 50
209.9838609190024
 51
330.0161390809976
  0
ARC
  5
3D1
330
75
100
AcDbEntity
  8
1
  6
Continuous
 62
     7
100
AcDbCircle
 10
246.0631597275408
 20
386.0392107967207
 30
0.0
 40
4.001952648395532
100
AcDbArc
 50
209.9838609190024
 51
330.0161390809976
  0
ARC
  5
3D2
330
75
100
AcDbEntity
  8
1
  6
Continuous
 62
     7
100
AcDbCircle
 10
222.0631597275408
 20
386.0392107967207
 30
0.0
 40
4.001952648395532
100
AcDbArc
 50
209.9838609190024
 51
330.0161390809976
  0
CIRCLE
  5
3D3
330
75
100
AcDbEntity
  8
1
  6
Continuous
 62
     2
100
AcDbCircle
 10
174.5631597275408
 20
324.1021765421258
 30
0.0
 40
5.600000000000052
  0
CIRCLE
  5
3D4
330
75
100
AcDbEntity
  8
1
  6
Continuous
 62
     2
100
AcDbCircle
 10
174.5631597275408
 20
341.5545030104708
 30
0.0
 40
5.599999999999988
  0
CIRCLE
  5
3D5
330
75
100
AcDbEntity
  8
1
  6
Continuous
 62
     2
100
AcDbCircle
 10
-7.436840272459164
 20
311.6267020468468
 30
0.0
 40
5.600000000000009
  0
CIRCLE
  5
3D6
330
75
100
AcDbEntity
  8
1
  6
Continuous
 62
     2
100
AcDbCircle
 10
-7.436840272459164
 20
357.6293982377938
 30
0.0
 40
5.60000000000009
  0
CIRCLE
  5
3D7
330
75
100
AcDbEntity
  8
1
  6
Continuous
 62
     2
100
AcDbCircle
 10
174.5631597275408
 20
414.4019768460887
 30
0.0
 40
5.599999999999996
  0
CIRCLE
  5
3D8
330
75
100
AcDbEntity
  8
1
  6
Continuous
 62
     2
100
AcDbCircle
 10
174.5631597275408
 20
379.0023027991258
 30
0.0
 40
5.600000000000059
  0
ARC
  5
3D9
330
75
100
AcDbEntity
  8
1
  6
Continuous
 62
     7
100
AcDbCircle
 10
34.06315972754084
 20
385.0392107967207
 30
0.0
 40
1.0
100
AcDbArc
 50
180.0
 51
270.0
  0
ARC
  5
3DA
330
75
100
AcDbEntity
  8
1
  6
Continuous
 62
     7
100
AcDbCircle
 10
68.06315972754084
 20
385.0392107967207
 30
0.0
 40
1.0
100
AcDbArc
 50
270.0
 51
0.0
  0
ARC
  5
3DB
330
75
100
AcDbEntity
  8
1
  6
Continuous
 62
     7
100
AcDbCircle
 10
217.0631597275408
 20
385.0392107967207
 30
0.0
 40
1.0
100
AcDbArc
 50
180.0
 51
270.0
  0
ARC
  5
3DC
330
75
100
AcDbEntity
  8
1
  6
Continuous
 62
     7
100
AcDbCircle
 10
251.0631597275408
 20
385.0392107967207
 30
0.0
 40
1.0
100
AcDbArc
 50
270.0
 51
0.0
  0
LINE
  5
3DD
330
75
100
AcDbEntity
  8
1
 62
     2
100
AcDbLine
 10
216.2608214681908
 20
338.8695297076488
 30
0.0
 11
213.2746905596073
 21
336.8170841843943
 31
0.0
  0
LINE
  5
3DE
330
75
100
AcDbEntity
  8
1
 62
     2
100
AcDbLine
 10
216.2608214681908
 20
338.8695297076488
 30
0.0
 11
212.6485334807043
 21
338.5851251989185
 31
0.0
  0
LEADER
  5
3DF
330
75
100
AcDbEntity
  8
1
  6
Continuous
 62
     2
100
AcDbLeader
  3
Standard
 71
     0
 76
     2
 10
216.2608214681908
 20
338.8695297076488
 30
0.0
 10
179.8418948443968
 20
325.9716565677136
 30
0.0
1001
ACAD
1000
DSTYLE
1002
{
1070
    40
1040
1.0
1002
}
  0
LINE
  5
3E0
330
75
100
AcDbEntity
  8
1
 62
     2
100
AcDbLine
 10
201.063159727543
 20
347.9313146046738
 30
0.0
 11
197.8797039005757
 21
346.2006732706959
 31
0.0
  0
LINE
  5
3E1
330
75
100
AcDbEntity
  8
1
 62
     2
100
AcDbLine
 10
201.063159727543
 20
347.9313146046738
 30
0.0
 11
197.4408854425748
 21
348.0242631580932
 31
0.0
  0
LEADER
  5
3E2
330
75
100
AcDbEntity
  8
1
  6
Continuous
 62
     2
100
AcDbLeader
  3
Standard
 71
     0
 76
     2
 10
201.063159727543
 20
347.9313146046738
 30
0.0
 10
180.0077438170892
 20
342.8646572349177
 30
0.0
1001
ACAD
1000
DSTYLE
1002
{
1070
    40
1040
1.0
1002
}
  0
LINE
  5
3E3
330
75
100
AcDbEntity
  8
1
 62
     2
100
AcDbLine
 10
50.56315972754084
 20
350.5392107967207
 30
0.0
 11
48.17917536935164
 21
347.8104511867451
 31
0.0
  0
LINE
  5
3E4
330
75
100
AcDbEntity
  8
1
 62
     2
100
AcDbLine
 10
50.56315972754084
 20
350.5392107967207
 30
0.0
 11
47.13418890613644
 21
349.3680278327554
 31
0.0
  0
LEADER
  5
3E5
330
75
100
AcDbEntity
  8
1
  6
Continuous
 62
     2
100
AcDbLeader
  3
Standard
 71
     0
 76
     2
 10
50.56315972754084
 20
350.5392107967207
 30
0.0
 10
-2.786476128784272
 20
314.7466561059994
 30
0.0
1001
ACAD
1000
DSTYLE
1002
{
1070
    40
1040
1.0
1002
}
  0
LINE
  5
3E6
330
75
100
AcDbEntity
  8
1
 62
     2
100
AcDbLine
 10
49.60559353998184
 20
379.5152075110848
 30
0.0
 11
46.67379831006914
 21
377.3858679047781
 31
0.0
  0
LINE
  5
3E7
330
75
100
AcDbEntity
  8
1
 62
     2
100
AcDbLine
 10
49.60559353998184
 20
379.5152075110848
 30
0.0
 11
46.00191458903012
 21
379.1370429336952
 31
0.0
  0
LEADER
  5
3E8
330
75
100
AcDbEntity
  8
1
  6
Continuous
 62
     2
100
AcDbLeader
  3
Standard
 71
     0
 76
     2
 10
49.60559353998184
 20
379.5152075110848
 30
0.0
 10
-2.208460927767561
 20
359.6354015847509
 30
0.0
1001
ACAD
1000
DSTYLE
1002
{
1070
    40
1040
1.0
1002
}
  0
LINE
  5
3E9
330
75
100
AcDbEntity
  8
1
 62
     2
100
AcDbLine
 10
225.0359691403578
 20
394.0392107967207
 30
0.0
 11
221.4392892661162
 21
394.4789883670334
 31
0.0
  0
LINE
  5
3EA
330
75
100
AcDbEntity
  8
1
 62
     2
100
AcDbLine
 10
225.0359691403578
 20
394.0392107967207
 30
0.0
 11
222.1410417851407
 21
396.2184092817469
 31
0.0
  0
LEADER
  5
3EB
330
75
100
AcDbEntity
  8
1
  6
Continuous
 62
     2
100
AcDbLeader
  3
Standard
 71
     0
 76
     2
 10
225.0359691403578
 20
394.0392107967207
 30
0.0
 10
179.7564455111078
 20
412.3067960018175
 30
0.0
1001
ACAD
1000
DSTYLE
1002
{
1070
    40
1040
1.0
1002
}
  0
LINE
  5
3EC
330
75
100
AcDbEntity
  8
1
 62
     2
100
AcDbLine
 10
220.9707001813797
 20
382.1892553242507
 30
0.0
 11
217.5431759960304
 21
381.0138454434136
 31
0.0
  0
LINE
  5
3ED
330
75
100
AcDbEntity
  8
1
 62
     2
100
AcDbLine
 10
220.9707001813797
 20
382.1892553242507
 30
0.0
 11
217.414672224363
 21
382.8850826002612
 31
0.0
  0
LEADER
  5
3EE
330
75
100
AcDbEntity
  8
1
  6
Continuous
 62
     2
100
AcDbLeader
  3
Standard
 71
     0
 76
     2
 10
220.9707001813797
 20
382.1892553242507
 30
0.0
 10
180.1500014414338
 20
379.3859688829872
 30
0.0
1001
ACAD
1000
DSTYLE
1002
{
1070
    40
1040
1.0
1002
}
  0
MTEXT
  5
3EF
330
75
100
AcDbEntity
  8
1
 62
     3
100
AcDbMText
 10
174.5631597275408
 20
324.1021765421258
 30
0.0
 40
4.0
 41
0.0
 71
     5
 72
     1
  1
1
  7
CONVERTER_13
 73
     1
 44
1.32052821128451
  0
MTEXT
  5
3F0
330
75
100
AcDbEntity
  8
1
 62
     3
100
AcDbMText
 10
174.5631597275408
 20
341.5545030104708
 30
0.0
 40
4.0
 41
0.0
 71
     5
 72
     1
  1
2
  7
CONVERTER_13
 73
     1
 44
1.32052821128451
  0
MTEXT
  5
3F1
330
75
100
AcDbEntity
  8
1
 62
     3
100
AcDbMText
 10
-7.436840272459164
 20
311.6267020468468
 30
0.0
 40
4.0
 41
0.0
 71
     5
 72
     1
  1
3
  7
CONVERTER_13
 73
     1
 44
1.32052821128451
  0
MTEXT
  5
3F2
330
75
100
AcDbEntity
  8
1
 62
     3
100
AcDbMText
 10
-7.436840272459164
 20
357.6293982377938
 30
0.0
 40
4.0
 41
0.0
 71
     5
 72
     1
  1
6
  7
CONVERTER_13
 73
     1
 44
1.32052821128451
  0
MTEXT
  5
3F3
330
75
100
AcDbEntity
  8
1
 62
     3
100
AcDbMText
 10
174.5631597275408
 20
414.4019768460887
 30
0.0
 40
4.0
 41
0.0
 71
     5
 72
     1
  1
8
  7
CONVERTER_13
 73
     1
 44
1.32052821128451
  0
MTEXT
  5
3F4
330
75
100
AcDbEntity
  8
1
 62
     3
100
AcDbMText
 10
174.5631597275408
 20
379.0023027991258
 30
0.0
 40
4.0
 41
0.0
 71
     5
 72
     1
  1
9
  7
CONVERTER_13
 73
     1
 44
1.32052821128451
  0
DIMENSION
  5
3F5
330
75
100
AcDbEntity
  8
1
100
AcDbDimension
  2
*D20
 10
15.91235304312383
 20
394.0392107967207
 30
0.0
 11
15.91235304312376
 21
388.0392107967207
 31
0.0
 70
    32
  1
<>
 71
     5
 42
12.0
 53
90.0
  3
ME10_DIM_10
100
AcDbAlignedDimension
 13
33.56315972754084
 23
382.0392107967207
 33
0.0
 14
35.06315972754084
 24
394.0392107967207
 34
0.0
 50
90.0
100
AcDbRotatedDimension
1001
ACAD
1000
DSTYLE
1002
{
1070
   144
1040
1.0
1070
    40
1040
1.0
1002
}
  0
DIMENSION
  5
403
330
75
100
AcDbEntity
  8
1
100
AcDbDimension
  2
*D21
 10
15.91235304312383
 20
376.5392107967207
 30
0.0
 11
15.91235304312377
 21
354.2892107967207
 31
0.0
 70
    32
  1
45
 71
     5
 42
44.5
 53
90.0
  3
ME10_DIM_11
100
AcDbAlignedDimension
 13
51.06315972754083
 23
332.0392107967207
 33
0.0
 14
42.16315972754083
 24
376.5392107967207
 34
0.0
 50
90.0
100
AcDbRotatedDimension
1001
ACAD
1000
DSTYLE
1002
{
1070
   144
1040
1.0
1070
    40
1040
1.0
1002
}
  0
DIMENSION
  5
411
330
75
100
AcDbEntity
  8
1
100
AcDbDimension
  2
*D22
 10
42.16315972754083
 20
298.1854153258577
 30
0.0
 11
51.06315972754083
 21
298.1854153258577
 31
0.0
 70
    32
  1
<>
 71
     5
 42
17.80000000000001
 53
0.00013888888889
  3
ME10_DIM_12
100
AcDbAlignedDimension
 13
59.96315972754084
 23
340.9392107967207
 33
0.0
 14
42.16315972754083
 24
340.9392107967207
 34
0.0
100
AcDbRotatedDimension
1001
ACAD
1000
DSTYLE
1002
{
1070
   144
1040
1.0
1070
    40
1040
1.0
1002
}
  0
DIMENSION
  5
41F
330
75
100
AcDbEntity
  8
1
100
AcDbDimension
  2
*D23
 10
97.27796126900484
 20
376.5392107967207
 30
0.0
 11
90.70834126900477
 21
371.6392107967207
 31
0.0
 70
    32
  1
2.5～9.5
 71
     5
 42
3.0
 53
90.0
  3
ME10_DIM_13
100
AcDbAlignedDimension
 13
71.56315972754083
 23
379.5392107967207
 33
0.0
 14
59.96315972754084
 24
376.5392107967207
 34
0.0
 50
90.0
100
AcDbRotatedDimension
1001
ACAD
1000
DSTYLE
1002
{
1070
   144
1040
1.0
1070
    40
1040
1.0
1002
}
  0
DIMENSION
  5
42E
330
75
100
AcDbEntity
  8
1
100
AcDbDimension
  2
*D24
 10
84.25843004850483
 20
379.5392107967207
 30
0.0
 11
84.25843004850477
 21
393.5392107967207
 31
0.0
 70
    32
  1
<>
 71
     5
 42
28.0
 53
90.0
  3
ME10_DIM_14
100
AcDbAlignedDimension
 13
71.56315972754083
 23
407.5392107967206
 33
0.0
 14
71.56315972754083
 24
379.5392107967207
 34
0.0
 50
90.0
100
AcDbRotatedDimension
1001
ACAD
1000
DSTYLE
1002
{
1070
   144
1040
1.0
1070
    40
1040
1.0
1002
}
  0
DIMENSION
  5
43C
330
75
100
AcDbEntity
  8
1
100
AcDbDimension
  2
*D25
 10
84.25843004850483
 20
376.5392107967207
 30
0.0
 11
84.25843004850477
 21
364.0392107967207
 31
0.0
 70
    32
  1
<>
 71
     5
 42
25.0
 53
90.0
  3
ME10_DIM_15
100
AcDbAlignedDimension
 13
55.64509251346843
 23
351.5392107967207
 33
0.0
 14
59.96315972754084
 24
376.5392107967207
 34
0.0
 50
90.0
100
AcDbRotatedDimension
1001
ACAD
1000
DSTYLE
1002
{
1070
   144
1040
1.0
1070
    40
1040
1.0
1002
}
  0
DIMENSION
  5
44A
330
75
100
AcDbEntity
  8
1
100
AcDbDimension
  2
*D26
 10
84.25843004850483
 20
351.5392107967207
 30
0.0
 11
84.25843004850477
 21
344.7892107967207
 31
0.0
 70
    32
  1
<>
 71
     5
 42
13.5
 53
90.0
  3
ME10_DIM_16
100
AcDbAlignedDimension
 13
56.01315972754083
 23
338.0392107967207
 33
0.0
 14
55.64509251346843
 24
351.5392107967207
 34
0.0
 50
90.0
100
AcDbRotatedDimension
1001
ACAD
1000
DSTYLE
1002
{
1070
   144
1040
1.0
1070
    40
1040
1.0
1002
}
  0
DIMENSION
  5
45A
330
75
100
AcDbEntity
  8
1
100
AcDbDimension
  2
*D27
 10
84.25843004850483
 20
338.0392107967207
 30
0.0
 11
85.90680504850478
 21
340.4892107967207
 31
0.0
 70
    32
  1
<>
 71
     5
 42
6.0
 53
90.0
  3
ME10_DIM_17
100
AcDbAlignedDimension
 13
51.06315972754083
 23
332.0392107967207
 33
0.0
 14
56.01315972754083
 24
338.0392107967207
 34
0.0
 50
90.0
100
AcDbRotatedDimension
1001
ACAD
1000
DSTYLE
1002
{
1070
   144
1040
1.0
1070
    40
1040
1.0
1002
}
  0
DIMENSION
  5
467
330
75
100
AcDbEntity
  8
1
100
AcDbDimension
  2
*D28
 10
201.063159727543
 20
318.9760740507968
 30
0.0
 11
217.563159727543
 21
318.9760740507968
 31
0.0
 70
    32
  1
<>
 71
     5
 42
33.0
 53
0.00013888888889
  3
ME10_DIM_18
100
AcDbAlignedDimension
 13
234.0631597275431
 23
324.2651370624008
 33
0.0
 14
201.063159727543
 24
332.0392107967207
 34
0.0
100
AcDbRotatedDimension
1001
ACAD
1000
DSTYLE
1002
{
1070
   144
1040
1.0
1070
    40
1040
1.0
1002
}
  0
DIMENSION
  5
475
330
75
100
AcDbEntity
  8
1
100
AcDbDimension
  2
*D29
 10
201.063159727543
 20
310.2022940131998
 30
0.0
 11
223.0631597275431
 21
310.2022940131998
 31
0.0
 70
    32
  1
45
 71
     5
 42
44.0
 53
0.00013888888889
  3
ME10_DIM_19
100
AcDbAlignedDimension
 13
245.063159727543
 23
332.0392107967207
 33
0.0
 14
201.063159727543
 24
332.0392107967207
 34
0.0
100
AcDbRotatedDimension
1001
ACAD
1000
DSTYLE
1002
{
1070
   144
1040
1.0
1070
    40
1040
1.0
1002
}
  0
MTEXT
  5
63B
330
75
100
AcDbEntity
  8
0
100
AcDbMText
 10
-19.79617902536961
 20
222.4562888556574
 30
0.0
 40
2.5
 41
0.0
 71
     1
 72
     1
  1

 73
     1
 44
1.0
  0
ENDSEC
  0
SECTION
  2
OBJECTS
  0
DICTIONARY
  5
C
330
0
100
AcDbDictionary
281
     1
  3
ACAD_COLOR
350
6B
  3
ACAD_GROUP
350
D
  3
ACAD_LAYOUT
350
6A
  3
ACAD_MATERIAL
350
10
  3
ACAD_MLEADERSTYLE
350
6E
  3
ACAD_MLINESTYLE
350
67
  3
ACAD_PLOTSETTINGS
350
69
  3
ACAD_PLOTSTYLENAME
350
E
  3
ACAD_SCALELIST
350
3A
  3
ACAD_TABLESTYLE
350
6C
  3
ACAD_VISUALSTYLE
350
29
  3
ACDB_RECOMPOSE_DATA
350
6A5
  3
AcDbVariableDictionary
350
6A6
  0
DICTIONARY
  5
6B5
330
5C
100
AcDbDictionary
280
     1
281
     1
  3
ADSK_XREC_LAYER_RECONCILED
360
6B6
  0
DICTIONARY
  5
B1
330
B0
100
AcDbDictionary
280
     1
281
     1
  3
ADSK_XREC_LAYER_RECONCILED
360
B2
  0
DICTIONARY
  5
B6
330
B5
100
AcDbDictionary
280
     1
281
     1
  3
ADSK_XREC_LAYER_RECONCILED
360
B7
  0
DICTIONARY
  5
639
330
75
100
AcDbDictionary
280
     1
281
     1
  3
ACAD_SORTENTS
360
63C
  0
DICTIONARY
  5
6B
102
{ACAD_REACTORS
330
C
102
}
330
C
100
AcDbDictionary
281
     1
  0
DICTIONARY
  5
D
102
{ACAD_REACTORS
330
C
102
}
330
C
100
AcDbDictionary
281
     1
  0
DICTIONARY
  5
6A
102
{ACAD_REACTORS
330
C
102
}
330
C
100
AcDbDictionary
281
     1
  3
Model
350
78
  3
レイアウト1
350
74
  3
レイアウト2
350
7C
  0
DICTIONARY
  5
10
102
{ACAD_REACTORS
330
C
102
}
330
C
100
AcDbDictionary
281
     1
  3
ByBlock
350
19
  3
ByLayer
350
11
  3
Global
350
21
  0
DICTIONARY
  5
6E
102
{ACAD_REACTORS
330
C
102
}
330
C
100
AcDbDictionary
281
     1
  3
__Standard
350
6F
  3
Standard
350
6AE
  0
DICTIONARY
  5
67
102
{ACAD_REACTORS
330
C
102
}
330
C
100
AcDbDictionary
281
     1
  3
__Standard
350
68
  3
Standard
350
6AD
  0
DICTIONARY
  5
69
102
{ACAD_REACTORS
330
C
102
}
330
C
100
AcDbDictionary
281
     1
  0
ACDBDICTIONARYWDFLT
  5
E
102
{ACAD_REACTORS
330
C
102
}
330
C
100
AcDbDictionary
281
     1
  3
invisible
350
AB
  3
Normal
350
F
  3
Style 1
350
AC
100
AcDbDictionaryWithDefault
340
F
  0
DICTIONARY
  5
3A
102
{ACAD_REACTORS
330
C
102
}
330
C
100
AcDbDictionary
281
     1
  3
*A1
350
AD
  3
*A2
350
AE
  3
A0
350
3B
  3
A1
350
3C
  3
A2
350
3D
  3
A3
350
3E
  3
A4
350
3F
  3
A5
350
40
  3
A6
350
41
  3
A7
350
42
  3
A8
350
43
  3
A9
350
44
  3
B0
350
45
  3
B1
350
46
  3
B2
350
47
  3
B3
350
48
  3
B4
350
49
  3
B5
350
4A
  3
B6
350
4B
  3
B7
350
4C
  3
B8
350
4D
  3
B9
350
4E
  3
C0
350
4F
  3
C1
350
50
  3
C2
350
51
  3
C3
350
52
  3
C4
350
53
  3
C5
350
54
  3
C6
350
55
  3
C7
350
56
  3
C8
350
57
  3
C9
350
58
  3
D0
350
59
  3
D1
350
5A
  3
D2
350
5B
  0
DICTIONARY
  5
6C
102
{ACAD_REACTORS
330
C
102
}
330
C
100
AcDbDictionary
281
     1
  3
__Standard
350
6D
  3
Standard
350
6AC
  0
DICTIONARY
  5
29
102
{ACAD_REACTORS
330
C
102
}
330
C
100
AcDbDictionary
281
     1
  3
2dWireframe
350
2F
  3
3D Hidden
350
31
  3
3dWireframe
350
30
  3
Basic
350
2E
  3
Brighten
350
35
  3
ColorChange
350
39
  3
Conceptual
350
32
  3
Dim
350
34
  3
Facepattern
350
38
  3
Flat
350
2A
  3
FlatWithEdges
350
2B
  3
Gouraud
350
2C
  3
GouraudWithEdges
350
2D
  3
Linepattern
350
37
  3
Realistic
350
33
  3
Thicken
350
36
  0
XRECORD
  5
6A5
102
{ACAD_REACTORS
330
C
102
}
330
C
100
AcDbXrecord
280
     1
 90
        1
330
6D
330
6AC
  0
DICTIONARY
  5
6A6
102
{ACAD_REACTORS
330
C
102
}
330
C
100
AcDbDictionary
281
     1
  3
ANNOALLVISIBLE
350
6A9
  3
CANNOSCALE
350
6AA
  3
CMLEADERSTYLE
350
6A8
  3
CTABLESTYLE
350
6A7
  3
LIGHTINGUNITS
350
6B8
  3
MSLTSCALE
350
6B7
  0
XRECORD
  5
6B6
102
{ACAD_REACTORS
330
6B5
102
}
330
6B5
100
AcDbXrecord
280
     1
290
     1
  0
XRECORD
  5
B2
102
{ACAD_REACTORS
330
B1
102
}
330
B1
100
AcDbXrecord
280
     1
290
     1
  0
XRECORD
  5
B7
102
{ACAD_REACTORS
330
B6
102
}
330
B6
100
AcDbXrecord
280
     1
290
     1
  0
SORTENTSTABLE
  5
63C
102
{ACAD_REACTORS
330
639
102
}
330
639
100
AcDbSortentsTable
330
75
  0
LAYOUT
  5
78
102
{ACAD_REACTORS
330
6A
102
}
330
6A
100
AcDbPlotSettings
  1

  2
\\ASRV0030\DocuCentre 230 - 本社９階　開発部
  4
A3
  6

 40
4.857749938964843
 41
4.942390441894531
 42
4.900054931640625
 43
4.857757568359375
 44
296.9683227539062
 45
419.9889831542968
 46
-4.894741058349609
 47
-4.905582427978515
 48
0.0
 49
0.0
140
0.0
141
0.0
142
1.0
143
1.019277741671797
 70
 11954
 72
     1
 73
     1
 74
     0
  7
monochrome.stb
 75
     0
147
0.9810868609372567
 76
     0
 77
     2
 78
   300
148
-84.62566834060675
149
582.574266574007
100
AcDbLayout
  1
Model
 70
     1
 71
     0
 10
0.0
 20
0.0
 11
12.0
 21
9.0
 12
0.0
 22
0.0
 32
0.0
 14
0.0
 24
0.0
 34
0.0
 15
0.0
 25
0.0
 35
0.0
146
0.0
 13
0.0
 23
0.0
 33
0.0
 16
1.0
 26
0.0
 36
0.0
 17
0.0
 27
1.0
 37
0.0
 76
     0
330
75
331
5F
1001
ACAD_PSEXT
1000
\\ASRV0030\DocuCentre 230 - 本社９階　開発部
1000
FX DocuCentre 230
1000
本社９階　開発部
1000
xerxo　モノクロ複合機　2004年8月17日設置
1070
     0
  0
LAYOUT
  5
74
102
{ACAD_REACTORS
330
6A
102
}
330
6A
100
AcDbPlotSettings
  1

  2
\\Asrv0030\DocuCentre 230 - 本社９階　開発部
  4

  6

 40
0.0
 41
0.0
 42
0.0
 43
0.0
 44
0.0
 45
0.0
 46
0.0
 47
0.0
 48
0.0
 49
0.0
140
0.0
141
0.0
142
1.0
143
1.0
 70
   688
 72
     0
 73
     0
 74
     5
  7

 75
    16
147
1.0
 76
     0
 77
     2
 78
   300
148
0.0
149
0.0
100
AcDbLayout
  1
レイアウト1
 70
     1
 71
     1
 10
0.0
 20
0.0
 11
12.0
 21
9.0
 12
0.0
 22
0.0
 32
0.0
 14
1.000000000000000E+20
 24
1.000000000000000E+20
 34
1.000000000000000E+20
 15
-1.000000000000000E+20
 25
-1.000000000000000E+20
 35
-1.000000000000000E+20
146
0.0
 13
0.0
 23
0.0
 33
0.0
 16
1.0
 26
0.0
 36
0.0
 17
0.0
 27
1.0
 37
0.0
 76
     0
330
71
  0
LAYOUT
  5
7C
102
{ACAD_REACTORS
330
6A
102
}
330
6A
100
AcDbPlotSettings
  1

  2
\\Asrv0030\DocuCentre 230 - 本社９階　開発部
  4

  6

 40
0.0
 41
0.0
 42
0.0
 43
0.0
 44
0.0
 45
0.0
 46
0.0
 47
0.0
 48
0.0
 49
0.0
140
0.0
141
0.0
142
1.0
143
1.0
 70
   688
 72
     0
 73
     0
 74
     5
  7

 75
    16
147
1.0
 76
     0
 77
     2
 78
   300
148
0.0
149
0.0
100
AcDbLayout
  1
レイアウト2
 70
     1
 71
     2
 10
0.0
 20
0.0
 11
12.0
 21
9.0
 12
0.0
 22
0.0
 32
0.0
 14
0.0
 24
0.0
 34
0.0
 15
0.0
 25
0.0
 35
0.0
146
0.0
 13
0.0
 23
0.0
 33
0.0
 16
1.0
 26
0.0
 36
0.0
 17
0.0
 27
1.0
 37
0.0
 76
     0
330
79
  0
MATERIAL
  5
19
102
{ACAD_XDICTIONARY
360
1A
102
}
102
{ACAD_REACTORS
330
10
102
}
330
10
100
AcDbMaterial
  1
ByBlock
 72
     0
 43
0.0208333333333333
 43
0.0
 43
0.0
 43
0.0
 43
0.0
 43
0.0208333333333333
 43
0.0
 43
0.0
 43
0.0
 43
0.0
 43
1.0
 43
0.0
 43
0.0
 43
0.0
 43
0.0
 43
1.0
 77
     0
 47
0.0208333333333333
 47
0.0
 47
0.0
 47
0.0
 47
0.0
 47
0.0208333333333333
 47
0.0
 47
0.0
 47
0.0
 47
0.0
 47
1.0
 47
0.0
 47
0.0
 47
0.0
 47
0.0
 47
1.0
171
     0
 49
0.0208333333333333
 49
0.0
 49
0.0
 49
0.0
 49
0.0
 49
0.0208333333333333
 49
0.0
 49
0.0
 49
0.0
 49
0.0
 49
1.0
 49
0.0
 49
0.0
 49
0.0
 49
0.0
 49
1.0
175
     0
142
0.0208333333333333
142
0.0
142
0.0
142
0.0
142
0.0
142
0.0208333333333333
142
0.0
142
0.0
142
0.0
142
0.0
142
1.0
142
0.0
142
0.0
142
0.0
142
0.0
142
1.0
179
     0
144
0.0208333333333333
144
0.0
144
0.0
144
0.0
144
0.0
144
0.0208333333333333
144
0.0
144
0.0
144
0.0
144
0.0
144
1.0
144
0.0
144
0.0
144
0.0
144
0.0
144
1.0
147
0.0208333333333333
147
0.0
147
0.0
147
0.0
147
0.0
147
0.0208333333333333
147
0.0
147
0.0
147
0.0
147
0.0
147
1.0
147
0.0
147
0.0
147
0.0
147
0.0
147
1.0
  0
MATERIAL
  5
11
102
{ACAD_XDICTIONARY
360
12
102
}
102
{ACAD_REACTORS
330
10
102
}
330
10
100
AcDbMaterial
  1
ByLayer
 72
     0
 43
0.0208333333333333
 43
0.0
 43
0.0
 43
0.0
 43
0.0
 43
0.0208333333333333
 43
0.0
 43
0.0
 43
0.0
 43
0.0
 43
1.0
 43
0.0
 43
0.0
 43
0.0
 43
0.0
 43
1.0
 77
     0
 47
0.0208333333333333
 47
0.0
 47
0.0
 47
0.0
 47
0.0
 47
0.0208333333333333
 47
0.0
 47
0.0
 47
0.0
 47
0.0
 47
1.0
 47
0.0
 47
0.0
 47
0.0
 47
0.0
 47
1.0
171
     0
 49
0.0208333333333333
 49
0.0
 49
0.0
 49
0.0
 49
0.0
 49
0.0208333333333333
 49
0.0
 49
0.0
 49
0.0
 49
0.0
 49
1.0
 49
0.0
 49
0.0
 49
0.0
 49
0.0
 49
1.0
175
     0
142
0.0208333333333333
142
0.0
142
0.0
142
0.0
142
0.0
142
0.0208333333333333
142
0.0
142
0.0
142
0.0
142
0.0
142
1.0
142
0.0
142
0.0
142
0.0
142
0.0
142
1.0
179
     0
144
0.0208333333333333
144
0.0
144
0.0
144
0.0
144
0.0
144
0.0208333333333333
144
0.0
144
0.0
144
0.0
144
0.0
144
1.0
144
0.0
144
0.0
144
0.0
144
0.0
144
1.0
147
0.0208333333333333
147
0.0
147
0.0
147
0.0
147
0.0
147
0.0208333333333333
147
0.0
147
0.0
147
0.0
147
0.0
147
1.0
147
0.0
147
0.0
147
0.0
147
0.0
147
1.0
  0
MATERIAL
  5
21
102
{ACAD_XDICTIONARY
360
22
102
}
102
{ACAD_REACTORS
330
10
102
}
330
10
100
AcDbMaterial
  1
Global
 72
     0
 43
0.0208333333333333
 43
0.0
 43
0.0
 43
0.0
 43
0.0
 43
0.0208333333333333
 43
0.0
 43
0.0
 43
0.0
 43
0.0
 43
1.0
 43
0.0
 43
0.0
 43
0.0
 43
0.0
 43
1.0
 77
     0
 47
0.0208333333333333
 47
0.0
 47
0.0
 47
0.0
 47
0.0
 47
0.0208333333333333
 47
0.0
 47
0.0
 47
0.0
 47
0.0
 47
1.0
 47
0.0
 47
0.0
 47
0.0
 47
0.0
 47
1.0
171
     0
 49
0.0208333333333333
 49
0.0
 49
0.0
 49
0.0
 49
0.0
 49
0.0208333333333333
 49
0.0
 49
0.0
 49
0.0
 49
0.0
 49
1.0
 49
0.0
 49
0.0
 49
0.0
 49
0.0
 49
1.0
175
     0
142
0.0208333333333333
142
0.0
142
0.0
142
0.0
142
0.0
142
0.0208333333333333
142
0.0
142
0.0
142
0.0
142
0.0
142
1.0
142
0.0
142
0.0
142
0.0
142
0.0
142
1.0
179
     0
144
0.0208333333333333
144
0.0
144
0.0
144
0.0
144
0.0
144
0.0208333333333333
144
0.0
144
0.0
144
0.0
144
0.0
144
1.0
144
0.0
144
0.0
144
0.0
144
0.0
144
1.0
147
0.0208333333333333
147
0.0
147
0.0
147
0.0
147
0.0
147
0.0208333333333333
147
0.0
147
0.0
147
0.0
147
0.0
147
1.0
147
0.0
147
0.0
147
0.0
147
0.0
147
1.0
  0
MLEADERSTYLE
  5
6F
102
{ACAD_REACTORS
330
6E
102
}
330
6E
100
AcDbMLeaderStyle
170
     2
171
     1
172
     0
 90
        2
 40
0.0
 41
0.0
173
     1
 91
-1056964608
340
63
 92
       -2
290
     1
 42
0.09
291
     1
 43
0.36
  3
Standard
 44
0.18
300

342
5D
174
     1
178
     6
175
     1
176
     0
 93
-1056964608
 45
0.18
292
     0
297
     0
 46
0.18
 94
-1056964608
 47
1.0
 49
1.0
140
1.0
293
     1
141
0.0
294
     1
177
     0
142
1.0
295
     0
296
     0
143
0.125
1001
ACAD_MLEADERVER
1070
     2
  0
MLEADERSTYLE
  5
6AE
102
{ACAD_REACTORS
330
6E
102
}
330
6E
100
AcDbMLeaderStyle
170
     2
171
     1
172
     0
 90
        2
 40
0.0
 41
0.0
173
     1
 91
-1056964608
340
63
 92
       -2
290
     1
 42
2.0
291
     1
 43
0.36
  3
Standard
 44
4.0
300

342
5D
174
     1
178
     6
175
     1
176
     0
 93
-1056964608
 45
4.0
292
     0
297
     0
 46
4.0
 94
-1056964608
 47
1.0
 49
1.0
140
1.0
293
     1
141
0.0
294
     1
177
     0
142
1.0
295
     0
296
     0
143
0.125
1001
ACAD_MLEADERVER
1070
     2
  0
MLINESTYLE
  5
68
102
{ACAD_REACTORS
330
67
102
}
330
67
100
AcDbMlineStyle
  2
__STANDARD
 70
     0
  3

 62
   256
 51
90.0
 52
90.0
 71
     2
 49
0.5
 62
   256
  6
BYLAYER
 49
-0.5
 62
   256
  6
BYLAYER
  0
MLINESTYLE
  5
6AD
102
{ACAD_REACTORS
330
67
102
}
330
67
100
AcDbMlineStyle
  2
STANDARD
 70
     0
  3

 62
   256
 51
90.0
 52
90.0
 71
     2
 49
0.5
 62
   256
  6
BYLAYER
 49
-0.5
 62
   256
  6
BYLAYER
  0
ACDBPLACEHOLDER
  5
AB
102
{ACAD_REACTORS
330
E
102
}
330
E
  0
ACDBPLACEHOLDER
  5
F
102
{ACAD_REACTORS
330
E
102
}
330
E
  0
ACDBPLACEHOLDER
  5
AC
102
{ACAD_REACTORS
330
E
102
}
330
E
  0
SCALE
  5
AD
102
{ACAD_REACTORS
330
3A
102
}
330
3A
100
AcDbScale
 70
     0
300
3:1
140
3.0
141
1.0
290
     0
  0
SCALE
  5
AE
102
{ACAD_REACTORS
330
3A
102
}
330
3A
100
AcDbScale
 70
     0
300
5:1
140
5.0
141
1.0
290
     0
  0
SCALE
  5
3B
102
{ACAD_REACTORS
330
3A
102
}
330
3A
100
AcDbScale
 70
     0
300
1:1
140
1.0
141
1.0
290
     1
  0
SCALE
  5
3C
102
{ACAD_REACTORS
330
3A
102
}
330
3A
100
AcDbScale
 70
     0
300
1:2
140
1.0
141
2.0
290
     0
  0
SCALE
  5
3D
102
{ACAD_REACTORS
330
3A
102
}
330
3A
100
AcDbScale
 70
     0
300
1:4
140
1.0
141
4.0
290
     0
  0
SCALE
  5
3E
102
{ACAD_REACTORS
330
3A
102
}
330
3A
100
AcDbScale
 70
     0
300
1:5
140
1.0
141
5.0
290
     0
  0
SCALE
  5
3F
102
{ACAD_REACTORS
330
3A
102
}
330
3A
100
AcDbScale
 70
     0
300
1:8
140
1.0
141
8.0
290
     0
  0
SCALE
  5
40
102
{ACAD_REACTORS
330
3A
102
}
330
3A
100
AcDbScale
 70
     0
300
1:10
140
1.0
141
10.0
290
     0
  0
SCALE
  5
41
102
{ACAD_REACTORS
330
3A
102
}
330
3A
100
AcDbScale
 70
     0
300
1:16
140
1.0
141
16.0
290
     0
  0
SCALE
  5
42
102
{ACAD_REACTORS
330
3A
102
}
330
3A
100
AcDbScale
 70
     0
300
1:20
140
1.0
141
20.0
290
     0
  0
SCALE
  5
43
102
{ACAD_REACTORS
330
3A
102
}
330
3A
100
AcDbScale
 70
     0
300
1:30
140
1.0
141
30.0
290
     0
  0
SCALE
  5
44
102
{ACAD_REACTORS
330
3A
102
}
330
3A
100
AcDbScale
 70
     0
300
1:40
140
1.0
141
40.0
290
     0
  0
SCALE
  5
45
102
{ACAD_REACTORS
330
3A
102
}
330
3A
100
AcDbScale
 70
     0
300
1:50
140
1.0
141
50.0
290
     0
  0
SCALE
  5
46
102
{ACAD_REACTORS
330
3A
102
}
330
3A
100
AcDbScale
 70
     0
300
1:100
140
1.0
141
100.0
290
     0
  0
SCALE
  5
47
102
{ACAD_REACTORS
330
3A
102
}
330
3A
100
AcDbScale
 70
     0
300
2:1
140
2.0
141
1.0
290
     0
  0
SCALE
  5
48
102
{ACAD_REACTORS
330
3A
102
}
330
3A
100
AcDbScale
 70
     0
300
4:1
140
4.0
141
1.0
290
     0
  0
SCALE
  5
49
102
{ACAD_REACTORS
330
3A
102
}
330
3A
100
AcDbScale
 70
     0
300
8:1
140
8.0
141
1.0
290
     0
  0
SCALE
  5
4A
102
{ACAD_REACTORS
330
3A
102
}
330
3A
100
AcDbScale
 70
     0
300
10:1
140
10.0
141
1.0
290
     0
  0
SCALE
  5
4B
102
{ACAD_REACTORS
330
3A
102
}
330
3A
100
AcDbScale
 70
     0
300
100:1
140
100.0
141
1.0
290
     0
  0
SCALE
  5
4C
102
{ACAD_REACTORS
330
3A
102
}
330
3A
100
AcDbScale
 70
     0
300
1/128" = 1'-0"
140
0.0078125
141
12.0
290
     0
  0
SCALE
  5
4D
102
{ACAD_REACTORS
330
3A
102
}
330
3A
100
AcDbScale
 70
     0
300
1/64" = 1'-0"
140
0.015625
141
12.0
290
     0
  0
SCALE
  5
4E
102
{ACAD_REACTORS
330
3A
102
}
330
3A
100
AcDbScale
 70
     0
300
1/32" = 1'-0"
140
0.03125
141
12.0
290
     0
  0
SCALE
  5
4F
102
{ACAD_REACTORS
330
3A
102
}
330
3A
100
AcDbScale
 70
     0
300
1/16" = 1'-0"
140
0.0625
141
12.0
290
     0
  0
SCALE
  5
50
102
{ACAD_REACTORS
330
3A
102
}
330
3A
100
AcDbScale
 70
     0
300
3/32" = 1'-0"
140
0.09375
141
12.0
290
     0
  0
SCALE
  5
51
102
{ACAD_REACTORS
330
3A
102
}
330
3A
100
AcDbScale
 70
     0
300
1/8" = 1'-0"
140
0.125
141
12.0
290
     0
  0
SCALE
  5
52
102
{ACAD_REACTORS
330
3A
102
}
330
3A
100
AcDbScale
 70
     0
300
3/16" = 1'-0"
140
0.1875
141
12.0
290
     0
  0
SCALE
  5
53
102
{ACAD_REACTORS
330
3A
102
}
330
3A
100
AcDbScale
 70
     0
300
1/4" = 1'-0"
140
0.25
141
12.0
290
     0
  0
SCALE
  5
54
102
{ACAD_REACTORS
330
3A
102
}
330
3A
100
AcDbScale
 70
     0
300
3/8" = 1'-0"
140
0.375
141
12.0
290
     0
  0
SCALE
  5
55
102
{ACAD_REACTORS
330
3A
102
}
330
3A
100
AcDbScale
 70
     0
300
1/2" = 1'-0"
140
0.5
141
12.0
290
     0
  0
SCALE
  5
56
102
{ACAD_REACTORS
330
3A
102
}
330
3A
100
AcDbScale
 70
     0
300
3/4" = 1'-0"
140
0.75
141
12.0
290
     0
  0
SCALE
  5
57
102
{ACAD_REACTORS
330
3A
102
}
330
3A
100
AcDbScale
 70
     0
300
1" = 1'-0"
140
1.0
141
12.0
290
     0
  0
SCALE
  5
58
102
{ACAD_REACTORS
330
3A
102
}
330
3A
100
AcDbScale
 70
     0
300
1-1/2" = 1'-0"
140
1.5
141
12.0
290
     0
  0
SCALE
  5
59
102
{ACAD_REACTORS
330
3A
102
}
330
3A
100
AcDbScale
 70
     0
300
3" = 1'-0"
140
3.0
141
12.0
290
     0
  0
SCALE
  5
5A
102
{ACAD_REACTORS
330
3A
102
}
330
3A
100
AcDbScale
 70
     0
300
6" = 1'-0"
140
6.0
141
12.0
290
     0
  0
SCALE
  5
5B
102
{ACAD_REACTORS
330
3A
102
}
330
3A
100
AcDbScale
 70
     0
300
1'-0" = 1'-0"
140
12.0
141
12.0
290
     0
  0
TABLESTYLE
  5
6D
102
{ACAD_XDICTIONARY
360
6A3
102
}
102
{ACAD_REACTORS
330
6C
102
}
330
6C
100
AcDbTableStyle
  3
Standard
 70
     0
 71
     0
 40
0.06
 41
0.06
280
     0
281
     0
  7
Standard
140
0.18
170
     2
 62
     0
 63
     7
283
     0
274
    -2
284
     1
 64
     0
275
    -2
285
     1
 65
     0
276
    -2
286
     1
 66
     0
277
    -2
287
     1
 67
     0
278
    -2
288
     1
 68
     0
279
    -2
289
     1
 69
     0
  7
Standard
140
0.25
170
     5
 62
     0
 63
     7
283
     0
274
    -2
284
     1
 64
     0
275
    -2
285
     1
 65
     0
276
    -2
286
     1
 66
     0
277
    -2
287
     1
 67
     0
278
    -2
288
     1
 68
     0
279
    -2
289
     1
 69
     0
  7
Standard
140
0.18
170
     5
 62
     0
 63
     7
283
     0
274
    -2
284
     1
 64
     0
275
    -2
285
     1
 65
     0
276
    -2
286
     1
 66
     0
277
    -2
287
     1
 67
     0
278
    -2
288
     1
 68
     0
279
    -2
289
     1
 69
     0
  0
TABLESTYLE
  5
6AC
102
{ACAD_XDICTIONARY
360
6BA
102
}
102
{ACAD_REACTORS
330
6C
102
}
330
6C
100
AcDbTableStyle
  3
Standard
 70
     0
 71
     0
 40
1.5
 41
1.5
280
     0
281
     0
  7
Standard
140
4.5
170
     2
 62
     0
 63
     7
283
     0
274
    -2
284
     1
 64
     0
275
    -2
285
     1
 65
     0
276
    -2
286
     1
 66
     0
277
    -2
287
     1
 67
     0
278
    -2
288
     1
 68
     0
279
    -2
289
     1
 69
     0
  7
Standard
140
6.0
170
     5
 62
     0
 63
     7
283
     0
274
    -2
284
     1
 64
     0
275
    -2
285
     1
 65
     0
276
    -2
286
     1
 66
     0
277
    -2
287
     1
 67
     0
278
    -2
288
     1
 68
     0
279
    -2
289
     1
 69
     0
  7
Standard
140
4.5
170
     5
 62
     0
 63
     7
283
     0
274
    -2
284
     1
 64
     0
275
    -2
285
     1
 65
     0
276
    -2
286
     1
 66
     0
277
    -2
287
     1
 67
     0
278
    -2
288
     1
 68
     0
279
    -2
289
     1
 69
     0
  0
VISUALSTYLE
  5
2F
102
{ACAD_REACTORS
330
29
102
}
330
29
100
AcDbVisualStyle
  2
2dWireframe
 70
     4
 71
     0
 72
     2
 73
     0
 90
        0
 40
-0.6
 41
-30.0
 62
     5
 63
     7
421
 16777215
 74
     1
 91
        4
 64
     7
 65
   257
 75
     1
175
     1
 42
1.0
 92
        0
 66
   257
 43
1.0
 76
     1
 77
     6
 78
     2
 67
     7
 79
     5
170
     0
171
     0
290
     0
174
     0
 93
        1
 44
0.0
173
     0
291
     0
 45
0.0
1001
ACAD
1000
AcDbSavedByObjectVersion
1070
     0
  0
VISUALSTYLE
  5
31
102
{ACAD_REACTORS
330
29
102
}
330
29
100
AcDbVisualStyle
  2
3D Hidden
 70
     6
 71
     1
 72
     2
 73
     2
 90
        0
 40
-0.6
 41
-30.0
 62
     5
 63
     7
421
 16777215
 74
     2
 91
        2
 64
     7
 65
   257
 75
     2
175
     1
 42
40.0
 92
        0
 66
   257
 43
1.0
 76
     1
 77
     6
 78
     2
 67
     7
 79
     3
170
     0
171
     0
290
     0
174
     0
 93
        1
 44
0.0
173
     0
291
     0
 45
0.0
1001
ACAD
1000
AcDbSavedByObjectVersion
1070
     0
  0
VISUALSTYLE
  5
30
102
{ACAD_REACTORS
330
29
102
}
330
29
100
AcDbVisualStyle
  2
3dWireframe
 70
     5
 71
     0
 72
     2
 73
     0
 90
        0
 40
-0.6
 41
-30.0
 62
     5
 63
     7
421
 16777215
 74
     1
 91
        4
 64
     7
 65
   257
 75
     1
175
     1
 42
1.0
 92
        0
 66
   257
 43
1.0
 76
     1
 77
     6
 78
     2
 67
     7
 79
     5
170
     0
171
     0
290
     0
174
     0
 93
        1
 44
0.0
173
     0
291
     0
 45
0.0
1001
ACAD
1000
AcDbSavedByObjectVersion
1070
     0
  0
VISUALSTYLE
  5
2E
102
{ACAD_REACTORS
330
29
102
}
330
29
100
AcDbVisualStyle
  2
Basic
 70
     7
 71
     1
 72
     0
 73
     1
 90
        0
 40
-0.6
 41
-30.0
 62
     5
 63
     7
421
 16777215
 74
     0
 91
        4
 64
     7
 65
   257
 75
     1
175
     1
 42
1.0
 92
        8
 66
     7
 43
1.0
 76
     1
 77
     6
 78
     2
 67
     7
 79
     5
170
     0
171
     0
290
     0
174
     0
 93
        1
 44
0.0
173
     0
291
     1
 45
0.0
1001
ACAD
1000
AcDbSavedByObjectVersion
1070
     0
  0
VISUALSTYLE
  5
35
102
{ACAD_REACTORS
330
29
102
}
330
29
100
AcDbVisualStyle
  2
Brighten
 70
    12
 71
     2
 72
     2
 73
     0
 90
        0
 40
-0.6
 41
-30.0
 62
     5
 63
     7
421
 16777215
 74
     1
 91
        4
 64
     7
 65
   257
 75
     1
175
     1
 42
1.0
 92
        8
 66
     7
 43
1.0
 76
     1
 77
     6
 78
     2
 67
     7
 79
     5
170
     0
171
     0
290
     0
174
     0
 93
        1
 44
50.0
173
     0
291
     1
 45
0.0
1001
ACAD
1000
AcDbSavedByObjectVersion
1070
     0
  0
VISUALSTYLE
  5
39
102
{ACAD_REACTORS
330
29
102
}
330
29
100
AcDbVisualStyle
  2
ColorChange
 70
    16
 71
     2
 72
     2
 73
     3
 90
        0
 40
-0.6
 41
-30.0
 62
     5
 63
     8
421
  8421504
 74
     1
 91
        4
 64
     7
 65
   257
 75
     1
175
     1
 42
1.0
 92
        8
 66
     8
424
  8421504
 43
1.0
 76
     1
 77
     6
 78
     2
 67
     7
 79
     5
170
     0
171
     0
290
     0
174
     0
 93
        1
 44
0.0
173
     0
291
     1
 45
0.0
1001
ACAD
1000
AcDbSavedByObjectVersion
1070
     0
  0
VISUALSTYLE
  5
32
102
{ACAD_REACTORS
330
29
102
}
330
29
100
AcDbVisualStyle
  2
Conceptual
 70
     9
 71
     3
 72
     2
 73
     0
 90
        0
 40
-0.6
 41
-30.0
 62
     5
 63
     7
421
 16777215
 74
     2
 91
        2
 64
     7
 65
   257
 75
     1
175
     1
 42
40.0
 92
        8
 66
     7
 43
1.0
 76
     1
 77
     6
 78
     2
 67
     7
 79
     3
170
     0
171
     0
290
     0
174
     0
 93
        1
 44
0.0
173
     0
291
     0
 45
0.0
1001
ACAD
1000
AcDbSavedByObjectVersion
1070
     0
  0
VISUALSTYLE
  5
34
102
{ACAD_REACTORS
330
29
102
}
330
29
100
AcDbVisualStyle
  2
Dim
 70
    11
 71
     2
 72
     2
 73
     0
 90
        0
 40
-0.6
 41
-30.0
 62
     5
 63
     7
421
 16777215
 74
     1
 91
        4
 64
     7
 65
   257
 75
     1
175
     1
 42
1.0
 92
        8
 66
     7
 43
1.0
 76
     1
 77
     6
 78
     2
 67
     7
 79
     5
170
     0
171
     0
290
     0
174
     0
 93
        1
 44
-50.0
173
     0
291
     1
 45
0.0
1001
ACAD
1000
AcDbSavedByObjectVersion
1070
     0
  0
VISUALSTYLE
  5
38
102
{ACAD_REACTORS
330
29
102
}
330
29
100
AcDbVisualStyle
  2
Facepattern
 70
    15
 71
     2
 72
     2
 73
     0
 90
        0
 40
-0.6
 41
-30.0
 62
     5
 63
     7
421
 16777215
 74
     1
 91
        4
 64
     7
 65
   257
 75
     1
175
     1
 42
1.0
 92
        8
 66
     7
 43
1.0
 76
     1
 77
     6
 78
     2
 67
     7
 79
     5
170
     0
171
     0
290
     0
174
     0
 93
        1
 44
0.0
173
     0
291
     1
 45
0.0
1001
ACAD
1000
AcDbSavedByObjectVersion
1070
     0
  0
VISUALSTYLE
  5
2A
102
{ACAD_REACTORS
330
29
102
}
330
29
100
AcDbVisualStyle
  2
Flat
 70
     0
 71
     2
 72
     1
 73
     1
 90
        2
 40
-0.6
 41
30.0
 62
     5
 63
     7
421
 16777215
 74
     0
 91
        4
 64
     7
 65
   257
 75
     1
175
     1
 42
1.0
 92
        8
 66
     7
 43
1.0
 76
     1
 77
     6
 78
     2
 67
     7
 79
     5
170
     0
171
     0
290
     0
174
     0
 93
       13
 44
0.0
173
     0
291
     1
 45
0.0
1001
ACAD
1000
AcDbSavedByObjectVersion
1070
     0
  0
VISUALSTYLE
  5
2B
102
{ACAD_REACTORS
330
29
102
}
330
29
100
AcDbVisualStyle
  2
FlatWithEdges
 70
     1
 71
     2
 72
     1
 73
     1
 90
        2
 40
-0.6
 41
30.0
 62
     5
 63
     7
421
 16777215
 74
     1
 91
        4
 64
     7
 65
   257
 75
     1
175
     1
 42
1.0
 92
        0
 66
   257
 43
1.0
 76
     1
 77
     6
 78
     2
 67
     7
 79
     5
170
     0
171
     0
290
     0
174
     0
 93
       13
 44
0.0
173
     0
291
     1
 45
0.0
1001
ACAD
1000
AcDbSavedByObjectVersion
1070
     0
  0
VISUALSTYLE
  5
2C
102
{ACAD_REACTORS
330
29
102
}
330
29
100
AcDbVisualStyle
  2
Gouraud
 70
     2
 71
     2
 72
     2
 73
     1
 90
        2
 40
-0.6
 41
30.0
 62
     5
 63
     7
421
 16777215
 74
     0
 91
        4
 64
     7
 65
   257
 75
     1
175
     1
 42
1.0
 92
        0
 66
     7
 43
1.0
 76
     1
 77
     6
 78
     2
 67
     7
 79
     5
170
     0
171
     0
290
     0
174
     0
 93
       13
 44
0.0
173
     0
291
     1
 45
0.0
1001
ACAD
1000
AcDbSavedByObjectVersion
1070
     0
  0
VISUALSTYLE
  5
2D
102
{ACAD_REACTORS
330
29
102
}
330
29
100
AcDbVisualStyle
  2
GouraudWithEdges
 70
     3
 71
     2
 72
     2
 73
     1
 90
        2
 40
-0.6
 41
30.0
 62
     5
 63
     7
421
 16777215
 74
     1
 91
        4
 64
     7
 65
   257
 75
     1
175
     1
 42
1.0
 92
        0
 66
   257
 43
1.0
 76
     1
 77
     6
 78
     2
 67
     7
 79
     5
170
     0
171
     0
290
     0
174
     0
 93
       13
 44
0.0
173
     0
291
     1
 45
0.0
1001
ACAD
1000
AcDbSavedByObjectVersion
1070
     0
  0
VISUALSTYLE
  5
37
102
{ACAD_REACTORS
330
29
102
}
330
29
100
AcDbVisualStyle
  2
Linepattern
 70
    14
 71
     2
 72
     2
 73
     0
 90
        0
 40
-0.6
 41
-30.0
 62
     5
 63
     7
421
 16777215
 74
     1
 91
        4
 64
     7
 65
   257
 75
     7
175
     7
 42
1.0
 92
        8
 66
     7
 43
1.0
 76
     1
 77
     6
 78
     2
 67
     7
 79
     5
170
     0
171
     0
290
     0
174
     0
 93
        1
 44
0.0
173
     0
291
     1
 45
0.0
1001
ACAD
1000
AcDbSavedByObjectVersion
1070
     0
  0
VISUALSTYLE
  5
33
102
{ACAD_REACTORS
330
29
102
}
330
29
100
AcDbVisualStyle
  2
Realistic
 70
     8
 71
     2
 72
     2
 73
     0
 90
        0
 40
-0.6
 41
-30.0
 62
     5
 63
     7
421
 16777215
 74
     1
 91
        0
 64
     7
 65
   257
 75
     1
175
     1
 42
1.0
 92
        8
 66
     8
424
  7895160
 43
1.0
 76
     1
 77
     6
 78
     2
 67
     7
 79
     5
170
     0
171
     0
290
     0
174
     0
 93
       13
 44
0.0
173
     0
291
     0
 45
0.0
1001
ACAD
1000
AcDbSavedByObjectVersion
1070
     0
  0
VISUALSTYLE
  5
36
102
{ACAD_REACTORS
330
29
102
}
330
29
100
AcDbVisualStyle
  2
Thicken
 70
    13
 71
     2
 72
     2
 73
     0
 90
        0
 40
-0.6
 41
-30.0
 62
     5
 63
     7
421
 16777215
 74
     1
 91
        4
 64
     7
 65
   257
 75
     1
175
     1
 42
1.0
 92
       12
 66
     7
 43
1.0
 76
     1
 77
     6
 78
     2
 67
     7
 79
     5
170
     0
171
     0
290
     0
174
     0
 93
        1
 44
0.0
173
     0
291
     1
 45
0.0
1001
ACAD
1000
AcDbSavedByObjectVersion
1070
     0
  0
DICTIONARYVAR
  5
6A9
102
{ACAD_REACTORS
330
6A6
102
}
330
6A6
100
DictionaryVariables
280
     0
  1
0
  0
DICTIONARYVAR
  5
6AA
102
{ACAD_REACTORS
330
6A6
102
}
330
6A6
100
DictionaryVariables
280
     0
  1
1:1
  0
DICTIONARYVAR
  5
6A8
102
{ACAD_REACTORS
330
6A6
102
}
330
6A6
100
DictionaryVariables
280
     0
  1
__Standard
  0
DICTIONARYVAR
  5
6A7
102
{ACAD_REACTORS
330
6A6
102
}
330
6A6
100
DictionaryVariables
280
     0
  1
__Standard
  0
DICTIONARYVAR
  5
6B8
102
{ACAD_REACTORS
330
6A6
102
}
330
6A6
100
DictionaryVariables
280
     0
  1
2
  0
DICTIONARYVAR
  5
6B7
102
{ACAD_REACTORS
330
6A6
102
}
330
6A6
100
DictionaryVariables
280
     0
  1
1
  0
DICTIONARY
  5
1A
330
19
100
AcDbDictionary
280
     1
281
     1
  3
ACAD_XREC_ROUNDTRIP
360
6BD
  3
BUMPTILE
360
1C
  3
DIFFUSETILE
360
1B
  3
OPACITYTILE
360
1F
  3
REFLECTIONTILE
360
1E
  3
REFRACTIONTILE
360
20
  3
SPECULARTILE
360
1D
  0
DICTIONARY
  5
12
330
11
100
AcDbDictionary
280
     1
281
     1
  3
ACAD_XREC_ROUNDTRIP
360
6BC
  3
BUMPTILE
360
14
  3
DIFFUSETILE
360
13
  3
OPACITYTILE
360
17
  3
REFLECTIONTILE
360
16
  3
REFRACTIONTILE
360
18
  3
SPECULARTILE
360
15
  0
DICTIONARY
  5
22
330
21
100
AcDbDictionary
280
     1
281
     1
  3
ACAD_XREC_ROUNDTRIP
360
6BE
  3
BUMPTILE
360
24
  3
DIFFUSETILE
360
23
  3
OPACITYTILE
360
27
  3
REFLECTIONTILE
360
26
  3
REFRACTIONTILE
360
28
  3
SPECULARTILE
360
25
  0
DICTIONARY
  5
6A3
330
6D
100
AcDbDictionary
280
     1
281
     1
  3
ACAD_ROUNDTRIP_2008_TABLESTYLE_CELLSTYLEMAP
360
6B9
  3
ACAD_XREC_ROUNDTRIP
360
6BF
  0
DICTIONARY
  5
6BA
330
6AC
100
AcDbDictionary
280
     1
281
     1
  3
ACAD_ROUNDTRIP_2008_TABLESTYLE_CELLSTYLEMAP
360
6BB
  3
ACAD_XREC_ROUNDTRIP
360
6C0
  0
XRECORD
  5
6BD
102
{ACAD_REACTORS
330
1A
102
}
330
1A
100
AcDbXrecord
280
     1
102
MATERIAL
148
0.0
149
0.0
149
0.0
 93
        0
 94
      127
282
     0
 72
     0
 77
     0
171
     0
175
     0
179
     0
273
     0
  0
XRECORD
  5
1C
102
{ACAD_REACTORS
330
1A
102
}
330
1A
100
AcDbXrecord
280
     1
270
     1
271
     1
  0
XRECORD
  5
1B
102
{ACAD_REACTORS
330
1A
102
}
330
1A
100
AcDbXrecord
280
     1
270
     1
271
     1
  0
XRECORD
  5
1F
102
{ACAD_REACTORS
330
1A
102
}
330
1A
100
AcDbXrecord
280
     1
270
     1
271
     1
  0
XRECORD
  5
1E
102
{ACAD_REACTORS
330
1A
102
}
330
1A
100
AcDbXrecord
280
     1
270
     1
271
     1
  0
XRECORD
  5
20
102
{ACAD_REACTORS
330
1A
102
}
330
1A
100
AcDbXrecord
280
     1
270
     1
271
     1
  0
XRECORD
  5
1D
102
{ACAD_REACTORS
330
1A
102
}
330
1A
100
AcDbXrecord
280
     1
270
     1
271
     1
  0
XRECORD
  5
6BC
102
{ACAD_REACTORS
330
12
102
}
330
12
100
AcDbXrecord
280
     1
102
MATERIAL
148
0.0
149
0.0
149
0.0
 93
        0
 94
      127
282
     0
 72
     0
 77
     0
171
     0
175
     0
179
     0
273
     0
  0
XRECORD
  5
14
102
{ACAD_REACTORS
330
12
102
}
330
12
100
AcDbXrecord
280
     1
270
     1
271
     1
  0
XRECORD
  5
13
102
{ACAD_REACTORS
330
12
102
}
330
12
100
AcDbXrecord
280
     1
270
     1
271
     1
  0
XRECORD
  5
17
102
{ACAD_REACTORS
330
12
102
}
330
12
100
AcDbXrecord
280
     1
270
     1
271
     1
  0
XRECORD
  5
16
102
{ACAD_REACTORS
330
12
102
}
330
12
100
AcDbXrecord
280
     1
270
     1
271
     1
  0
XRECORD
  5
18
102
{ACAD_REACTORS
330
12
102
}
330
12
100
AcDbXrecord
280
     1
270
     1
271
     1
  0
XRECORD
  5
15
102
{ACAD_REACTORS
330
12
102
}
330
12
100
AcDbXrecord
280
     1
270
     1
271
     1
  0
XRECORD
  5
6BE
102
{ACAD_REACTORS
330
22
102
}
330
22
100
AcDbXrecord
280
     1
102
MATERIAL
148
0.0
149
0.0
149
0.0
 93
        0
 94
      127
282
     0
 72
     0
 77
     0
171
     0
175
     0
179
     0
273
     0
  0
XRECORD
  5
24
102
{ACAD_REACTORS
330
22
102
}
330
22
100
AcDbXrecord
280
     1
270
     1
271
     1
  0
XRECORD
  5
23
102
{ACAD_REACTORS
330
22
102
}
330
22
100
AcDbXrecord
280
     1
270
     1
271
     1
  0
XRECORD
  5
27
102
{ACAD_REACTORS
330
22
102
}
330
22
100
AcDbXrecord
280
     1
270
     1
271
     1
  0
XRECORD
  5
26
102
{ACAD_REACTORS
330
22
102
}
330
22
100
AcDbXrecord
280
     1
270
     1
271
     1
  0
XRECORD
  5
28
102
{ACAD_REACTORS
330
22
102
}
330
22
100
AcDbXrecord
280
     1
270
     1
271
     1
  0
XRECORD
  5
25
102
{ACAD_REACTORS
330
22
102
}
330
22
100
AcDbXrecord
280
     1
270
     1
271
     1
  0
CELLSTYLEMAP
  5
6B9
102
{ACAD_REACTORS
330
6A3
102
}
330
6A3
100
AcDbCellStyleMap
 90
        3
300
CELLSTYLE
  1
TABLEFORMAT_BEGIN
 90
        5
170
     1
 91
        0
 92
    32768
 62
   257
 93
        1
300
CONTENTFORMAT
  1
CONTENTFORMAT_BEGIN
 90
        0
 91
        0
 92
      512
 93
        0
300

 40
0.0
140
1.0
 94
        5
 62
     0
340
5D
144
0.25
309
CONTENTFORMAT_END
171
     0
 94
        0
309
TABLEFORMAT_END
  1
CELLSTYLE_BEGIN
 90
        1
 91
        1
300
_TITLE
309
CELLSTYLE_END
300
CELLSTYLE
  1
TABLEFORMAT_BEGIN
 90
        5
170
     1
 91
        0
 92
        0
 62
   257
 93
        1
300
CONTENTFORMAT
  1
CONTENTFORMAT_BEGIN
 90
        0
 91
        0
 92
      512
 93
        0
300

 40
0.0
140
1.0
 94
        5
 62
     0
340
5D
144
0.18
309
CONTENTFORMAT_END
171
     0
 94
        0
309
TABLEFORMAT_END
  1
CELLSTYLE_BEGIN
 90
        2
 91
        1
300
_HEADER
309
CELLSTYLE_END
300
CELLSTYLE
  1
TABLEFORMAT_BEGIN
 90
        5
170
     1
 91
        0
 92
        0
 62
   257
 93
        1
300
CONTENTFORMAT
  1
CONTENTFORMAT_BEGIN
 90
        0
 91
        0
 92
      512
 93
        0
300

 40
0.0
140
1.0
 94
        2
 62
     0
340
5D
144
0.18
309
CONTENTFORMAT_END
171
     0
 94
        0
309
TABLEFORMAT_END
  1
CELLSTYLE_BEGIN
 90
        3
 91
        2
300
_DATA
309
CELLSTYLE_END
  0
XRECORD
  5
6BF
102
{ACAD_REACTORS
330
6A3
102
}
330
6A3
100
AcDbXrecord
280
     1
102
ACAD_ROUNDTRIP_PRE2007_TABLESTYLE
 90
      512
 91
        0
  1

 92
      512
 93
        0
  2

 94
      512
 95
        0
  3

  0
CELLSTYLEMAP
  5
6BB
102
{ACAD_REACTORS
330
6BA
102
}
330
6BA
100
AcDbCellStyleMap
 90
        3
300
CELLSTYLE
  1
TABLEFORMAT_BEGIN
 90
        5
170
     1
 91
        0
 92
    32768
 62
   257
 93
        1
300
CONTENTFORMAT
  1
CONTENTFORMAT_BEGIN
 90
        0
 91
        0
 92
      512
 93
        0
300

 40
0.0
140
1.0
 94
        5
 62
     0
340
5D
144
6.0
309
CONTENTFORMAT_END
171
     1
301
MARGIN
  1
CELLMARGIN_BEGIN
 40
1.5
 40
1.5
 40
1.5
 40
1.5
 40
4.5
 40
4.5
309
CELLMARGIN_END
 94
        6
 95
        1
302
GRIDFORMAT
  1
GRIDFORMAT_BEGIN
 90
        0
 91
        1
 62
     0
 92
       -2
340
0
 93
        0
 40
1.125
309
GRIDFORMAT_END
 95
        2
302
GRIDFORMAT
  1
GRIDFORMAT_BEGIN
 90
        0
 91
        1
 62
     0
 92
       -2
340
0
 93
        0
 40
1.125
309
GRIDFORMAT_END
 95
        4
302
GRIDFORMAT
  1
GRIDFORMAT_BEGIN
 90
        0
 91
        1
 62
     0
 92
       -2
340
0
 93
        0
 40
1.125
309
GRIDFORMAT_END
 95
        8
302
GRIDFORMAT
  1
GRIDFORMAT_BEGIN
 90
        0
 91
        1
 62
     0
 92
       -2
340
0
 93
        0
 40
1.125
309
GRIDFORMAT_END
 95
       16
302
GRIDFORMAT
  1
GRIDFORMAT_BEGIN
 90
        0
 91
        1
 62
     0
 92
       -2
340
0
 93
        0
 40
1.125
309
GRIDFORMAT_END
 95
       32
302
GRIDFORMAT
  1
GRIDFORMAT_BEGIN
 90
        0
 91
        1
 62
     0
 92
       -2
340
0
 93
        0
 40
1.125
309
GRIDFORMAT_END
309
TABLEFORMAT_END
  1
CELLSTYLE_BEGIN
 90
        1
 91
        1
300
_TITLE
309
CELLSTYLE_END
300
CELLSTYLE
  1
TABLEFORMAT_BEGIN
 90
        5
170
     1
 91
        0
 92
        0
 62
   257
 93
        1
300
CONTENTFORMAT
  1
CONTENTFORMAT_BEGIN
 90
        0
 91
        0
 92
      512
 93
        0
300

 40
0.0
140
1.0
 94
        5
 62
     0
340
5D
144
4.5
309
CONTENTFORMAT_END
171
     1
301
MARGIN
  1
CELLMARGIN_BEGIN
 40
1.5
 40
1.5
 40
1.5
 40
1.5
 40
4.5
 40
4.5
309
CELLMARGIN_END
 94
        6
 95
        1
302
GRIDFORMAT
  1
GRIDFORMAT_BEGIN
 90
        0
 91
        1
 62
     0
 92
       -2
340
0
 93
        0
 40
1.125
309
GRIDFORMAT_END
 95
        2
302
GRIDFORMAT
  1
GRIDFORMAT_BEGIN
 90
        0
 91
        1
 62
     0
 92
       -2
340
0
 93
        0
 40
1.125
309
GRIDFORMAT_END
 95
        4
302
GRIDFORMAT
  1
GRIDFORMAT_BEGIN
 90
        0
 91
        1
 62
     0
 92
       -2
340
0
 93
        0
 40
1.125
309
GRIDFORMAT_END
 95
        8
302
GRIDFORMAT
  1
GRIDFORMAT_BEGIN
 90
        0
 91
        1
 62
     0
 92
       -2
340
0
 93
        0
 40
1.125
309
GRIDFORMAT_END
 95
       16
302
GRIDFORMAT
  1
GRIDFORMAT_BEGIN
 90
        0
 91
        1
 62
     0
 92
       -2
340
0
 93
        0
 40
1.125
309
GRIDFORMAT_END
 95
       32
302
GRIDFORMAT
  1
GRIDFORMAT_BEGIN
 90
        0
 91
        1
 62
     0
 92
       -2
340
0
 93
        0
 40
1.125
309
GRIDFORMAT_END
309
TABLEFORMAT_END
  1
CELLSTYLE_BEGIN
 90
        2
 91
        1
300
_HEADER
309
CELLSTYLE_END
300
CELLSTYLE
  1
TABLEFORMAT_BEGIN
 90
        5
170
     1
 91
        0
 92
        0
 62
   257
 93
        1
300
CONTENTFORMAT
  1
CONTENTFORMAT_BEGIN
 90
        0
 91
        0
 92
      512
 93
        0
300

 40
0.0
140
1.0
 94
        2
 62
     0
340
5D
144
4.5
309
CONTENTFORMAT_END
171
     1
301
MARGIN
  1
CELLMARGIN_BEGIN
 40
1.5
 40
1.5
 40
1.5
 40
1.5
 40
4.5
 40
4.5
309
CELLMARGIN_END
 94
        6
 95
        1
302
GRIDFORMAT
  1
GRIDFORMAT_BEGIN
 90
        0
 91
        1
 62
     0
 92
       -2
340
0
 93
        0
 40
1.125
309
GRIDFORMAT_END
 95
        2
302
GRIDFORMAT
  1
GRIDFORMAT_BEGIN
 90
        0
 91
        1
 62
     0
 92
       -2
340
0
 93
        0
 40
1.125
309
GRIDFORMAT_END
 95
        4
302
GRIDFORMAT
  1
GRIDFORMAT_BEGIN
 90
        0
 91
        1
 62
     0
 92
       -2
340
0
 93
        0
 40
1.125
309
GRIDFORMAT_END
 95
        8
302
GRIDFORMAT
  1
GRIDFORMAT_BEGIN
 90
        0
 91
        1
 62
     0
 92
       -2
340
0
 93
        0
 40
1.125
309
GRIDFORMAT_END
 95
       16
302
GRIDFORMAT
  1
GRIDFORMAT_BEGIN
 90
        0
 91
        1
 62
     0
 92
       -2
340
0
 93
        0
 40
1.125
309
GRIDFORMAT_END
 95
       32
302
GRIDFORMAT
  1
GRIDFORMAT_BEGIN
 90
        0
 91
        1
 62
     0
 92
       -2
340
0
 93
        0
 40
1.125
309
GRIDFORMAT_END
309
TABLEFORMAT_END
  1
CELLSTYLE_BEGIN
 90
        3
 91
        2
300
_DATA
309
CELLSTYLE_END
  0
XRECORD
  5
6C0
102
{ACAD_REACTORS
330
6BA
102
}
330
6BA
100
AcDbXrecord
280
     1
102
ACAD_ROUNDTRIP_PRE2007_TABLESTYLE
 90
      512
 91
        0
  1

 92
      512
 93
        0
  2

 94
      512
 95
        0
  3

  0
ENDSEC
  0
EOF
