  0
SECTION
  2
HEADER
  9
$ACADVER
  1
AC1014
  9
$ACADMAINTVER
 70
             0
  9
$DWGCODEPAGE
  3
ANSI_1252
  9
$INSBASE
 10
0.0
 20
0.0
 30
0.0
  9
$EXTMIN
 10
-346.42069906810173
 20
4359.23157772794
 30
0.0
  9
$EXTMAX
 10
53.57930093189859
 20
4636.2315777279409
 30
0.0
  9
$LIMMIN
 10
0.0
 20
0.0
  9
$LIMMAX
 10
0.0
 20
0.0
  9
$ORTHOMODE
 70
             0
  9
$REGENMODE
 70
             1
  9
$FILLMODE
 70
             1
  9
$QTEXTMODE
 70
             0
  9
$MIRRTEXT
 70
             1
  9
$DRAGMODE
 70
             2
  9
$LTSCALE
 40
1.0
  9
$OSMODE
 70
             0
  9
$ATTMODE
 70
             1
  9
$TEXTSIZE
 40
0.2
  9
$TRACEWID
 40
0.05
  9
$TEXTSTYLE
  7
STANDARD
  9
$CLAYER
  8
0
  9
$CELTYPE
  6
CONTINUOUS
  9
$CECOLOR
 62
           256
  9
$CELTSCALE
 40
1.0
  9
$DELOBJ
 70
             1
  9
$DISPSILH
 70
             0
  9
$DIMSCALE
 40
1.0
  9
$DIMASZ
 40
0.18
  9
$DIMEXO
 40
0.0625
  9
$DIMDLI
 40
0.38
  9
$DIMRND
 40
0.0
  9
$DIMDLE
 40
0.0
  9
$DIMEXE
 40
0.18
  9
$DIMTP
 40
0.0
  9
$DIMTM
 40
0.0
  9
$DIMTXT
 40
0.18
  9
$DIMCEN
 40
0.09
  9
$DIMTSZ
 40
0.0
  9
$DIMTOL
 70
             0
  9
$DIMLIM
 70
             0
  9
$DIMTIH
 70
             1
  9
$DIMTOH
 70
             1
  9
$DIMSE1
 70
             0
  9
$DIMSE2
 70
             0
  9
$DIMTAD
 70
             0
  9
$DIMZIN
 70
             0
  9
$DIMBLK
  1

  9
$DIMASO
 70
             1
  9
$DIMSHO
 70
             1
  9
$DIMPOST
  1

  9
$DIMAPOST
  1

  9
$DIMALT
 70
             0
  9
$DIMALTD
 70
             2
  9
$DIMALTF
 40
25.4
  9
$DIMLFAC
 40
1.0
  9
$DIMTOFL
 70
             0
  9
$DIMTVP
 40
0.0
  9
$DIMTIX
 70
             0
  9
$DIMSOXD
 70
             0
  9
$DIMSAH
 70
             0
  9
$DIMBLK1
  1

  9
$DIMBLK2
  1

  9
$DIMSTYLE
  2
STANDARD
  9
$DIMCLRD
 70
             0
  9
$DIMCLRE
 70
             0
  9
$DIMCLRT
 70
             0
  9
$DIMTFAC
 40
1.0
  9
$DIMGAP
 40
0.09
  9
$DIMJUST
 70
             0
  9
$DIMSD1
 70
             0
  9
$DIMSD2
 70
             0
  9
$DIMTOLJ
 70
             1
  9
$DIMTZIN
 70
             0
  9
$DIMALTZ
 70
             0
  9
$DIMALTTZ
 70
             0
  9
$DIMFIT
 70
             3
  9
$DIMUPT
 70
             0
  9
$DIMUNIT
 70
             2
  9
$DIMDEC
 70
             4
  9
$DIMTDEC
 70
             4
  9
$DIMALTU
 70
             2
  9
$DIMALTTD
 70
             2
  9
$DIMTXSTY
  7
STANDARD
  9
$DIMAUNIT
 70
             0
  9
$LUNITS
 70
             2
  9
$LUPREC
 70
             4
  9
$SKETCHINC
 40
0.1
  9
$FILLETRAD
 40
0.0
  9
$AUNITS
 70
             0
  9
$AUPREC
 70
             0
  9
$MENU
  1
acad
  9
$ELEVATION
 40
0.0
  9
$PELEVATION
 40
0.0
  9
$THICKNESS
 40
0.0
  9
$LIMCHECK
 70
             0
  9
$BLIPMODE
 70
             1
  9
$CHAMFERA
 40
0.0
  9
$CHAMFERB
 40
0.0
  9
$CHAMFERC
 40
0.0
  9
$CHAMFERD
 40
0.0
  9
$SKPOLY
 70
             0
  9
$TDCREATE
 40
0.000000000
  9
$TDUPDATE
 40
0.000000000
  9
$TDINDWG
 40
0.0000000000
  9
$TDUSRTIMER
 40
0.0000000000
  9
$USRTIMER
 70
             1
  9
$ANGBASE
 50
0.0
  9
$ANGDIR
 70
             0
  9
$PDMODE
 70
             0
  9
$PDSIZE
 40
0.0
  9
$PLINEWID
 40
0.0
  9
$COORDS
 70
             0
  9
$SPLFRAME
 70
             0
  9
$SPLINETYPE
 70
             6
  9
$SPLINESEGS
 70
             8
  9
$ATTDIA
 70
             0
  9
$ATTREQ
 70
             1
  9
$HANDLING
 70
             1
  9
$HANDSEED
  5
2A6
  9
$SURFTAB1
 70
             6
  9
$SURFTAB2
 70
             6
  9
$SURFTYPE
 70
             6
  9
$SURFU
 70
             6
  9
$SURFV
 70
             6
  9
$UCSNAME
  2

  9
$UCSORG
 10
0.0
 20
0.0
 30
0.0
  9
$UCSXDIR
 10
1.0
 20
0.0
 30
0.0
  9
$UCSYDIR
 10
0.0
 20
1.0
 30
0.0
  9
$PUCSNAME
  2

  9
$PUCSORG
 10
0.0
 20
0.0
 30
0.0
  9
$PUCSXDIR
 10
1.0
 20
0.0
 30
0.0
  9
$PUCSYDIR
 10
0.0
 20
1.0
 30
0.0
  9
$USERI1
 70
             0
  9
$USERI2
 70
             0
  9
$USERI3
 70
             0
  9
$USERI4
 70
             0
  9
$USERI5
 70
             0
  9
$USERR1
 40
12.01
  9
$USERR2
 40
0.0
  9
$USERR3
 40
0.0
  9
$USERR4
 40
0.0
  9
$USERR5
 40
0.0
  9
$WORLDVIEW
 70
             1
  9
$SHADEDGE
 70
             3
  9
$SHADEDIF
 70
            70
  9
$TILEMODE
 70
             1
  9
$MAXACTVP
 70
            16
  9
$PINSBASE
 10
0.0
 20
0.0
 30
0.0
  9
$PLIMCHECK
 70
             0
  9
$PEXTMIN
 10
1.00000000000000E+20
 20
1.00000000000000E+20
 30
1.00000000000000E+20
  9
$PEXTMAX
 10
-1.00000000000000E+20
 20
-1.00000000000000E+20
 30
-1.00000000000000E+20
  9
$PLIMMIN
 10
0.0
 20
0.0
  9
$PLIMMAX
 10
12.0
 20
9.0
  9
$UNITMODE
 70
             0
  9
$VISRETAIN
 70
             0
  9
$PLINEGEN
 70
             1
  9
$PSLTSCALE
 70
             0
  9
$TREEDEPTH
 70
          3020
  9
$PICKSTYLE
 70
             1
  9
$CMLSTYLE
  2
STANDARD
  9
$CMLJUST
 70
             0
  9
$CMLSCALE
 40
1.0
  9
$PROXYGRAPHICS
 70
             0
  9
$MEASUREMENT
 70
             1
  0
ENDSEC
  0
SECTION
  2
CLASSES
  0
CLASS
  1
LWPOLYLINE
  2
AcDbPolyline
  3
"AutoCAD"
 90
        0
280
             0
281
             1
  0
CLASS
  1
IMAGE
  2
AcDbRasterImage
  3
ISM
 90
      127
280
             0
281
             1
  0
CLASS
  1
OLE2FRAME
  2
AcDbOle2Frame
  3
""
 90
        0
280
             0
281
             1
  0
CLASS
  1
HATCH
  2
AcDbHatch
  3
"ACAD_SEDONA"
 90
        0
280
             0
281
             1
  0
CLASS
  1
DICTIONARYVAR
  2
AcDbDictionaryVar
  3
"AutoCAD"
 90
        0
280
             0
281
             0
  0
CLASS
  1
RASTERVARIABLES
  2
AcDbRasterVariables
  3
ISM
 90
        0
280
             0
281
             0
  0
CLASS
  1
IMAGEDEF
  2
AcDbRasterImageDef
  3
ISM
 90
        0
280
             0
281
             0
  0
CLASS
  1
IMAGEDEF_REACTOR
  2
AcDbRasterImageDefReactor
  3
ISM
 90
        1
280
             0
281
             0
  0
CLASS
  1
IDBUFFER
  2
AcDbIdBuffer
  3
"Acad"
 90
        0
280
             0
281
             0
  0
CLASS
  1
SPATIAL_FILTER
  2
AcDbSpatialFilter
  3
"Acad"
 90
        0
280
             0
281
             0
  0
CLASS
  1
XRECORD
  2
AcDbXrecord
  3
"<Built In>"
 90
        0
280
             0
281
             0
  0
CLASS
  1
SORTENTSTABLE
  2
AcDbSortentsTable
  3
"AutoCAD"
 90
        0
280
             0
281
             0
  0
CLASS
  1
LAYER_INDEX
  2
AcDbLayerIndex
  3
"Acad"
 90
        0
280
             0
281
             0
  0
CLASS
  1
SPATIAL_INDEX
  2
AcDbSpatialIndex
  3
"Acad"
 90
        0
280
             0
281
             0
  0
CLASS
  1
OBJECT_PTR
  2
CAseDLPNTableRecord
  3
"ASE-LPNTableRecord"
 90
        1
280
             0
281
             0
  0
CLASS
  1
LAYOUT
  2
AcDbLayout
  3
"AutoCAD 2000"
 90
        0
280
             0
281
             0
  0
CLASS
  1
PLOTSETTINGS
  2
AcDbPlotSettings
  3
"AutoCAD 2000"
 90
        0
280
             0
281
             0
  0
CLASS
  1
ACDBDICTIONARYWDFLT
  2
AcDbDictionaryWithDefault
  3
"AutoCAD 2000"
 90
        0
280
             0
281
             0
  0
CLASS
  1
ACDBPLACEHOLDER
  2
AcDbPlaceHolder
  3
"AutoCAD 2000"
 90
        0
280
             0
281
             0
  0
ENDSEC
  0
SECTION
  2
TABLES
  0
TABLE
  2
VPORT
  5
7
100
AcDbSymbolTable
 70
             1
  0
VPORT
  5
15
100
AcDbSymbolTableRecord
100
AcDbViewportTableRecord
  2
*ACTIVE
 70
             0
 10
0.0
 20
0.0
 11
1.0
 21
1.0
 12
-146.42069906810156
 22
4497.73157772794
 13
0.0
 23
0.0
 14
1.0
 24
1.0
 15
0.0
 25
0.0
 16
0.0
 26
0.0
 36
1.0
 17
0.0
 27
0.0
 37
0.0
 40
304.70000000000101
 41
1.60267857142857
 42
50.0
 43
0.0
 44
0.0
 50
0.0
 51
0.0
 71
             0
 72
           100
 73
             1
 74
             1
 75
             0
 76
             0
 77
             0
 78
             0
  0
ENDTAB
  0
TABLE
  2
LTYPE
  5
4
100
AcDbSymbolTable
 70
            10
  0
LTYPE
  5
11
100
AcDbSymbolTableRecord
100
AcDbLinetypeTableRecord
  2
BYBLOCK
 70
            64
  3

 72
            65
 73
             0
 40
0.0
  0
LTYPE
  5
12
100
AcDbSymbolTableRecord
100
AcDbLinetypeTableRecord
  2
BYLAYER
 70
            64
  3

 72
            65
 73
             0
 40
0.0
  0
LTYPE
  5
13
100
AcDbSymbolTableRecord
100
AcDbLinetypeTableRecord
  2
CONTINUOUS
 70
            64
  3
Solid line
 72
            65
 73
             0
 40
0.0
  0
LTYPE
  5
1D
100
AcDbSymbolTableRecord
100
AcDbLinetypeTableRecord
  2
DASHED
 70
            64
  3
Dashed
 72
            65
 73
             2
 40
15.0
 49
7.0
 74
             0
 49
-8.0
 74
             0
  0
LTYPE
  5
1E
100
AcDbSymbolTableRecord
100
AcDbLinetypeTableRecord
  2
DOTTED
 70
            64
  3
Dotted
 72
            65
 73
             2
 40
1.0
 49
0.0
 74
             0
 49
-1.0
 74
             0
  0
LTYPE
  5
1F
100
AcDbSymbolTableRecord
100
AcDbLinetypeTableRecord
  2
DOT_CENTER
 70
            64
  3
Dot_Center
 72
            65
 73
             4
 40
14.0
 49
12.0
 74
             0
 49
-1.0
 74
             0
 49
0.0
 74
             0
 49
-1.0
 74
             0
  0
LTYPE
  5
20
100
AcDbSymbolTableRecord
100
AcDbLinetypeTableRecord
  2
LONG_DASHED
 70
            64
  3
Long_Dashed
 72
            65
 73
             2
 40
15.0
 49
10.0
 74
             0
 49
-5.0
 74
             0
  0
LTYPE
  5
21
100
AcDbSymbolTableRecord
100
AcDbLinetypeTableRecord
  2
DASH_CENTER
 70
            64
  3
Dash_Center
 72
            65
 73
             4
 40
14.0
 49
11.0
 74
             0
 49
-1.0
 74
             0
 49
1.0
 74
             0
 49
-1.0
 74
             0
  0
LTYPE
  5
22
100
AcDbSymbolTableRecord
100
AcDbLinetypeTableRecord
  2
PHANTOM
 70
            64
  3
Phantom
 72
            65
 73
             6
 40
13.0
 49
10.0
 74
             0
 49
-1.0
 74
             0
 49
0.0
 74
             0
 49
-1.0
 74
             0
 49
0.0
 74
             0
 49
-1.0
 74
             0
  0
LTYPE
  5
23
100
AcDbSymbolTableRecord
100
AcDbLinetypeTableRecord
  2
CENTER_DASH_DASH
 70
            64
  3
Center_Dash_Dash
 72
            65
 73
             6
 40
14.0
 49
9.0
 74
             0
 49
-1.0
 74
             0
 49
1.0
 74
             0
 49
-1.0
 74
             0
 49
1.0
 74
             0
 49
-1.0
 74
             0
  0
ENDTAB
  0
TABLE
  2
LAYER
  5
2
100
AcDbSymbolTable
 70
             2
  0
LAYER
  5
14
100
AcDbSymbolTableRecord
100
AcDbLayerTableRecord
  2
0
 70
             0
 62
             7
  6
CONTINUOUS
  0
LAYER
  5
24
100
AcDbSymbolTableRecord
100
AcDbLayerTableRecord
  2
1
 70
             0
 62
             7
  6
CONTINUOUS
  0
ENDTAB
  0
TABLE
  2
STYLE
  5
3
100
AcDbSymbolTable
 70
             4
  0
STYLE
  5
17
100
AcDbSymbolTableRecord
100
AcDbTextStyleTableRecord
  2
STANDARD
 70
             0
 40
0.0
 41
1.0
 50
0.0
 71
             0
 42
0.0
  3
txt
  4

  0
STYLE
  5
177
100
AcDbSymbolTableRecord
100
AcDbTextStyleTableRecord
  2
CONVERTER_1
 70
             0
 40
0.0
 41
0.63
 50
0.0
 71
             0
 42
0.0
  3
txt.shx
  4

  0
STYLE
  5
1A2
100
AcDbSymbolTableRecord
100
AcDbTextStyleTableRecord
  2
CONVERTER_2
 70
             0
 40
0.0
 41
0.9
 50
0.0
 71
             0
 42
0.0
  3
txt.shx
  4

  0
STYLE
  5
22D
100
AcDbSymbolTableRecord
100
AcDbTextStyleTableRecord
  2
CONVERTER_3
 70
             0
 40
0.0
 41
0.665
 50
0.0
 71
             0
 42
0.0
  3
simplex.shx
  4

  0
ENDTAB
  0
TABLE
  2
VIEW
  5
5
100
AcDbSymbolTable
 70
             0
  0
ENDTAB
  0
TABLE
  2
UCS
  5
6
100
AcDbSymbolTable
 70
             0
  0
ENDTAB
  0
TABLE
  2
APPID
  5
8
100
AcDbSymbolTable
 70
             1
  0
APPID
  5
16
100
AcDbSymbolTableRecord
100
AcDbRegAppTableRecord
  2
ACAD
 70
             0
  0
ENDTAB
  0
TABLE
  2
DIMSTYLE
  5
9
100
AcDbSymbolTable
 70
            10
  0
DIMSTYLE
105
18
100
AcDbSymbolTableRecord
100
AcDbDimStyleTableRecord
  2
STANDARD
 70
             0
  3

  4

  5

  6

  7

 40
1.0
 41
0.18
 42
0.0625
 43
0.38
 44
0.18
 45
0.0
 46
0.0
 47
0.0
 48
0.0
 71
             0
 72
             0
 73
             1
 74
             1
 75
             0
 76
             0
 77
             0
 78
             0
140
0.18
141
0.09
142
0.0
143
25.4
144
1.0
145
0.0
146
1.0
147
0.09
170
             0
171
             2
172
             0
173
             0
174
             0
175
             0
176
             0
177
             0
178
             0
270
             2
271
             4
272
             4
273
             2
274
             2
275
             0
280
             0
281
             0
282
             0
283
             1
284
             0
285
             0
286
             0
287
             3
288
             0
340
17
  0
DIMSTYLE
105
236
100
AcDbSymbolTableRecord
100
AcDbDimStyleTableRecord
  2
ME10_DIM_0
 70
             0
  3

  4

  5

  6
_OPEN30
  7
_OPEN30
 40
1.0
 41
2.45
 42
1.0
 43
0.38
 44
1.0
 45
0.0
 46
0.0
 47
0.0
 48
0.0
 71
             0
 72
             0
 73
             0
 74
             0
 75
             0
 76
             0
 77
             1
 78
             8
140
3.5
141
0.09
142
0.0
143
25.4
144
1.0
145
0.0
146
1.0
147
0.625
170
             0
171
             2
172
             1
173
             1
174
             0
175
             0
176
             2
177
             2
178
             3
270
             2
271
             2
272
             4
273
             2
274
             2
275
             0
280
             0
281
             0
282
             0
283
             1
284
             0
285
             0
286
             0
287
             3
288
             0
340
22D
  0
DIMSTYLE
105
244
100
AcDbSymbolTableRecord
100
AcDbDimStyleTableRecord
  2
ME10_DIM_1
 70
             0
  3

  4

  5

  6
_OPEN30
  7
_OPEN30
 40
1.0
 41
2.45
 42
1.0
 43
0.38
 44
1.0
 45
0.0
 46
0.0
 47
0.0
 48
0.0
 71
             0
 72
             0
 73
             0
 74
             0
 75
             0
 76
             0
 77
             1
 78
             8
140
3.5
141
0.09
142
0.0
143
25.4
144
1.0
145
0.0
146
1.0
147
0.625
170
             0
171
             2
172
             1
173
             1
174
             0
175
             0
176
             2
177
             2
178
             3
270
             2
271
             2
272
             4
273
             2
274
             2
275
             0
280
             0
281
             0
282
             0
283
             1
284
             0
285
             0
286
             0
287
             3
288
             0
340
22D
  0
DIMSTYLE
105
253
100
AcDbSymbolTableRecord
100
AcDbDimStyleTableRecord
  2
ME10_DIM_2
 70
             0
  3

  4

  5

  6
_OPEN30
  7
_OPEN30
 40
1.0
 41
2.45
 42
1.0
 43
0.38
 44
1.0
 45
0.0
 46
0.0
 47
0.0
 48
0.0
 71
             0
 72
             0
 73
             0
 74
             0
 75
             0
 76
             0
 77
             1
 78
             8
140
3.5
141
0.09
142
0.0
143
25.4
144
1.0
145
0.0
146
1.0
147
0.625
170
             0
171
             2
172
             1
173
             1
174
             0
175
             0
176
             2
177
             2
178
             3
270
             2
271
             2
272
             4
273
             2
274
             2
275
             0
280
             0
281
             0
282
             0
283
             1
284
             0
285
             0
286
             0
287
             3
288
             0
340
22D
  0
DIMSTYLE
105
260
100
AcDbSymbolTableRecord
100
AcDbDimStyleTableRecord
  2
ME10_DIM_3
 70
             0
  3

  4

  5

  6
_OPEN30
  7
_OPEN30
 40
1.0
 41
2.45
 42
1.0
 43
0.38
 44
1.0
 45
0.0
 46
0.0
 47
0.0
 48
0.0
 71
             0
 72
             0
 73
             0
 74
             0
 75
             0
 76
             0
 77
             1
 78
             8
140
3.5
141
0.09
142
0.0
143
25.4
144
1.0
145
0.0
146
1.0
147
0.625
170
             0
171
             2
172
             1
173
             1
174
             0
175
             0
176
             2
177
             2
178
             3
270
             2
271
             2
272
             4
273
             2
274
             2
275
             0
280
             0
281
             0
282
             0
283
             1
284
             0
285
             0
286
             0
287
             3
288
             0
340
22D
  0
DIMSTYLE
105
26D
100
AcDbSymbolTableRecord
100
AcDbDimStyleTableRecord
  2
ME10_DIM_4
 70
             0
  3

  4

  5

  6
_OPEN30
  7
_OPEN30
 40
1.0
 41
2.45
 42
1.0
 43
0.38
 44
1.0
 45
0.0
 46
0.0
 47
0.0
 48
0.0
 71
             0
 72
             0
 73
             0
 74
             0
 75
             0
 76
             0
 77
             1
 78
             8
140
3.5
141
0.09
142
0.0
143
25.4
144
1.0
145
0.0
146
1.0
147
0.625
170
             0
171
             2
172
             1
173
             1
174
             0
175
             0
176
             2
177
             2
178
             3
270
             2
271
             2
272
             4
273
             2
274
             2
275
             0
280
             0
281
             0
282
             0
283
             1
284
             0
285
             0
286
             0
287
             3
288
             0
340
22D
  0
DIMSTYLE
105
27C
100
AcDbSymbolTableRecord
100
AcDbDimStyleTableRecord
  2
ME10_DIM_5
 70
             0
  3

  4

  5

  6
_OPEN30
  7
_OPEN30
 40
1.0
 41
2.45
 42
1.0
 43
0.38
 44
1.0
 45
0.0
 46
0.0
 47
0.0
 48
0.0
 71
             0
 72
             0
 73
             0
 74
             0
 75
             0
 76
             0
 77
             1
 78
             8
140
3.5
141
0.09
142
0.0
143
25.4
144
1.0
145
0.0
146
1.0
147
0.625
170
             0
171
             2
172
             1
173
             1
174
             0
175
             0
176
             2
177
             2
178
             3
270
             2
271
             2
272
             4
273
             2
274
             2
275
             0
280
             0
281
             0
282
             0
283
             1
284
             0
285
             0
286
             0
287
             3
288
             0
340
22D
  0
DIMSTYLE
105
289
100
AcDbSymbolTableRecord
100
AcDbDimStyleTableRecord
  2
ME10_DIM_6
 70
             0
  3

  4

  5

  6
_OPEN30
  7
_OPEN30
 40
1.0
 41
2.45
 42
1.0
 43
0.38
 44
1.0
 45
0.0
 46
0.0
 47
0.0
 48
0.0
 71
             0
 72
             0
 73
             0
 74
             0
 75
             0
 76
             0
 77
             1
 78
             8
140
3.5
141
0.09
142
0.0
143
25.4
144
1.0
145
0.0
146
1.0
147
0.625
170
             0
171
             2
172
             1
173
             1
174
             0
175
             0
176
             2
177
             2
178
             3
270
             2
271
             2
272
             4
273
             2
274
             2
275
             0
280
             0
281
             0
282
             0
283
             1
284
             0
285
             0
286
             0
287
             3
288
             0
340
22D
  0
DIMSTYLE
105
296
100
AcDbSymbolTableRecord
100
AcDbDimStyleTableRecord
  2
ME10_DIM_7
 70
             0
  3

  4

  5

  6
_OPEN30
  7
_OPEN30
 40
1.0
 41
2.45
 42
1.0
 43
0.38
 44
1.0
 45
0.0
 46
0.0
 47
0.0
 48
0.0
 71
             0
 72
             0
 73
             0
 74
             0
 75
             0
 76
             0
 77
             1
 78
             8
140
3.5
141
0.09
142
0.0
143
25.4
144
1.0
145
0.0
146
1.0
147
0.625
170
             0
171
             2
172
             1
173
             1
174
             0
175
             0
176
             2
177
             2
178
             3
270
             2
271
             2
272
             4
273
             2
274
             2
275
             0
280
             0
281
             0
282
             0
283
             1
284
             0
285
             0
286
             0
287
             3
288
             0
340
22D
  0
DIMSTYLE
105
2A3
100
AcDbSymbolTableRecord
100
AcDbDimStyleTableRecord
  2
ME10_DIM_8
 70
             0
  3

  4

  5

  6
_OPEN30
  7
_OPEN30
 40
1.0
 41
2.45
 42
1.0
 43
0.38
 44
1.0
 45
0.0
 46
0.0
 47
0.0
 48
0.0
 71
             0
 72
             0
 73
             0
 74
             0
 75
             0
 76
             0
 77
             1
 78
             8
140
3.5
141
0.09
142
0.0
143
25.4
144
1.0
145
0.0
146
1.0
147
0.625
170
             0
171
             2
172
             1
173
             1
174
             0
175
             0
176
             2
177
             2
178
             3
270
             2
271
             2
272
             4
273
             2
274
             2
275
             0
280
             0
281
             0
282
             0
283
             1
284
             0
285
             0
286
             0
287
             3
288
             0
340
22D
  0
ENDTAB
  0
TABLE
  2
BLOCK_RECORD
  5
1
100
AcDbSymbolTable
 70
            14
  0
BLOCK_RECORD
  5
A
100
AcDbSymbolTableRecord
100
AcDbBlockTableRecord
  2
*MODEL_SPACE
  0
BLOCK_RECORD
  5
B
100
AcDbSymbolTableRecord
100
AcDbBlockTableRecord
  2
*PAPER_SPACE
  0
BLOCK_RECORD
  5
25
100
AcDbSymbolTableRecord
100
AcDbBlockTableRecord
  2
_______T________________M4
  0
BLOCK_RECORD
  5
27
100
AcDbSymbolTableRecord
100
AcDbBlockTableRecord
  2
_1
  0
BLOCK_RECORD
  5
2A
100
AcDbSymbolTableRecord
100
AcDbBlockTableRecord
  2
______
  0
BLOCK_RECORD
  5
2C
100
AcDbSymbolTableRecord
100
AcDbBlockTableRecord
  2
FORMAT_A3
  0
BLOCK_RECORD
  5
224
100
AcDbSymbolTableRecord
100
AcDbBlockTableRecord
  2
*D4
  0
BLOCK_RECORD
  5
230
100
AcDbSymbolTableRecord
100
AcDbBlockTableRecord
  2
_OPEN30
  0
BLOCK_RECORD
  5
238
100
AcDbSymbolTableRecord
100
AcDbBlockTableRecord
  2
*D6
  0
BLOCK_RECORD
  5
246
100
AcDbSymbolTableRecord
100
AcDbBlockTableRecord
  2
*D7
  0
BLOCK_RECORD
  5
255
100
AcDbSymbolTableRecord
100
AcDbBlockTableRecord
  2
*D8
  0
BLOCK_RECORD
  5
262
100
AcDbSymbolTableRecord
100
AcDbBlockTableRecord
  2
*D9
  0
BLOCK_RECORD
  5
26F
100
AcDbSymbolTableRecord
100
AcDbBlockTableRecord
  2
*D10
  0
BLOCK_RECORD
  5
27E
100
AcDbSymbolTableRecord
100
AcDbBlockTableRecord
  2
*D11
  0
BLOCK_RECORD
  5
28B
100
AcDbSymbolTableRecord
100
AcDbBlockTableRecord
  2
*D12
  0
BLOCK_RECORD
  5
298
100
AcDbSymbolTableRecord
100
AcDbBlockTableRecord
  2
*D13
  0
ENDTAB
  0
ENDSEC
  0
SECTION
  2
BLOCKS
  0
BLOCK
  5
D
100
AcDbEntity
  8
0
100
AcDbBlockBegin
  2
*MODEL_SPACE
 70
             0
 10
0.0
 20
0.0
 30
0.0
  3
*MODEL_SPACE
  1

  0
ENDBLK
  5
E
100
AcDbEntity
  8
0
100
AcDbBlockEnd
  0
BLOCK
  5
F
100
AcDbEntity
 67
             1
  8
0
100
AcDbBlockBegin
  2
*PAPER_SPACE
 70
             0
 10
0.0
 20
0.0
 30
0.0
  3
*PAPER_SPACE
  1

  0
ENDBLK
  5
10
100
AcDbEntity
 67
             1
  8
0
100
AcDbBlockEnd
  0
BLOCK
  5
26
100
AcDbEntity
  8
0
100
AcDbBlockBegin
  2
_______T________________M4
 70
             0
 10
-239.30000000000001
 20
4566.1999999999998
 30
0.0
  3
_______T________________M4
  1

  0
CIRCLE
  5
3F
100
AcDbEntity
  8
1
  6
CONTINUOUS
 62
             7
100
AcDbCircle
 10
-236.0
 20
4569.5
 40
3.30000000000001
  0
LINE
  5
3E
100
AcDbEntity
  8
1
  6
CONTINUOUS
 62
             7
100
AcDbLine
 10
-236.46000000000001
 20
4571.8000000000002
 11
-235.53999999999999
 21
4571.8000000000002
  0
LINE
  5
3D
100
AcDbEntity
  8
1
  6
CONTINUOUS
 62
             7
100
AcDbLine
 10
-235.53999999999999
 20
4571.8000000000002
 11
-235.23333333333341
 21
4570.2666666666664
  0
LINE
  5
3C
100
AcDbEntity
  8
1
  6
CONTINUOUS
 62
             7
100
AcDbLine
 10
-235.23333333333341
 20
4570.2666666666664
 11
-233.69999999999999
 21
4569.96
  0
LINE
  5
3B
100
AcDbEntity
  8
1
  6
CONTINUOUS
 62
             7
100
AcDbLine
 10
-233.69999999999999
 20
4569.96
 11
-233.69999999999999
 21
4569.04
  0
LINE
  5
3A
100
AcDbEntity
  8
1
  6
CONTINUOUS
 62
             7
100
AcDbLine
 10
-233.69999999999999
 20
4569.04
 11
-235.23333333333341
 21
4568.7333333333336
  0
LINE
  5
39
100
AcDbEntity
  8
1
  6
CONTINUOUS
 62
             7
100
AcDbLine
 10
-235.23333333333341
 20
4568.7333333333336
 11
-235.53999999999999
 21
4567.1999999999998
  0
LINE
  5
38
100
AcDbEntity
  8
1
  6
CONTINUOUS
 62
             7
100
AcDbLine
 10
-235.53999999999999
 20
4567.1999999999998
 11
-236.46000000000001
 21
4567.1999999999998
  0
LINE
  5
37
100
AcDbEntity
  8
1
  6
CONTINUOUS
 62
             7
100
AcDbLine
 10
-236.46000000000001
 20
4567.1999999999998
 11
-236.76666666666671
 21
4568.7333333333336
  0
LINE
  5
36
100
AcDbEntity
  8
1
  6
CONTINUOUS
 62
             7
100
AcDbLine
 10
-236.76666666666671
 20
4568.7333333333336
 11
-238.30000000000001
 21
4569.04
  0
LINE
  5
35
100
AcDbEntity
  8
1
  6
CONTINUOUS
 62
             7
100
AcDbLine
 10
-238.30000000000001
 20
4569.04
 11
-238.30000000000001
 21
4569.96
  0
LINE
  5
34
100
AcDbEntity
  8
1
  6
CONTINUOUS
 62
             7
100
AcDbLine
 10
-238.30000000000001
 20
4569.96
 11
-236.76666666666671
 21
4570.2666666666664
  0
LINE
  5
33
100
AcDbEntity
  8
1
  6
CONTINUOUS
 62
             7
100
AcDbLine
 10
-236.76666666666671
 20
4570.2666666666664
 11
-236.46000000000001
 21
4571.8000000000002
  0
ENDBLK
  5
40
100
AcDbEntity
  8
0
100
AcDbBlockEnd
  0
BLOCK
  5
28
100
AcDbEntity
  8
0
100
AcDbBlockBegin
  2
_1
 70
             0
 10
-261.5
 20
4475.0
 30
0.0
  3
_1
  1

  0
ARC
  5
6F
100
AcDbEntity
  8
1
  6
CONTINUOUS
 62
             7
100
AcDbCircle
 10
-248.0
 20
4560.0
 40
1.0
100
AcDbArc
 50
180.0
 51
-90.0
  0
ARC
  5
6E
100
AcDbEntity
  8
1
  6
CONTINUOUS
 62
             7
100
AcDbCircle
 10
-260.5
 20
4577.8999999999996
 40
1.0
100
AcDbArc
 50
90.0
 51
180.0
  0
ARC
  5
6D
100
AcDbEntity
  8
1
  6
CONTINUOUS
 62
             7
100
AcDbCircle
 10
-232.0
 20
4561.0
 40
2.0
100
AcDbArc
 50
-90.0
 51
0.0
  0
ARC
  5
6C
100
AcDbEntity
  8
1
  6
CONTINUOUS
 62
             7
100
AcDbCircle
 10
-232.0
 20
4578.0
 40
2.0
100
AcDbArc
 50
0.0
 51
90.0
  0
ARC
  5
6B
100
AcDbEntity
  8
1
  6
CONTINUOUS
 62
             7
100
AcDbCircle
 10
-231.0
 20
4481.0
 40
1.0
100
AcDbArc
 50
0.0
 51
90.0
  0
ARC
  5
6A
100
AcDbEntity
  8
1
  6
CONTINUOUS
 62
             7
100
AcDbCircle
 10
-182.0
 20
4481.0
 40
1.0
100
AcDbArc
 50
90.0
 51
180.0
  0
ARC
  5
69
100
AcDbEntity
  8
1
  6
CONTINUOUS
 62
             7
100
AcDbCircle
 10
-163.0
 20
4481.0
 40
1.0
100
AcDbArc
 50
0.0
 51
90.0
  0
ARC
  5
68
100
AcDbEntity
  8
1
  6
CONTINUOUS
 62
             7
100
AcDbCircle
 10
-260.0
 20
4569.5
 40
6.99999999999995
100
AcDbArc
 50
28.12706821859825
 51
37.90003733535295
  0
ARC
  5
67
100
AcDbEntity
  8
1
  6
CONTINUOUS
 62
             7
100
AcDbCircle
 10
-260.5
 20
4574.7999999999993
 40
1.0
100
AcDbArc
 50
180.0
 51
-90.0
  0
ARC
  5
66
100
AcDbEntity
  8
1
  6
CONTINUOUS
 62
             7
100
AcDbCircle
 10
-260.0
 20
4569.5
 40
7.00000000000001
100
AcDbArc
 50
-38.68218745348941
 51
28.12706821859825
  0
ARC
  5
65
100
AcDbEntity
  8
1
  6
DOTTED
 62
             7
100
AcDbCircle
 10
-260.0
 20
4569.5
 40
8.50000000000025
100
AcDbArc
 50
-44.70221659677068
 51
61.14278632060366
  0
ARC
  5
64
100
AcDbEntity
  8
1
  6
CONTINUOUS
 62
             7
100
AcDbCircle
 10
-260.0
 20
4569.5
 40
7.00000000000011
100
AcDbArc
 50
37.90003733535295
 51
45.64698036339559
  0
ARC
  5
63
100
AcDbEntity
  8
1
  6
CONTINUOUS
 62
             7
100
AcDbCircle
 10
-253.75500200160161
 20
4564.5
 40
0.99999999999999
100
AcDbArc
 50
141.31781254651003
 51
-90.0
  0
ARC
  5
62
100
AcDbEntity
  8
1
  6
CONTINUOUS
 62
             7
100
AcDbCircle
 10
-259.5
 20
4579.5
 40
0.50000000000003
100
AcDbArc
 50
-134.35301963660706
 51
-116.46990609199041
  0
ARC
  5
61
100
AcDbEntity
  8
1
  6
CONTINUOUS
 62
             7
100
AcDbCircle
 10
-259.5
 20
4579.5
 40
0.5
100
AcDbArc
 50
90.0
 51
-134.35301963660706
  0
ARC
  5
60
100
AcDbEntity
  8
1
  6
CONTINUOUS
 62
             7
100
AcDbCircle
 10
-236.0
 20
4569.5
 40
4.25
100
AcDbArc
 50
-90.0
 51
90.0
  0
ARC
  5
5F
100
AcDbEntity
  8
1
  6
CONTINUOUS
 62
             7
100
AcDbCircle
 10
-246.0
 20
4569.5
 40
4.25
100
AcDbArc
 50
90.0
 51
-90.0
  0
ARC
  5
5E
100
AcDbEntity
  8
1
  6
CONTINUOUS
 62
             7
100
AcDbCircle
 10
-246.0
 20
4569.5
 40
2.25
100
AcDbArc
 50
90.0
 51
-90.0
  0
ARC
  5
5D
100
AcDbEntity
  8
1
  6
CONTINUOUS
 62
             7
100
AcDbCircle
 10
-248.0
 20
4481.0
 40
1.0
100
AcDbArc
 50
90.0
 51
180.0
  0
LINE
  5
5C
100
AcDbEntity
  8
1
  6
CONTINUOUS
 62
             7
100
AcDbLine
 10
-260.5
 20
4573.7999999999993
 11
-254.4764142081427
 21
4573.7999999999993
  0
LINE
  5
5B
100
AcDbEntity
  8
1
  6
CONTINUOUS
 62
             7
100
AcDbLine
 10
-261.5
 20
4577.8999999999996
 11
-261.5
 21
4574.0586637469223
  0
LINE
  5
5A
100
AcDbEntity
  8
1
  6
CONTINUOUS
 62
             7
100
AcDbLine
 10
-259.60152285235063
 20
4578.8999999999996
 11
-259.80205665067319
 21
4579.0960553481054
  0
LINE
  5
59
100
AcDbEntity
  8
1
  6
CONTINUOUS
 62
             7
100
AcDbLine
 10
-259.60152285235063
 20
4578.8999999999996
 11
-260.5
 21
4578.8999999999996
  0
LINE
  5
58
100
AcDbEntity
  8
1
  6
CONTINUOUS
 62
             7
100
AcDbLine
 10
-253.97920271060389
 20
4563.5
 11
-253.75500200160161
 21
4563.5
  0
LINE
  5
57
100
AcDbEntity
  8
1
  6
CONTINUOUS
 62
             7
100
AcDbLine
 10
-248.0
 20
4559.0
 11
-232.0
 21
4559.0
  0
LINE
  5
56
100
AcDbEntity
  8
1
  6
CONTINUOUS
 62
             7
100
AcDbLine
 10
-249.0
 20
4563.5
 11
-249.0
 21
4560.0
  0
LINE
  5
55
100
AcDbEntity
  8
1
  6
CONTINUOUS
 62
             7
100
AcDbLine
 10
-249.0
 20
4563.5
 11
-253.86350760684601
 21
4563.5
  0
LINE
  5
54
100
AcDbEntity
  8
1
  6
CONTINUOUS
 62
             7
100
AcDbLine
 10
-255.1064591456385
 20
4574.5053229572823
 11
-259.60152285235063
 21
4578.8999999999996
  0
LINE
  5
53
100
AcDbEntity
  8
1
  6
DOTTED
 62
             7
100
AcDbLine
 10
-259.72286384912371
 20
4579.0524157009522
 11
-255.8976578794186
 21
4576.9445140288472
  0
LINE
  5
52
100
AcDbEntity
  8
1
  6
DOT_CENTER
 62
             3
100
AcDbLine
 10
-246.0
 20
4575.75
 11
-246.0
 21
4563.25
  0
LINE
  5
51
100
AcDbEntity
  8
1
  6
DOT_CENTER
 62
             3
100
AcDbLine
 10
-236.0
 20
4575.75
 11
-236.0
 21
4563.25
  0
LINE
  5
50
100
AcDbEntity
  8
1
  6
CONTINUOUS
 62
             7
100
AcDbLine
 10
-246.0
 20
4571.75
 11
-238.4140215409148
 21
4571.75
  0
LINE
  5
4F
100
AcDbEntity
  8
1
  6
CONTINUOUS
 62
             7
100
AcDbLine
 10
-246.0
 20
4565.25
 11
-236.0
 21
4565.25
  0
LINE
  5
4E
100
AcDbEntity
  8
1
  6
CONTINUOUS
 62
             7
100
AcDbLine
 10
-246.0
 20
4573.75
 11
-236.0
 21
4573.75
  0
LINE
  5
4D
100
AcDbEntity
  8
1
  6
CONTINUOUS
 62
             7
100
AcDbLine
 10
-232.0
 20
4580.0
 11
-259.5
 21
4580.0
  0
LINE
  5
4C
100
AcDbEntity
  8
1
  6
CONTINUOUS
 62
             7
100
AcDbLine
 10
-230.0
 20
4561.0
 11
-230.0
 21
4578.0
  0
LINE
  5
4B
100
AcDbEntity
  8
1
  6
CONTINUOUS
 62
             7
100
AcDbLine
 10
-230.0
 20
4475.0
 11
-230.0
 21
4481.0
  0
LINE
  5
4A
100
AcDbEntity
  8
1
  6
CONTINUOUS
 62
             7
100
AcDbLine
 10
-231.0
 20
4482.0
 11
-251.0
 21
4482.0
  0
LINE
  5
49
100
AcDbEntity
  8
1
  6
CONTINUOUS
 62
             7
100
AcDbLine
 10
-249.0
 20
4481.0
 11
-249.0
 21
4475.0
  0
LINE
  5
48
100
AcDbEntity
  8
1
  6
CONTINUOUS
 62
             7
100
AcDbLine
 10
-183.0
 20
4475.0
 11
-182.0
 21
4475.0
  0
LINE
  5
47
100
AcDbEntity
  8
1
  6
CONTINUOUS
 62
             7
100
AcDbLine
 10
-162.0
 20
4475.0
 11
-162.0
 21
4481.0
  0
LINE
  5
46
100
AcDbEntity
  8
1
  6
CONTINUOUS
 62
             7
100
AcDbLine
 10
-163.0
 20
4482.0
 11
-182.0
 21
4482.0
  0
LINE
  5
45
100
AcDbEntity
  8
1
  6
CONTINUOUS
 62
             7
100
AcDbLine
 10
-183.0
 20
4481.0
 11
-183.0
 21
4475.0
  0
LINE
  5
44
100
AcDbEntity
  8
1
  6
CONTINUOUS
 62
             7
100
AcDbLine
 10
-255.562099539906
 20
4572.7999999999993
 11
-253.82667026637941
 21
4572.7999999999993
  0
LINE
  5
43
100
AcDbEntity
  8
1
  6
CONTINUOUS
 62
             7
100
AcDbLine
 10
-238.4140215409148
 20
4567.25
 11
-246.0
 21
4567.25
  0
LINE
  5
42
100
AcDbEntity
  8
1
  6
CONTINUOUS
 62
             7
100
AcDbLine
 10
-231.0
 20
4475.0
 11
-230.0
 21
4475.0
  0
LINE
  5
41
100
AcDbEntity
  8
1
  6
CONTINUOUS
 62
             7
100
AcDbLine
 10
-163.0
 20
4475.0
 11
-162.0
 21
4475.0
  0
INSERT
  5
29
100
AcDbEntity
  8
1
100
AcDbBlockReference
  2
_______T________________M4
 10
-239.30000000000001
 20
4566.1999999999998
  0
ENDBLK
  5
70
100
AcDbEntity
  8
0
100
AcDbBlockEnd
  0
BLOCK
  5
2B
100
AcDbEntity
  8
0
100
AcDbBlockBegin
  2
______
 70
             0
 10
88.49926464095651
 20
4134.8600331614643
 30
0.0
  3
______
  1

  0
MTEXT
  5
1C3
100
AcDbEntity
  8
1
 62
             3
100
AcDbMText
 10
37.02204695974344
 20
4632.6933394998323
 30
0.0
 40
4.0
 41
0.0
 71
             4
 72
             1
  1
*°º
  7
CONVERTER_1
  0
MTEXT
  5
1C2
100
AcDbEntity
  8
1
 62
             3
100
AcDbMText
 10
-129.60505105144341
 20
4632.8470766017981
 30
0.0
 40
4.0
 41
0.0
 71
             4
 72
             1
  1
*å
  7
CONVERTER_1
  0
MTEXT
  5
1C1
100
AcDbEntity
  8
1
 62
             3
100
AcDbMText
 10
-98.40954729159024
 20
4632.5704679822447
 30
0.0
 40
4.0
 41
0.0
 71
             4
 72
             1
  1
*     °      %%dµ      %%dR
  7
CONVERTER_1
  0
MTEXT
  5
1C0
100
AcDbEntity
  8
1
 62
             3
100
AcDbMText
 10
15.50295025457211
 20
4632.7824762518458
 30
0.0
 40
4.0
 41
0.0
 71
             4
 72
             1
  1
*°S²
  7
CONVERTER_1
  0
MTEXT
  5
1BF
100
AcDbEntity
  8
1
 62
             3
100
AcDbMText
 10
-24.66448747042028
 20
4632.4557634180619
 30
0.0
 40
4.0
 41
0.0
 71
             4
 72
             1
  1
*°°F
  7
CONVERTER_1
  0
MTEXT
  5
1BE
100
AcDbEntity
  8
1
 62
             3
100
AcDbMText
 10
-5.77795304025662
 20
4632.6933394998323
 30
0.0
 40
4.0
 41
0.0
 71
             4
 72
             1
  1
*°°Fº
  7
CONVERTER_1
  0
MTEXT
  5
1BD
100
AcDbEntity
  8
1
 62
             3
100
AcDbMText
 10
-100.95734769270079
 20
4383.6679104559462
 30
0.0
 40
3.5
 41
0.0
 71
             4
 72
             1
  1
A3
  7
CONVERTER_1
  0
MTEXT
  5
1BC
100
AcDbEntity
  8
1
 62
             4
100
AcDbMText
 10
-116.82374871071509
 20
4385.2509307282562
 30
0.0
 40
3.0
 41
0.0
 71
             4
 72
             1
  1
Ö
  7
CONVERTER_1
  0
MTEXT
  5
1BB
100
AcDbEntity
  8
1
 62
             4
100
AcDbMText
 10
-116.8212965785049
 20
4382.100527662793
 30
0.0
 40
3.0
 41
0.0
 71
             4
 72
             1
  1
x
  7
CONVERTER_1
  0
MTEXT
  5
1BA
100
AcDbEntity
  8
1
 62
             4
100
AcDbMText
 10
-40.32374871071522
 20
4385.2509307282562
 30
0.0
 40
3.0
 41
0.0
 71
             4
 72
             1
  1
°
  7
CONVERTER_1
  0
MTEXT
  5
1B9
100
AcDbEntity
  8
1
 62
             4
100
AcDbMText
 10
-40.32129657850504
 20
4382.100527662793
 30
0.0
 40
3.0
 41
0.0
 71
             4
 72
             1
  1
F
  7
CONVERTER_1
  0
MTEXT
  5
1B8
100
AcDbEntity
  8
1
 62
             4
100
AcDbMText
 10
-40.32374871071522
 20
4378.2509307282562
 30
0.0
 40
3.0
 41
0.0
 71
             4
 72
             1
  1

  7
CONVERTER_1
  0
MTEXT
  5
1B7
100
AcDbEntity
  8
1
 62
             4
100
AcDbMText
 10
-40.32129657850504
 20
4375.100527662793
 30
0.0
 40
3.0
 41
0.0
 71
             4
 72
             1
  1
}
  7
CONVERTER_1
  0
MTEXT
  5
1B6
100
AcDbEntity
  8
1
 62
             4
100
AcDbMText
 10
-40.323748710715
 20
4364.2509307282562
 30
0.0
 40
3.0
 41
0.0
 71
             4
 72
             1
  1
s
  7
CONVERTER_1
  0
MTEXT
  5
1B5
100
AcDbEntity
  8
1
 62
             4
100
AcDbMText
 10
-40.32129657850481
 20
4361.100527662793
 30
0.0
 40
3.0
 41
0.0
 71
             4
 72
             1
  1
}
  7
CONVERTER_1
  0
MTEXT
  5
1B4
100
AcDbEntity
  8
1
 62
             4
100
AcDbMText
 10
-40.323748710715
 20
4371.2509307282562
 30
0.0
 40
3.0
 41
0.0
 71
             4
 72
             1
  1
ï
  7
CONVERTER_1
  0
MTEXT
  5
1B3
100
AcDbEntity
  8
1
 62
             4
100
AcDbMText
 10
-40.32129657850481
 20
4368.100527662793
 30
0.0
 40
3.0
 41
0.0
 71
             4
 72
             1
  1
v
  7
CONVERTER_1
  0
MTEXT
  5
1B2
100
AcDbEntity
  8
1
 62
             4
100
AcDbMText
 10
-1.8212965785048
 20
4382.100527662793
 30
0.0
 40
3.0
 41
0.0
 71
             4
 72
             1
  1
²¥
  7
CONVERTER_1
  0
MTEXT
  5
1B1
100
AcDbEntity
  8
1
 62
             4
100
AcDbMText
 10
-1.823748710715
 20
4385.2509307282562
 30
0.0
 40
3.0
 41
0.0
 71
             4
 72
             1
  1
i
  7
CONVERTER_1
  0
MTEXT
  5
1B0
100
AcDbEntity
  8
1
 62
             4
100
AcDbMText
 10
-94.82129657850481
 20
4382.100527662793
 30
0.0
 40
3.0
 41
0.0
 71
             4
 72
             1
  1
ä
  7
CONVERTER_1
  0
MTEXT
  5
1AF
100
AcDbEntity
  8
1
 62
             4
100
AcDbMText
 10
-94.823748710715
 20
4385.2509307282562
 30
0.0
 40
3.0
 41
0.0
 71
             4
 72
             1
  1
²¥
  7
CONVERTER_1
  0
MTEXT
  5
1AE
100
AcDbEntity
  8
1
 62
             4
100
AcDbMText
 10
-1.8212965785048
 20
4368.100527662793
 30
0.0
 40
3.0
 41
0.0
 71
             4
 72
             1
  1
²¥
  7
CONVERTER_1
  0
MTEXT
  5
1AD
100
AcDbEntity
  8
1
 62
             4
100
AcDbMText
 10
-1.823748710715
 20
4371.2509307282562
 30
0.0
 40
3.0
 41
0.0
 71
             4
 72
             1
  1
}
  7
CONVERTER_1
  0
MTEXT
  5
1AC
100
AcDbEntity
  8
1
 62
             4
100
AcDbMText
 10
-1.82129657850475
 20
4375.100527662793
 30
0.0
 40
3.0
 41
0.0
 71
             4
 72
             1
  1
å
  7
CONVERTER_1
  0
MTEXT
  5
1AB
100
AcDbEntity
  8
1
 62
             4
100
AcDbMText
 10
-1.82374871071495
 20
4378.2509307282562
 30
0.0
 40
3.0
 41
0.0
 71
             4
 72
             1
  1
i
  7
CONVERTER_1
  0
MTEXT
  5
1AA
100
AcDbEntity
  8
1
 62
             4
100
AcDbMText
 10
-1.8212965785048
 20
4361.100527662793
 30
0.0
 40
3.0
 41
0.0
 71
             4
 72
             1
  1
å
  7
CONVERTER_1
  0
MTEXT
  5
1A9
100
AcDbEntity
  8
1
 62
             4
100
AcDbMText
 10
-1.823748710715
 20
4364.2509307282562
 30
0.0
 40
3.0
 41
0.0
 71
             4
 72
             1
  1
}
  7
CONVERTER_1
  0
MTEXT
  5
1A8
100
AcDbEntity
  8
1
 62
             4
100
AcDbMText
 10
-127.1206990681017
 20
4390.7315777279409
 30
0.0
 40
3.0
 41
0.0
 71
             5
 72
             1
  1
å
  7
CONVERTER_2
  0
MTEXT
  5
1A7
100
AcDbEntity
  8
1
 62
             4
100
AcDbMText
 10
-98.62069906810172
 20
4390.7315777279409
 30
0.0
 40
3.0
 41
0.0
 71
             5
 72
             1
  1
     i     ²¥
  7
CONVERTER_2
  0
MTEXT
  5
1A6
100
AcDbEntity
  8
1
 62
             4
100
AcDbMText
 10
-59.48819806301194
 20
4390.7315777279409
 30
0.0
 40
3.0
 41
0.0
 71
             5
 72
             1
  1
ß   ¢
  7
CONVERTER_2
  0
MTEXT
  5
1A5
100
AcDbEntity
  8
1
 62
             4
100
AcDbMText
 10
-41.92069906810156
 20
4390.7315777279409
 30
0.0
 40
3.0
 41
0.0
 71
             5
 72
             1
  1
%%d%%d
  7
CONVERTER_2
  0
MTEXT
  5
1A4
100
AcDbEntity
  8
1
 62
             4
100
AcDbMText
 10
-13.34421508598797
 20
4390.7315777279409
 30
0.0
 40
3.0
 41
0.0
 71
             5
 72
             1
  1
\   ²%%d      %%dµ
  7
CONVERTER_2
  0
MTEXT
  5
1A3
100
AcDbEntity
  8
1
 62
             4
100
AcDbMText
 10
32.33846706111304
 20
4390.9948490305842
 30
0.0
 40
3.0
 41
0.0
 71
             5
 72
             1
  1
¾    l
  7
CONVERTER_2
  0
MTEXT
  5
1A1
100
AcDbEntity
  8
1
 62
             3
100
AcDbMText
 10
-70.50418329684757
 20
4371.2704310000054
 30
0.0
 40
3.5
 41
0.0
 71
             4
 72
             1
  1
J  Ù  
  7
CONVERTER_1
  0
MTEXT
  5
1A0
100
AcDbEntity
  8
1
 62
             3
100
AcDbMText
 10
-70.56740110681767
 20
4362.8718642201984
 30
0.0
 40
2.5
 41
0.0
 71
             4
 72
             1
  1
s ðÌ *J 1-27-4
  7
CONVERTER_1
  0
MTEXT
  5
19F
100
AcDbEntity
  8
1
 62
             3
100
AcDbMText
 10
-70.55075140378267
 20
4366.7153570116698
 30
0.0
 40
2.5
 41
0.0
 71
             4
 72
             1
  1
Ï110-8680
  7
CONVERTER_1
  0
MTEXT
  5
19E
100
AcDbEntity
  8
1
 62
             3
100
AcDbMText
 10
-127.01213321166659
 20
4363.3989072915329
 30
0.0
 40
5.0
 41
0.0
 71
             4
 72
             1
  1
AgrebNÛÿÅ
  7
CONVERTER_1
  0
MTEXT
  5
19D
100
AcDbEntity
  8
1
 62
             3
100
AcDbMText
 10
-127.424670978227
 20
4397.6217152842901
 30
0.0
 40
4.5
 41
0.0
 71
             4
 72
             1
  1
1
  7
CONVERTER_1
  0
MTEXT
  5
19C
100
AcDbEntity
  8
1
 62
             3
100
AcDbMText
 10
-127.424670978227
 20
4404.6217152842901
 30
0.0
 40
4.5
 41
0.0
 71
             4
 72
             1
  1
2
  7
CONVERTER_1
  0
MTEXT
  5
19B
100
AcDbEntity
  8
1
 62
             3
100
AcDbMText
 10
-127.424670978227
 20
4411.6217152842901
 30
0.0
 40
4.5
 41
0.0
 71
             4
 72
             1
  1
3
  7
CONVERTER_1
  0
MTEXT
  5
19A
100
AcDbEntity
  8
1
 62
             3
100
AcDbMText
 10
-127.424670978227
 20
4418.6217152842901
 30
0.0
 40
4.5
 41
0.0
 71
             4
 72
             1
  1
4
  7
CONVERTER_1
  0
MTEXT
  5
199
100
AcDbEntity
  8
1
 62
             3
100
AcDbMText
 10
-127.424670978227
 20
4425.6217152842901
 30
0.0
 40
4.5
 41
0.0
 71
             4
 72
             1
  1
5
  7
CONVERTER_1
  0
MTEXT
  5
198
100
AcDbEntity
  8
1
 62
             3
100
AcDbMText
 10
-121.937354414751
 20
4397.6734914375002
 30
0.0
 40
4.5
 41
0.0
 71
             4
 72
             1
  1
²{ä
  7
CONVERTER_1
  0
MTEXT
  5
197
100
AcDbEntity
  8
1
 62
             3
100
AcDbMText
 10
-122.251739429918
 20
4404.8414697833296
 30
0.0
 40
4.5
 41
0.0
 71
             4
 72
             1
  1
XC_[
  7
CONVERTER_1
  0
MTEXT
  5
196
100
AcDbEntity
  8
1
 62
             3
100
AcDbMText
 10
-121.937354414751
 20
4411.63218611095
 30
0.0
 40
4.5
 41
0.0
 71
             4
 72
             1
  1
XvO
  7
CONVERTER_1
  0
MTEXT
  5
195
100
AcDbEntity
  8
1
 62
             3
100
AcDbMText
 10
-121.560092396549
 20
4418.6115334476799
 30
0.0
 40
4.5
 41
0.0
 71
             4
 72
             1
  1
é%%cùÑ
  7
CONVERTER_1
  0
MTEXT
  5
194
100
AcDbEntity
  8
1
 62
             3
100
AcDbMText
 10
-121.560092396549
 20
4425.84238879654
 30
0.0
 40
4.5
 41
0.0
 71
             4
 72
             1
  1
Ìt£ùÑ
  7
CONVERTER_1
  0
MTEXT
  5
193
100
AcDbEntity
  8
1
 62
             3
100
AcDbMText
 10
-72.03397300710481
 20
4425.3184137712597
 30
0.0
 40
4.5
 41
0.0
 71
             4
 72
             1
  1
SWCH10A
  7
CONVERTER_1
  0
MTEXT
  5
192
100
AcDbEntity
  8
1
 62
             3
100
AcDbMText
 10
-72.03397300710481
 20
4418.3184137712597
 30
0.0
 40
4.5
 41
0.0
 71
             4
 72
             1
  1
SWCH10A
  7
CONVERTER_1
  0
MTEXT
  5
191
100
AcDbEntity
  8
1
 62
             3
100
AcDbMText
 10
-72.03397300710481
 20
4411.3184137712597
 30
0.0
 40
4.5
 41
0.0
 71
             4
 72
             1
  1
SWPB
  7
CONVERTER_1
  0
MTEXT
  5
190
100
AcDbEntity
  8
1
 62
             3
100
AcDbMText
 10
-71.9291780020489
 20
4404.5690027701803
 30
0.0
 40
4.5
 41
0.0
 71
             4
 72
             1
  1
ZDC-2
  7
CONVERTER_1
  0
MTEXT
  5
18F
100
AcDbEntity
  8
1
 62
             3
100
AcDbMText
 10
-71.719587991937
 20
4397.4429424263799
 30
0.0
 40
4.5
 41
0.0
 71
             4
 72
             1
  1
ZDC-2
  7
CONVERTER_1
  0
MTEXT
  5
18E
100
AcDbEntity
  8
1
 62
             3
100
AcDbMText
 10
-42.3769865762696
 20
4397.5477374314296
 30
0.0
 40
4.5
 41
0.0
 71
             4
 72
             1
  1
1
  7
CONVERTER_1
  0
MTEXT
  5
18D
100
AcDbEntity
  8
1
 62
             3
100
AcDbMText
 10
-42.3769865762696
 20
4404.5477374314296
 30
0.0
 40
4.5
 41
0.0
 71
             4
 72
             1
  1
1
  7
CONVERTER_1
  0
MTEXT
  5
18C
100
AcDbEntity
  8
1
 62
             3
100
AcDbMText
 10
-42.3769865762696
 20
4411.5477374314296
 30
0.0
 40
4.5
 41
0.0
 71
             4
 72
             1
  1
1
  7
CONVERTER_1
  0
MTEXT
  5
18B
100
AcDbEntity
  8
1
 62
             3
100
AcDbMText
 10
-42.3769865762696
 20
4418.5477374314296
 30
0.0
 40
4.5
 41
0.0
 71
             4
 72
             1
  1
1
  7
CONVERTER_1
  0
MTEXT
  5
18A
100
AcDbEntity
  8
1
 62
             3
100
AcDbMText
 10
-42.3769865762696
 20
4425.5477374314296
 30
0.0
 40
4.5
 41
0.0
 71
             4
 72
             1
  1
2
  7
CONVERTER_1
  0
MTEXT
  5
189
100
AcDbEntity
  8
1
 62
             3
100
AcDbMText
 10
11.57930093189839
 20
4425.2275408079404
 30
0.0
 40
4.5
 41
0.0
 71
             4
 72
             1
  1
+àæ^ bsùÑ3.5~14
  7
CONVERTER_1
  0
MTEXT
  5
188
100
AcDbEntity
  8
1
 62
             3
100
AcDbMText
 10
12.5734586975577
 20
4418.34978574054
 30
0.0
 40
4.5
 41
0.0
 71
             4
 72
             1
  1
+àæ~ùÑM4~8
  7
CONVERTER_1
  0
MTEXT
  5
187
100
AcDbEntity
  8
1
 62
             3
100
AcDbMText
 10
-36.969692211651
 20
4397.3668041789897
 30
0.0
 40
4.5
 41
0.0
 71
             4
 72
             1
  1
N[g%%dµ
  7
CONVERTER_1
  0
MTEXT
  5
186
100
AcDbEntity
  8
1
 62
             3
100
AcDbMText
 10
-36.969692211651
 20
4404.3668041789897
 30
0.0
 40
4.5
 41
0.0
 71
             4
 72
             1
  1
N[g%%dµ
  7
CONVERTER_1
  0
MTEXT
  5
185
100
AcDbEntity
  8
1
 62
             3
100
AcDbMText
 10
-36.969692211651
 20
4418.3668041789897
 30
0.0
 40
4.5
 41
0.0
 71
             4
 72
             1
  1
N[g%%dµ
  7
CONVERTER_1
  0
MTEXT
  5
184
100
AcDbEntity
  8
1
 62
             3
100
AcDbMText
 10
-36.969692211651
 20
4425.3668041789897
 30
0.0
 40
4.5
 41
0.0
 71
             4
 72
             1
  1
N[g%%dµ
  7
CONVERTER_1
  0
MTEXT
  5
183
100
AcDbEntity
  8
1
 62
             3
100
AcDbMText
 10
-36.969692211651
 20
4411.3668041789897
 30
0.0
 40
4.5
 41
0.0
 71
             4
 72
             1
  1
N[g%%dµ
  7
CONVERTER_1
  0
MTEXT
  5
182
100
AcDbEntity
  8
1
 62
             3
100
AcDbMText
 10
-113.55835541790699
 20
4383.5973140840797
 30
0.0
 40
5.0
 41
0.0
 71
             4
 72
             1
  1
1 : 1
  7
CONVERTER_1
  0
MTEXT
  5
181
100
AcDbEntity
  8
1
 62
             3
100
AcDbMText
 10
-91.43543901603771
 20
4383.6741297660301
 30
0.0
 40
5.0
 41
0.0
 71
             4
 72
             1
  1
OFD-3NVXeÁÿ
  7
CONVERTER_1
  0
MTEXT
  5
180
100
AcDbEntity
  8
1
 62
             3
100
AcDbMText
 10
1.53753850358085
 20
4383.5952199198
 30
0.0
 40
5.0
 41
0.0
 71
             4
 72
             1
  1
OFD-3N-03
  7
CONVERTER_1
  0
MTEXT
  5
17F
100
AcDbEntity
  8
1
 62
             3
100
AcDbMText
 10
-35.0967731876414
 20
4383.5952199198
 30
0.0
 40
5.0
 41
0.0
 71
             4
 72
             1
  1
Ïã
  7
CONVERTER_1
  0
MTEXT
  5
17E
100
AcDbEntity
  8
1
 62
             3
100
AcDbMText
 10
-23.2533518737668
 20
4383.5952199198
 30
0.0
 40
4.5
 41
0.0
 71
             4
 72
             1
  1
2001.9.26
  7
CONVERTER_1
  0
MTEXT
  5
17D
100
AcDbEntity
  8
1
 62
             3
100
AcDbMText
 10
-23.2533518737668
 20
4376.5952199198
 30
0.0
 40
4.5
 41
0.0
 71
             4
 72
             1
  1
2001.9.26
  7
CONVERTER_1
  0
MTEXT
  5
17C
100
AcDbEntity
  8
1
 62
             3
100
AcDbMText
 10
-23.2533518737668
 20
4369.5952199198
 30
0.0
 40
4.5
 41
0.0
 71
             4
 72
             1
  1
2001.9.26
  7
CONVERTER_1
  0
MTEXT
  5
17B
100
AcDbEntity
  8
1
 62
             3
100
AcDbMText
 10
-23.2533518737668
 20
4362.5952199198
 30
0.0
 40
4.5
 41
0.0
 71
             4
 72
             1
  1
2001.9.26
  7
CONVERTER_1
  0
MTEXT
  5
17A
100
AcDbEntity
  8
1
 62
             3
100
AcDbMText
 10
-35.0967731876414
 20
4376.5952199198
 30
0.0
 40
5.0
 41
0.0
 71
             4
 72
             1
  1

  7
CONVERTER_1
  0
MTEXT
  5
179
100
AcDbEntity
  8
1
 62
             3
100
AcDbMText
 10
-35.0967731876414
 20
4369.5952199198
 30
0.0
 40
5.0
 41
0.0
 71
             4
 72
             1
  1
ø^ 
  7
CONVERTER_1
  0
MTEXT
  5
178
100
AcDbEntity
  8
1
 62
             3
100
AcDbMText
 10
-35.0967731876414
 20
4362.5952199198
 30
0.0
 40
5.0
 41
0.0
 71
             4
 72
             1
  1
ø^ 
  7
CONVERTER_1
  0
ARC
  5
176
100
AcDbEntity
  8
1
  6
CONTINUOUS
 62
             7
100
AcDbCircle
 10
-120.74841299625299
 20
4375.552085082446
 40
0.21739130434772
100
AcDbArc
 50
16.99999999977172
 51
163.00000000021404
  0
ARC
  5
175
100
AcDbEntity
  8
1
  6
CONTINUOUS
 62
             7
100
AcDbCircle
 10
-121.734057329488
 20
4372.3281877341897
 40
0.21739130434781
100
AcDbArc
 50
162.99999999998482
 51
-90.0
  0
ARC
  5
174
100
AcDbEntity
  8
1
  6
CONTINUOUS
 62
             7
100
AcDbCircle
 10
-119.76276866301799
 20
4372.3281877341897
 40
0.21739130434798
100
AcDbArc
 50
-90.0
 51
17.00000000000096
  0
ARC
  5
173
100
AcDbEntity
  8
1
  6
CONTINUOUS
 62
             7
100
AcDbCircle
 10
-122.0885276848023
 20
4371.1687674443347
 40
0.21739130434798
100
AcDbArc
 50
90.0
 51
162.99999999999247
  0
ARC
  5
172
100
AcDbEntity
  8
1
  6
CONTINUOUS
 62
             7
100
AcDbCircle
 10
-122.8417771898453
 20
4368.7049993283927
 40
0.2173913043478
100
AcDbArc
 50
162.99999999998374
 51
-90.0
  0
ARC
  5
171
100
AcDbEntity
  8
1
  6
CONTINUOUS
 62
             7
100
AcDbCircle
 10
-119.4619186754593
 20
4371.0963036762187
 40
0.28985507246396
100
AcDbArc
 50
17.00000000006538
 51
90.0
  0
ARC
  5
170
100
AcDbEntity
  8
1
  6
CONTINUOUS
 62
             7
100
AcDbCircle
 10
-118.75297796483061
 20
4368.7774630965087
 40
0.28985507246398
100
AcDbArc
 50
-90.0
 51
17.00000000006456
  0
ARC
  5
16F
100
AcDbEntity
  8
1
  6
CONTINUOUS
 62
             7
100
AcDbCircle
 10
-124.16141416476221
 20
4368.8499268646246
 40
0.36231884057997
100
AcDbArc
 50
-90.0
 51
-16.9999999999619
  0
ARC
  5
16E
100
AcDbEntity
  8
1
  6
CONTINUOUS
 62
             7
100
AcDbCircle
 10
-115.59259223359859
 20
4368.8499268646246
 40
0.36231884057956
100
AcDbArc
 50
-163.0000000000289
 51
-90.0
  0
ARC
  5
16D
100
AcDbEntity
  8
1
  6
CONTINUOUS
 62
             7
100
AcDbCircle
 10
-124.51652893828199
 20
4368.3426804878127
 40
0.14492753623199
100
AcDbArc
 50
90.0
 51
180.0
  0
ARC
  5
16C
100
AcDbEntity
  8
1
  6
CONTINUOUS
 62
             7
100
AcDbCircle
 10
-122.4875434310356
 20
4368.3426804878127
 40
0.14492753623161
100
AcDbArc
 50
0.0
 51
90.0
  0
ARC
  5
16B
100
AcDbEntity
  8
1
  6
CONTINUOUS
 62
             7
100
AcDbCircle
 10
-119.1542100977022
 20
4368.3426804878127
 40
0.14492753623199
100
AcDbArc
 50
90.0
 51
180.0
  0
ARC
  5
16A
100
AcDbEntity
  8
1
  6
CONTINUOUS
 62
             7
100
AcDbCircle
 10
-115.0962390832095
 20
4368.3426804878127
 40
0.14492753623169
100
AcDbArc
 50
0.0
 51
90.0
  0
ARC
  5
169
100
AcDbEntity
  8
1
  6
CONTINUOUS
 62
             7
100
AcDbCircle
 10
-113.4295724165429
 20
4376.5310862849146
 40
0.50724637681149
100
AcDbArc
 50
0.0
 51
90.0
  0
ARC
  5
168
100
AcDbEntity
  8
1
  6
CONTINUOUS
 62
             7
100
AcDbCircle
 10
-109.6614564745137
 20
4376.5310862849146
 40
0.50724637681196
100
AcDbArc
 50
90.0
 51
180.0
  0
ARC
  5
167
100
AcDbEntity
  8
1
  6
CONTINUOUS
 62
             7
100
AcDbCircle
 10
-109.4529444081693
 20
4376.0238399081027
 40
1.01449275362331
100
AcDbArc
 50
17.47288527029381
 51
90.0
  0
ARC
  5
166
100
AcDbEntity
  8
1
  6
CONTINUOUS
 62
             7
100
AcDbCircle
 10
-113.63808448288739
 20
4376.0238399081027
 40
1.01449275362393
100
AcDbArc
 50
90.0
 51
162.52711472970643
  0
ARC
  5
165
100
AcDbEntity
  8
1
  6
CONTINUOUS
 62
             7
100
AcDbCircle
 10
-113.28464488031101
 20
4368.8499268646246
 40
0.36231884057997
100
AcDbArc
 50
-90.0
 51
0.0
  0
ARC
  5
164
100
AcDbEntity
  8
1
  6
CONTINUOUS
 62
             7
100
AcDbCircle
 10
-109.8063840107457
 20
4368.8499268646246
 40
0.3623188405798
100
AcDbArc
 50
180.0
 51
-90.0
  0
ARC
  5
163
100
AcDbEntity
  8
1
  6
CONTINUOUS
 62
             7
100
AcDbCircle
 10
-109.5165289382817
 20
4368.3426804878127
 40
0.14492753623169
100
AcDbArc
 50
0.0
 51
90.0
  0
ARC
  5
162
100
AcDbEntity
  8
1
  6
CONTINUOUS
 62
             7
100
AcDbCircle
 10
-113.5744999527747
 20
4368.3426804878127
 40
0.14492753623199
100
AcDbArc
 50
90.0
 51
180.0
  0
ARC
  5
161
100
AcDbEntity
  8
1
  6
CONTINUOUS
 62
             7
100
AcDbCircle
 10
-95.67594922813696
 20
4377.1832601979577
 40
0.14492753623202
100
AcDbArc
 50
180.0
 51
-90.0
  0
ARC
  5
160
100
AcDbEntity
  8
1
  6
CONTINUOUS
 62
             7
100
AcDbCircle
 10
-84.80638401074548
 20
4377.1832601979577
 40
0.14492753623108
100
AcDbArc
 50
-90.0
 51
0.0
  0
ARC
  5
15F
100
AcDbEntity
  8
1
  6
CONTINUOUS
 62
             7
100
AcDbCircle
 10
-84.80638401074548
 20
4368.3426804878127
 40
0.14492753623159
100
AcDbArc
 50
0.0
 51
90.0
  0
ARC
  5
15E
100
AcDbEntity
  8
1
  6
CONTINUOUS
 62
             7
100
AcDbCircle
 10
-88.57449995277467
 20
4368.3426804878127
 40
0.14492753623199
100
AcDbArc
 50
90.0
 51
180.0
  0
ARC
  5
15D
100
AcDbEntity
  8
1
  6
CONTINUOUS
 62
             7
100
AcDbCircle
 10
-95.67594922813696
 20
4368.3426804878127
 40
0.14492753623199
100
AcDbArc
 50
90.0
 51
180.0
  0
ARC
  5
15C
100
AcDbEntity
  8
1
  6
CONTINUOUS
 62
             7
100
AcDbCircle
 10
-93.93681879335448
 20
4368.3426804878127
 40
0.14492753623202
100
AcDbArc
 50
0.0
 51
90.0
  0
ARC
  5
15B
100
AcDbEntity
  8
1
  6
CONTINUOUS
 62
             7
100
AcDbCircle
 10
-95.31363038755718
 20
4376.8209413573786
 40
0.2173913043477
100
AcDbArc
 50
0.0
 51
90.0
  0
ARC
  5
15A
100
AcDbEntity
  8
1
  6
CONTINUOUS
 62
             7
100
AcDbCircle
 10
-95.31363038755718
 20
4368.7049993283927
 40
0.21739130434798
100
AcDbArc
 50
-90.0
 51
0.0
  0
ARC
  5
159
100
AcDbEntity
  8
1
  6
CONTINUOUS
 62
             7
100
AcDbCircle
 10
-94.15421009770218
 20
4368.7049993283927
 40
0.2173913043477
100
AcDbArc
 50
180.0
 51
-90.0
  0
ARC
  5
158
100
AcDbEntity
  8
1
  6
CONTINUOUS
 62
             7
100
AcDbCircle
 10
-94.15421009770218
 20
4376.8691120801413
 40
0.2173913043476
100
AcDbArc
 50
14.99999999991312
 51
180.0
  0
ARC
  5
157
100
AcDbEntity
  8
1
  6
CONTINUOUS
 62
             7
100
AcDbCircle
 10
-90.24116661944127
 20
4373.4645750219915
 40
0.21739130434803
100
AcDbArc
 50
-164.99999999986892
 51
-15.00000000013691
  0
ARC
  5
156
100
AcDbEntity
  8
1
  6
CONTINUOUS
 62
             7
100
AcDbCircle
 10
-88.13971734407907
 20
4376.8276344811939
 40
0.217391304348
100
AcDbArc
 50
0.0
 51
164.99999999985533
  0
ARC
  5
155
100
AcDbEntity
  8
1
  6
CONTINUOUS
 62
             7
100
AcDbCircle
 10
-85.09623908320928
 20
4376.6760138211466
 40
0.36231884057997
100
AcDbArc
 50
90.0
 51
180.0
  0
ARC
  5
154
100
AcDbEntity
  8
1
  6
CONTINUOUS
 62
             7
100
AcDbCircle
 10
-88.28464488031059
 20
4368.8499268646246
 40
0.36231884057997
100
AcDbArc
 50
-90.0
 51
0.0
  0
ARC
  5
153
100
AcDbEntity
  8
1
  6
CONTINUOUS
 62
             7
100
AcDbCircle
 10
-85.09623908320928
 20
4368.8499268646246
 40
0.36231884057969
100
AcDbArc
 50
180.0
 51
-90.0
  0
CIRCLE
  5
152
100
AcDbEntity
  8
1
  6
CONTINUOUS
 62
             7
100
AcDbCircle
 10
-126.72212345431269
 20
4383.5668410647304
 40
2.3107280855138
  0
CIRCLE
  5
151
100
AcDbEntity
  8
1
  6
CONTINUOUS
 62
             7
100
AcDbCircle
 10
-126.72212345431269
 20
4383.5668410647304
 40
1.12397761588454
  0
CIRCLE
  5
150
100
AcDbEntity
  8
1
  6
CONTINUOUS
 62
             7
100
AcDbCircle
 10
-101.83536951799189
 20
4372.8629703428851
 40
5.28985507246362
  0
ARC
  5
14F
100
AcDbEntity
  8
1
  6
CONTINUOUS
 62
             7
100
AcDbCircle
 10
-107.84986227161529
 20
4375.5165935312916
 40
0.36231884057971
100
AcDbArc
 50
-162.52711472959663
 51
1.85243728521348
  0
ARC
  5
14E
100
AcDbEntity
  8
1
  6
CONTINUOUS
 62
             7
100
AcDbCircle
 10
-115.2411666194414
 20
4375.5165935312916
 40
0.36231884057986
100
AcDbArc
 50
178.14756271478703
 51
-17.47288527039932
  0
ARC
  5
14D
100
AcDbEntity
  8
1
  6
CONTINUOUS
 62
             7
100
AcDbCircle
 10
-99.42710729221177
 20
4375.1712325686658
 40
1.15942028985507
100
AcDbArc
 50
-45.00000000000695
 51
134.99999999999403
  0
ARC
  5
14C
100
AcDbEntity
  8
1
  6
CONTINUOUS
 62
             7
100
AcDbCircle
 10
-104.2436317437724
 20
4370.3547081171064
 40
1.15942028985458
100
AcDbArc
 50
135.00000000003229
 51
-45.00000000003526
  0
LINE
  5
14B
100
AcDbEntity
  8
1
  6
CONTINUOUS
 62
             5
100
AcDbLine
 10
28.57930093189856
 20
4622.2315777279409
 11
53.57930093189856
 21
4622.2315777279409
  0
LINE
  5
14A
100
AcDbEntity
  8
1
  6
CONTINUOUS
 62
             7
100
AcDbLine
 10
28.57930093189856
 20
4629.2315777279409
 11
53.57930093189856
 21
4629.2315777279409
  0
LINE
  5
149
100
AcDbEntity
  8
1
  6
CONTINUOUS
 62
             5
100
AcDbLine
 10
28.57930093189856
 20
4629.2315777279409
 11
28.57930093189856
 21
4622.2315777279409
  0
LINE
  5
148
100
AcDbEntity
  8
1
  6
CONTINUOUS
 62
             7
100
AcDbLine
 10
28.57930093189856
 20
4636.2315777279409
 11
28.57930093189856
 21
4629.2315777279409
  0
LINE
  5
147
100
AcDbEntity
  8
1
  6
CONTINUOUS
 62
             7
100
AcDbLine
 10
-130.4206990681017
 20
4636.2315777279409
 11
-130.4206990681017
 21
4629.2315777279409
  0
LINE
  5
146
100
AcDbEntity
  8
1
  6
CONTINUOUS
 62
             7
100
AcDbLine
 10
-130.4206990681017
 20
4629.2315777279409
 11
-123.4206990681017
 21
4629.2315777279409
  0
LINE
  5
145
100
AcDbEntity
  8
1
  6
CONTINUOUS
 62
             7
100
AcDbLine
 10
-123.4206990681017
 20
4629.2315777279409
 11
-26.42069906810144
 21
4629.2315777279409
  0
LINE
  5
144
100
AcDbEntity
  8
1
  6
CONTINUOUS
 62
             7
100
AcDbLine
 10
-123.4206990681017
 20
4636.2315777279409
 11
-123.4206990681017
 21
4629.2315777279409
  0
LINE
  5
143
100
AcDbEntity
  8
1
  6
CONTINUOUS
 62
             7
100
AcDbLine
 10
13.57930093189856
 20
4636.2315777279409
 11
13.57930093189856
 21
4629.2315777279409
  0
LINE
  5
142
100
AcDbEntity
  8
1
  6
CONTINUOUS
 62
             7
100
AcDbLine
 10
13.57930093189856
 20
4629.2315777279409
 11
28.57930093189856
 21
4629.2315777279409
  0
LINE
  5
141
100
AcDbEntity
  8
1
  6
CONTINUOUS
 62
             7
100
AcDbLine
 10
-11.42069906810145
 20
4636.2315777279409
 11
-11.42069906810145
 21
4629.2315777279409
  0
LINE
  5
140
100
AcDbEntity
  8
1
  6
CONTINUOUS
 62
             7
100
AcDbLine
 10
-11.42069906810145
 20
4629.2315777279409
 11
13.57930093189856
 21
4629.2315777279409
  0
LINE
  5
13F
100
AcDbEntity
  8
1
  6
CONTINUOUS
 62
             7
100
AcDbLine
 10
-26.42069906810144
 20
4636.2315777279409
 11
-26.42069906810144
 21
4629.2315777279409
  0
LINE
  5
13E
100
AcDbEntity
  8
1
  6
CONTINUOUS
 62
             5
100
AcDbLine
 10
-130.4206990681017
 20
4629.2315777279409
 11
-130.4206990681017
 21
4622.2315777279409
  0
LINE
  5
13D
100
AcDbEntity
  8
1
  6
CONTINUOUS
 62
             5
100
AcDbLine
 10
-130.4206990681017
 20
4622.2315777279409
 11
-123.4206990681016
 21
4622.2315777279409
  0
LINE
  5
13C
100
AcDbEntity
  8
1
  6
CONTINUOUS
 62
             5
100
AcDbLine
 10
13.57930093189856
 20
4629.2315777279409
 11
13.57930093189856
 21
4622.2315777279409
  0
LINE
  5
13B
100
AcDbEntity
  8
1
  6
CONTINUOUS
 62
             5
100
AcDbLine
 10
13.57930093189856
 20
4622.2315777279409
 11
28.57930093189856
 21
4622.2315777279409
  0
LINE
  5
13A
100
AcDbEntity
  8
1
  6
CONTINUOUS
 62
             5
100
AcDbLine
 10
-11.42069906810145
 20
4629.2315777279409
 11
-11.42069906810145
 21
4622.2315777279409
  0
LINE
  5
139
100
AcDbEntity
  8
1
  6
CONTINUOUS
 62
             5
100
AcDbLine
 10
-11.42069906810145
 20
4622.2315777279409
 11
13.57930093189856
 21
4622.2315777279409
  0
LINE
  5
138
100
AcDbEntity
  8
1
  6
CONTINUOUS
 62
             5
100
AcDbLine
 10
-26.42069906810144
 20
4629.2315777279409
 11
-26.42069906810144
 21
4622.2315777279409
  0
LINE
  5
137
100
AcDbEntity
  8
1
  6
CONTINUOUS
 62
             7
100
AcDbLine
 10
-26.42069906810144
 20
4629.2315777279409
 11
-11.42069906810145
 21
4629.2315777279409
  0
LINE
  5
136
100
AcDbEntity
  8
1
  6
CONTINUOUS
 62
             5
100
AcDbLine
 10
-26.42069906810144
 20
4622.2315777279409
 11
-11.42069906810145
 21
4622.2315777279409
  0
LINE
  5
135
100
AcDbEntity
  8
1
  6
CONTINUOUS
 62
             5
100
AcDbLine
 10
-123.4206990681017
 20
4629.2315777279409
 11
-123.4206990681016
 21
4622.2315777279409
  0
LINE
  5
134
100
AcDbEntity
  8
1
  6
CONTINUOUS
 62
             5
100
AcDbLine
 10
-123.4206990681016
 20
4622.2315777279409
 11
-26.42069906810144
 21
4622.2315777279409
  0
LINE
  5
133
100
AcDbEntity
  8
1
  6
CONTINUOUS
 62
             7
100
AcDbLine
 10
-102.4206990681017
 20
4387.2315777279409
 11
-102.4206990681016
 21
4380.2315777279409
  0
LINE
  5
132
100
AcDbEntity
  8
1
  6
CONTINUOUS
 62
             7
100
AcDbLine
 10
-92.42069906810156
 20
4380.2315777279409
 11
-40.92069906810178
 21
4380.2315777279409
  0
LINE
  5
131
100
AcDbEntity
  8
1
  6
CONTINUOUS
 62
             7
100
AcDbLine
 10
-95.42069906810156
 20
4380.2315777279409
 11
-92.42069906810156
 21
4380.2315777279409
  0
LINE
  5
130
100
AcDbEntity
  8
1
  6
CONTINUOUS
 62
             7
100
AcDbLine
 10
-114.4206990681016
 20
4380.2315777279409
 11
-95.42069906810156
 21
4380.2315777279409
  0
LINE
  5
12F
100
AcDbEntity
  8
1
  6
CONTINUOUS
 62
             7
100
AcDbLine
 10
-37.92069906810156
 20
4359.2315777279409
 11
-2.42069906810156
 21
4359.2315777279409
  0
LINE
  5
12E
100
AcDbEntity
  8
1
  6
CONTINUOUS
 62
             7
100
AcDbLine
 10
-37.92069906810163
 20
4366.2315777279409
 11
-2.42069906810156
 21
4366.2315777279409
  0
LINE
  5
12D
100
AcDbEntity
  8
1
  6
CONTINUOUS
 62
             7
100
AcDbLine
 10
-37.92069906810163
 20
4366.2315777279409
 11
-37.92069906810156
 21
4359.2315777279409
  0
LINE
  5
12C
100
AcDbEntity
  8
1
  6
CONTINUOUS
 62
             7
100
AcDbLine
 10
-40.92069906810156
 20
4366.2315777279409
 11
-37.92069906810163
 21
4366.2315777279409
  0
LINE
  5
12B
100
AcDbEntity
  8
1
  6
CONTINUOUS
 62
             7
100
AcDbLine
 10
-37.92069906810171
 20
4373.2315777279409
 11
-2.42069906810156
 21
4373.2315777279409
  0
LINE
  5
12A
100
AcDbEntity
  8
1
  6
CONTINUOUS
 62
             7
100
AcDbLine
 10
-37.92069906810171
 20
4373.2315777279409
 11
-37.92069906810163
 21
4366.2315777279409
  0
LINE
  5
129
100
AcDbEntity
  8
1
  6
CONTINUOUS
 62
             7
100
AcDbLine
 10
-40.92069906810178
 20
4373.2315777279409
 11
-37.92069906810171
 21
4373.2315777279409
  0
LINE
  5
128
100
AcDbEntity
  8
1
  6
CONTINUOUS
 62
             7
100
AcDbLine
 10
-37.92069906810178
 20
4380.2315777279409
 11
-37.92069906810171
 21
4373.2315777279409
  0
LINE
  5
127
100
AcDbEntity
  8
1
  6
CONTINUOUS
 62
             7
100
AcDbLine
 10
-37.92069906810178
 20
4380.2315777279409
 11
-2.42069906810156
 21
4380.2315777279409
  0
LINE
  5
126
100
AcDbEntity
  8
1
  6
CONTINUOUS
 62
             7
100
AcDbLine
 10
-130.4206990681017
 20
4387.2315777279409
 11
-130.4206990681017
 21
4359.23157772794
  0
LINE
  5
125
100
AcDbEntity
  8
1
  6
CONTINUOUS
 62
             7
100
AcDbLine
 10
-130.4206990681017
 20
4387.2315777279409
 11
-2.92069906810168
 21
4387.2315777279409
  0
LINE
  5
124
100
AcDbEntity
  8
1
  6
CONTINUOUS
 62
             7
100
AcDbLine
 10
-130.4206990681017
 20
4359.23157772794
 11
-40.92069906810156
 21
4359.2315777279409
  0
LINE
  5
123
100
AcDbEntity
  8
1
  6
CONTINUOUS
 62
             7
100
AcDbLine
 10
53.57930093189845
 20
4394.2315777279409
 11
53.57930093189845
 21
4401.2315777279409
  0
LINE
  5
122
100
AcDbEntity
  8
1
  6
CONTINUOUS
 62
             7
100
AcDbLine
 10
-2.42069906810156
 20
4359.2315777279409
 11
43.07930093189845
 21
4359.2315777279409
  0
LINE
  5
121
100
AcDbEntity
  8
1
  6
CONTINUOUS
 62
             7
100
AcDbLine
 10
-2.42069906810156
 20
4366.2315777279409
 11
43.07930093189845
 21
4366.2315777279409
  0
LINE
  5
120
100
AcDbEntity
  8
1
  6
CONTINUOUS
 62
             7
100
AcDbLine
 10
-2.42069906810156
 20
4366.2315777279409
 11
43.07930093189845
 21
4366.2315777279409
  0
LINE
  5
11F
100
AcDbEntity
  8
1
  6
CONTINUOUS
 62
             7
100
AcDbLine
 10
53.57930093189845
 20
4373.2315777279409
 11
53.57930093189845
 21
4366.2315777279409
  0
LINE
  5
11E
100
AcDbEntity
  8
1
  6
CONTINUOUS
 62
             7
100
AcDbLine
 10
-2.42069906810156
 20
4373.2315777279409
 11
53.57930093189845
 21
4373.2315777279409
  0
LINE
  5
11D
100
AcDbEntity
  8
1
  6
CONTINUOUS
 62
             7
100
AcDbLine
 10
53.57930093189845
 20
4380.2315777279409
 11
53.57930093189845
 21
4373.2315777279409
  0
LINE
  5
11C
100
AcDbEntity
  8
1
  6
CONTINUOUS
 62
             7
100
AcDbLine
 10
-2.42069906810156
 20
4380.2315777279409
 11
53.57930093189845
 21
4380.2315777279409
  0
LINE
  5
11B
100
AcDbEntity
  8
1
  6
CONTINUOUS
 62
             7
100
AcDbLine
 10
53.57930093189845
 20
4387.2315777279409
 11
53.57930093189845
 21
4380.2315777279409
  0
LINE
  5
11A
100
AcDbEntity
  8
1
  6
CONTINUOUS
 62
             7
100
AcDbLine
 10
-2.42069906810168
 20
4387.2315777279409
 11
53.57930093189845
 21
4387.2315777279409
  0
LINE
  5
119
100
AcDbEntity
  8
1
  6
CONTINUOUS
 62
             7
100
AcDbLine
 10
-130.4206990681017
 20
4380.2315777279409
 11
-117.4206990681016
 21
4380.2315777279409
  0
LINE
  5
118
100
AcDbEntity
  8
1
  6
CONTINUOUS
 62
             7
100
AcDbLine
 10
53.57930093189845
 20
4394.2315777279409
 11
53.57930093189845
 21
4387.2315777279409
  0
LINE
  5
117
100
AcDbEntity
  8
1
  6
CONTINUOUS
 62
             7
100
AcDbLine
 10
-2.92069906810168
 20
4387.2315777279409
 11
-2.42069906810168
 21
4387.2315777279409
  0
LINE
  5
116
100
AcDbEntity
  8
1
  6
CONTINUOUS
 62
             7
100
AcDbLine
 10
-73.42069906810167
 20
4387.2315777279409
 11
-73.42069906810167
 21
4394.2315777279409
  0
LINE
  5
115
100
AcDbEntity
  8
1
  6
DASH_CENTER
 62
             2
100
AcDbLine
 10
-126.72212345431269
 20
4386.393547615301
 11
-126.72212345431269
 21
4380.5887898834162
  0
LINE
  5
114
100
AcDbEntity
  8
1
  6
DASH_CENTER
 62
             2
100
AcDbLine
 10
-129.6206990681018
 20
4383.5668410647304
 11
-118.2206990681016
 21
4383.5668410647304
  0
LINE
  5
113
100
AcDbEntity
  8
1
  6
CONTINUOUS
 62
             7
100
AcDbLine
 10
-118.8206990681018
 20
4381.2561129792166
 11
-122.64382110692139
 21
4382.406768645661
  0
LINE
  5
112
100
AcDbEntity
  8
1
  6
CONTINUOUS
 62
             7
100
AcDbLine
 10
-118.8206990681018
 20
4385.8775691502442
 11
-118.8206990681018
 21
4381.2561129792166
  0
LINE
  5
111
100
AcDbEntity
  8
1
  6
CONTINUOUS
 62
             7
100
AcDbLine
 10
-122.8264860431365
 20
4384.6908186806149
 11
-118.8206990681018
 21
4385.8775691502442
  0
LINE
  5
110
100
AcDbEntity
  8
1
  6
CONTINUOUS
 62
             7
100
AcDbLine
 10
-122.8264860431365
 20
4382.4428634488468
 11
-122.8264860431365
 21
4384.6908186806149
  0
LINE
  5
10F
100
AcDbEntity
  8
1
  6
CONTINUOUS
 62
             7
100
AcDbLine
 10
-114.4206990681016
 20
4380.2315777279409
 11
-114.4206990681016
 21
4387.2315777279409
  0
LINE
  5
10E
100
AcDbEntity
  8
1
  6
CONTINUOUS
 62
             7
100
AcDbLine
 10
-117.4206990681016
 20
4380.2315777279409
 11
-114.4206990681016
 21
4380.2315777279409
  0
LINE
  5
10D
100
AcDbEntity
  8
1
  6
CONTINUOUS
 62
             7
100
AcDbLine
 10
-117.4206990681016
 20
4387.2315777279409
 11
-117.4206990681016
 21
4380.2315777279409
  0
LINE
  5
10C
100
AcDbEntity
  8
1
  6
CONTINUOUS
 62
             7
100
AcDbLine
 10
-40.92069906810178
 20
4380.2315777279409
 11
-37.92069906810178
 21
4380.2315777279409
  0
LINE
  5
10B
100
AcDbEntity
  8
1
  6
CONTINUOUS
 62
             7
100
AcDbLine
 10
-40.92069906810178
 20
4387.2315777279409
 11
-40.92069906810178
 21
4380.2315777279409
  0
LINE
  5
10A
100
AcDbEntity
  8
1
  6
CONTINUOUS
 62
             7
100
AcDbLine
 10
-40.92069906810178
 20
4380.2315777279409
 11
-40.92069906810178
 21
4373.2315777279409
  0
LINE
  5
109
100
AcDbEntity
  8
1
  6
CONTINUOUS
 62
             7
100
AcDbLine
 10
-37.92069906810161
 20
4387.2315777279409
 11
-37.92069906810178
 21
4380.2315777279409
  0
LINE
  5
108
100
AcDbEntity
  8
1
  6
CONTINUOUS
 62
             4
100
AcDbLine
 10
-24.42069906810178
 20
4387.2315777279409
 11
-24.42069906810156
 21
4359.2315777279409
  0
LINE
  5
107
100
AcDbEntity
  8
1
  6
CONTINUOUS
 62
             7
100
AcDbLine
 10
-40.92069906810156
 20
4366.2315777279409
 11
-40.92069906810156
 21
4359.2315777279409
  0
LINE
  5
106
100
AcDbEntity
  8
1
  6
CONTINUOUS
 62
             7
100
AcDbLine
 10
-40.92069906810156
 20
4359.2315777279409
 11
-37.92069906810156
 21
4359.2315777279409
  0
LINE
  5
105
100
AcDbEntity
  8
1
  6
CONTINUOUS
 62
             7
100
AcDbLine
 10
-40.92069906810178
 20
4373.2315777279409
 11
-40.92069906810156
 21
4366.2315777279409
  0
LINE
  5
104
100
AcDbEntity
  8
1
  6
CONTINUOUS
 62
             7
100
AcDbLine
 10
0.57930093189832
 20
4387.2315777279409
 11
0.57930093189844
 21
4380.2315777279409
  0
LINE
  5
103
100
AcDbEntity
  8
1
  6
CONTINUOUS
 62
             7
100
AcDbLine
 10
-95.42069906810167
 20
4387.2315777279409
 11
-95.42069906810156
 21
4380.2315777279409
  0
LINE
  5
102
100
AcDbEntity
  8
1
  6
CONTINUOUS
 62
             7
100
AcDbLine
 10
-92.42069906810156
 20
4387.2315777279409
 11
-92.42069906810156
 21
4380.2315777279409
  0
LINE
  5
101
100
AcDbEntity
  8
1
  6
CONTINUOUS
 62
             7
100
AcDbLine
 10
-2.92069906810168
 20
4387.2315777279409
 11
-2.42069906810168
 21
4387.2315777279409
  0
LINE
  5
100
100
AcDbEntity
  8
1
  6
CONTINUOUS
 62
             7
100
AcDbLine
 10
-2.42069906810168
 20
4387.2315777279409
 11
-2.42069906810156
 21
4380.2315777279409
  0
LINE
  5
FF
100
AcDbEntity
  8
1
  6
CONTINUOUS
 62
             7
100
AcDbLine
 10
-2.42069906810156
 20
4366.2315777279409
 11
-2.42069906810156
 21
4373.2315777279409
  0
LINE
  5
FE
100
AcDbEntity
  8
1
  6
CONTINUOUS
 62
             7
100
AcDbLine
 10
43.07930093189845
 20
4359.2315777279409
 11
53.57930093189843
 21
4359.23157772794
  0
LINE
  5
FD
100
AcDbEntity
  8
1
  6
CONTINUOUS
 62
             7
100
AcDbLine
 10
43.07930093189845
 20
4366.2315777279409
 11
53.57930093189845
 21
4366.2315777279409
  0
LINE
  5
FC
100
AcDbEntity
  8
1
  6
CONTINUOUS
 62
             4
100
AcDbLine
 10
43.07930093189845
 20
4359.2315777279409
 11
43.07930093189845
 21
4366.2315777279409
  0
LINE
  5
FB
100
AcDbEntity
  8
1
  6
CONTINUOUS
 62
             7
100
AcDbLine
 10
-2.42069906810156
 20
4373.2315777279409
 11
-2.42069906810156
 21
4380.2315777279409
  0
LINE
  5
FA
100
AcDbEntity
  8
1
  6
CONTINUOUS
 62
             7
100
AcDbLine
 10
0.57930093189844
 20
4373.2315777279409
 11
0.57930093189844
 21
4380.2315777279409
  0
LINE
  5
F9
100
AcDbEntity
  8
1
  6
CONTINUOUS
 62
             7
100
AcDbLine
 10
0.57930093189844
 20
4366.2315777279409
 11
0.57930093189844
 21
4373.2315777279409
  0
LINE
  5
F8
100
AcDbEntity
  8
1
  6
CONTINUOUS
 62
             7
100
AcDbLine
 10
-2.42069906810156
 20
4359.2315777279409
 11
-2.42069906810156
 21
4366.2315777279409
  0
LINE
  5
F7
100
AcDbEntity
  8
1
  6
CONTINUOUS
 62
             7
100
AcDbLine
 10
0.57930093189844
 20
4359.2315777279409
 11
0.57930093189844
 21
4366.2315777279409
  0
LINE
  5
F6
100
AcDbEntity
  8
1
  6
CONTINUOUS
 62
             7
100
AcDbLine
 10
-130.4206990681017
 20
4394.2315777279409
 11
-130.4206990681017
 21
4387.2315777279409
  0
LINE
  5
F5
100
AcDbEntity
  8
1
  6
CONTINUOUS
 62
             7
100
AcDbLine
 10
11.57930093189839
 20
4394.2315777279409
 11
11.57930093189839
 21
4387.2315777279409
  0
LINE
  5
F4
100
AcDbEntity
  8
1
  6
CONTINUOUS
 62
             7
100
AcDbLine
 10
11.57930093189839
 20
4394.2315777279409
 11
-38.42069906810161
 21
4394.2315777279409
  0
LINE
  5
F3
100
AcDbEntity
  8
1
  6
CONTINUOUS
 62
             7
100
AcDbLine
 10
-38.42069906810161
 20
4394.2315777279409
 11
-38.42069906810161
 21
4387.2315777279409
  0
LINE
  5
F2
100
AcDbEntity
  8
1
  6
CONTINUOUS
 62
             7
100
AcDbLine
 10
-38.42069906810161
 20
4394.2315777279409
 11
-45.42069906810161
 21
4394.2315777279409
  0
LINE
  5
F1
100
AcDbEntity
  8
1
  6
CONTINUOUS
 62
             7
100
AcDbLine
 10
-45.42069906810161
 20
4394.2315777279409
 11
-45.42069906810161
 21
4387.2315777279409
  0
LINE
  5
F0
100
AcDbEntity
  8
1
  6
CONTINUOUS
 62
             7
100
AcDbLine
 10
-45.42069906810161
 20
4394.2315777279409
 11
-73.42069906810167
 21
4394.2315777279409
  0
LINE
  5
EF
100
AcDbEntity
  8
1
  6
CONTINUOUS
 62
             7
100
AcDbLine
 10
-73.42069906810167
 20
4394.2315777279409
 11
-123.4206990681016
 21
4394.2315777279409
  0
LINE
  5
EE
100
AcDbEntity
  8
1
  6
CONTINUOUS
 62
             7
100
AcDbLine
 10
-123.4206990681016
 20
4394.2315777279409
 11
-123.4206990681016
 21
4387.2315777279409
  0
LINE
  5
ED
100
AcDbEntity
  8
1
  6
CONTINUOUS
 62
             7
100
AcDbLine
 10
-123.4206990681016
 20
4394.2315777279409
 11
-130.4206990681017
 21
4394.2315777279409
  0
LINE
  5
EC
100
AcDbEntity
  8
1
  6
CONTINUOUS
 62
             5
100
AcDbLine
 10
-130.4206990681017
 20
4394.2315777279409
 11
-130.4206990681017
 21
4401.2315777279409
  0
LINE
  5
EB
100
AcDbEntity
  8
1
  6
CONTINUOUS
 62
             5
100
AcDbLine
 10
-130.4206990681017
 20
4401.2315777279409
 11
-123.4206990681016
 21
4401.2315777279409
  0
LINE
  5
EA
100
AcDbEntity
  8
1
  6
CONTINUOUS
 62
             5
100
AcDbLine
 10
11.57930093189839
 20
4401.2315777279409
 11
11.57930093189839
 21
4394.2315777279409
  0
LINE
  5
E9
100
AcDbEntity
  8
1
  6
CONTINUOUS
 62
             5
100
AcDbLine
 10
-38.42069906810161
 20
4401.2315777279409
 11
-38.42069906810161
 21
4394.2315777279409
  0
LINE
  5
E8
100
AcDbEntity
  8
1
  6
CONTINUOUS
 62
             5
100
AcDbLine
 10
-38.42069906810161
 20
4401.2315777279409
 11
11.57930093189839
 21
4401.2315777279409
  0
LINE
  5
E7
100
AcDbEntity
  8
1
  6
CONTINUOUS
 62
             5
100
AcDbLine
 10
-45.42069906810161
 20
4401.2315777279409
 11
-45.42069906810161
 21
4394.2315777279409
  0
LINE
  5
E6
100
AcDbEntity
  8
1
  6
CONTINUOUS
 62
             5
100
AcDbLine
 10
-45.42069906810161
 20
4401.2315777279409
 11
-38.42069906810161
 21
4401.2315777279409
  0
LINE
  5
E5
100
AcDbEntity
  8
1
  6
CONTINUOUS
 62
             5
100
AcDbLine
 10
-73.42069906810167
 20
4401.2315777279409
 11
-73.42069906810167
 21
4394.2315777279409
  0
LINE
  5
E4
100
AcDbEntity
  8
1
  6
CONTINUOUS
 62
             5
100
AcDbLine
 10
-73.42069906810167
 20
4401.2315777279409
 11
-45.42069906810161
 21
4401.2315777279409
  0
LINE
  5
E3
100
AcDbEntity
  8
1
  6
CONTINUOUS
 62
             5
100
AcDbLine
 10
-123.4206990681016
 20
4401.2315777279409
 11
-123.4206990681016
 21
4394.2315777279409
  0
LINE
  5
E2
100
AcDbEntity
  8
1
  6
CONTINUOUS
 62
             5
100
AcDbLine
 10
-123.4206990681016
 20
4401.2315777279409
 11
-73.42069906810167
 21
4401.2315777279409
  0
LINE
  5
E1
100
AcDbEntity
  8
1
  6
CONTINUOUS
 62
             7
100
AcDbLine
 10
53.57930093189845
 20
4366.2315777279409
 11
53.57930093189843
 21
4359.23157772794
  0
LINE
  5
E0
100
AcDbEntity
  8
1
  6
CONTINUOUS
 62
             7
100
AcDbLine
 10
11.57930093189839
 20
4394.2315777279409
 11
53.57930093189845
 21
4394.2315777279409
  0
LINE
  5
DF
100
AcDbEntity
  8
1
  6
CONTINUOUS
 62
             5
100
AcDbLine
 10
11.57930093189839
 20
4401.2315777279409
 11
53.57930093189845
 21
4401.2315777279409
  0
LINE
  5
DE
100
AcDbEntity
  8
1
  6
CONTINUOUS
 62
             7
100
AcDbLine
 10
-122.342615894804
 20
4367.7629703428856
 11
-124.6614564745139
 21
4367.7629703428856
  0
LINE
  5
DD
100
AcDbEntity
  8
1
  6
CONTINUOUS
 62
             7
100
AcDbLine
 10
-124.6614564745139
 20
4367.7629703428856
 11
-124.6614564745139
 21
4368.3426804878127
  0
LINE
  5
DC
100
AcDbEntity
  8
1
  6
CONTINUOUS
 62
             7
100
AcDbLine
 10
-124.51652893828199
 20
4368.4876080240447
 11
-124.16141416476221
 21
4368.4876080240447
  0
LINE
  5
DB
100
AcDbEntity
  8
1
  6
CONTINUOUS
 62
             7
100
AcDbLine
 10
-123.8149269343407
 20
4368.7439950875514
 11
-121.0575494834688
 21
4377.7629703428856
  0
LINE
  5
DA
100
AcDbEntity
  8
1
  6
CONTINUOUS
 62
             7
100
AcDbLine
 10
-121.0575494834688
 20
4377.7629703428856
 11
-118.696456914892
 21
4377.7629703428856
  0
LINE
  5
D9
100
AcDbEntity
  8
1
  6
CONTINUOUS
 62
             7
100
AcDbLine
 10
-118.696456914892
 20
4377.7629703428856
 11
-115.9390794640199
 21
4368.7439950875514
  0
LINE
  5
D8
100
AcDbEntity
  8
1
  6
CONTINUOUS
 62
             7
100
AcDbLine
 10
-115.59259223359859
 20
4368.4876080240447
 11
-115.0962390832095
 21
4368.4876080240447
  0
LINE
  5
D7
100
AcDbEntity
  8
1
  6
CONTINUOUS
 62
             7
100
AcDbLine
 10
-114.95131154697781
 20
4368.3426804878127
 11
-114.95131154697781
 21
4367.7629703428856
  0
LINE
  5
D6
100
AcDbEntity
  8
1
  6
CONTINUOUS
 62
             7
100
AcDbLine
 10
-114.95131154697781
 20
4367.7629703428856
 11
-119.29913763393429
 21
4367.7629703428856
  0
LINE
  5
D5
100
AcDbEntity
  8
1
  6
CONTINUOUS
 62
             7
100
AcDbLine
 10
-119.29913763393429
 20
4367.7629703428856
 11
-119.29913763393429
 21
4368.3426804878127
  0
LINE
  5
D4
100
AcDbEntity
  8
1
  6
CONTINUOUS
 62
             7
100
AcDbLine
 10
-119.1542100977022
 20
4368.4876080240447
 11
-118.75297796483061
 21
4368.4876080240447
  0
LINE
  5
D3
100
AcDbEntity
  8
1
  6
CONTINUOUS
 62
             7
100
AcDbLine
 10
-118.4757881804934
 20
4368.8622085181678
 11
-119.18472889112211
 21
4371.1810490978778
  0
LINE
  5
D2
100
AcDbEntity
  8
1
  6
CONTINUOUS
 62
             7
100
AcDbLine
 10
-119.4619186754593
 20
4371.3861587486826
 11
-122.0885276848023
 21
4371.3861587486826
  0
LINE
  5
D1
100
AcDbEntity
  8
1
  6
CONTINUOUS
 62
             7
100
AcDbLine
 10
-122.29642002305521
 20
4371.2323265105788
 11
-123.04966952809809
 21
4368.7685583946368
  0
LINE
  5
D0
100
AcDbEntity
  8
1
  6
CONTINUOUS
 62
             7
100
AcDbLine
 10
-122.8417771898453
 20
4368.4876080240447
 11
-122.4875434310356
 21
4368.4876080240447
  0
LINE
  5
CF
100
AcDbEntity
  8
1
  6
CONTINUOUS
 62
             7
100
AcDbLine
 10
-122.342615894804
 20
4368.3426804878127
 11
-122.342615894804
 21
4367.7629703428856
  0
LINE
  5
CE
100
AcDbEntity
  8
1
  6
CONTINUOUS
 62
             7
100
AcDbLine
 10
-120.9563053345058
 20
4375.6156441486892
 11
-121.9419496677408
 21
4372.3917468004338
  0
LINE
  5
CD
100
AcDbEntity
  8
1
  6
CONTINUOUS
 62
             7
100
AcDbLine
 10
-121.734057329488
 20
4372.1107964298417
 11
-119.76276866301799
 21
4372.1107964298417
  0
LINE
  5
CC
100
AcDbEntity
  8
1
  6
CONTINUOUS
 62
             7
100
AcDbLine
 10
-119.554876324765
 20
4372.3917468004338
 11
-120.54052065800001
 21
4375.6156441486892
  0
LINE
  5
CB
100
AcDbEntity
  8
1
  6
CONTINUOUS
 62
             7
100
AcDbLine
 10
-111.5455144455284
 20
4377.7629703428856
 11
-107.5600071991515
 21
4377.7629703428856
  0
LINE
  5
CA
100
AcDbEntity
  8
1
  6
CONTINUOUS
 62
             7
100
AcDbLine
 10
-107.5600071991515
 20
4377.7629703428856
 11
-107.48773278083689
 21
4375.5283056680582
  0
LINE
  5
C9
100
AcDbEntity
  8
1
  6
CONTINUOUS
 62
             7
100
AcDbLine
 10
-108.19546341304741
 20
4375.4078056952076
 11
-108.4852612121587
 21
4376.3284458491362
  0
LINE
  5
C8
100
AcDbEntity
  8
1
  6
CONTINUOUS
 62
             7
100
AcDbLine
 10
-109.4529444081693
 20
4377.0383326617266
 11
-109.6614564745137
 21
4377.0383326617266
  0
LINE
  5
C7
100
AcDbEntity
  8
1
  6
CONTINUOUS
 62
             7
100
AcDbLine
 10
-110.16870285132551
 20
4376.5310862849146
 11
-110.16870285132551
 21
4368.8499268646246
  0
LINE
  5
C6
100
AcDbEntity
  8
1
  6
CONTINUOUS
 62
             7
100
AcDbLine
 10
-109.8063840107457
 20
4368.4876080240447
 11
-109.5165289382817
 21
4368.4876080240447
  0
LINE
  5
C5
100
AcDbEntity
  8
1
  6
CONTINUOUS
 62
             7
100
AcDbLine
 10
-109.37160140205
 20
4368.3426804878127
 11
-109.37160140205
 21
4367.7629703428856
  0
LINE
  5
C4
100
AcDbEntity
  8
1
  6
CONTINUOUS
 62
             7
100
AcDbLine
 10
-109.37160140205
 20
4367.7629703428856
 11
-111.5455144455284
 21
4367.7629703428856
  0
LINE
  5
C3
100
AcDbEntity
  8
1
  6
CONTINUOUS
 62
             7
100
AcDbLine
 10
-115.53102169190529
 20
4377.7629703428856
 11
-111.5455144455284
 21
4377.7629703428856
  0
LINE
  5
C2
100
AcDbEntity
  8
1
  6
CONTINUOUS
 62
             7
100
AcDbLine
 10
-115.6032961102199
 20
4375.5283056680582
 11
-115.53102169190529
 21
4377.7629703428856
  0
LINE
  5
C1
100
AcDbEntity
  8
1
  6
CONTINUOUS
 62
             7
100
AcDbLine
 10
-114.605767678898
 20
4376.3284458491362
 11
-114.8955654780092
 21
4375.4078056952076
  0
LINE
  5
C0
100
AcDbEntity
  8
1
  6
CONTINUOUS
 62
             7
100
AcDbLine
 10
-113.4295724165429
 20
4377.0383326617266
 11
-113.63808448288739
 21
4377.0383326617266
  0
LINE
  5
BF
100
AcDbEntity
  8
1
  6
CONTINUOUS
 62
             7
100
AcDbLine
 10
-112.9223260397314
 20
4368.8499268646246
 11
-112.9223260397314
 21
4376.5310862849146
  0
LINE
  5
BE
100
AcDbEntity
  8
1
  6
CONTINUOUS
 62
             7
100
AcDbLine
 10
-113.5744999527747
 20
4368.4876080240447
 11
-113.28464488031101
 21
4368.4876080240447
  0
LINE
  5
BD
100
AcDbEntity
  8
1
  6
CONTINUOUS
 62
             7
100
AcDbLine
 10
-113.7194274890068
 20
4367.7629703428856
 11
-113.7194274890068
 21
4368.3426804878127
  0
LINE
  5
BC
100
AcDbEntity
  8
1
  6
CONTINUOUS
 62
             7
100
AcDbLine
 10
-111.5455144455284
 20
4367.7629703428856
 11
-113.7194274890068
 21
4367.7629703428856
  0
LINE
  5
BB
100
AcDbEntity
  8
1
  6
CONTINUOUS
 62
             7
100
AcDbLine
 10
-98.60727334301008
 20
4374.3513986194639
 11
-103.4237977945706
 21
4369.5348741679036
  0
LINE
  5
BA
100
AcDbEntity
  8
1
  6
CONTINUOUS
 62
             7
100
AcDbLine
 10
-105.0634656929743
 20
4371.1745420663074
 11
-100.2469412414135
 21
4375.9910665178677
  0
LINE
  5
B9
100
AcDbEntity
  8
1
  6
CONTINUOUS
 62
             7
100
AcDbLine
 10
-91.61797821364426
 20
4377.7629703428856
 11
-90.45115049472157
 21
4373.4083100121861
  0
LINE
  5
B8
100
AcDbEntity
  8
1
  6
CONTINUOUS
 62
             7
100
AcDbLine
 10
-90.03118274416106
 20
4373.4083100121861
 11
-88.86435502523815
 21
4377.7629703428856
  0
LINE
  5
B7
100
AcDbEntity
  8
1
  6
CONTINUOUS
 62
             7
100
AcDbLine
 10
-94.15421009770218
 20
4368.4876080240447
 11
-93.93681879335448
 21
4368.4876080240447
  0
LINE
  5
B6
100
AcDbEntity
  8
1
  6
CONTINUOUS
 62
             7
100
AcDbLine
 10
-93.79189125712246
 20
4368.3426804878127
 11
-93.79189125712246
 21
4367.7629703428856
  0
LINE
  5
B5
100
AcDbEntity
  8
1
  6
CONTINUOUS
 62
             7
100
AcDbLine
 10
-93.79189125712246
 20
4367.7629703428856
 11
-95.82087676436898
 21
4367.7629703428856
  0
LINE
  5
B4
100
AcDbEntity
  8
1
  6
CONTINUOUS
 62
             7
100
AcDbLine
 10
-95.82087676436898
 20
4367.7629703428856
 11
-95.82087676436878
 21
4368.3426804878127
  0
LINE
  5
B3
100
AcDbEntity
  8
1
  6
CONTINUOUS
 62
             7
100
AcDbLine
 10
-95.67594922813696
 20
4368.4876080240447
 11
-95.31363038755718
 21
4368.4876080240447
  0
LINE
  5
B2
100
AcDbEntity
  8
1
  6
CONTINUOUS
 62
             7
100
AcDbLine
 10
-95.09623908320948
 20
4368.7049993283927
 11
-95.09623908320948
 21
4376.8209413573786
  0
LINE
  5
B1
100
AcDbEntity
  8
1
  6
CONTINUOUS
 62
             7
100
AcDbLine
 10
-95.31363038755718
 20
4377.0383326617266
 11
-95.67594922813696
 21
4377.0383326617266
  0
LINE
  5
B0
100
AcDbEntity
  8
1
  6
CONTINUOUS
 62
             7
100
AcDbLine
 10
-95.82087676436898
 20
4377.1832601979577
 11
-95.82087676436898
 21
4377.7629703428856
  0
LINE
  5
AF
100
AcDbEntity
  8
1
  6
CONTINUOUS
 62
             7
100
AcDbLine
 10
-95.82087676436898
 20
4377.7629703428856
 11
-91.61797821364426
 21
4377.7629703428856
  0
LINE
  5
AE
100
AcDbEntity
  8
1
  6
CONTINUOUS
 62
             7
100
AcDbLine
 10
-88.86435502523815
 20
4377.7629703428856
 11
-84.66145647451388
 21
4377.7629703428856
  0
LINE
  5
AD
100
AcDbEntity
  8
1
  6
CONTINUOUS
 62
             7
100
AcDbLine
 10
-84.66145647451388
 20
4377.7629703428856
 11
-84.66145647451388
 21
4377.1832601979577
  0
LINE
  5
AC
100
AcDbEntity
  8
1
  6
CONTINUOUS
 62
             7
100
AcDbLine
 10
-84.80638401074548
 20
4377.0383326617266
 11
-85.09623908320928
 21
4377.0383326617266
  0
LINE
  5
AB
100
AcDbEntity
  8
1
  6
CONTINUOUS
 62
             7
100
AcDbLine
 10
-85.45855792378897
 20
4376.6760138211466
 11
-85.45855792378897
 21
4368.8499268646246
  0
LINE
  5
AA
100
AcDbEntity
  8
1
  6
CONTINUOUS
 62
             7
100
AcDbLine
 10
-85.09623908320928
 20
4368.4876080240447
 11
-84.80638401074548
 21
4368.4876080240447
  0
LINE
  5
A9
100
AcDbEntity
  8
1
  6
CONTINUOUS
 62
             7
100
AcDbLine
 10
-84.66145647451388
 20
4368.3426804878127
 11
-84.66145647451388
 21
4367.7629703428856
  0
LINE
  5
A8
100
AcDbEntity
  8
1
  6
CONTINUOUS
 62
             7
100
AcDbLine
 10
-84.66145647451388
 20
4367.7629703428856
 11
-88.71942748900658
 21
4367.7629703428856
  0
LINE
  5
A7
100
AcDbEntity
  8
1
  6
CONTINUOUS
 62
             7
100
AcDbLine
 10
-88.71942748900658
 20
4367.7629703428856
 11
-88.71942748900658
 21
4368.3426804878127
  0
LINE
  5
A6
100
AcDbEntity
  8
1
  6
CONTINUOUS
 62
             7
100
AcDbLine
 10
-88.57449995277467
 20
4368.4876080240447
 11
-88.28464488031059
 21
4368.4876080240447
  0
LINE
  5
A5
100
AcDbEntity
  8
1
  6
CONTINUOUS
 62
             7
100
AcDbLine
 10
-90.79364681881778
 20
4367.7629703428856
 11
-91.48916673382156
 21
4367.7629703428856
  0
LINE
  5
A4
100
AcDbEntity
  8
1
  6
CONTINUOUS
 62
             7
100
AcDbLine
 10
-94.37160140204988
 20
4368.7049993283927
 11
-94.37160140204988
 21
4376.8691120801413
  0
LINE
  5
A3
100
AcDbEntity
  8
1
  6
CONTINUOUS
 62
             7
100
AcDbLine
 10
-93.94422622242207
 20
4376.9253770899459
 11
-91.48916673382156
 21
4367.7629703428856
  0
LINE
  5
A2
100
AcDbEntity
  8
1
  6
CONTINUOUS
 62
             7
100
AcDbLine
 10
-90.79364681881778
 20
4367.7629703428856
 11
-88.34970121935918
 21
4376.8838994909993
  0
LINE
  5
A1
100
AcDbEntity
  8
1
  6
CONTINUOUS
 62
             7
100
AcDbLine
 10
-87.92232603973108
 20
4376.8276344811939
 11
-87.92232603973098
 21
4368.8499268646246
  0
LINE
  5
A0
100
AcDbEntity
  8
1
  6
CONTINUOUS
 62
             5
100
AcDbLine
 10
11.57930093189839
 20
4408.2315777279409
 11
53.57930093189845
 21
4408.2315777279409
  0
LINE
  5
9F
100
AcDbEntity
  8
1
  6
CONTINUOUS
 62
             5
100
AcDbLine
 10
11.57930093189839
 20
4415.2315777279409
 11
53.57930093189845
 21
4415.2315777279409
  0
LINE
  5
9E
100
AcDbEntity
  8
1
  6
CONTINUOUS
 62
             5
100
AcDbLine
 10
11.57930093189839
 20
4422.2315777279409
 11
53.57930093189845
 21
4422.2315777279409
  0
LINE
  5
9D
100
AcDbEntity
  8
1
  6
CONTINUOUS
 62
             5
100
AcDbLine
 10
11.57930093189839
 20
4429.2315777279409
 11
53.57930093189845
 21
4429.2315777279409
  0
LINE
  5
9C
100
AcDbEntity
  8
1
  6
CONTINUOUS
 62
             5
100
AcDbLine
 10
11.57930093189839
 20
4408.2315777279409
 11
11.57930093189839
 21
4401.2315777279409
  0
LINE
  5
9B
100
AcDbEntity
  8
1
  6
CONTINUOUS
 62
             5
100
AcDbLine
 10
11.57930093189839
 20
4415.2315777279409
 11
11.57930093189839
 21
4408.2315777279409
  0
LINE
  5
9A
100
AcDbEntity
  8
1
  6
CONTINUOUS
 62
             5
100
AcDbLine
 10
11.57930093189839
 20
4422.2315777279409
 11
11.57930093189839
 21
4415.2315777279409
  0
LINE
  5
99
100
AcDbEntity
  8
1
  6
CONTINUOUS
 62
             5
100
AcDbLine
 10
11.57930093189839
 20
4429.2315777279409
 11
11.57930093189839
 21
4422.2315777279409
  0
LINE
  5
98
100
AcDbEntity
  8
1
  6
CONTINUOUS
 62
             5
100
AcDbLine
 10
-38.42069906810161
 20
4408.2315777279409
 11
11.57930093189839
 21
4408.2315777279409
  0
LINE
  5
97
100
AcDbEntity
  8
1
  6
CONTINUOUS
 62
             5
100
AcDbLine
 10
-38.42069906810161
 20
4415.2315777279409
 11
11.57930093189839
 21
4415.2315777279409
  0
LINE
  5
96
100
AcDbEntity
  8
1
  6
CONTINUOUS
 62
             5
100
AcDbLine
 10
-38.42069906810161
 20
4422.2315777279409
 11
11.57930093189839
 21
4422.2315777279409
  0
LINE
  5
95
100
AcDbEntity
  8
1
  6
CONTINUOUS
 62
             5
100
AcDbLine
 10
-38.42069906810161
 20
4429.2315777279409
 11
11.57930093189839
 21
4429.2315777279409
  0
LINE
  5
94
100
AcDbEntity
  8
1
  6
CONTINUOUS
 62
             5
100
AcDbLine
 10
-38.42069906810161
 20
4408.2315777279409
 11
-38.42069906810161
 21
4401.2315777279409
  0
LINE
  5
93
100
AcDbEntity
  8
1
  6
CONTINUOUS
 62
             5
100
AcDbLine
 10
-38.42069906810161
 20
4415.2315777279409
 11
-38.42069906810161
 21
4408.2315777279409
  0
LINE
  5
92
100
AcDbEntity
  8
1
  6
CONTINUOUS
 62
             5
100
AcDbLine
 10
-38.42069906810161
 20
4422.2315777279409
 11
-38.42069906810161
 21
4415.2315777279409
  0
LINE
  5
91
100
AcDbEntity
  8
1
  6
CONTINUOUS
 62
             5
100
AcDbLine
 10
-38.42069906810161
 20
4429.2315777279409
 11
-38.42069906810161
 21
4422.2315777279409
  0
LINE
  5
90
100
AcDbEntity
  8
1
  6
CONTINUOUS
 62
             5
100
AcDbLine
 10
-45.42069906810161
 20
4408.2315777279409
 11
-38.42069906810161
 21
4408.2315777279409
  0
LINE
  5
8F
100
AcDbEntity
  8
1
  6
CONTINUOUS
 62
             5
100
AcDbLine
 10
-45.42069906810161
 20
4415.2315777279409
 11
-38.42069906810161
 21
4415.2315777279409
  0
LINE
  5
8E
100
AcDbEntity
  8
1
  6
CONTINUOUS
 62
             5
100
AcDbLine
 10
-45.42069906810161
 20
4422.2315777279409
 11
-38.42069906810161
 21
4422.2315777279409
  0
LINE
  5
8D
100
AcDbEntity
  8
1
  6
CONTINUOUS
 62
             5
100
AcDbLine
 10
-45.42069906810161
 20
4429.2315777279409
 11
-38.42069906810161
 21
4429.2315777279409
  0
LINE
  5
8C
100
AcDbEntity
  8
1
  6
CONTINUOUS
 62
             5
100
AcDbLine
 10
-45.42069906810161
 20
4408.2315777279409
 11
-45.42069906810161
 21
4401.2315777279409
  0
LINE
  5
8B
100
AcDbEntity
  8
1
  6
CONTINUOUS
 62
             5
100
AcDbLine
 10
-45.42069906810161
 20
4415.2315777279409
 11
-45.42069906810161
 21
4408.2315777279409
  0
LINE
  5
8A
100
AcDbEntity
  8
1
  6
CONTINUOUS
 62
             5
100
AcDbLine
 10
-45.42069906810161
 20
4422.2315777279409
 11
-45.42069906810161
 21
4415.2315777279409
  0
LINE
  5
89
100
AcDbEntity
  8
1
  6
CONTINUOUS
 62
             5
100
AcDbLine
 10
-45.42069906810161
 20
4429.2315777279409
 11
-45.42069906810161
 21
4422.2315777279409
  0
LINE
  5
88
100
AcDbEntity
  8
1
  6
CONTINUOUS
 62
             5
100
AcDbLine
 10
-73.42069906810167
 20
4408.2315777279409
 11
-45.42069906810161
 21
4408.2315777279409
  0
LINE
  5
87
100
AcDbEntity
  8
1
  6
CONTINUOUS
 62
             5
100
AcDbLine
 10
-73.42069906810167
 20
4415.2315777279409
 11
-45.42069906810161
 21
4415.2315777279409
  0
LINE
  5
86
100
AcDbEntity
  8
1
  6
CONTINUOUS
 62
             5
100
AcDbLine
 10
-73.42069906810167
 20
4422.2315777279409
 11
-45.42069906810161
 21
4422.2315777279409
  0
LINE
  5
85
100
AcDbEntity
  8
1
  6
CONTINUOUS
 62
             5
100
AcDbLine
 10
-73.42069906810167
 20
4429.2315777279409
 11
-45.42069906810161
 21
4429.2315777279409
  0
LINE
  5
84
100
AcDbEntity
  8
1
  6
CONTINUOUS
 62
             5
100
AcDbLine
 10
-73.42069906810167
 20
4408.2315777279409
 11
-73.42069906810167
 21
4401.2315777279409
  0
LINE
  5
83
100
AcDbEntity
  8
1
  6
CONTINUOUS
 62
             5
100
AcDbLine
 10
-73.42069906810167
 20
4415.2315777279409
 11
-73.42069906810167
 21
4408.2315777279409
  0
LINE
  5
82
100
AcDbEntity
  8
1
  6
CONTINUOUS
 62
             5
100
AcDbLine
 10
-73.42069906810167
 20
4422.2315777279409
 11
-73.42069906810167
 21
4415.2315777279409
  0
LINE
  5
81
100
AcDbEntity
  8
1
  6
CONTINUOUS
 62
             5
100
AcDbLine
 10
-73.42069906810167
 20
4429.2315777279409
 11
-73.42069906810167
 21
4422.2315777279409
  0
LINE
  5
80
100
AcDbEntity
  8
1
  6
CONTINUOUS
 62
             5
100
AcDbLine
 10
-123.4206990681016
 20
4408.2315777279409
 11
-73.42069906810167
 21
4408.2315777279409
  0
LINE
  5
7F
100
AcDbEntity
  8
1
  6
CONTINUOUS
 62
             5
100
AcDbLine
 10
-123.4206990681016
 20
4415.2315777279409
 11
-73.42069906810167
 21
4415.2315777279409
  0
LINE
  5
7E
100
AcDbEntity
  8
1
  6
CONTINUOUS
 62
             5
100
AcDbLine
 10
-123.4206990681016
 20
4422.2315777279409
 11
-73.42069906810167
 21
4422.2315777279409
  0
LINE
  5
7D
100
AcDbEntity
  8
1
  6
CONTINUOUS
 62
             5
100
AcDbLine
 10
-123.4206990681016
 20
4429.2315777279409
 11
-73.42069906810167
 21
4429.2315777279409
  0
LINE
  5
7C
100
AcDbEntity
  8
1
  6
CONTINUOUS
 62
             5
100
AcDbLine
 10
-123.4206990681016
 20
4408.2315777279409
 11
-123.4206990681016
 21
4401.2315777279409
  0
LINE
  5
7B
100
AcDbEntity
  8
1
  6
CONTINUOUS
 62
             5
100
AcDbLine
 10
-123.4206990681016
 20
4415.2315777279409
 11
-123.4206990681016
 21
4408.2315777279409
  0
LINE
  5
7A
100
AcDbEntity
  8
1
  6
CONTINUOUS
 62
             5
100
AcDbLine
 10
-123.4206990681016
 20
4422.2315777279409
 11
-123.4206990681016
 21
4415.2315777279409
  0
LINE
  5
79
100
AcDbEntity
  8
1
  6
CONTINUOUS
 62
             5
100
AcDbLine
 10
-123.4206990681016
 20
4429.2315777279409
 11
-123.4206990681016
 21
4422.2315777279409
  0
LINE
  5
78
100
AcDbEntity
  8
1
  6
CONTINUOUS
 62
             5
100
AcDbLine
 10
-130.4206990681017
 20
4408.2315777279409
 11
-123.4206990681016
 21
4408.2315777279409
  0
LINE
  5
77
100
AcDbEntity
  8
1
  6
CONTINUOUS
 62
             5
100
AcDbLine
 10
-130.4206990681017
 20
4415.2315777279409
 11
-123.4206990681016
 21
4415.2315777279409
  0
LINE
  5
76
100
AcDbEntity
  8
1
  6
CONTINUOUS
 62
             5
100
AcDbLine
 10
-130.4206990681017
 20
4422.2315777279409
 11
-123.4206990681016
 21
4422.2315777279409
  0
LINE
  5
75
100
AcDbEntity
  8
1
  6
CONTINUOUS
 62
             5
100
AcDbLine
 10
-130.4206990681017
 20
4429.2315777279409
 11
-123.4206990681016
 21
4429.2315777279409
  0
LINE
  5
74
100
AcDbEntity
  8
1
  6
CONTINUOUS
 62
             5
100
AcDbLine
 10
-130.4206990681017
 20
4401.2315777279409
 11
-130.4206990681017
 21
4408.2315777279409
  0
LINE
  5
73
100
AcDbEntity
  8
1
  6
CONTINUOUS
 62
             5
100
AcDbLine
 10
-130.4206990681017
 20
4408.2315777279409
 11
-130.4206990681017
 21
4415.2315777279409
  0
LINE
  5
72
100
AcDbEntity
  8
1
  6
CONTINUOUS
 62
             5
100
AcDbLine
 10
-130.4206990681017
 20
4415.2315777279409
 11
-130.4206990681017
 21
4422.2315777279409
  0
LINE
  5
71
100
AcDbEntity
  8
1
  6
CONTINUOUS
 62
             5
100
AcDbLine
 10
-130.4206990681017
 20
4422.2315777279409
 11
-130.4206990681017
 21
4429.2315777279409
  0
ENDBLK
  5
1C4
100
AcDbEntity
  8
0
100
AcDbBlockEnd
  0
BLOCK
  5
2D
100
AcDbEntity
  8
0
100
AcDbBlockBegin
  2
FORMAT_A3
 70
             0
 10
-307.92069906810201
 20
4156.73157772794
 30
0.0
  3
FORMAT_A3
  1

  0
LINE
  5
1C8
100
AcDbEntity
  8
1
  6
CONTINUOUS
 62
             7
100
AcDbLine
 10
-346.4206990681015
 20
4636.2315777279409
 11
-346.42069906810173
 21
4359.2315777279409
  0
LINE
  5
1C7
100
AcDbEntity
  8
1
  6
CONTINUOUS
 62
             7
100
AcDbLine
 10
53.57930093189859
 20
4636.2315777279409
 11
-346.4206990681015
 21
4636.2315777279409
  0
LINE
  5
1C6
100
AcDbEntity
  8
1
  6
CONTINUOUS
 62
             7
100
AcDbLine
 10
53.57930093189843
 20
4401.2315777279409
 11
53.57930093189859
 21
4636.2315777279409
  0
LINE
  5
1C5
100
AcDbEntity
  8
1
  6
CONTINUOUS
 62
             7
100
AcDbLine
 10
-130.4206990681017
 20
4359.2315777279409
 11
-346.42069906810173
 21
4359.2315777279409
  0
INSERT
  5
2E
100
AcDbEntity
  8
0
100
AcDbBlockReference
  2
______
 10
88.49926464095651
 20
4134.8600331614643
  0
ENDBLK
  5
1C9
100
AcDbEntity
  8
0
100
AcDbBlockEnd
  0
BLOCK
  5
225
100
AcDbEntity
  8
0
100
AcDbBlockBegin
  2
*D4
 70
             1
 10
0.0
 20
0.0
 30
0.0
  3
*D4
  1

  0
LINE
  5
226
100
AcDbEntity
  8
0
  6
CONTINUOUS
 62
             2
100
AcDbLine
 10
-207.453795682052
 20
4469.0
 11
-207.453795682052
 21
4482.0
  0
LINE
  5
227
100
AcDbEntity
  8
0
  6
CONTINUOUS
 62
             2
100
AcDbLine
 10
-230.0
 20
4482.0
 11
-206.453795682052
 21
4482.0
  0
LINE
  5
228
100
AcDbEntity
  8
0
  6
CONTINUOUS
 62
             2
100
AcDbLine
 10
-229.0
 20
4469.0
 11
-206.453795682052
 21
4469.0
  0
LINE
  5
229
100
AcDbEntity
  8
0
 62
             2
100
AcDbLine
 10
-207.453795682052
 20
4469.0
 11
-208.11027120350826
 21
4471.4499999999998
  0
LINE
  5
22A
100
AcDbEntity
  8
0
 62
             2
100
AcDbLine
 10
-207.453795682052
 20
4469.0
 11
-206.79732016059575
 21
4471.4499999999998
  0
LINE
  5
22B
100
AcDbEntity
  8
0
 62
             2
100
AcDbLine
 10
-207.453795682052
 20
4482.0
 11
-206.79732016059575
 21
4479.5500000000002
  0
LINE
  5
22C
100
AcDbEntity
  8
0
 62
             2
100
AcDbLine
 10
-207.453795682052
 20
4482.0
 11
-208.11027120350826
 21
4479.5500000000002
  0
MTEXT
  5
22E
100
AcDbEntity
  8
0
 62
             3
100
AcDbMText
 10
-208.453795682052
 20
4474.0299999999997
 30
0.0
 40
3.5
 41
0.0
 71
             7
 72
             1
  1
13
  7
CONVERTER_3
 11
0.0
 21
1.0
 31
0.0
  0
ENDBLK
  5
22F
100
AcDbEntity
  8
0
100
AcDbBlockEnd
  0
BLOCK
  5
231
100
AcDbEntity
  8
0
 62
             0
100
AcDbBlockBegin
  2
_OPEN30
 70
             0
 10
0.0
 20
0.0
 30
0.0
  3
_OPEN30
  1

  0
LINE
  5
232
100
AcDbEntity
  8
0
  6
BYBLOCK
 62
             0
100
AcDbLine
 10
-1.0
 20
0.267949
 11
0.0
 21
0.0
  0
LINE
  5
233
100
AcDbEntity
  8
0
  6
BYBLOCK
 62
             0
100
AcDbLine
 10
0.0
 20
0.0
 11
-1.0
 21
-0.267949
  0
LINE
  5
234
100
AcDbEntity
  8
0
  6
BYBLOCK
 62
             0
100
AcDbLine
 10
0.0
 20
0.0
 11
-1.0
 21
0.0
  0
ENDBLK
  5
235
100
AcDbEntity
  8
0
 62
             0
100
AcDbBlockEnd
  0
BLOCK
  5
239
100
AcDbEntity
  8
0
100
AcDbBlockBegin
  2
*D6
 70
             1
 10
0.0
 20
0.0
 30
0.0
  3
*D6
  1

  0
LINE
  5
23A
100
AcDbEntity
  8
0
  6
CONTINUOUS
 62
             2
100
AcDbLine
 10
-216.96222172044099
 20
4482.0
 11
-216.96222172044099
 21
4492.7321060427194
  0
LINE
  5
23B
100
AcDbEntity
  8
0
  6
CONTINUOUS
 62
             2
100
AcDbLine
 10
-216.96222172044099
 20
4475.0
 11
-216.96222172044099
 21
4482.0
  0
LINE
  5
23C
100
AcDbEntity
  8
0
  6
CONTINUOUS
 62
             2
100
AcDbLine
 10
-230.0
 20
4482.0
 11
-215.96222172044099
 21
4482.0
  0
LINE
  5
23D
100
AcDbEntity
  8
0
  6
CONTINUOUS
 62
             2
100
AcDbLine
 10
-230.0
 20
4475.0
 11
-215.96222172044099
 21
4475.0
  0
LINE
  5
23E
100
AcDbEntity
  8
0
 62
             2
100
AcDbLine
 10
-216.96222172044099
 20
4475.0
 11
-217.61869724189725
 21
4477.4499999999998
  0
LINE
  5
23F
100
AcDbEntity
  8
0
 62
             2
100
AcDbLine
 10
-216.96222172044099
 20
4475.0
 11
-216.30574619898474
 21
4477.4499999999998
  0
LINE
  5
240
100
AcDbEntity
  8
0
 62
             2
100
AcDbLine
 10
-216.96222172044099
 20
4482.0
 11
-216.30574619898474
 21
4479.5500000000002
  0
LINE
  5
241
100
AcDbEntity
  8
0
 62
             2
100
AcDbLine
 10
-216.96222172044099
 20
4482.0
 11
-217.61869724189725
 21
4479.5500000000002
  0
MTEXT
  5
242
100
AcDbEntity
  8
0
 62
             3
100
AcDbMText
 10
-217.96222172044099
 20
4491.26210604272
 30
0.0
 40
3.5
 41
0.0
 71
             7
 72
             1
  1
7
  7
CONVERTER_3
 11
0.0
 21
1.0
 31
0.0
  0
ENDBLK
  5
243
100
AcDbEntity
  8
0
100
AcDbBlockEnd
  0
BLOCK
  5
247
100
AcDbEntity
  8
0
100
AcDbBlockBegin
  2
*D7
 70
             1
 10
0.0
 20
0.0
 30
0.0
  3
*D7
  1

  0
LINE
  5
248
100
AcDbEntity
  8
0
  6
CONTINUOUS
 62
             2
100
AcDbLine
 10
-216.96222172044099
 20
4469.0
 11
-216.96222172044099
 21
4464.1000000000004
  0
LINE
  5
249
100
AcDbEntity
  8
0
  6
CONTINUOUS
 62
             2
100
AcDbLine
 10
-216.96222172044099
 20
4469.0
 11
-216.96222172044099
 21
4475.0
  0
LINE
  5
24A
100
AcDbEntity
  8
0
  6
CONTINUOUS
 62
             2
100
AcDbLine
 10
-216.96222172044099
 20
4479.8999999999996
 11
-216.96222172044099
 21
4475.0
  0
LINE
  5
24B
100
AcDbEntity
  8
0
  6
CONTINUOUS
 62
             2
100
AcDbLine
 10
-230.0
 20
4475.0
 11
-215.96222172044099
 21
4475.0
  0
LINE
  5
24C
100
AcDbEntity
  8
0
  6
CONTINUOUS
 62
             2
100
AcDbLine
 10
-229.0
 20
4469.0
 11
-215.96222172044099
 21
4469.0
  0
LINE
  5
24D
100
AcDbEntity
  8
0
 62
             2
100
AcDbLine
 10
-216.96222172044099
 20
4469.0
 11
-216.30574619898474
 21
4466.5500000000002
  0
LINE
  5
24E
100
AcDbEntity
  8
0
 62
             2
100
AcDbLine
 10
-216.96222172044099
 20
4469.0
 11
-217.61869724189725
 21
4466.5500000000002
  0
LINE
  5
24F
100
AcDbEntity
  8
0
 62
             2
100
AcDbLine
 10
-216.96222172044099
 20
4475.0
 11
-217.61869724189725
 21
4477.4499999999998
  0
LINE
  5
250
100
AcDbEntity
  8
0
 62
             2
100
AcDbLine
 10
-216.96222172044099
 20
4475.0
 11
-216.30574619898474
 21
4477.4499999999998
  0
MTEXT
  5
251
100
AcDbEntity
  8
0
 62
             3
100
AcDbMText
 10
-217.96222172044099
 20
4464.6012251899801
 30
0.0
 40
3.5
 41
0.0
 71
             7
 72
             1
  1
6
  7
CONVERTER_3
 11
0.0
 21
1.0
 31
0.0
  0
ENDBLK
  5
252
100
AcDbEntity
  8
0
100
AcDbBlockEnd
  0
BLOCK
  5
256
100
AcDbEntity
  8
0
100
AcDbBlockBegin
  2
*D8
 70
             1
 10
0.0
 20
0.0
 30
0.0
  3
*D8
  1

  0
LINE
  5
257
100
AcDbEntity
  8
0
  6
CONTINUOUS
 62
             2
100
AcDbLine
 10
-216.96222172044099
 20
4559.0
 11
-216.96222172044099
 21
4580.0
  0
LINE
  5
258
100
AcDbEntity
  8
0
  6
CONTINUOUS
 62
             2
100
AcDbLine
 10
-231.0
 20
4580.0
 11
-215.96222172044099
 21
4580.0
  0
LINE
  5
259
100
AcDbEntity
  8
0
  6
CONTINUOUS
 62
             2
100
AcDbLine
 10
-231.0
 20
4559.0
 11
-215.96222172044099
 21
4559.0
  0
LINE
  5
25A
100
AcDbEntity
  8
0
 62
             2
100
AcDbLine
 10
-216.96222172044099
 20
4580.0
 11
-216.30574619898474
 21
4577.5500000000002
  0
LINE
  5
25B
100
AcDbEntity
  8
0
 62
             2
100
AcDbLine
 10
-216.96222172044099
 20
4580.0
 11
-217.61869724189725
 21
4577.5500000000002
  0
LINE
  5
25C
100
AcDbEntity
  8
0
 62
             2
100
AcDbLine
 10
-216.96222172044099
 20
4559.0
 11
-217.61869724189725
 21
4561.4499999999998
  0
LINE
  5
25D
100
AcDbEntity
  8
0
 62
             2
100
AcDbLine
 10
-216.96222172044099
 20
4559.0
 11
-216.30574619898474
 21
4561.4499999999998
  0
MTEXT
  5
25E
100
AcDbEntity
  8
0
 62
             3
100
AcDbMText
 10
-217.96222172044099
 20
4568.0299999999997
 30
0.0
 40
3.5
 41
0.0
 71
             7
 72
             1
  1
21
  7
CONVERTER_3
 11
0.0
 21
1.0
 31
0.0
  0
ENDBLK
  5
25F
100
AcDbEntity
  8
0
100
AcDbBlockEnd
  0
BLOCK
  5
263
100
AcDbEntity
  8
0
100
AcDbBlockBegin
  2
*D9
 70
             1
 10
0.0
 20
0.0
 30
0.0
  3
*D9
  1

  0
LINE
  5
264
100
AcDbEntity
  8
0
  6
CONTINUOUS
 62
             2
100
AcDbLine
 10
-298.0
 20
4602.9287431572602
 11
-230.0
 21
4602.9287431572602
  0
LINE
  5
265
100
AcDbEntity
  8
0
  6
CONTINUOUS
 62
             2
100
AcDbLine
 10
-230.0
 20
4579.0
 11
-230.0
 21
4603.9287431572602
  0
LINE
  5
266
100
AcDbEntity
  8
0
  6
CONTINUOUS
 62
             2
100
AcDbLine
 10
-298.0
 20
4575.9083269131961
 11
-298.0
 21
4603.9287431572602
  0
LINE
  5
267
100
AcDbEntity
  8
0
 62
             2
100
AcDbLine
 10
-298.0
 20
4602.9287431572602
 11
-295.55000000000001
 21
4603.585218678716
  0
LINE
  5
268
100
AcDbEntity
  8
0
 62
             2
100
AcDbLine
 10
-298.0
 20
4602.9287431572602
 11
-295.55000000000001
 21
4602.2722676358044
  0
LINE
  5
269
100
AcDbEntity
  8
0
 62
             2
100
AcDbLine
 10
-230.0
 20
4602.9287431572602
 11
-232.44999999999999
 21
4602.2722676358044
  0
LINE
  5
26A
100
AcDbEntity
  8
0
 62
             2
100
AcDbLine
 10
-230.0
 20
4602.9287431572602
 11
-232.44999999999999
 21
4603.585218678716
  0
MTEXT
  5
26B
100
AcDbEntity
  8
0
 62
             3
100
AcDbMText
 10
-265.83749999999998
 20
4603.9287431572602
 30
0.0
 40
3.5
 41
0.0
 71
             7
 72
             1
  1
68
  7
CONVERTER_3
 11
0.99999999999706
 21
0.00000242406841
 31
0.0
  0
ENDBLK
  5
26C
100
AcDbEntity
  8
0
100
AcDbBlockEnd
  0
BLOCK
  5
270
100
AcDbEntity
  8
0
100
AcDbBlockBegin
  2
*D10
 70
             1
 10
0.0
 20
0.0
 30
0.0
  3
*D10
  1

  0
LINE
  5
271
100
AcDbEntity
  8
0
  6
CONTINUOUS
 62
             2
100
AcDbLine
 10
-230.0
 20
4592.4881184876604
 11
-225.09999999999999
 21
4592.4881184876604
  0
LINE
  5
272
100
AcDbEntity
  8
0
  6
CONTINUOUS
 62
             2
100
AcDbLine
 10
-236.0
 20
4592.4881184876604
 11
-240.90000000000001
 21
4592.4881184876604
  0
LINE
  5
273
100
AcDbEntity
  8
0
  6
CONTINUOUS
 62
             2
100
AcDbLine
 10
-236.0
 20
4592.4881184876604
 11
-230.0
 21
4592.4881184876604
  0
LINE
  5
274
100
AcDbEntity
  8
0
  6
CONTINUOUS
 62
             2
100
AcDbLine
 10
-230.0
 20
4579.0
 11
-230.0
 21
4593.4881184876604
  0
LINE
  5
275
100
AcDbEntity
  8
0
  6
CONTINUOUS
 62
             2
100
AcDbLine
 10
-236.0
 20
4576.75
 11
-236.0
 21
4593.4881184876604
  0
LINE
  5
276
100
AcDbEntity
  8
0
 62
             2
100
AcDbLine
 10
-236.0
 20
4592.4881184876604
 11
-238.44999999999999
 21
4591.8316429662045
  0
LINE
  5
277
100
AcDbEntity
  8
0
 62
             2
100
AcDbLine
 10
-236.0
 20
4592.4881184876604
 11
-238.44999999999999
 21
4593.1445940091162
  0
LINE
  5
278
100
AcDbEntity
  8
0
 62
             2
100
AcDbLine
 10
-230.0
 20
4592.4881184876604
 11
-227.55000000000001
 21
4593.1445940091162
  0
LINE
  5
279
100
AcDbEntity
  8
0
 62
             2
100
AcDbLine
 10
-230.0
 20
4592.4881184876604
 11
-227.55000000000001
 21
4591.8316429662045
  0
MTEXT
  5
27A
100
AcDbEntity
  8
0
 62
             3
100
AcDbMText
 10
-233.73500000000001
 20
4593.4881184876604
 30
0.0
 40
3.5
 41
0.0
 71
             7
 72
             1
  1
6
  7
CONVERTER_3
 11
0.99999999999706
 21
0.00000242406841
 31
0.0
  0
ENDBLK
  5
27B
100
AcDbEntity
  8
0
100
AcDbBlockEnd
  0
BLOCK
  5
27F
100
AcDbEntity
  8
0
100
AcDbBlockBegin
  2
*D11
 70
             1
 10
0.0
 20
0.0
 30
0.0
  3
*D11
  1

  0
LINE
  5
280
100
AcDbEntity
  8
0
  6
CONTINUOUS
 62
             2
100
AcDbLine
 10
-260.0
 20
4592.4881184876604
 11
-236.0
 21
4592.4881184876604
  0
LINE
  5
281
100
AcDbEntity
  8
0
  6
CONTINUOUS
 62
             2
100
AcDbLine
 10
-236.0
 20
4576.75
 11
-236.0
 21
4593.4881184876604
  0
LINE
  5
282
100
AcDbEntity
  8
0
  6
CONTINUOUS
 62
             2
100
AcDbLine
 10
-260.0
 20
4575.0
 11
-260.0
 21
4593.4881184876604
  0
LINE
  5
283
100
AcDbEntity
  8
0
 62
             2
100
AcDbLine
 10
-260.0
 20
4592.4881184876604
 11
-257.55000000000001
 21
4593.1445940091162
  0
LINE
  5
284
100
AcDbEntity
  8
0
 62
             2
100
AcDbLine
 10
-260.0
 20
4592.4881184876604
 11
-257.55000000000001
 21
4591.8316429662045
  0
LINE
  5
285
100
AcDbEntity
  8
0
 62
             2
100
AcDbLine
 10
-236.0
 20
4592.4881184876604
 11
-238.44999999999999
 21
4591.8316429662045
  0
LINE
  5
286
100
AcDbEntity
  8
0
 62
             2
100
AcDbLine
 10
-236.0
 20
4592.4881184876604
 11
-238.44999999999999
 21
4593.1445940091162
  0
MTEXT
  5
287
100
AcDbEntity
  8
0
 62
             3
100
AcDbMText
 10
-249.83750000000001
 20
4593.4881184876604
 30
0.0
 40
3.5
 41
0.0
 71
             7
 72
             1
  1
24
  7
CONVERTER_3
 11
0.99999999999706
 21
0.00000242406841
 31
0.0
  0
ENDBLK
  5
288
100
AcDbEntity
  8
0
100
AcDbBlockEnd
  0
BLOCK
  5
28C
100
AcDbEntity
  8
0
100
AcDbBlockBegin
  2
*D12
 70
             1
 10
0.0
 20
0.0
 30
0.0
  3
*D12
  1

  0
LINE
  5
28D
100
AcDbEntity
  8
0
  6
CONTINUOUS
 62
             2
100
AcDbLine
 10
-289.0
 20
4592.4881184876604
 11
-260.0
 21
4592.4881184876604
  0
LINE
  5
28E
100
AcDbEntity
  8
0
  6
CONTINUOUS
 62
             2
100
AcDbLine
 10
-260.0
 20
4575.0
 11
-260.0
 21
4593.4881184876604
  0
LINE
  5
28F
100
AcDbEntity
  8
0
  6
CONTINUOUS
 62
             2
100
AcDbLine
 10
-289.0
 20
4583.0
 11
-289.0
 21
4593.4881184876604
  0
LINE
  5
290
100
AcDbEntity
  8
0
 62
             2
100
AcDbLine
 10
-289.0
 20
4592.4881184876604
 11
-286.55000000000001
 21
4593.1445940091162
  0
LINE
  5
291
100
AcDbEntity
  8
0
 62
             2
100
AcDbLine
 10
-289.0
 20
4592.4881184876604
 11
-286.55000000000001
 21
4591.8316429662045
  0
LINE
  5
292
100
AcDbEntity
  8
0
 62
             2
100
AcDbLine
 10
-260.0
 20
4592.4881184876604
 11
-262.44999999999999
 21
4591.8316429662045
  0
LINE
  5
293
100
AcDbEntity
  8
0
 62
             2
100
AcDbLine
 10
-260.0
 20
4592.4881184876604
 11
-262.44999999999999
 21
4593.1445940091162
  0
MTEXT
  5
294
100
AcDbEntity
  8
0
 62
             3
100
AcDbMText
 10
-276.33749999999998
 20
4593.4881184876604
 30
0.0
 40
3.5
 41
0.0
 71
             7
 72
             1
  1
29
  7
CONVERTER_3
 11
0.99999999999706
 21
0.00000242406841
 31
0.0
  0
ENDBLK
  5
295
100
AcDbEntity
  8
0
100
AcDbBlockEnd
  0
BLOCK
  5
299
100
AcDbEntity
  8
0
100
AcDbBlockBegin
  2
*D13
 70
             1
 10
0.0
 20
0.0
 30
0.0
  3
*D13
  1

  0
LINE
  5
29A
100
AcDbEntity
  8
0
  6
CONTINUOUS
 62
             2
100
AcDbLine
 10
-298.0
 20
4592.4881184876604
 11
-289.0
 21
4592.4881184876604
  0
LINE
  5
29B
100
AcDbEntity
  8
0
  6
CONTINUOUS
 62
             2
100
AcDbLine
 10
-289.0
 20
4583.0
 11
-289.0
 21
4593.4881184876604
  0
LINE
  5
29C
100
AcDbEntity
  8
0
  6
CONTINUOUS
 62
             2
100
AcDbLine
 10
-298.0
 20
4575.9083269131961
 11
-298.0
 21
4593.4881184876604
  0
LINE
  5
29D
100
AcDbEntity
  8
0
 62
             2
100
AcDbLine
 10
-298.0
 20
4592.4881184876604
 11
-295.55000000000001
 21
4593.1445940091162
  0
LINE
  5
29E
100
AcDbEntity
  8
0
 62
             2
100
AcDbLine
 10
-298.0
 20
4592.4881184876604
 11
-295.55000000000001
 21
4591.8316429662045
  0
LINE
  5
29F
100
AcDbEntity
  8
0
 62
             2
100
AcDbLine
 10
-289.0
 20
4592.4881184876604
 11
-291.44999999999999
 21
4591.8316429662045
  0
LINE
  5
2A0
100
AcDbEntity
  8
0
 62
             2
100
AcDbLine
 10
-289.0
 20
4592.4881184876604
 11
-291.44999999999999
 21
4593.1445940091162
  0
MTEXT
  5
2A1
100
AcDbEntity
  8
0
 62
             3
100
AcDbMText
 10
-294.23500000000001
 20
4593.4881184876604
 30
0.0
 40
3.5
 41
0.0
 71
             7
 72
             1
  1
9
  7
CONVERTER_3
 11
0.99999999999706
 21
0.00000242406841
 31
0.0
  0
ENDBLK
  5
2A2
100
AcDbEntity
  8
0
100
AcDbBlockEnd
  0
ENDSEC
  0
SECTION
  2
ENTITIES
  0
DIMENSION
  5
2A4
100
AcDbEntity
  8
1
100
AcDbDimension
  2
*D13
 10
-298.0
 20
4592.4881184876604
 11
-293.5
 21
4595.2381184876604
 31
0.0
 53
0.00013888888889
  1
<>
  3
ME10_DIM_8
100
AcDbAlignedDimension
 13
-289.0
 23
4582.0
 14
-298.0
 24
4574.9083269131961
100
AcDbRotatedDimension
  0
DIMENSION
  5
297
100
AcDbEntity
  8
1
100
AcDbDimension
  2
*D12
 10
-289.0
 20
4592.4881184876604
 11
-274.5
 21
4595.2381184876604
 31
0.0
 53
0.00013888888889
  1
<>
  3
ME10_DIM_7
100
AcDbAlignedDimension
 13
-260.0
 23
4574.0
 14
-289.0
 24
4582.0
100
AcDbRotatedDimension
  0
DIMENSION
  5
28A
100
AcDbEntity
  8
1
100
AcDbDimension
  2
*D11
 10
-260.0
 20
4592.4881184876604
 11
-248.0
 21
4595.2381184876604
 31
0.0
 53
0.00013888888889
  1
<>
  3
ME10_DIM_6
100
AcDbAlignedDimension
 13
-236.0
 23
4575.75
 14
-260.0
 24
4574.0
100
AcDbRotatedDimension
  0
DIMENSION
  5
27D
100
AcDbEntity
  8
1
100
AcDbDimension
  2
*D10
 10
-236.0
 20
4592.4881184876604
 11
-233.0
 21
4595.2381184876604
 31
0.0
 53
0.00013888888889
  1
<>
  3
ME10_DIM_5
100
AcDbAlignedDimension
 13
-230.0
 23
4578.0
 14
-236.0
 24
4575.75
100
AcDbRotatedDimension
  0
DIMENSION
  5
26E
100
AcDbEntity
  8
1
100
AcDbDimension
  2
*D9
 10
-298.0
 20
4602.9287431572602
 11
-264.0
 21
4605.6787431572602
 31
0.0
 53
0.00013888888889
  1
<>
  3
ME10_DIM_4
100
AcDbAlignedDimension
 13
-230.0
 23
4578.0
 14
-298.0
 24
4574.9083269131961
100
AcDbRotatedDimension
  0
DIMENSION
  5
261
100
AcDbEntity
  8
1
100
AcDbDimension
  2
*D8
 10
-216.96222172044099
 20
4580.0
 11
-219.71222172044099
 21
4569.5
 31
0.0
 53
90.0
  1
<>
  3
ME10_DIM_3
100
AcDbAlignedDimension
 13
-232.0
 23
4559.0
 14
-232.0
 24
4580.0
 50
90.0
100
AcDbRotatedDimension
  0
DIMENSION
  5
254
100
AcDbEntity
  8
1
100
AcDbDimension
  2
*D7
 10
-216.96222172044099
 20
4469.0
 11
-219.71222172044099
 21
4465.3362251899798
 31
0.0
 53
90.0
  1
<>
  3
ME10_DIM_2
100
AcDbAlignedDimension
 13
-231.0
 23
4475.0
 14
-230.0
 24
4469.0
 50
90.0
100
AcDbRotatedDimension
  0
DIMENSION
  5
245
100
AcDbEntity
  8
1
100
AcDbDimension
  2
*D6
 10
-216.96222172044099
 20
4475.0
 11
-219.71222172044099
 21
4491.9971060427197
 31
0.0
 53
90.0
  1
<>
  3
ME10_DIM_1
100
AcDbAlignedDimension
 13
-231.0
 23
4482.0
 14
-231.0
 24
4475.0
 50
90.0
100
AcDbRotatedDimension
  0
DIMENSION
  5
237
100
AcDbEntity
  8
1
100
AcDbDimension
  2
*D4
 10
-207.453795682052
 20
4469.0
 11
-210.203795682052
 21
4475.5
 31
0.0
 53
90.0
  1
<>
  3
ME10_DIM_0
100
AcDbAlignedDimension
 13
-231.0
 23
4482.0
 14
-230.0
 24
4469.0
 50
90.0
100
AcDbRotatedDimension
  0
MTEXT
  5
223
100
AcDbEntity
  8
1
 62
             3
100
AcDbMText
 10
-291.72455194385401
 20
4533.0
 30
0.0
 40
4.0
 41
0.0
 71
             5
 72
             1
  1
1
  7
CONVERTER_1
  0
MTEXT
  5
222
100
AcDbEntity
  8
1
 62
             3
100
AcDbMText
 10
-254.250166969026
 20
4533.0
 30
0.0
 40
4.0
 41
0.0
 71
             5
 72
             1
  1
2
  7
CONVERTER_1
  0
MTEXT
  5
221
100
AcDbEntity
  8
1
 62
             3
100
AcDbMText
 10
-226.843527211316
 20
4533.0
 30
0.0
 40
4.0
 41
0.0
 71
             5
 72
             1
  1
4
  7
CONVERTER_1
  0
LEADER
  5
220
100
AcDbEntity
  8
1
  6
CONTINUOUS
 62
             2
100
AcDbLeader
  3
Standard
 71
             0
 73
             3
 74
             0
 75
             0
 40
0.0
 76
             2
 10
-282.58900535795101
 20
4559.0
 30
0.0
 10
-289.86815595001258
 20
4538.2833506332672
 30
0.0
 77
             2
  0
LEADER
  5
21D
100
AcDbEntity
  8
1
  6
CONTINUOUS
 62
             2
100
AcDbLeader
  3
Standard
 71
             0
 73
             3
 74
             0
 75
             0
 40
0.0
 76
             2
 10
-244.555301204394
 20
4561.3526842050896
 30
0.0
 10
-252.4383084762338
 20
4538.2987893713653
 30
0.0
 77
             2
  0
LEADER
  5
21A
100
AcDbEntity
  8
1
  6
CONTINUOUS
 62
             2
100
AcDbLeader
  3
Standard
 71
             0
 73
             3
 74
             0
 75
             0
 40
0.0
 76
             2
 10
-235.23333333333341
 20
4568.7333333333336
 30
0.0
 10
-228.12353982933161
 20
4538.4517490494081
 30
0.0
 77
             2
  0
ARC
  5
217
100
AcDbEntity
  8
1
  6
CONTINUOUS
 62
             7
100
AcDbCircle
 10
-231.0
 20
4474.0
 40
1.0
100
AcDbArc
 50
0.0
 51
90.0
  0
ARC
  5
216
100
AcDbEntity
  8
1
  6
CONTINUOUS
 62
             7
100
AcDbCircle
 10
-251.0
 20
4481.0
 40
1.0
100
AcDbArc
 50
0.0
 51
90.0
  0
ARC
  5
215
100
AcDbEntity
  8
1
  6
CONTINUOUS
 62
             7
100
AcDbCircle
 10
-297.0
 20
4481.0
 40
1.0
100
AcDbArc
 50
90.0
 51
180.0
  0
ARC
  5
214
100
AcDbEntity
  8
1
  6
CONTINUOUS
 62
             7
100
AcDbCircle
 10
-261.062099539906
 20
4578.5
 40
0.5
100
AcDbArc
 50
90.0
 51
180.0
  0
ARC
  5
213
100
AcDbEntity
  8
1
  6
CONTINUOUS
 62
             7
100
AcDbCircle
 10
-261.062099539906
 20
4574.3000000000002
 40
0.5
100
AcDbArc
 50
180.0
 51
-90.0
  0
ARC
  5
212
100
AcDbEntity
  8
1
  6
CONTINUOUS
 62
             7
100
AcDbCircle
 10
-251.0
 20
4561.5
 40
1.0
100
AcDbArc
 50
0.0
 51
90.0
  0
ARC
  5
211
100
AcDbEntity
  8
1
  6
CONTINUOUS
 62
             7
100
AcDbCircle
 10
-290.0
 20
4575.4160797831
 40
0.99999999999843
100
AcDbArc
 50
-80.4059317731232
 51
0.0
  0
ARC
  5
210
100
AcDbEntity
  8
1
  6
CONTINUOUS
 62
             7
100
AcDbCircle
 10
-290.0
 20
4576.9330343736592
 40
1.0
100
AcDbArc
 50
0.0
 51
97.66225566075826
  0
ARC
  5
20F
100
AcDbEntity
  8
1
  6
CONTINUOUS
 62
             7
100
AcDbCircle
 10
-295.31959286134747
 20
4574.4053792989744
 40
0.99999999999979
100
AcDbArc
 50
-37.81924421853437
 51
45.0000000000046
  0
ARC
  5
20E
100
AcDbEntity
  8
1
  6
CONTINUOUS
 62
             7
100
AcDbCircle
 10
-182.0
 20
4474.0
 40
1.0
100
AcDbArc
 50
90.0
 51
180.0
  0
ARC
  5
20D
100
AcDbEntity
  8
1
  6
CONTINUOUS
 62
             7
100
AcDbCircle
 10
-163.0
 20
4474.0
 40
1.0
100
AcDbArc
 50
0.0
 51
90.0
  0
CIRCLE
  5
20C
100
AcDbEntity
  8
1
  6
CONTINUOUS
 62
             7
100
AcDbCircle
 10
-289.0
 20
4569.5
 40
3.5
  0
CIRCLE
  5
20B
100
AcDbEntity
  8
1
  6
CONTINUOUS
 62
             7
100
AcDbCircle
 10
-289.0
 20
4569.5
 40
2.0
  0
CIRCLE
  5
20A
100
AcDbEntity
  8
1
  6
CONTINUOUS
 62
             2
100
AcDbCircle
 10
-291.72455194385401
 20
4533.0
 40
5.59999999999961
  0
CIRCLE
  5
209
100
AcDbEntity
  8
1
  6
CONTINUOUS
 62
             2
100
AcDbCircle
 10
-254.250166969026
 20
4533.0
 40
5.59999999999972
  0
CIRCLE
  5
208
100
AcDbEntity
  8
1
  6
CONTINUOUS
 62
             2
100
AcDbCircle
 10
-226.843527211316
 20
4533.0
 40
5.60000000000015
  0
ARC
  5
207
100
AcDbEntity
  8
1
  6
CONTINUOUS
 62
             7
100
AcDbCircle
 10
-258.0
 20
4569.5
 40
2.0
100
AcDbArc
 50
-90.0
 51
90.0
  0
ARC
  5
206
100
AcDbEntity
  8
1
  6
CONTINUOUS
 62
             7
100
AcDbCircle
 10
-262.0
 20
4569.5
 40
2.0
100
AcDbArc
 50
90.0
 51
-90.0
  0
ARC
  5
205
100
AcDbEntity
  8
1
  6
CONTINUOUS
 62
             7
100
AcDbCircle
 10
-258.0
 20
4569.5
 40
3.5
100
AcDbArc
 50
-90.0
 51
90.0
  0
ARC
  5
204
100
AcDbEntity
  8
1
  6
CONTINUOUS
 62
             7
100
AcDbCircle
 10
-262.0
 20
4569.5
 40
3.5
100
AcDbArc
 50
90.0
 51
-90.0
  0
ARC
  5
203
100
AcDbEntity
  8
1
  6
DOTTED
 62
             7
100
AcDbCircle
 10
-289.0
 20
4569.5
 40
8.50000000000011
100
AcDbArc
 50
134.99999999999974
 51
-90.0
  0
ARC
  5
202
100
AcDbEntity
  8
1
  6
CONTINUOUS
 62
             7
100
AcDbCircle
 10
-289.0
 20
4569.5
 40
8.50000000000091
100
AcDbArc
 50
97.66225566076518
 51
134.99999999999974
  0
ARC
  5
201
100
AcDbEntity
  8
1
  6
CONTINUOUS
 62
             7
100
AcDbCircle
 10
-289.0
 20
4569.5
 40
5.00000000000198
100
AcDbArc
 50
99.59406822685641
 51
-90.0
  0
ARC
  5
200
100
AcDbEntity
  8
1
  6
CONTINUOUS
 62
             7
100
AcDbCircle
 10
-289.0
 20
4569.5
 40
10.5
100
AcDbArc
 50
90.0
 51
134.99999999999889
  0
ARC
  5
1FF
100
AcDbEntity
  8
1
  6
CONTINUOUS
 62
             7
100
AcDbCircle
 10
-289.0
 20
4569.5
 40
7.00000000000022
100
AcDbArc
 50
142.18075578145729
 51
-90.0
  0
ARC
  5
1FE
100
AcDbEntity
  8
1
  6
CONTINUOUS
 62
             7
100
AcDbCircle
 10
-289.0
 20
4569.5
 40
10.50000000000029
100
AcDbArc
 50
134.99999999999889
 51
148.99728086612544
  0
ARC
  5
1FD
100
AcDbEntity
  8
1
  6
CONTINUOUS
 62
             7
100
AcDbCircle
 10
-289.0
 20
4569.5
 40
10.50000000000006
100
AcDbArc
 50
-148.99728086612544
 51
-90.0
  0
LINE
  5
1FC
100
AcDbEntity
  8
1
  6
CONTINUOUS
 62
             7
100
AcDbLine
 10
-230.0
 20
4469.0
 11
-298.0
 21
4469.0
  0
LINE
  5
1FB
100
AcDbEntity
  8
1
  6
CONTINUOUS
 62
             7
100
AcDbLine
 10
-230.0
 20
4474.0
 11
-230.0
 21
4469.0
  0
LINE
  5
1FA
100
AcDbEntity
  8
1
  6
CONTINUOUS
 62
             7
100
AcDbLine
 10
-250.0
 20
4475.0
 11
-231.0
 21
4475.0
  0
LINE
  5
1F9
100
AcDbEntity
  8
1
  6
CONTINUOUS
 62
             7
100
AcDbLine
 10
-250.0
 20
4481.0
 11
-250.0
 21
4475.0
  0
LINE
  5
1F8
100
AcDbEntity
  8
1
  6
CONTINUOUS
 62
             7
100
AcDbLine
 10
-297.0
 20
4482.0
 11
-251.0
 21
4482.0
  0
LINE
  5
1F7
100
AcDbEntity
  8
1
  6
CONTINUOUS
 62
             7
100
AcDbLine
 10
-298.0
 20
4469.0
 11
-298.0
 21
4481.0
  0
LINE
  5
1F6
100
AcDbEntity
  8
1
  6
CONTINUOUS
 62
             7
100
AcDbLine
 10
-255.562099539906
 20
4572.6999999999998
 11
-253.77424703349061
 21
4572.6999999999998
  0
LINE
  5
1F5
100
AcDbEntity
  8
1
  6
CONTINUOUS
 62
             7
100
AcDbLine
 10
-255.562099539906
 20
4573.8000000000002
 11
-261.062099539906
 21
4573.8000000000002
  0
LINE
  5
1F4
100
AcDbEntity
  8
1
  6
CONTINUOUS
 62
             7
100
AcDbLine
 10
-255.562099539906
 20
4573.8000000000002
 11
-255.562099539906
 21
4572.6999999999998
  0
LINE
  5
1F3
100
AcDbEntity
  8
1
  6
CONTINUOUS
 62
             7
100
AcDbLine
 10
-261.562099539906
 20
4575.3000000000002
 11
-261.562099539906
 21
4577.5
  0
LINE
  5
1F2
100
AcDbEntity
  8
1
  6
CONTINUOUS
 62
             7
100
AcDbLine
 10
-261.562099539906
 20
4577.5
 11
-261.562099539906
 21
4578.5
  0
LINE
  5
1F1
100
AcDbEntity
  8
1
  6
CONTINUOUS
 62
             7
100
AcDbLine
 10
-261.562099539906
 20
4577.5
 11
-258.16954295298041
 21
4577.5
  0
LINE
  5
1F0
100
AcDbEntity
  8
1
  6
CONTINUOUS
 62
             7
100
AcDbLine
 10
-261.062099539906
 20
4579.0
 11
-259.62774515604508
 21
4579.0
  0
LINE
  5
1EF
100
AcDbEntity
  8
1
  6
CONTINUOUS
 62
             7
100
AcDbLine
 10
-261.562099539906
 20
4574.3000000000002
 11
-261.562099539906
 21
4575.3000000000002
  0
LINE
  5
1EE
100
AcDbEntity
  8
1
  6
DOT_CENTER
 62
             3
100
AcDbLine
 10
-262.0
 20
4573.8000000000002
 11
-262.0
 21
4571.5
  0
LINE
  5
1ED
100
AcDbEntity
  8
1
  6
CONTINUOUS
 62
             7
100
AcDbLine
 10
-262.0
 20
4573.8000000000002
 11
-262.0
 21
4574.0
  0
LINE
  5
1EC
100
AcDbEntity
  8
1
  6
DOT_CENTER
 62
             3
100
AcDbLine
 10
-258.0
 20
4567.5
 11
-258.0
 21
4565.0
  0
LINE
  5
1EB
100
AcDbEntity
  8
1
  6
DOT_CENTER
 62
             3
100
AcDbLine
 10
-262.0
 20
4567.5
 11
-262.0
 21
4565.0
  0
LINE
  5
1EA
100
AcDbEntity
  8
1
  6
CONTINUOUS
 62
             7
100
AcDbLine
 10
-262.0
 20
4567.5
 11
-258.0
 21
4567.5
  0
LINE
  5
1E9
100
AcDbEntity
  8
1
  6
DOT_CENTER
 62
             3
100
AcDbLine
 10
-258.0
 20
4571.5
 11
-258.0
 21
4567.5
  0
LINE
  5
1E8
100
AcDbEntity
  8
1
  6
DOT_CENTER
 62
             3
100
AcDbLine
 10
-262.0
 20
4571.5
 11
-262.0
 21
4567.5
  0
LINE
  5
1E7
100
AcDbEntity
  8
1
  6
CONTINUOUS
 62
             7
100
AcDbLine
 10
-262.0
 20
4571.5
 11
-258.0
 21
4571.5
  0
LINE
  5
1E6
100
AcDbEntity
  8
1
  6
DOT_CENTER
 62
             3
100
AcDbLine
 10
-258.0
 20
4574.0
 11
-258.0
 21
4571.5
  0
LINE
  5
1E5
100
AcDbEntity
  8
1
  6
DOT_CENTER
 62
             3
100
AcDbLine
 10
-262.0
 20
4574.0
 11
-262.0
 21
4573.8000000000002
  0
LINE
  5
1E4
100
AcDbEntity
  8
1
  6
DOT_CENTER
 62
             3
100
AcDbLine
 10
-260.0
 20
4574.0
 11
-260.0
 21
4565.0
  0
LINE
  5
1E3
100
AcDbEntity
  8
1
  6
CONTINUOUS
 62
             7
100
AcDbLine
 10
-262.0
 20
4566.0
 11
-258.0
 21
4566.0
  0
LINE
  5
1E2
100
AcDbEntity
  8
1
  6
CONTINUOUS
 62
             7
100
AcDbLine
 10
-262.0
 20
4573.0
 11
-258.0
 21
4573.0
  0
LINE
  5
1E1
100
AcDbEntity
  8
1
  6
DOT_CENTER
 62
             3
100
AcDbLine
 10
-289.0
 20
4564.5
 11
-289.0
 21
4562.5
  0
LINE
  5
1E0
100
AcDbEntity
  8
1
  6
CONTINUOUS
 62
             7
100
AcDbLine
 10
-250.0
 20
4561.0
 11
-250.0
 21
4559.0
  0
LINE
  5
1DF
100
AcDbEntity
  8
1
  6
DOT_CENTER
 62
             3
100
AcDbLine
 10
-289.0
 20
4561.0
 11
-289.0
 21
4557.0
  0
LINE
  5
1DE
100
AcDbEntity
  8
1
  6
DOTTED
 62
             7
100
AcDbLine
 10
-289.0
 20
4561.0
 11
-250.0
 21
4561.0
  0
LINE
  5
1DD
100
AcDbEntity
  8
1
  6
CONTINUOUS
 62
             7
100
AcDbLine
 10
-250.0
 20
4559.0
 11
-248.0
 21
4559.0
  0
LINE
  5
1DC
100
AcDbEntity
  8
1
  6
CONTINUOUS
 62
             7
100
AcDbLine
 10
-250.0
 20
4561.5
 11
-250.0
 21
4561.0
  0
LINE
  5
1DB
100
AcDbEntity
  8
1
  6
DOT_CENTER
 62
             3
100
AcDbLine
 10
-289.0
 20
4562.5
 11
-289.0
 21
4561.0
  0
LINE
  5
1DA
100
AcDbEntity
  8
1
  6
CONTINUOUS
 62
             7
100
AcDbLine
 10
-289.0
 20
4562.5
 11
-251.0
 21
4562.5
  0
LINE
  5
1D9
100
AcDbEntity
  8
1
  6
CONTINUOUS
 62
             7
100
AcDbLine
 10
-289.0
 20
4576.9330343736592
 11
-289.0
 21
4575.4160797831
  0
LINE
  5
1D8
100
AcDbEntity
  8
1
  6
DOT_CENTER
 62
             3
100
AcDbLine
 10
-289.0
 20
4575.5
 11
-289.0
 21
4564.5
  0
LINE
  5
1D7
100
AcDbEntity
  8
1
  6
DOT_CENTER
 62
             3
100
AcDbLine
 10
-300.0
 20
4569.5
 11
-228.0
 21
4569.5
  0
LINE
  5
1D6
100
AcDbEntity
  8
1
  6
DOT_CENTER
 62
             3
100
AcDbLine
 10
-289.0
 20
4582.0
 11
-289.0
 21
4576.9330343736592
  0
LINE
  5
1D5
100
AcDbEntity
  8
1
  6
CONTINUOUS
 62
             7
100
AcDbLine
 10
-296.42462120245881
 20
4576.9246212024591
 11
-294.61248608016092
 21
4575.112486080161
  0
LINE
  5
1D4
100
AcDbEntity
  8
1
  6
CONTINUOUS
 62
             7
100
AcDbLine
 10
-289.0
 20
4559.0
 11
-250.0
 21
4559.0
  0
LINE
  5
1D3
100
AcDbEntity
  8
1
  6
CONTINUOUS
 62
             7
100
AcDbLine
 10
-289.0
 20
4580.0
 11
-259.5
 21
4580.0
  0
LINE
  5
1D2
100
AcDbEntity
  8
1
  6
CONTINUOUS
 62
             7
100
AcDbLine
 10
-298.0
 20
4574.9083269131961
 11
-298.0
 21
4564.0916730868039
  0
LINE
  5
1D1
100
AcDbEntity
  8
1
  6
CONTINUOUS
 62
             7
100
AcDbLine
 10
-183.0
 20
4469.0
 11
-162.0
 21
4469.0
  0
LINE
  5
1D0
100
AcDbEntity
  8
1
  6
CONTINUOUS
 62
             7
100
AcDbLine
 10
-162.0
 20
4469.0
 11
-162.0
 21
4474.0
  0
LINE
  5
1CF
100
AcDbEntity
  8
1
  6
CONTINUOUS
 62
             7
100
AcDbLine
 10
-163.0
 20
4475.0
 11
-182.0
 21
4475.0
  0
LINE
  5
1CE
100
AcDbEntity
  8
1
  6
CONTINUOUS
 62
             7
100
AcDbLine
 10
-183.0
 20
4474.0
 11
-183.0
 21
4469.0
  0
LINE
  5
1CD
100
AcDbEntity
  8
1
  6
CONTINUOUS
 62
             7
100
AcDbLine
 10
-255.9192888253981
 20
4575.3000000000002
 11
-261.562099539906
 21
4575.3000000000002
  0
LINE
  5
1CC
100
AcDbEntity
  8
1
  6
CONTINUOUS
 62
             7
100
AcDbLine
 10
-254.75500200160161
 20
4564.5
 11
-289.0
 21
4564.5
  0
LINE
  5
1CB
100
AcDbEntity
  8
1
  6
DOT_CENTER
 62
             3
100
AcDbLine
 10
-172.5
 20
4484.0
 11
-172.5
 21
4467.0
  0
INSERT
  5
31
100
AcDbEntity
  8
1
100
AcDbBlockReference
  2
_1
 10
-261.5
 20
4475.0
  0
INSERT
  5
32
100
AcDbEntity
  8
0
100
AcDbBlockReference
  2
FORMAT_A3
 10
-307.92069906810201
 20
4156.73157772794
  0
LINE
  5
218
100
AcDbEntity
  8
1
 62
             2
100
AcDbLine
 10
-235.23333333333341
 20
4568.7333333333336
 11
-233.52033060012008
 21
4565.5403516445149
  0
LINE
  5
219
100
AcDbEntity
  8
1
 62
             2
100
AcDbLine
 10
-235.23333333333341
 20
4568.7333333333336
 11
-235.34632029402761
 21
4565.1116287103914
  0
LINE
  5
21B
100
AcDbEntity
  8
1
 62
             2
100
AcDbLine
 10
-244.555301204394
 20
4561.3526842050896
 11
-244.80033380431422
 21
4557.7375120855213
  0
LINE
  5
21C
100
AcDbEntity
  8
1
 62
             2
100
AcDbLine
 10
-244.555301204394
 20
4561.3526842050896
 11
-246.57509172046423
 21
4558.3443696104505
  0
LINE
  5
21E
100
AcDbEntity
  8
1
 62
             2
100
AcDbLine
 10
-282.58900535795101
 20
4559.0
 11
-282.86445939440512
 21
4555.3870184745938
  0
LINE
  5
21F
100
AcDbEntity
  8
1
 62
             2
100
AcDbLine
 10
-282.58900535795101
 20
4559.0
 11
-284.63404631379831
 21
4556.0087932338211
  0
ENDSEC
  0
SECTION
  2
OBJECTS
  0
DICTIONARY
  5
19
100
AcDbDictionary
  3
ACAD_GROUP
350
1A
  3
ACAD_MLINESTYLE
350
1B
  0
DICTIONARY
  5
1A
102
{ACAD_REACTORS
330
19
102
}
100
AcDbDictionary
  0
DICTIONARY
  5
1B
102
{ACAD_REACTORS
330
19
102
}
100
AcDbDictionary
  3
STANDARD
350
1C
  0
MLINESTYLE
  5
1C
102
{ACAD_REACTORS
330
1B
102
}
100
AcDbMlineStyle
  2
STANDARD
 70
             0
  3

 62
             0
 51
90.0
 52
90.0
 71
             2
 49
0.5
 62
           256
  6
BYLAYER
 49
-0.5
 62
           256
  6
BYLAYER
  0
ENDSEC
  0
EOF
