  0
SECTION
  2
HEADER
  9
$ACADVER
  1
AC1015
  9
$ACADMAINTVER
 70
    20
  9
$DWGCODEPAGE
  3
ANSI_932
  9
$INSBASE
 10
0.0
 20
0.0
 30
0.0
  9
$EXTMIN
 10
-58.39298208980029
 20
164.7172378371634
 30
0.0
  9
$EXTMAX
 10
359.2658944611986
 20
457.6892266776035
 30
0.0
  9
$LIMMIN
 10
-60.06021765304331
 20
162.6907024186789
  9
$LIMMAX
 10
359.9287655012537
 20
459.6590251725851
  9
$ORTHOMODE
 70
     0
  9
$REGENMODE
 70
     1
  9
$FILLMODE
 70
     1
  9
$QTEXTMODE
 70
     0
  9
$MIRRTEXT
 70
     0
  9
$LTSCALE
 40
1.0
  9
$ATTMODE
 70
     1
  9
$TEXTSIZE
 40
3.0
  9
$TRACEWID
 40
1.0
  9
$TEXTSTYLE
  7
ATOM
  9
$CLAYER
  8
0
  9
$CELTYPE
  6
ByLayer
  9
$CECOLOR
 62
   256
  9
$CELTSCALE
 40
1.0
  9
$DISPSILH
 70
     0
  9
$DIMSCALE
 40
0.0
  9
$DIMASZ
 40
2.0
  9
$DIMEXO
 40
2.0
  9
$DIMDLI
 40
7.0
  9
$DIMRND
 40
0.0
  9
$DIMDLE
 40
0.0
  9
$DIMEXE
 40
1.0
  9
$DIMTP
 40
0.1
  9
$DIMTM
 40
0.1
  9
$DIMTXT
 40
3.0
  9
$DIMCEN
 40
-2.5
  9
$DIMTSZ
 40
0.0
  9
$DIMTOL
 70
     0
  9
$DIMLIM
 70
     0
  9
$DIMTIH
 70
     0
  9
$DIMTOH
 70
     0
  9
$DIMSE1
 70
     0
  9
$DIMSE2
 70
     0
  9
$DIMTAD
 70
     1
  9
$DIMZIN
 70
     8
  9
$DIMBLK
  1
Open30
  9
$DIMASO
 70
     1
  9
$DIMSHO
 70
     1
  9
$DIMPOST
  1

  9
$DIMAPOST
  1

  9
$DIMALT
 70
     0
  9
$DIMALTD
 70
     3
  9
$DIMALTF
 40
0.03937007874016
  9
$DIMLFAC
 40
1.0
  9
$DIMTOFL
 70
     1
  9
$DIMTVP
 40
0.0
  9
$DIMTIX
 70
     0
  9
$DIMSOXD
 70
     0
  9
$DIMSAH
 70
     0
  9
$DIMBLK1
  1

  9
$DIMBLK2
  1

  9
$DIMSTYLE
  2
ATOM
  9
$DIMCLRD
 70
     0
  9
$DIMCLRE
 70
     0
  9
$DIMCLRT
 70
     3
  9
$DIMTFAC
 40
0.4999999999999998
  9
$DIMGAP
 40
0.625
  9
$DIMJUST
 70
     0
  9
$DIMSD1
 70
     0
  9
$DIMSD2
 70
     0
  9
$DIMTOLJ
 70
     0
  9
$DIMTZIN
 70
     8
  9
$DIMALTZ
 70
     0
  9
$DIMALTTZ
 70
     0
  9
$DIMUPT
 70
     0
  9
$DIMDEC
 70
     2
  9
$DIMTDEC
 70
     2
  9
$DIMALTU
 70
     2
  9
$DIMALTTD
 70
     3
  9
$DIMTXSTY
  7
ATOM
  9
$DIMAUNIT
 70
     0
  9
$DIMADEC
 70
     0
  9
$DIMALTRND
 40
0.0
  9
$DIMAZIN
 70
     0
  9
$DIMDSEP
 70
    46
  9
$DIMATFIT
 70
     0
  9
$DIMFRAC
 70
     2
  9
$DIMLDRBLK
  1
Open30
  9
$DIMLUNIT
 70
     2
  9
$DIMLWD
 70
    -2
  9
$DIMLWE
 70
    -2
  9
$DIMTMOVE
 70
     1
  9
$LUNITS
 70
     2
  9
$LUPREC
 70
     4
  9
$SKETCHINC
 40
1.0
  9
$FILLETRAD
 40
0.0
  9
$AUNITS
 70
     0
  9
$AUPREC
 70
     0
  9
$MENU
  1
.
  9
$ELEVATION
 40
0.0
  9
$PELEVATION
 40
0.0
  9
$THICKNESS
 40
0.0
  9
$LIMCHECK
 70
     0
  9
$CHAMFERA
 40
0.0
  9
$CHAMFERB
 40
0.0
  9
$CHAMFERC
 40
0.0
  9
$CHAMFERD
 40
0.0
  9
$SKPOLY
 70
     0
  9
$TDCREATE
 40
2457463.690282928
  9
$TDUCREATE
 40
2457463.315282928
  9
$TDUPDATE
 40
2457592.578633380
  9
$TDUUPDATE
 40
2457592.203633380
  9
$TDINDWG
 40
0.0013962963
  9
$TDUSRTIMER
 40
0.0013962963
  9
$USRTIMER
 70
     1
  9
$ANGBASE
 50
0.0
  9
$ANGDIR
 70
     0
  9
$PDMODE
 70
     0
  9
$PDSIZE
 40
0.0
  9
$PLINEWID
 40
0.0
  9
$SPLFRAME
 70
     0
  9
$SPLINETYPE
 70
     6
  9
$SPLINESEGS
 70
     8
  9
$HANDSEED
  5
7E7
  9
$SURFTAB1
 70
     6
  9
$SURFTAB2
 70
     6
  9
$SURFTYPE
 70
     6
  9
$SURFU
 70
     6
  9
$SURFV
 70
     6
  9
$UCSBASE
  2

  9
$UCSNAME
  2

  9
$UCSORG
 10
0.0
 20
0.0
 30
0.0
  9
$UCSXDIR
 10
1.0
 20
0.0
 30
0.0
  9
$UCSYDIR
 10
0.0
 20
1.0
 30
0.0
  9
$UCSORTHOREF
  2

  9
$UCSORTHOVIEW
 70
     0
  9
$UCSORGTOP
 10
0.0
 20
0.0
 30
0.0
  9
$UCSORGBOTTOM
 10
0.0
 20
0.0
 30
0.0
  9
$UCSORGLEFT
 10
0.0
 20
0.0
 30
0.0
  9
$UCSORGRIGHT
 10
0.0
 20
0.0
 30
0.0
  9
$UCSORGFRONT
 10
0.0
 20
0.0
 30
0.0
  9
$UCSORGBACK
 10
0.0
 20
0.0
 30
0.0
  9
$PUCSBASE
  2

  9
$PUCSNAME
  2

  9
$PUCSORG
 10
0.0
 20
0.0
 30
0.0
  9
$PUCSXDIR
 10
1.0
 20
0.0
 30
0.0
  9
$PUCSYDIR
 10
0.0
 20
1.0
 30
0.0
  9
$PUCSORTHOREF
  2

  9
$PUCSORTHOVIEW
 70
     0
  9
$PUCSORGTOP
 10
0.0
 20
0.0
 30
0.0
  9
$PUCSORGBOTTOM
 10
0.0
 20
0.0
 30
0.0
  9
$PUCSORGLEFT
 10
0.0
 20
0.0
 30
0.0
  9
$PUCSORGRIGHT
 10
0.0
 20
0.0
 30
0.0
  9
$PUCSORGFRONT
 10
0.0
 20
0.0
 30
0.0
  9
$PUCSORGBACK
 10
0.0
 20
0.0
 30
0.0
  9
$USERI1
 70
     0
  9
$USERI2
 70
     0
  9
$USERI3
 70
     0
  9
$USERI4
 70
     0
  9
$USERI5
 70
     0
  9
$USERR1
 40
0.0
  9
$USERR2
 40
0.0
  9
$USERR3
 40
0.0
  9
$USERR4
 40
0.0
  9
$USERR5
 40
0.0
  9
$WORLDVIEW
 70
     1
  9
$SHADEDGE
 70
     3
  9
$SHADEDIF
 70
    70
  9
$TILEMODE
 70
     1
  9
$MAXACTVP
 70
    64
  9
$PINSBASE
 10
0.0
 20
0.0
 30
0.0
  9
$PLIMCHECK
 70
     0
  9
$PEXTMIN
 10
1.000000000000000E+20
 20
1.000000000000000E+20
 30
1.000000000000000E+20
  9
$PEXTMAX
 10
-1.000000000000000E+20
 20
-1.000000000000000E+20
 30
-1.000000000000000E+20
  9
$PLIMMIN
 10
0.0
 20
0.0
  9
$PLIMMAX
 10
12.0
 20
9.0
  9
$UNITMODE
 70
     0
  9
$VISRETAIN
 70
     1
  9
$PLINEGEN
 70
     0
  9
$PSLTSCALE
 70
     1
  9
$TREEDEPTH
 70
  3020
  9
$CMLSTYLE
  2
Standard
  9
$CMLJUST
 70
     0
  9
$CMLSCALE
 40
10.0
  9
$PROXYGRAPHICS
 70
     1
  9
$MEASUREMENT
 70
     1
  9
$CELWEIGHT
370
    -1
  9
$ENDCAPS
280
     0
  9
$JOINSTYLE
280
     0
  9
$LWDISPLAY
290
     0
  9
$INSUNITS
 70
     4
  9
$HYPERLINKBASE
  1

  9
$STYLESHEET
  1

  9
$XEDIT
290
     1
  9
$CEPSNTYPE
380
     0
  9
$PSTYLEMODE
290
     0
  9
$FINGERPRINTGUID
  2
{DBF31AAB-8953-4CBC-BBF8-FAB9696227AD}
  9
$VERSIONGUID
  2
{EBB59B0D-DEAA-4ACC-8252-5ACADBD46AA2}
  9
$EXTNAMES
290
     1
  9
$PSVPSCALE
 40
0.0
  9
$OLESTARTUP
290
     0
  0
ENDSEC
  0
SECTION
  2
CLASSES
  0
CLASS
  1
ACDBDICTIONARYWDFLT
  2
AcDbDictionaryWithDefault
  3
ObjectDBX Classes
 90
        0
280
     0
281
     0
  0
CLASS
  1
MATERIAL
  2
AcDbMaterial
  3
ObjectDBX Classes
 90
     1153
280
     0
281
     0
  0
CLASS
  1
VISUALSTYLE
  2
AcDbVisualStyle
  3
ObjectDBX Classes
 90
     4095
280
     0
281
     0
  0
CLASS
  1
SCALE
  2
AcDbScale
  3
ObjectDBX Classes
 90
     1153
280
     0
281
     0
  0
CLASS
  1
TABLESTYLE
  2
AcDbTableStyle
  3
ObjectDBX Classes
 90
     4095
280
     0
281
     0
  0
CLASS
  1
MLEADERSTYLE
  2
AcDbMLeaderStyle
  3
ACDB_MLEADERSTYLE_CLASS
 90
     4095
280
     0
281
     0
  0
CLASS
  1
SORTENTSTABLE
  2
AcDbSortentsTable
  3
ObjectDBX Classes
 90
        0
280
     0
281
     0
  0
CLASS
  1
DICTIONARYVAR
  2
AcDbDictionaryVar
  3
ObjectDBX Classes
 90
        0
280
     0
281
     0
  0
CLASS
  1
CELLSTYLEMAP
  2
AcDbCellStyleMap
  3
ObjectDBX Classes
 90
     1152
280
     0
281
     0
  0
CLASS
  1
ACDBPLACEHOLDER
  2
AcDbPlaceHolder
  3
ObjectDBX Classes
 90
        0
280
     0
281
     0
  0
CLASS
  1
LAYOUT
  2
AcDbLayout
  3
ObjectDBX Classes
 90
        0
280
     0
281
     0
  0
ENDSEC
  0
SECTION
  2
TABLES
  0
TABLE
  2
VPORT
  5
8
330
0
100
AcDbSymbolTable
 70
     1
  0
VPORT
  5
57
330
8
100
AcDbSymbolTableRecord
100
AcDbViewportTableRecord
  2
*Active
 70
     0
 10
0.0
 20
0.0
 11
1.0
 21
1.0
 12
145.3929932872718
 22
360.0782443698873
 13
0.0
 23
0.0
 14
10.0
 24
10.0
 15
10.0
 25
10.0
 16
0.0
 26
0.0
 36
1.0
 17
0.0
 27
0.0
 37
0.0
 40
265.6880150516146
 41
2.026347305389221
 42
50.0
 43
0.0
 44
0.0
 50
0.0
 51
0.0
 71
     0
 72
  1000
 73
     1
 74
     1
 75
     0
 76
     0
 77
     0
 78
     0
281
     0
 65
     1
110
0.0
120
0.0
130
0.0
111
1.0
121
0.0
131
0.0
112
0.0
122
1.0
132
0.0
 79
     0
146
0.0
1001
ACAD_NAV_VCDISPLAY
1070
     3
  0
ENDTAB
  0
TABLE
  2
LTYPE
  5
5
330
0
100
AcDbSymbolTable
 70
     4
  0
LTYPE
  5
5B
330
5
100
AcDbSymbolTableRecord
100
AcDbLinetypeTableRecord
  2
ByBlock
 70
     0
  3

 72
    65
 73
     0
 40
0.0
  0
LTYPE
  5
5C
330
5
100
AcDbSymbolTableRecord
100
AcDbLinetypeTableRecord
  2
ByLayer
 70
     0
  3

 72
    65
 73
     0
 40
0.0
  0
LTYPE
  5
5D
330
5
100
AcDbSymbolTableRecord
100
AcDbLinetypeTableRecord
  2
Continuous
 70
     0
  3
Solid line
 72
    65
 73
     0
 40
0.0
  0
LTYPE
  5
7B
330
5
100
AcDbSymbolTableRecord
100
AcDbLinetypeTableRecord
  2
CENTER_NEW
 70
     0
  3
－ － － － － －
 72
    65
 73
     4
 40
7.5
 49
6.0
 74
     0
 49
-0.5
 74
     0
 49
0.5
 74
     0
 49
-0.5
 74
     0
  0
LTYPE
  5
7C
330
5
100
AcDbSymbolTableRecord
100
AcDbLinetypeTableRecord
  2
DASH_CENTER
 70
     0
  3
Dash_Center
 72
    65
 73
     4
 40
14.0
 49
11.0
 74
     0
 49
-1.0
 74
     0
 49
1.0
 74
     0
 49
-1.0
 74
     0
  0
ENDTAB
  0
TABLE
  2
LAYER
  5
2
330
0
100
AcDbSymbolTable
 70
     4
  0
LAYER
  5
54
102
{ACAD_XDICTIONARY
360
676
102
}
330
2
100
AcDbSymbolTableRecord
100
AcDbLayerTableRecord
  2
0
 70
     0
 62
     7
  6
Continuous
370
    35
390
9F
1001
AcAecLayerStandard
1000

1000

  0
LAYER
  5
75
330
2
100
AcDbSymbolTableRecord
100
AcDbLayerTableRecord
  2
Defpoints
 70
     0
 62
     7
  6
Continuous
290
     0
370
    -3
390
9F
1001
AcAecLayerStandard
1000

1000

  0
LAYER
  5
B3
102
{ACAD_XDICTIONARY
360
B4
102
}
330
2
100
AcDbSymbolTableRecord
100
AcDbLayerTableRecord
  2
viewports
 70
     0
 62
     5
  6
Continuous
290
     0
370
    18
390
9F
1001
AcAecLayerStandard
1000

1000

  0
LAYER
  5
C1
102
{ACAD_XDICTIONARY
360
C2
102
}
330
2
100
AcDbSymbolTableRecord
100
AcDbLayerTableRecord
  2
1
 70
     0
 62
     7
  6
Continuous
370
    -3
390
9F
  0
ENDTAB
  0
TABLE
  2
STYLE
  5
3
330
0
100
AcDbSymbolTable
 70
     7
  0
STYLE
  5
55
330
3
100
AcDbSymbolTableRecord
100
AcDbTextStyleTableRecord
  2
Standard
 70
     0
 40
0.0
 41
1.0
 50
0.0
 71
     0
 42
2.5
  3
txt
  4

  0
STYLE
  5
5A
330
3
100
AcDbSymbolTableRecord
100
AcDbTextStyleTableRecord
  2
Annotative
 70
     0
 40
0.0
 41
1.0
 50
0.0
 71
     0
 42
0.2
  3
txt
  4

1001
AcadAnnotative
1000
AnnotativeData
1002
{
1070
     1
1070
     1
1002
}
  0
STYLE
  5
76
330
3
100
AcDbSymbolTableRecord
100
AcDbTextStyleTableRecord
  2
ATOM
 70
     0
 40
0.0
 41
0.9
 50
0.0
 71
     0
 42
3.0
  3
txt.shx
  4
extfont.shx
1001
AcadAnnotative
1000
AnnotativeData
1002
{
1070
     1
1070
     1
1002
}
  0
STYLE
  5
77
330
3
100
AcDbSymbolTableRecord
100
AcDbTextStyleTableRecord
  2
CONVERTER_11
 70
     0
 40
0.0
 41
0.5670000000000001
 50
0.0
 71
     0
 42
0.2
  3
simplex.shx
  4

  0
STYLE
  5
78
330
3
100
AcDbSymbolTableRecord
100
AcDbTextStyleTableRecord
  2
CONVERTER_12
 70
     0
 40
0.0
 41
0.5607
 50
0.0
 71
     0
 42
0.2
  3
simplex.shx
  4
extfont2.shx
  0
STYLE
  5
79
330
3
100
AcDbSymbolTableRecord
100
AcDbTextStyleTableRecord
  2
CONVERTER_13
 70
     0
 40
0.0
 41
0.8009999999999999
 50
0.0
 71
     0
 42
0.2
  3
simplex.shx
  4
extfont2.shx
  0
STYLE
  5
7A
330
3
100
AcDbSymbolTableRecord
100
AcDbTextStyleTableRecord
  2
CONVERTER_14
 70
     0
 40
0.0
 41
0.5985000000000002
 50
0.0
 71
     0
 42
0.2
  3
simplex.shx
  4

  0
ENDTAB
  0
TABLE
  2
VIEW
  5
6
330
0
100
AcDbSymbolTable
 70
     0
  0
ENDTAB
  0
TABLE
  2
UCS
  5
7
330
0
100
AcDbSymbolTable
 70
     0
  0
ENDTAB
  0
TABLE
  2
APPID
  5
9
330
0
100
AcDbSymbolTable
 70
    10
  0
APPID
  5
56
330
9
100
AcDbSymbolTableRecord
100
AcDbRegAppTableRecord
  2
ACAD
 70
     0
  0
APPID
  5
5E
330
9
100
AcDbSymbolTableRecord
100
AcDbRegAppTableRecord
  2
AcadAnnotative
 70
     0
  0
APPID
  5
74
330
9
100
AcDbSymbolTableRecord
100
AcDbRegAppTableRecord
  2
ACAD_PSEXT
 70
     0
  0
APPID
  5
86
330
9
100
AcDbSymbolTableRecord
100
AcDbRegAppTableRecord
  2
ACAD_DSTYLE_DIMBREAK
 70
     0
  0
APPID
  5
87
330
9
100
AcDbSymbolTableRecord
100
AcDbRegAppTableRecord
  2
ACAD_DSTYLE_DIMJAG
 70
     0
  0
APPID
  5
88
330
9
100
AcDbSymbolTableRecord
100
AcDbRegAppTableRecord
  2
ACAD_DSTYLE_DIMTALN
 70
     0
  0
APPID
  5
B6
330
9
100
AcDbSymbolTableRecord
100
AcDbRegAppTableRecord
  2
AcAecLayerStandard
 70
     0
  0
APPID
  5
67F
330
9
100
AcDbSymbolTableRecord
100
AcDbRegAppTableRecord
  2
ACAD_NAV_VCDISPLAY
 70
     0
  0
APPID
  5
6BA
330
9
100
AcDbSymbolTableRecord
100
AcDbRegAppTableRecord
  2
ACAD_MLEADERVER
 70
     0
  0
APPID
  5
7A8
330
9
100
AcDbSymbolTableRecord
100
AcDbRegAppTableRecord
  2
DCO15
 70
     0
  0
ENDTAB
  0
TABLE
  2
DIMSTYLE
  5
A
330
0
100
AcDbSymbolTable
 70
    23
100
AcDbDimStyleTable
 71
     1
340
7E
  0
DIMSTYLE
105
58
330
A
100
AcDbSymbolTableRecord
100
AcDbDimStyleTableRecord
  2
Standard
 70
     0
340
55
  0
DIMSTYLE
105
59
330
A
100
AcDbSymbolTableRecord
100
AcDbDimStyleTableRecord
  2
Annotative
 70
     0
340
55
1001
AcadAnnotative
1000
AnnotativeData
1002
{
1070
     1
1070
     1
1002
}
  0
DIMSTYLE
105
7E
330
A
100
AcDbSymbolTableRecord
100
AcDbDimStyleTableRecord
  2
ATOM
 70
     0
 40
0.0
 41
2.0
 42
2.0
 43
7.0
 44
1.0
 47
0.1
 48
0.1
 73
     0
 74
     0
 77
     1
 78
     8
140
3.0
141
-2.5
143
0.03937007874016
146
0.4999999999999998
147
0.625
171
     3
172
     1
178
     3
271
     2
272
     2
274
     3
276
     2
279
     1
283
     0
284
     8
289
     0
340
76
341
80
342
80
1001
ACAD_DSTYLE_DIMBREAK
1070
   391
1040
3.75
1001
AcadAnnotative
1000
AnnotativeData
1002
{
1070
     1
1070
     1
1002
}
1001
ACAD_DSTYLE_DIMJAG
1070
   388
1040
1.5
1001
ACAD_DSTYLE_DIMTALN
1070
   392
1070
     0
  0
DIMSTYLE
105
89
102
{ACAD_REACTORS
330
218
102
}
330
A
100
AcDbSymbolTableRecord
100
AcDbDimStyleTableRecord
  2
ME10_DIM_10
 70
     0
 41
2.45
 42
1.0
 44
1.0
 73
     0
 74
     0
 77
     1
 78
     8
140
3.5
147
1.0
172
     1
173
     1
176
     2
177
     2
178
     3
271
     2
340
7A
343
80
344
80
  0
DIMSTYLE
105
8B
102
{ACAD_REACTORS
330
224
102
}
330
A
100
AcDbSymbolTableRecord
100
AcDbDimStyleTableRecord
  2
ME10_DIM_11
 70
     0
 41
2.45
 42
1.0
 44
1.0
 73
     0
 74
     0
 77
     1
 78
     8
140
3.5
147
1.0
172
     1
173
     1
176
     2
177
     2
178
     3
271
     2
340
7A
343
80
344
80
  0
DIMSTYLE
105
8C
102
{ACAD_REACTORS
330
230
102
}
330
A
100
AcDbSymbolTableRecord
100
AcDbDimStyleTableRecord
  2
ME10_DIM_12
 70
     0
 41
2.45
 42
1.0
 44
1.0
 73
     0
 74
     0
 77
     1
 78
     8
140
3.5
147
1.0
172
     1
173
     1
176
     2
177
     2
178
     3
271
     2
340
7A
343
80
344
80
  0
DIMSTYLE
105
8D
102
{ACAD_REACTORS
330
23C
102
}
330
A
100
AcDbSymbolTableRecord
100
AcDbDimStyleTableRecord
  2
ME10_DIM_13
 70
     0
 41
2.45
 42
1.0
 44
1.0
 73
     0
 74
     0
 77
     1
 78
     8
140
3.5
147
1.0
172
     1
173
     1
176
     2
177
     2
178
     3
271
     2
340
7A
343
80
344
80
  0
DIMSTYLE
105
8E
102
{ACAD_REACTORS
330
248
102
}
330
A
100
AcDbSymbolTableRecord
100
AcDbDimStyleTableRecord
  2
ME10_DIM_14
 70
     0
 41
2.45
 42
1.0
 44
1.0
 73
     0
 74
     0
 77
     1
 78
     8
140
3.5
147
1.0
172
     1
173
     1
176
     2
177
     2
178
     3
271
     2
340
7A
343
80
344
80
  0
DIMSTYLE
105
8F
102
{ACAD_REACTORS
330
254
102
}
330
A
100
AcDbSymbolTableRecord
100
AcDbDimStyleTableRecord
  2
ME10_DIM_15
 70
     0
 41
2.45
 42
1.0
 44
1.0
 73
     0
 74
     0
 77
     1
 78
     8
140
3.5
147
1.0
172
     1
173
     1
176
     2
177
     2
178
     3
271
     2
340
7A
343
80
344
80
  0
DIMSTYLE
105
90
330
A
100
AcDbSymbolTableRecord
100
AcDbDimStyleTableRecord
  2
ME10_DIM_16
 70
     0
 41
3.5
 42
1.0
 44
1.0
 73
     0
 74
     0
 77
     1
 78
     8
140
3.5
147
0.5
172
     1
173
     1
176
     2
177
     2
178
     3
271
     3
340
77
343
80
344
80
  0
DIMSTYLE
105
92
330
A
100
AcDbSymbolTableRecord
100
AcDbDimStyleTableRecord
  2
ME10_DIM_17
 70
     0
 41
3.5
 42
1.0
 44
1.0
 73
     0
 74
     0
 77
     1
 78
     8
140
3.5
147
0.5
172
     1
173
     1
176
     2
177
     2
178
     3
271
     3
340
77
343
80
344
80
  0
DIMSTYLE
105
93
330
A
100
AcDbSymbolTableRecord
100
AcDbDimStyleTableRecord
  2
ME10_DIM_18
 70
     0
 41
2.45
 42
1.0
 44
1.0
 73
     0
 74
     0
 77
     1
 78
     8
140
3.5
147
1.0
172
     1
173
     1
176
     2
177
     2
178
     3
271
     2
340
7A
343
80
344
80
  0
DIMSTYLE
105
94
330
A
100
AcDbSymbolTableRecord
100
AcDbDimStyleTableRecord
  2
ME10_DIM_19
 70
     0
 41
2.45
 42
1.0
 44
1.0
 73
     0
 74
     0
 77
     1
 78
     8
140
3.5
147
1.0
172
     1
173
     1
176
     2
177
     2
178
     3
271
     2
340
7A
343
80
344
80
  0
DIMSTYLE
105
95
330
A
100
AcDbSymbolTableRecord
100
AcDbDimStyleTableRecord
  2
ME10_DIM_20
 70
     0
 41
2.45
 42
1.0
 44
1.0
 73
     0
 74
     0
 77
     1
 78
     8
140
3.5
147
1.0
172
     1
173
     1
176
     2
177
     2
178
     3
271
     2
340
7A
343
80
344
80
  0
DIMSTYLE
105
96
330
A
100
AcDbSymbolTableRecord
100
AcDbDimStyleTableRecord
  2
ME10_DIM_21
 70
     0
 41
2.45
 42
1.0
 44
1.0
 73
     0
 74
     0
 77
     1
 78
     8
140
3.5
147
1.0
172
     1
173
     1
176
     2
177
     2
178
     3
271
     2
340
7A
343
80
344
80
  0
DIMSTYLE
105
97
330
A
100
AcDbSymbolTableRecord
100
AcDbDimStyleTableRecord
  2
ME10_DIM_22
 70
     0
 41
2.45
 42
1.0
 44
1.0
 73
     0
 74
     0
 77
     1
 78
     8
140
3.5
147
1.0
172
     1
173
     1
176
     2
177
     2
178
     3
271
     2
340
7A
343
80
344
80
  0
DIMSTYLE
105
98
330
A
100
AcDbSymbolTableRecord
100
AcDbDimStyleTableRecord
  2
ME10_DIM_23
 70
     0
 41
2.45
 42
1.0
 44
1.0
 73
     0
 74
     0
 77
     1
 78
     8
140
3.5
147
1.0
172
     1
173
     1
176
     2
177
     2
178
     3
271
     2
340
7A
343
80
344
80
  0
DIMSTYLE
105
99
330
A
100
AcDbSymbolTableRecord
100
AcDbDimStyleTableRecord
  2
ME10_DIM_24
 70
     0
 41
2.45
 42
1.0
 44
1.0
 73
     0
 74
     0
 77
     1
 78
     8
140
3.5
147
1.0
172
     1
173
     1
176
     2
177
     2
178
     3
271
     2
340
7A
343
80
344
80
  0
DIMSTYLE
105
9A
330
A
100
AcDbSymbolTableRecord
100
AcDbDimStyleTableRecord
  2
ME10_DIM_25
 70
     0
 41
2.45
 42
1.0
 44
1.0
 73
     0
 74
     0
 77
     1
 78
     8
140
3.5
147
1.0
172
     1
173
     1
176
     2
177
     2
178
     3
271
     2
340
7A
343
80
344
80
  0
DIMSTYLE
105
9B
330
A
100
AcDbSymbolTableRecord
100
AcDbDimStyleTableRecord
  2
ME10_DIM_26
 70
     0
 41
2.45
 42
1.0
 44
1.0
 73
     0
 74
     0
 77
     1
 78
     8
140
3.5
147
1.0
172
     1
173
     1
176
     2
177
     2
178
     3
271
     2
340
7A
343
80
344
80
  0
DIMSTYLE
105
9C
330
A
100
AcDbSymbolTableRecord
100
AcDbDimStyleTableRecord
  2
ME10_DIM_27
 70
     0
 41
2.45
 42
1.0
 44
1.0
 73
     0
 74
     0
 77
     1
 78
     8
140
3.5
147
1.0
172
     1
173
     1
176
     2
177
     2
178
     3
271
     2
340
7A
343
80
344
80
  0
DIMSTYLE
105
9D
330
A
100
AcDbSymbolTableRecord
100
AcDbDimStyleTableRecord
  2
ME10_DIM_28
 70
     0
 41
2.45
 42
1.0
 44
1.0
 73
     0
 74
     0
 77
     1
 78
     8
140
3.5
147
1.0
172
     1
173
     1
176
     2
177
     2
178
     3
271
     2
340
7A
343
80
344
80
  0
ENDTAB
  0
TABLE
  2
BLOCK_RECORD
  5
1
330
0
100
AcDbSymbolTable
 70
    34
  0
BLOCK_RECORD
  5
6C
102
{ACAD_XDICTIONARY
360
5E3
102
}
330
1
100
AcDbSymbolTableRecord
100
AcDbBlockTableRecord
  2
*Model_Space
340
6F
  0
BLOCK_RECORD
  5
68
330
1
100
AcDbSymbolTableRecord
100
AcDbBlockTableRecord
  2
*Paper_Space
340
6B
  0
BLOCK_RECORD
  5
70
330
1
100
AcDbSymbolTableRecord
100
AcDbBlockTableRecord
  2
*Paper_Space0
340
73
  0
BLOCK_RECORD
  5
80
330
1
100
AcDbSymbolTableRecord
100
AcDbBlockTableRecord
  2
_Open30
340
0
310
2800000020000000200000000100080000000000000400000000000000000000000000000000000000000000000080000080000000808000800000008000800080800000C0C0C000C0DCC000F0CAA6000020400000206000002080000020A0000020C0000020E00000400000004020000040400000406000004080000040A0
310
000040C0000040E00000600000006020000060400000606000006080000060A0000060C0000060E00000800000008020000080400000806000008080000080A0000080C0000080E00000A0000000A0200000A0400000A0600000A0800000A0A00000A0C00000A0E00000C0000000C0200000C0400000C0600000C0800000C0
310
A00000C0C00000C0E00000E0000000E0200000E0400000E0600000E0800000E0A00000E0C00000E0E00040000000400020004000400040006000400080004000A0004000C0004000E00040200000402020004020400040206000402080004020A0004020C0004020E000404000004040200040404000404060004040800040
310
40A0004040C0004040E00040600000406020004060400040606000406080004060A0004060C0004060E00040800000408020004080400040806000408080004080A0004080C0004080E00040A0000040A0200040A0400040A0600040A0800040A0A00040A0C00040A0E00040C0000040C0200040C0400040C0600040C08000
310
40C0A00040C0C00040C0E00040E0000040E0200040E0400040E0600040E0800040E0A00040E0C00040E0E00080000000800020008000400080006000800080008000A0008000C0008000E00080200000802020008020400080206000802080008020A0008020C0008020E00080400000804020008040400080406000804080
310
008040A0008040C0008040E00080600000806020008060400080606000806080008060A0008060C0008060E00080800000808020008080400080806000808080008080A0008080C0008080E00080A0000080A0200080A0400080A0600080A0800080A0A00080A0C00080A0E00080C0000080C0200080C0400080C0600080C0
310
800080C0A00080C0C00080C0E00080E0000080E0200080E0400080E0600080E0800080E0A00080E0C00080E0E000C0000000C0002000C0004000C0006000C0008000C000A000C000C000C000E000C0200000C0202000C0204000C0206000C0208000C020A000C020C000C020E000C0400000C0402000C0404000C0406000C0
310
408000C040A000C040C000C040E000C0600000C0602000C0604000C0606000C0608000C060A000C060C000C060E000C0800000C0802000C0804000C0806000C0808000C080A000C080C000C080E000C0A00000C0A02000C0A04000C0A06000C0A08000C0A0A000C0A0C000C0A0E000C0C00000C0C02000C0C04000C0C06000
310
C0C08000C0C0A000F0FBFF00A4A0A000808080000000FF0000FF000000FFFF00FF000000FF00FF00FFFF0000FFFFFF0000000000000000000000000000000000000000000000000000000000000000000000000000000000000000000000000000000000000000000000000000000000000000000000000000000000000000
310
00000000000000000000000000000000000000000000000000000000000000000000000000000000000000000000000000000000000000000000000000000000000000000000000000000000000000000000000000000000000000000000000000000000000000000000000000000000000000000000000000000000000000
310
000000000000000000000000000000000000000000000000000000000000000000000000000000000000000000000000000000FFFF0000000000000000000000000000000000000000000000000000000000000000FFFFFFFF0000000000000000000000000000000000000000000000000000000000000000FFFFFFFF0000
310
000000000000000000000000000000000000000000000000000000000000FFFFFF0000000000000000000000000000000000000000000000000000000000000000FFFFFFFF0000000000000000000000000000000000000000000000000000000000000000FFFFFF0000000000000000000000000000000000000000000000
310
000000000000000000FFFFFFFF0000000000000000000000000000000000000000000000000000000000000000FFFFFFFF00000000FFFFFFFFFFFFFFFFFFFFFFFFFFFFFFFFFFFFFFFFFFFFFFFFFFFFFFFFFFFF00000000000000000000000000000000000000000000000000FFFFFFFF000000000000000000000000000000
310
000000000000000000FFFFFFFF000000000000000000000000000000000000000000000000FFFFFFFF000000000000000000000000000000000000000000000000FFFFFFFF000000000000000000000000000000000000000000000000FFFFFFFF000000000000000000000000000000000000000000000000FFFFFFFF0000
310
0000000000000000000000000000000000000000000000FFFFFF0000000000000000000000000000000000000000000000000000000000000000000000000000000000000000000000000000000000000000000000000000000000000000000000000000000000000000000000000000000000000000000000000000000000
310
00000000000000000000000000000000000000000000000000000000000000000000000000000000000000000000000000000000000000000000000000000000000000000000000000000000000000000000000000000000000000000000000000000000000000000000000000000000000000000000000000000000000000
310
0000000000000000000000000000000000000000000000000000000000000000000000000000000000000000000000000000000000000000
102
{BLKREFS
331
60F
331
610
331
618
331
619
331
621
331
622
331
62C
331
62D
331
637
331
638
331
642
331
643
331
64D
331
64E
331
656
331
657
331
5EB
331
5EC
331
5F4
331
5F5
331
5FD
331
5FE
331
606
331
607
331
660
331
661
331
786
331
787
331
790
331
791
331
79A
331
79B
331
768
331
769
331
772
331
773
331
77C
331
77D
102
}
  0
BLOCK_RECORD
  5
BE
330
1
100
AcDbSymbolTableRecord
100
AcDbBlockTableRecord
  2
______
340
0
102
{BLKREFS
331
BD
102
}
  0
BLOCK_RECORD
  5
BB
330
1
100
AcDbSymbolTableRecord
100
AcDbBlockTableRecord
  2
format_A3
340
0
102
{BLKREFS
331
BA
102
}
  0
BLOCK_RECORD
  5
1C5
330
1
100
AcDbSymbolTableRecord
100
AcDbBlockTableRecord
  2
_4
340
0
102
{BLKREFS
331
1C4
331
6C8
102
}
  0
BLOCK_RECORD
  5
1CD
330
1
100
AcDbSymbolTableRecord
100
AcDbBlockTableRecord
  2
_6
340
0
102
{BLKREFS
331
1CC
331
6C9
102
}
  0
BLOCK_RECORD
  5
219
330
1
100
AcDbSymbolTableRecord
100
AcDbBlockTableRecord
  2
*D6
340
0
  0
BLOCK_RECORD
  5
225
330
1
100
AcDbSymbolTableRecord
100
AcDbBlockTableRecord
  2
*D7
340
0
  0
BLOCK_RECORD
  5
231
330
1
100
AcDbSymbolTableRecord
100
AcDbBlockTableRecord
  2
*D8
340
0
  0
BLOCK_RECORD
  5
23D
330
1
100
AcDbSymbolTableRecord
100
AcDbBlockTableRecord
  2
*D9
340
0
  0
BLOCK_RECORD
  5
249
330
1
100
AcDbSymbolTableRecord
100
AcDbBlockTableRecord
  2
*D10
340
0
  0
BLOCK_RECORD
  5
255
330
1
100
AcDbSymbolTableRecord
100
AcDbBlockTableRecord
  2
*D11
340
0
  0
BLOCK_RECORD
  5
B8
330
1
100
AcDbSymbolTableRecord
100
AcDbBlockTableRecord
  2
Top__1
340
0
  0
BLOCK_RECORD
  5
3B3
330
1
100
AcDbSymbolTableRecord
100
AcDbBlockTableRecord
  2
*D13
340
0
  0
BLOCK_RECORD
  5
3BA
330
1
100
AcDbSymbolTableRecord
100
AcDbBlockTableRecord
  2
*D14
340
0
  0
BLOCK_RECORD
  5
3C8
330
1
100
AcDbSymbolTableRecord
100
AcDbBlockTableRecord
  2
*D15
340
0
  0
BLOCK_RECORD
  5
3D4
330
1
100
AcDbSymbolTableRecord
100
AcDbBlockTableRecord
  2
*D16
340
0
  0
BLOCK_RECORD
  5
3E0
330
1
100
AcDbSymbolTableRecord
100
AcDbBlockTableRecord
  2
*D17
340
0
  0
BLOCK_RECORD
  5
3EC
330
1
100
AcDbSymbolTableRecord
100
AcDbBlockTableRecord
  2
*D18
340
0
  0
BLOCK_RECORD
  5
3F8
330
1
100
AcDbSymbolTableRecord
100
AcDbBlockTableRecord
  2
*D19
340
0
  0
BLOCK_RECORD
  5
404
330
1
100
AcDbSymbolTableRecord
100
AcDbBlockTableRecord
  2
*D20
340
0
  0
BLOCK_RECORD
  5
410
330
1
100
AcDbSymbolTableRecord
100
AcDbBlockTableRecord
  2
*D21
340
0
  0
BLOCK_RECORD
  5
41E
330
1
100
AcDbSymbolTableRecord
100
AcDbBlockTableRecord
  2
*D22
340
0
  0
BLOCK_RECORD
  5
42C
330
1
100
AcDbSymbolTableRecord
100
AcDbBlockTableRecord
  2
*D23
340
0
  0
BLOCK_RECORD
  5
43A
330
1
100
AcDbSymbolTableRecord
100
AcDbBlockTableRecord
  2
*D24
340
0
  0
BLOCK_RECORD
  5
448
330
1
100
AcDbSymbolTableRecord
100
AcDbBlockTableRecord
  2
*D25
340
0
  0
BLOCK_RECORD
  5
454
330
1
100
AcDbSymbolTableRecord
100
AcDbBlockTableRecord
  2
*D26
340
0
  0
BLOCK_RECORD
  5
716
330
1
100
AcDbSymbolTableRecord
100
AcDbBlockTableRecord
  2
*D27
340
0
  0
BLOCK_RECORD
  5
723
330
1
100
AcDbSymbolTableRecord
100
AcDbBlockTableRecord
  2
*D28
340
0
  0
BLOCK_RECORD
  5
730
330
1
100
AcDbSymbolTableRecord
100
AcDbBlockTableRecord
  2
*D29
340
0
  0
BLOCK_RECORD
  5
73D
330
1
100
AcDbSymbolTableRecord
100
AcDbBlockTableRecord
  2
*D30
340
0
  0
BLOCK_RECORD
  5
74A
330
1
100
AcDbSymbolTableRecord
100
AcDbBlockTableRecord
  2
*D31
340
0
  0
BLOCK_RECORD
  5
757
330
1
100
AcDbSymbolTableRecord
100
AcDbBlockTableRecord
  2
*D32
340
0
  0
ENDTAB
  0
ENDSEC
  0
SECTION
  2
BLOCKS
  0
BLOCK
  5
6D
330
6C
100
AcDbEntity
  8
0
100
AcDbBlockBegin
  2
*Model_Space
 70
     0
 10
0.0
 20
0.0
 30
0.0
  3
*Model_Space
  1

  0
ENDBLK
  5
6E
330
6C
100
AcDbEntity
  8
0
100
AcDbBlockEnd
  0
BLOCK
  5
69
330
68
100
AcDbEntity
 67
     1
  8
0
100
AcDbBlockBegin
  2
*Paper_Space
 70
     0
 10
0.0
 20
0.0
 30
0.0
  3
*Paper_Space
  1

  0
ENDBLK
  5
6A
330
68
100
AcDbEntity
 67
     1
  8
0
100
AcDbBlockEnd
  0
BLOCK
  5
71
330
70
100
AcDbEntity
 67
     1
  8
0
100
AcDbBlockBegin
  2
*Paper_Space0
 70
     0
 10
0.0
 20
0.0
 30
0.0
  3
*Paper_Space0
  1

  0
ENDBLK
  5
72
330
70
100
AcDbEntity
 67
     1
  8
0
100
AcDbBlockEnd
  0
BLOCK
  5
81
330
80
100
AcDbEntity
  8
0
100
AcDbBlockBegin
  2
_Open30
 70
     0
 10
0.0
 20
0.0
 30
0.0
  3
_Open30
  1

  0
LINE
  5
82
330
80
100
AcDbEntity
  8
0
  6
ByBlock
 62
     0
370
    -2
100
AcDbLine
 10
-1.0
 20
0.26794919
 30
0.0
 11
0.0
 21
0.0
 31
0.0
  0
LINE
  5
83
330
80
100
AcDbEntity
  8
0
  6
ByBlock
 62
     0
370
    -2
100
AcDbLine
 10
0.0
 20
0.0
 30
0.0
 11
-1.0
 21
-0.26794919
 31
0.0
  0
LINE
  5
84
330
80
100
AcDbEntity
  8
0
  6
ByBlock
 62
     0
370
    -2
100
AcDbLine
 10
0.0
 20
0.0
 30
0.0
 11
-1.0
 21
0.0
 31
0.0
  0
ENDBLK
  5
85
330
80
100
AcDbEntity
  8
0
100
AcDbBlockEnd
  0
BLOCK
  5
BF
330
BE
100
AcDbEntity
  8
0
100
AcDbBlockBegin
  2
______
 70
     0
 10
2206.142476022541
 20
11.42129913978783
 30
0.0
  3
______
  1

  0
LINE
  5
C0
330
BE
100
AcDbEntity
  8
1
  6
Continuous
 62
     5
100
AcDbLine
 10
2183.233449336451
 20
1420.571706793807
 30
0.0
 11
2208.233449336451
 21
1420.571706793807
 31
0.0
  0
LINE
  5
C4
330
BE
100
AcDbEntity
  8
1
  6
Continuous
 62
     7
100
AcDbLine
 10
2183.233449336451
 20
1427.571706793807
 30
0.0
 11
2208.233449336451
 21
1427.571706793807
 31
0.0
  0
LINE
  5
C5
330
BE
100
AcDbEntity
  8
1
  6
Continuous
 62
     5
100
AcDbLine
 10
2183.233449336451
 20
1427.571706793807
 30
0.0
 11
2183.233449336451
 21
1420.571706793807
 31
0.0
  0
LINE
  5
C6
330
BE
100
AcDbEntity
  8
1
  6
Continuous
 62
     7
100
AcDbLine
 10
2183.233449336451
 20
1434.571706793807
 30
0.0
 11
2183.233449336451
 21
1427.571706793807
 31
0.0
  0
LINE
  5
C7
330
BE
100
AcDbEntity
  8
1
  6
Continuous
 62
     7
100
AcDbLine
 10
2024.23344933645
 20
1434.571706793807
 30
0.0
 11
2024.23344933645
 21
1427.571706793807
 31
0.0
  0
LINE
  5
C8
330
BE
100
AcDbEntity
  8
1
  6
Continuous
 62
     7
100
AcDbLine
 10
2024.23344933645
 20
1427.571706793807
 30
0.0
 11
2031.23344933645
 21
1427.571706793807
 31
0.0
  0
LINE
  5
C9
330
BE
100
AcDbEntity
  8
1
  6
Continuous
 62
     7
100
AcDbLine
 10
2031.23344933645
 20
1427.571706793807
 30
0.0
 11
2128.233449336451
 21
1427.571706793807
 31
0.0
  0
LINE
  5
CA
330
BE
100
AcDbEntity
  8
1
  6
Continuous
 62
     7
100
AcDbLine
 10
2031.23344933645
 20
1434.571706793807
 30
0.0
 11
2031.23344933645
 21
1427.571706793807
 31
0.0
  0
LINE
  5
CB
330
BE
100
AcDbEntity
  8
1
  6
Continuous
 62
     7
100
AcDbLine
 10
2168.233449336451
 20
1434.571706793807
 30
0.0
 11
2168.233449336451
 21
1427.571706793807
 31
0.0
  0
LINE
  5
CC
330
BE
100
AcDbEntity
  8
1
  6
Continuous
 62
     7
100
AcDbLine
 10
2168.233449336451
 20
1427.571706793807
 30
0.0
 11
2183.233449336451
 21
1427.571706793807
 31
0.0
  0
LINE
  5
CD
330
BE
100
AcDbEntity
  8
1
  6
Continuous
 62
     7
100
AcDbLine
 10
2143.233449336451
 20
1434.571706793807
 30
0.0
 11
2143.233449336451
 21
1427.571706793807
 31
0.0
  0
LINE
  5
CE
330
BE
100
AcDbEntity
  8
1
  6
Continuous
 62
     7
100
AcDbLine
 10
2143.233449336451
 20
1427.571706793807
 30
0.0
 11
2168.233449336451
 21
1427.571706793807
 31
0.0
  0
LINE
  5
CF
330
BE
100
AcDbEntity
  8
1
  6
Continuous
 62
     7
100
AcDbLine
 10
2128.233449336451
 20
1434.571706793807
 30
0.0
 11
2128.233449336451
 21
1427.571706793807
 31
0.0
  0
LINE
  5
D0
330
BE
100
AcDbEntity
  8
1
  6
Continuous
 62
     5
100
AcDbLine
 10
2024.23344933645
 20
1427.571706793807
 30
0.0
 11
2024.23344933645
 21
1420.571706793807
 31
0.0
  0
LINE
  5
D1
330
BE
100
AcDbEntity
  8
1
  6
Continuous
 62
     5
100
AcDbLine
 10
2024.23344933645
 20
1420.571706793807
 30
0.0
 11
2031.23344933645
 21
1420.571706793807
 31
0.0
  0
LINE
  5
D2
330
BE
100
AcDbEntity
  8
1
  6
Continuous
 62
     5
100
AcDbLine
 10
2168.233449336451
 20
1427.571706793807
 30
0.0
 11
2168.233449336451
 21
1420.571706793807
 31
0.0
  0
LINE
  5
D3
330
BE
100
AcDbEntity
  8
1
  6
Continuous
 62
     5
100
AcDbLine
 10
2168.233449336451
 20
1420.571706793807
 30
0.0
 11
2183.233449336451
 21
1420.571706793807
 31
0.0
  0
LINE
  5
D4
330
BE
100
AcDbEntity
  8
1
  6
Continuous
 62
     5
100
AcDbLine
 10
2143.233449336451
 20
1427.571706793807
 30
0.0
 11
2143.233449336451
 21
1420.571706793807
 31
0.0
  0
LINE
  5
D5
330
BE
100
AcDbEntity
  8
1
  6
Continuous
 62
     5
100
AcDbLine
 10
2143.233449336451
 20
1420.571706793807
 30
0.0
 11
2168.233449336451
 21
1420.571706793807
 31
0.0
  0
LINE
  5
D6
330
BE
100
AcDbEntity
  8
1
  6
Continuous
 62
     5
100
AcDbLine
 10
2128.233449336451
 20
1427.571706793807
 30
0.0
 11
2128.233449336451
 21
1420.571706793807
 31
0.0
  0
LINE
  5
D7
330
BE
100
AcDbEntity
  8
1
  6
Continuous
 62
     7
100
AcDbLine
 10
2128.233449336451
 20
1427.571706793807
 30
0.0
 11
2143.233449336451
 21
1427.571706793807
 31
0.0
  0
LINE
  5
D8
330
BE
100
AcDbEntity
  8
1
  6
Continuous
 62
     5
100
AcDbLine
 10
2128.233449336451
 20
1420.571706793807
 30
0.0
 11
2143.233449336451
 21
1420.571706793807
 31
0.0
  0
LINE
  5
D9
330
BE
100
AcDbEntity
  8
1
  6
Continuous
 62
     5
100
AcDbLine
 10
2031.23344933645
 20
1427.571706793807
 30
0.0
 11
2031.23344933645
 21
1420.571706793807
 31
0.0
  0
LINE
  5
DA
330
BE
100
AcDbEntity
  8
1
  6
Continuous
 62
     5
100
AcDbLine
 10
2031.23344933645
 20
1420.571706793807
 30
0.0
 11
2128.233449336451
 21
1420.571706793807
 31
0.0
  0
LINE
  5
DB
330
BE
100
AcDbEntity
  8
1
  6
Continuous
 62
     7
100
AcDbLine
 10
2052.23344933645
 20
1185.571706793807
 30
0.0
 11
2052.23344933645
 21
1178.571706793807
 31
0.0
  0
LINE
  5
DC
330
BE
100
AcDbEntity
  8
1
  6
Continuous
 62
     7
100
AcDbLine
 10
2062.23344933645
 20
1178.571706793807
 30
0.0
 11
2113.733449336451
 21
1178.571706793807
 31
0.0
  0
LINE
  5
DD
330
BE
100
AcDbEntity
  8
1
  6
Continuous
 62
     7
100
AcDbLine
 10
2059.23344933645
 20
1178.571706793807
 30
0.0
 11
2062.23344933645
 21
1178.571706793807
 31
0.0
  0
LINE
  5
DE
330
BE
100
AcDbEntity
  8
1
  6
Continuous
 62
     7
100
AcDbLine
 10
2040.23344933645
 20
1178.571706793807
 30
0.0
 11
2059.23344933645
 21
1178.571706793807
 31
0.0
  0
LINE
  5
DF
330
BE
100
AcDbEntity
  8
1
  6
Continuous
 62
     7
100
AcDbLine
 10
2116.733449336451
 20
1157.571706793807
 30
0.0
 11
2152.233449336451
 21
1157.571706793807
 31
0.0
  0
LINE
  5
E0
330
BE
100
AcDbEntity
  8
1
  6
Continuous
 62
     7
100
AcDbLine
 10
2116.733449336451
 20
1164.571706793807
 30
0.0
 11
2152.233449336451
 21
1164.571706793807
 31
0.0
  0
LINE
  5
E1
330
BE
100
AcDbEntity
  8
1
  6
Continuous
 62
     7
100
AcDbLine
 10
2116.733449336451
 20
1164.571706793807
 30
0.0
 11
2116.733449336451
 21
1157.571706793807
 31
0.0
  0
LINE
  5
E2
330
BE
100
AcDbEntity
  8
1
  6
Continuous
 62
     7
100
AcDbLine
 10
2113.733449336451
 20
1164.571706793807
 30
0.0
 11
2116.733449336451
 21
1164.571706793807
 31
0.0
  0
LINE
  5
E3
330
BE
100
AcDbEntity
  8
1
  6
Continuous
 62
     7
100
AcDbLine
 10
2116.733449336451
 20
1171.571706793807
 30
0.0
 11
2152.233449336451
 21
1171.571706793807
 31
0.0
  0
LINE
  5
E4
330
BE
100
AcDbEntity
  8
1
  6
Continuous
 62
     7
100
AcDbLine
 10
2116.733449336451
 20
1171.571706793807
 30
0.0
 11
2116.733449336451
 21
1164.571706793807
 31
0.0
  0
LINE
  5
E5
330
BE
100
AcDbEntity
  8
1
  6
Continuous
 62
     7
100
AcDbLine
 10
2113.733449336451
 20
1171.571706793807
 30
0.0
 11
2116.733449336451
 21
1171.571706793807
 31
0.0
  0
LINE
  5
E6
330
BE
100
AcDbEntity
  8
1
  6
Continuous
 62
     7
100
AcDbLine
 10
2116.733449336451
 20
1178.571706793807
 30
0.0
 11
2116.733449336451
 21
1171.571706793807
 31
0.0
  0
LINE
  5
E7
330
BE
100
AcDbEntity
  8
1
  6
Continuous
 62
     7
100
AcDbLine
 10
2116.733449336451
 20
1178.571706793807
 30
0.0
 11
2152.233449336451
 21
1178.571706793807
 31
0.0
  0
LINE
  5
E8
330
BE
100
AcDbEntity
  8
1
  6
Continuous
 62
     7
100
AcDbLine
 10
2024.23344933645
 20
1185.571706793807
 30
0.0
 11
2024.23344933645
 21
1157.571706793807
 31
0.0
  0
LINE
  5
E9
330
BE
100
AcDbEntity
  8
1
  6
Continuous
 62
     7
100
AcDbLine
 10
2024.23344933645
 20
1185.571706793807
 30
0.0
 11
2151.733449336451
 21
1185.571706793807
 31
0.0
  0
LINE
  5
EA
330
BE
100
AcDbEntity
  8
1
  6
Continuous
 62
     7
100
AcDbLine
 10
2024.23344933645
 20
1157.571706793807
 30
0.0
 11
2113.733449336451
 21
1157.571706793807
 31
0.0
  0
LINE
  5
EB
330
BE
100
AcDbEntity
  8
1
  6
Continuous
 62
     7
100
AcDbLine
 10
2208.233449336451
 20
1192.571706793807
 30
0.0
 11
2208.233449336451
 21
1199.571706793807
 31
0.0
  0
LINE
  5
EC
330
BE
100
AcDbEntity
  8
1
  6
Continuous
 62
     7
100
AcDbLine
 10
2152.233449336451
 20
1157.571706793807
 30
0.0
 11
2197.733449336451
 21
1157.571706793807
 31
0.0
  0
LINE
  5
ED
330
BE
100
AcDbEntity
  8
1
  6
Continuous
 62
     7
100
AcDbLine
 10
2152.233449336451
 20
1164.571706793807
 30
0.0
 11
2197.733449336451
 21
1164.571706793807
 31
0.0
  0
LINE
  5
EE
330
BE
100
AcDbEntity
  8
1
  6
Continuous
 62
     7
100
AcDbLine
 10
2152.233449336451
 20
1164.571706793807
 30
0.0
 11
2197.733449336451
 21
1164.571706793807
 31
0.0
  0
LINE
  5
EF
330
BE
100
AcDbEntity
  8
1
  6
Continuous
 62
     7
100
AcDbLine
 10
2208.233449336451
 20
1171.571706793807
 30
0.0
 11
2208.233449336451
 21
1164.571706793807
 31
0.0
  0
LINE
  5
F0
330
BE
100
AcDbEntity
  8
1
  6
Continuous
 62
     7
100
AcDbLine
 10
2152.233449336451
 20
1171.571706793807
 30
0.0
 11
2208.233449336451
 21
1171.571706793807
 31
0.0
  0
LINE
  5
F1
330
BE
100
AcDbEntity
  8
1
  6
Continuous
 62
     7
100
AcDbLine
 10
2208.233449336451
 20
1178.571706793807
 30
0.0
 11
2208.233449336451
 21
1171.571706793807
 31
0.0
  0
LINE
  5
F2
330
BE
100
AcDbEntity
  8
1
  6
Continuous
 62
     7
100
AcDbLine
 10
2152.233449336451
 20
1178.571706793807
 30
0.0
 11
2208.233449336451
 21
1178.571706793807
 31
0.0
  0
LINE
  5
F3
330
BE
100
AcDbEntity
  8
1
  6
Continuous
 62
     7
100
AcDbLine
 10
2208.233449336451
 20
1185.571706793807
 30
0.0
 11
2208.233449336451
 21
1178.571706793807
 31
0.0
  0
LINE
  5
F4
330
BE
100
AcDbEntity
  8
1
  6
Continuous
 62
     7
100
AcDbLine
 10
2152.233449336451
 20
1185.571706793807
 30
0.0
 11
2208.233449336451
 21
1185.571706793807
 31
0.0
  0
LINE
  5
F5
330
BE
100
AcDbEntity
  8
1
  6
Continuous
 62
     7
100
AcDbLine
 10
2024.23344933645
 20
1178.571706793807
 30
0.0
 11
2037.23344933645
 21
1178.571706793807
 31
0.0
  0
LINE
  5
F6
330
BE
100
AcDbEntity
  8
1
  6
Continuous
 62
     7
100
AcDbLine
 10
2208.233449336451
 20
1192.571706793807
 30
0.0
 11
2208.233449336451
 21
1185.571706793807
 31
0.0
  0
LINE
  5
F7
330
BE
100
AcDbEntity
  8
1
  6
Continuous
 62
     7
100
AcDbLine
 10
2151.733449336451
 20
1185.571706793807
 30
0.0
 11
2152.233449336451
 21
1185.571706793807
 31
0.0
  0
LINE
  5
F8
330
BE
100
AcDbEntity
  8
1
  6
Continuous
 62
     7
100
AcDbLine
 10
2081.233449336449
 20
1185.571706793807
 30
0.0
 11
2081.233449336449
 21
1192.571706793807
 31
0.0
  0
LINE
  5
F9
330
BE
100
AcDbEntity
  8
1
  6
DASH_CENTER
 62
     2
100
AcDbLine
 10
2027.932024950239
 20
1184.733676681167
 30
0.0
 11
2027.932024950239
 21
1178.928918949283
 31
0.0
  0
LINE
  5
FA
330
BE
100
AcDbEntity
  8
1
  6
DASH_CENTER
 62
     2
100
AcDbLine
 10
2025.03344933645
 20
1181.906970130597
 30
0.0
 11
2036.43344933645
 21
1181.906970130597
 31
0.0
  0
LINE
  5
FB
330
BE
100
AcDbEntity
  8
1
  6
Continuous
 62
     7
100
AcDbLine
 10
2035.83344933645
 20
1179.596242045083
 30
0.0
 11
2032.01032729763
 21
1180.746897711527
 31
0.0
  0
LINE
  5
FC
330
BE
100
AcDbEntity
  8
1
  6
Continuous
 62
     7
100
AcDbLine
 10
2035.83344933645
 20
1184.217698216111
 30
0.0
 11
2035.83344933645
 21
1179.596242045083
 31
0.0
  0
LINE
  5
FD
330
BE
100
AcDbEntity
  8
1
  6
Continuous
 62
     7
100
AcDbLine
 10
2031.827662361415
 20
1183.030947746481
 30
0.0
 11
2035.83344933645
 21
1184.217698216111
 31
0.0
  0
LINE
  5
FE
330
BE
100
AcDbEntity
  8
1
  6
Continuous
 62
     7
100
AcDbLine
 10
2031.827662361415
 20
1180.782992514713
 30
0.0
 11
2031.827662361415
 21
1183.030947746481
 31
0.0
  0
LINE
  5
FF
330
BE
100
AcDbEntity
  8
1
  6
Continuous
 62
     7
100
AcDbLine
 10
2040.23344933645
 20
1178.571706793807
 30
0.0
 11
2040.23344933645
 21
1185.571706793807
 31
0.0
  0
LINE
  5
100
330
BE
100
AcDbEntity
  8
1
  6
Continuous
 62
     7
100
AcDbLine
 10
2037.23344933645
 20
1178.571706793807
 30
0.0
 11
2040.23344933645
 21
1178.571706793807
 31
0.0
  0
LINE
  5
101
330
BE
100
AcDbEntity
  8
1
  6
Continuous
 62
     7
100
AcDbLine
 10
2037.23344933645
 20
1185.571706793807
 30
0.0
 11
2037.23344933645
 21
1178.571706793807
 31
0.0
  0
LINE
  5
102
330
BE
100
AcDbEntity
  8
1
  6
Continuous
 62
     7
100
AcDbLine
 10
2113.733449336451
 20
1178.571706793807
 30
0.0
 11
2116.733449336451
 21
1178.571706793807
 31
0.0
  0
LINE
  5
103
330
BE
100
AcDbEntity
  8
1
  6
Continuous
 62
     7
100
AcDbLine
 10
2113.733449336451
 20
1185.571706793807
 30
0.0
 11
2113.733449336451
 21
1178.571706793807
 31
0.0
  0
LINE
  5
104
330
BE
100
AcDbEntity
  8
1
  6
Continuous
 62
     7
100
AcDbLine
 10
2113.733449336451
 20
1178.571706793807
 30
0.0
 11
2113.733449336451
 21
1171.571706793807
 31
0.0
  0
LINE
  5
105
330
BE
100
AcDbEntity
  8
1
  6
Continuous
 62
     7
100
AcDbLine
 10
2116.733449336451
 20
1185.571706793807
 30
0.0
 11
2116.733449336451
 21
1178.571706793807
 31
0.0
  0
LINE
  5
106
330
BE
100
AcDbEntity
  8
1
  6
Continuous
 62
     4
100
AcDbLine
 10
2130.233449336451
 20
1185.571706793807
 30
0.0
 11
2130.233449336451
 21
1157.571706793807
 31
0.0
  0
LINE
  5
107
330
BE
100
AcDbEntity
  8
1
  6
Continuous
 62
     7
100
AcDbLine
 10
2113.733449336451
 20
1164.571706793807
 30
0.0
 11
2113.733449336451
 21
1157.571706793807
 31
0.0
  0
LINE
  5
108
330
BE
100
AcDbEntity
  8
1
  6
Continuous
 62
     7
100
AcDbLine
 10
2113.733449336451
 20
1157.571706793807
 30
0.0
 11
2116.733449336451
 21
1157.571706793807
 31
0.0
  0
LINE
  5
109
330
BE
100
AcDbEntity
  8
1
  6
Continuous
 62
     7
100
AcDbLine
 10
2113.733449336451
 20
1171.571706793807
 30
0.0
 11
2113.733449336451
 21
1164.571706793807
 31
0.0
  0
LINE
  5
10A
330
BE
100
AcDbEntity
  8
1
  6
Continuous
 62
     7
100
AcDbLine
 10
2155.233449336451
 20
1185.571706793807
 30
0.0
 11
2155.233449336451
 21
1178.571706793807
 31
0.0
  0
LINE
  5
10B
330
BE
100
AcDbEntity
  8
1
  6
Continuous
 62
     7
100
AcDbLine
 10
2059.23344933645
 20
1185.571706793807
 30
0.0
 11
2059.23344933645
 21
1178.571706793807
 31
0.0
  0
LINE
  5
10C
330
BE
100
AcDbEntity
  8
1
  6
Continuous
 62
     7
100
AcDbLine
 10
2062.23344933645
 20
1185.571706793807
 30
0.0
 11
2062.23344933645
 21
1178.571706793807
 31
0.0
  0
LINE
  5
10D
330
BE
100
AcDbEntity
  8
1
  6
Continuous
 62
     7
100
AcDbLine
 10
2151.733449336451
 20
1185.571706793807
 30
0.0
 11
2152.233449336451
 21
1185.571706793807
 31
0.0
  0
LINE
  5
10E
330
BE
100
AcDbEntity
  8
1
  6
Continuous
 62
     7
100
AcDbLine
 10
2152.233449336451
 20
1185.571706793807
 30
0.0
 11
2152.233449336451
 21
1178.571706793807
 31
0.0
  0
LINE
  5
10F
330
BE
100
AcDbEntity
  8
1
  6
Continuous
 62
     7
100
AcDbLine
 10
2152.233449336451
 20
1164.571706793807
 30
0.0
 11
2152.233449336451
 21
1171.571706793807
 31
0.0
  0
LINE
  5
110
330
BE
100
AcDbEntity
  8
1
  6
Continuous
 62
     7
100
AcDbLine
 10
2197.733449336451
 20
1157.571706793807
 30
0.0
 11
2208.233449336451
 21
1157.571706793807
 31
0.0
  0
LINE
  5
111
330
BE
100
AcDbEntity
  8
1
  6
Continuous
 62
     7
100
AcDbLine
 10
2197.733449336451
 20
1164.571706793807
 30
0.0
 11
2208.233449336451
 21
1164.571706793807
 31
0.0
  0
LINE
  5
112
330
BE
100
AcDbEntity
  8
1
  6
Continuous
 62
     4
100
AcDbLine
 10
2197.733449336451
 20
1157.571706793807
 30
0.0
 11
2197.733449336451
 21
1164.571706793807
 31
0.0
  0
LINE
  5
113
330
BE
100
AcDbEntity
  8
1
  6
Continuous
 62
     7
100
AcDbLine
 10
2152.233449336451
 20
1171.571706793807
 30
0.0
 11
2152.233449336451
 21
1178.571706793807
 31
0.0
  0
LINE
  5
114
330
BE
100
AcDbEntity
  8
1
  6
Continuous
 62
     7
100
AcDbLine
 10
2155.233449336451
 20
1171.571706793807
 30
0.0
 11
2155.233449336451
 21
1178.571706793807
 31
0.0
  0
LINE
  5
115
330
BE
100
AcDbEntity
  8
1
  6
Continuous
 62
     7
100
AcDbLine
 10
2155.233449336451
 20
1164.571706793807
 30
0.0
 11
2155.233449336451
 21
1171.571706793807
 31
0.0
  0
LINE
  5
116
330
BE
100
AcDbEntity
  8
1
  6
Continuous
 62
     7
100
AcDbLine
 10
2152.233449336451
 20
1157.571706793807
 30
0.0
 11
2152.233449336451
 21
1164.571706793807
 31
0.0
  0
LINE
  5
117
330
BE
100
AcDbEntity
  8
1
  6
Continuous
 62
     7
100
AcDbLine
 10
2155.233449336451
 20
1157.571706793807
 30
0.0
 11
2155.233449336451
 21
1164.571706793807
 31
0.0
  0
LINE
  5
118
330
BE
100
AcDbEntity
  8
1
  6
Continuous
 62
     7
100
AcDbLine
 10
2024.23344933645
 20
1192.571706793807
 30
0.0
 11
2024.23344933645
 21
1185.571706793807
 31
0.0
  0
LINE
  5
119
330
BE
100
AcDbEntity
  8
1
  6
Continuous
 62
     7
100
AcDbLine
 10
2166.233449336451
 20
1192.571706793807
 30
0.0
 11
2166.233449336451
 21
1185.571706793807
 31
0.0
  0
LINE
  5
11A
330
BE
100
AcDbEntity
  8
1
  6
Continuous
 62
     7
100
AcDbLine
 10
2166.233449336451
 20
1192.571706793807
 30
0.0
 11
2116.233449336451
 21
1192.571706793807
 31
0.0
  0
LINE
  5
11B
330
BE
100
AcDbEntity
  8
1
  6
Continuous
 62
     7
100
AcDbLine
 10
2116.233449336451
 20
1192.571706793807
 30
0.0
 11
2116.233449336451
 21
1185.571706793807
 31
0.0
  0
LINE
  5
11C
330
BE
100
AcDbEntity
  8
1
  6
Continuous
 62
     7
100
AcDbLine
 10
2116.233449336451
 20
1192.571706793807
 30
0.0
 11
2109.233449336451
 21
1192.571706793807
 31
0.0
  0
LINE
  5
11D
330
BE
100
AcDbEntity
  8
1
  6
Continuous
 62
     7
100
AcDbLine
 10
2109.233449336451
 20
1192.571706793807
 30
0.0
 11
2109.233449336451
 21
1185.571706793807
 31
0.0
  0
LINE
  5
11E
330
BE
100
AcDbEntity
  8
1
  6
Continuous
 62
     7
100
AcDbLine
 10
2109.233449336451
 20
1192.571706793807
 30
0.0
 11
2081.233449336449
 21
1192.571706793807
 31
0.0
  0
LINE
  5
11F
330
BE
100
AcDbEntity
  8
1
  6
Continuous
 62
     7
100
AcDbLine
 10
2081.233449336449
 20
1192.571706793807
 30
0.0
 11
2031.23344933645
 21
1192.571706793807
 31
0.0
  0
LINE
  5
120
330
BE
100
AcDbEntity
  8
1
  6
Continuous
 62
     7
100
AcDbLine
 10
2031.23344933645
 20
1192.571706793807
 30
0.0
 11
2031.23344933645
 21
1185.571706793807
 31
0.0
  0
LINE
  5
121
330
BE
100
AcDbEntity
  8
1
  6
Continuous
 62
     7
100
AcDbLine
 10
2031.23344933645
 20
1192.571706793807
 30
0.0
 11
2024.23344933645
 21
1192.571706793807
 31
0.0
  0
LINE
  5
122
330
BE
100
AcDbEntity
  8
1
  6
Continuous
 62
     7
100
AcDbLine
 10
2208.233449336451
 20
1164.571706793807
 30
0.0
 11
2208.233449336451
 21
1157.571706793807
 31
0.0
  0
LINE
  5
123
330
BE
100
AcDbEntity
  8
1
  6
Continuous
 62
     7
100
AcDbLine
 10
2166.233449336451
 20
1192.571706793807
 30
0.0
 11
2208.233449336451
 21
1192.571706793807
 31
0.0
  0
LINE
  5
124
330
BE
100
AcDbEntity
  8
1
  6
Continuous
 62
     7
100
AcDbLine
 10
2032.311532509747
 20
1166.103099408752
 30
0.0
 11
2029.992691930037
 21
1166.103099408752
 31
0.0
  0
LINE
  5
125
330
BE
100
AcDbEntity
  8
1
  6
Continuous
 62
     7
100
AcDbLine
 10
2029.992691930037
 20
1166.103099408752
 30
0.0
 11
2029.992691930037
 21
1166.68280955368
 31
0.0
  0
LINE
  5
126
330
BE
100
AcDbEntity
  8
1
  6
Continuous
 62
     7
100
AcDbLine
 10
2030.137619466269
 20
1166.827737089911
 30
0.0
 11
2030.492734239789
 21
1166.827737089911
 31
0.0
  0
LINE
  5
127
330
BE
100
AcDbEntity
  8
1
  6
Continuous
 62
     7
100
AcDbLine
 10
2030.839221470211
 20
1167.084124153418
 30
0.0
 11
2033.596598921083
 21
1176.103099408752
 31
0.0
  0
LINE
  5
128
330
BE
100
AcDbEntity
  8
1
  6
Continuous
 62
     7
100
AcDbLine
 10
2033.596598921083
 20
1176.103099408752
 30
0.0
 11
2035.957691489659
 21
1176.103099408752
 31
0.0
  0
LINE
  5
129
330
BE
100
AcDbEntity
  8
1
  6
Continuous
 62
     7
100
AcDbLine
 10
2035.957691489659
 20
1176.103099408752
 30
0.0
 11
2038.715068940531
 21
1167.084124153418
 31
0.0
  0
LINE
  5
12A
330
BE
100
AcDbEntity
  8
1
  6
Continuous
 62
     7
100
AcDbLine
 10
2039.061556170953
 20
1166.827737089911
 30
0.0
 11
2039.557909321342
 21
1166.827737089911
 31
0.0
  0
LINE
  5
12B
330
BE
100
AcDbEntity
  8
1
  6
Continuous
 62
     7
100
AcDbLine
 10
2039.702836857574
 20
1166.68280955368
 30
0.0
 11
2039.702836857574
 21
1166.103099408752
 31
0.0
  0
LINE
  5
12C
330
BE
100
AcDbEntity
  8
1
  6
Continuous
 62
     7
100
AcDbLine
 10
2039.702836857574
 20
1166.103099408752
 30
0.0
 11
2035.355010770617
 21
1166.103099408752
 31
0.0
  0
LINE
  5
12D
330
BE
100
AcDbEntity
  8
1
  6
Continuous
 62
     7
100
AcDbLine
 10
2035.355010770617
 20
1166.103099408752
 30
0.0
 11
2035.355010770617
 21
1166.68280955368
 31
0.0
  0
LINE
  5
12E
330
BE
100
AcDbEntity
  8
1
  6
Continuous
 62
     7
100
AcDbLine
 10
2035.499938306849
 20
1166.827737089911
 30
0.0
 11
2035.901170439721
 21
1166.827737089911
 31
0.0
  0
LINE
  5
12F
330
BE
100
AcDbEntity
  8
1
  6
Continuous
 62
     7
100
AcDbLine
 10
2036.178360224058
 20
1167.202337584034
 30
0.0
 11
2035.469419513429
 21
1169.521178163744
 31
0.0
  0
LINE
  5
130
330
BE
100
AcDbEntity
  8
1
  6
Continuous
 62
     7
100
AcDbLine
 10
2035.192229729092
 20
1169.726287814549
 30
0.0
 11
2032.565620719749
 21
1169.726287814549
 31
0.0
  0
LINE
  5
131
330
BE
100
AcDbEntity
  8
1
  6
Continuous
 62
     7
100
AcDbLine
 10
2032.357728381496
 20
1169.572455576445
 30
0.0
 11
2031.604478876453
 21
1167.108687460503
 31
0.0
  0
LINE
  5
132
330
BE
100
AcDbEntity
  8
1
  6
Continuous
 62
     7
100
AcDbLine
 10
2031.812371214706
 20
1166.827737089911
 30
0.0
 11
2032.166604973516
 21
1166.827737089911
 31
0.0
  0
LINE
  5
133
330
BE
100
AcDbEntity
  8
1
  6
Continuous
 62
     7
100
AcDbLine
 10
2032.311532509747
 20
1166.68280955368
 30
0.0
 11
2032.311532509747
 21
1166.103099408752
 31
0.0
  0
LINE
  5
134
330
BE
100
AcDbEntity
  8
1
  6
Continuous
 62
     7
100
AcDbLine
 10
2033.697843070046
 20
1173.955773214556
 30
0.0
 11
2032.712198736811
 21
1170.7318758663
 31
0.0
  0
LINE
  5
135
330
BE
100
AcDbEntity
  8
1
  6
Continuous
 62
     7
100
AcDbLine
 10
2032.920091075063
 20
1170.450925495708
 30
0.0
 11
2034.891379741534
 21
1170.450925495708
 31
0.0
  0
LINE
  5
136
330
BE
100
AcDbEntity
  8
1
  6
Continuous
 62
     7
100
AcDbLine
 10
2035.099272079786
 20
1170.7318758663
 30
0.0
 11
2034.113627746551
 21
1173.955773214556
 31
0.0
  0
LINE
  5
137
330
BE
100
AcDbEntity
  8
1
  6
Continuous
 62
     7
100
AcDbLine
 10
2043.108633959023
 20
1176.103099408752
 30
0.0
 11
2047.0941412054
 21
1176.103099408752
 31
0.0
  0
LINE
  5
138
330
BE
100
AcDbEntity
  8
1
  6
Continuous
 62
     7
100
AcDbLine
 10
2047.0941412054
 20
1176.103099408752
 30
0.0
 11
2047.166415623715
 21
1173.868434733925
 31
0.0
  0
LINE
  5
139
330
BE
100
AcDbEntity
  8
1
  6
Continuous
 62
     7
100
AcDbLine
 10
2046.458684991504
 20
1173.747934761074
 30
0.0
 11
2046.168887192393
 21
1174.668574915003
 31
0.0
  0
LINE
  5
13A
330
BE
100
AcDbEntity
  8
1
  6
Continuous
 62
     7
100
AcDbLine
 10
2045.201203996382
 20
1175.378461727593
 30
0.0
 11
2044.992691930038
 21
1175.378461727593
 31
0.0
  0
LINE
  5
13B
330
BE
100
AcDbEntity
  8
1
  6
Continuous
 62
     7
100
AcDbLine
 10
2044.485445553226
 20
1174.871215350781
 30
0.0
 11
2044.485445553226
 21
1167.190055930491
 31
0.0
  0
LINE
  5
13C
330
BE
100
AcDbEntity
  8
1
  6
Continuous
 62
     7
100
AcDbLine
 10
2044.847764393806
 20
1166.827737089911
 30
0.0
 11
2045.13761946627
 21
1166.827737089911
 31
0.0
  0
LINE
  5
13D
330
BE
100
AcDbEntity
  8
1
  6
Continuous
 62
     7
100
AcDbLine
 10
2045.282547002501
 20
1166.68280955368
 30
0.0
 11
2045.282547002501
 21
1166.103099408752
 31
0.0
  0
LINE
  5
13E
330
BE
100
AcDbEntity
  8
1
  6
Continuous
 62
     7
100
AcDbLine
 10
2045.282547002501
 20
1166.103099408752
 30
0.0
 11
2043.108633959023
 21
1166.103099408752
 31
0.0
  0
LINE
  5
13F
330
BE
100
AcDbEntity
  8
1
  6
Continuous
 62
     7
100
AcDbLine
 10
2039.123126712646
 20
1176.103099408752
 30
0.0
 11
2043.108633959023
 21
1176.103099408752
 31
0.0
  0
LINE
  5
140
330
BE
100
AcDbEntity
  8
1
  6
Continuous
 62
     7
100
AcDbLine
 10
2039.050852294331
 20
1173.868434733925
 30
0.0
 11
2039.123126712646
 21
1176.103099408752
 31
0.0
  0
LINE
  5
141
330
BE
100
AcDbEntity
  8
1
  6
Continuous
 62
     7
100
AcDbLine
 10
2040.048380725653
 20
1174.668574915003
 30
0.0
 11
2039.758582926542
 21
1173.747934761074
 31
0.0
  0
LINE
  5
142
330
BE
100
AcDbEntity
  8
1
  6
Continuous
 62
     7
100
AcDbLine
 10
2041.224575988008
 20
1175.378461727593
 30
0.0
 11
2041.016063921664
 21
1175.378461727593
 31
0.0
  0
LINE
  5
143
330
BE
100
AcDbEntity
  8
1
  6
Continuous
 62
     7
100
AcDbLine
 10
2041.73182236482
 20
1167.190055930491
 30
0.0
 11
2041.73182236482
 21
1174.871215350781
 31
0.0
  0
LINE
  5
144
330
BE
100
AcDbEntity
  8
1
  6
Continuous
 62
     7
100
AcDbLine
 10
2041.079648451777
 20
1166.827737089911
 30
0.0
 11
2041.36950352424
 21
1166.827737089911
 31
0.0
  0
LINE
  5
145
330
BE
100
AcDbEntity
  8
1
  6
Continuous
 62
     7
100
AcDbLine
 10
2040.934720915545
 20
1166.103099408752
 30
0.0
 11
2040.934720915545
 21
1166.68280955368
 31
0.0
  0
LINE
  5
146
330
BE
100
AcDbEntity
  8
1
  6
Continuous
 62
     7
100
AcDbLine
 10
2043.108633959023
 20
1166.103099408752
 30
0.0
 11
2040.934720915545
 21
1166.103099408752
 31
0.0
  0
LINE
  5
147
330
BE
100
AcDbEntity
  8
1
  6
Continuous
 62
     7
100
AcDbLine
 10
2056.046875061541
 20
1172.69152768533
 30
0.0
 11
2051.230350609981
 21
1167.87500323377
 31
0.0
  0
LINE
  5
148
330
BE
100
AcDbEntity
  8
1
  6
Continuous
 62
     7
100
AcDbLine
 10
2049.590682711578
 20
1169.514671132173
 30
0.0
 11
2054.407207163138
 21
1174.331195583734
 31
0.0
  0
LINE
  5
149
330
BE
100
AcDbEntity
  8
1
  6
Continuous
 62
     7
100
AcDbLine
 10
2063.036170190907
 20
1176.103099408752
 30
0.0
 11
2064.202997909831
 21
1171.748439078053
 31
0.0
  0
LINE
  5
14A
330
BE
100
AcDbEntity
  8
1
  6
Continuous
 62
     7
100
AcDbLine
 10
2064.62296566039
 20
1171.748439078053
 30
0.0
 11
2065.789793379313
 21
1176.103099408752
 31
0.0
  0
LINE
  5
14B
330
BE
100
AcDbEntity
  8
1
  6
Continuous
 62
     7
100
AcDbLine
 10
2060.499938306849
 20
1166.827737089911
 30
0.0
 11
2060.717329611197
 21
1166.827737089911
 31
0.0
  0
LINE
  5
14C
330
BE
100
AcDbEntity
  8
1
  6
Continuous
 62
     7
100
AcDbLine
 10
2060.862257147429
 20
1166.68280955368
 30
0.0
 11
2060.862257147429
 21
1166.103099408752
 31
0.0
  0
LINE
  5
14D
330
BE
100
AcDbEntity
  8
1
  6
Continuous
 62
     7
100
AcDbLine
 10
2060.862257147429
 20
1166.103099408752
 30
0.0
 11
2058.833271640182
 21
1166.103099408752
 31
0.0
  0
LINE
  5
14E
330
BE
100
AcDbEntity
  8
1
  6
Continuous
 62
     7
100
AcDbLine
 10
2058.833271640182
 20
1166.103099408752
 30
0.0
 11
2058.833271640184
 21
1166.682809553679
 31
0.0
  0
LINE
  5
14F
330
BE
100
AcDbEntity
  8
1
  6
Continuous
 62
     7
100
AcDbLine
 10
2058.978199176415
 20
1166.827737089911
 30
0.0
 11
2059.340518016994
 21
1166.827737089911
 31
0.0
  0
LINE
  5
150
330
BE
100
AcDbEntity
  8
1
  6
Continuous
 62
     7
100
AcDbLine
 10
2059.557909321342
 20
1167.045128394259
 30
0.0
 11
2059.557909321342
 21
1175.161070423245
 31
0.0
  0
LINE
  5
151
330
BE
100
AcDbEntity
  8
1
  6
Continuous
 62
     7
100
AcDbLine
 10
2059.340518016994
 20
1175.378461727593
 30
0.0
 11
2058.978199176415
 21
1175.378461727593
 31
0.0
  0
LINE
  5
152
330
BE
100
AcDbEntity
  8
1
  6
Continuous
 62
     7
100
AcDbLine
 10
2058.833271640182
 20
1175.523389263825
 30
0.0
 11
2058.833271640182
 21
1176.103099408752
 31
0.0
  0
LINE
  5
153
330
BE
100
AcDbEntity
  8
1
  6
Continuous
 62
     7
100
AcDbLine
 10
2058.833271640182
 20
1176.103099408752
 30
0.0
 11
2063.036170190907
 21
1176.103099408752
 31
0.0
  0
LINE
  5
154
330
BE
100
AcDbEntity
  8
1
  6
Continuous
 62
     7
100
AcDbLine
 10
2065.789793379313
 20
1176.103099408752
 30
0.0
 11
2069.992691930039
 21
1176.103099408752
 31
0.0
  0
LINE
  5
155
330
BE
100
AcDbEntity
  8
1
  6
Continuous
 62
     7
100
AcDbLine
 10
2069.992691930039
 20
1176.103099408752
 30
0.0
 11
2069.992691930039
 21
1175.523389263825
 31
0.0
  0
LINE
  5
156
330
BE
100
AcDbEntity
  8
1
  6
Continuous
 62
     7
100
AcDbLine
 10
2069.847764393806
 20
1175.378461727593
 30
0.0
 11
2069.557909321342
 21
1175.378461727593
 31
0.0
  0
LINE
  5
157
330
BE
100
AcDbEntity
  8
1
  6
Continuous
 62
     7
100
AcDbLine
 10
2069.195590480763
 20
1175.016142887013
 30
0.0
 11
2069.195590480763
 21
1167.190055930491
 31
0.0
  0
LINE
  5
158
330
BE
100
AcDbEntity
  8
1
  6
Continuous
 62
     7
100
AcDbLine
 10
2069.557909321342
 20
1166.827737089911
 30
0.0
 11
2069.847764393806
 21
1166.827737089911
 31
0.0
  0
LINE
  5
159
330
BE
100
AcDbEntity
  8
1
  6
Continuous
 62
     7
100
AcDbLine
 10
2069.992691930039
 20
1166.68280955368
 30
0.0
 11
2069.992691930039
 21
1166.103099408752
 31
0.0
  0
LINE
  5
15A
330
BE
100
AcDbEntity
  8
1
  6
Continuous
 62
     7
100
AcDbLine
 10
2069.992691930039
 20
1166.103099408752
 30
0.0
 11
2065.934720915545
 21
1166.103099408752
 31
0.0
  0
LINE
  5
15B
330
BE
100
AcDbEntity
  8
1
  6
Continuous
 62
     7
100
AcDbLine
 10
2065.934720915545
 20
1166.103099408752
 30
0.0
 11
2065.934720915545
 21
1166.68280955368
 31
0.0
  0
LINE
  5
15C
330
BE
100
AcDbEntity
  8
1
  6
Continuous
 62
     7
100
AcDbLine
 10
2066.079648451777
 20
1166.827737089911
 30
0.0
 11
2066.369503524241
 21
1166.827737089911
 31
0.0
  0
LINE
  5
15D
330
BE
100
AcDbEntity
  8
1
  6
Continuous
 62
     7
100
AcDbLine
 10
2063.860501585734
 20
1166.103099408752
 30
0.0
 11
2063.16498167073
 21
1166.103099408752
 31
0.0
  0
LINE
  5
15E
330
BE
100
AcDbEntity
  8
1
  6
Continuous
 62
     7
100
AcDbLine
 10
2060.282547002502
 20
1167.045128394259
 30
0.0
 11
2060.282547002502
 21
1175.209241146008
 31
0.0
  0
LINE
  5
15F
330
BE
100
AcDbEntity
  8
1
  6
Continuous
 62
     7
100
AcDbLine
 10
2060.709922182129
 20
1175.265506155812
 30
0.0
 11
2063.16498167073
 21
1166.103099408752
 31
0.0
  0
LINE
  5
160
330
BE
100
AcDbEntity
  8
1
  6
Continuous
 62
     7
100
AcDbLine
 10
2063.860501585734
 20
1166.103099408752
 30
0.0
 11
2066.304447185192
 21
1175.224028556865
 31
0.0
  0
LINE
  5
161
330
BE
100
AcDbEntity
  8
1
  6
Continuous
 62
     7
100
AcDbLine
 10
2066.73182236482
 20
1175.16776354706
 30
0.0
 11
2066.731822364821
 21
1167.190055930491
 31
0.0
  0
ARC
  5
162
330
BE
100
AcDbEntity
  8
1
  6
Continuous
 62
     7
100
AcDbCircle
 10
2046.804286132936
 20
1173.856722597158
 30
0.0
 40
0.3623188405797011
100
AcDbArc
 50
-162.527114729596
 51
1.852437285246869
  0
ARC
  5
163
330
BE
100
AcDbEntity
  8
1
  6
Continuous
 62
     7
100
AcDbCircle
 10
2039.41298178511
 20
1173.856722597158
 30
0.0
 40
0.3623188405804946
100
AcDbArc
 50
178.1475627147543
 51
-17.47288527041484
  0
ARC
  5
164
330
BE
100
AcDbEntity
  8
1
  6
Continuous
 62
     7
100
AcDbCircle
 10
2055.22704111234
 20
1173.511361634532
 30
0.0
 40
1.159420289854729
100
AcDbArc
 50
-45.00000000003973
 51
135.0
  0
ARC
  5
165
330
BE
100
AcDbEntity
  8
1
  6
Continuous
 62
     7
100
AcDbCircle
 10
2050.410516660779
 20
1168.694837182971
 30
0.0
 40
1.159420289855533
100
AcDbArc
 50
135.0000000000159
 51
-44.99999999996822
  0
CIRCLE
  5
166
330
BE
100
AcDbEntity
  8
1
  6
Continuous
 62
     7
100
AcDbCircle
 10
2027.932024950239
 20
1181.906970130597
 30
0.0
 40
2.310728085514028
  0
CIRCLE
  5
167
330
BE
100
AcDbEntity
  8
1
  6
Continuous
 62
     7
100
AcDbCircle
 10
2027.932024950239
 20
1181.906970130597
 30
0.0
 40
1.123977615883859
  0
CIRCLE
  5
168
330
BE
100
AcDbEntity
  8
1
  6
Continuous
 62
     7
100
AcDbCircle
 10
2052.81877888656
 20
1171.203099408752
 30
0.0
 40
5.28985507246307
  0
ARC
  5
169
330
BE
100
AcDbEntity
  8
1
  6
Continuous
 62
     7
100
AcDbCircle
 10
2033.905735408298
 20
1173.892214148312
 30
0.0
 40
0.2173913043480306
100
AcDbArc
 50
16.99999999999767
 51
162.9999999999147
  0
ARC
  5
16A
330
BE
100
AcDbEntity
  8
1
  6
Continuous
 62
     7
100
AcDbCircle
 10
2032.920091075063
 20
1170.668316800056
 30
0.0
 40
0.2173913043471609
100
AcDbArc
 50
162.9999999999322
 51
-90.0
  0
ARC
  5
16B
330
BE
100
AcDbEntity
  8
1
  6
Continuous
 62
     7
100
AcDbCircle
 10
2034.891379741534
 20
1170.668316800056
 30
0.0
 40
0.2173913043479843
100
AcDbArc
 50
-90.0
 51
17.00000000006775
  0
ARC
  5
16C
330
BE
100
AcDbEntity
  8
1
  6
Continuous
 62
     7
100
AcDbCircle
 10
2032.565620719749
 20
1169.508896510201
 30
0.0
 40
0.2173913043479843
100
AcDbArc
 50
90.0
 51
163.0000000000597
  0
ARC
  5
16D
330
BE
100
AcDbEntity
  8
1
  6
Continuous
 62
     7
100
AcDbCircle
 10
2031.812371214706
 20
1167.045128394259
 30
0.0
 40
0.2173913043479642
100
AcDbArc
 50
163.0000000000597
 51
-90.0
  0
ARC
  5
16E
330
BE
100
AcDbEntity
  8
1
  6
Continuous
 62
     7
100
AcDbCircle
 10
2035.192229729092
 20
1169.436432742085
 30
0.0
 40
0.2898550724637671
100
AcDbArc
 50
17.00000000007688
 51
90.0
  0
ARC
  5
16F
330
BE
100
AcDbEntity
  8
1
  6
Continuous
 62
     7
100
AcDbCircle
 10
2035.901170439721
 20
1167.117592162375
 30
0.0
 40
0.2898550724642064
100
AcDbArc
 50
-90.0
 51
17.0000000000339
  0
ARC
  5
170
330
BE
100
AcDbEntity
  8
1
  6
Continuous
 62
     7
100
AcDbCircle
 10
2030.492734239789
 20
1167.190055930491
 30
0.0
 40
0.3623188405802011
100
AcDbArc
 50
-90.0
 51
-16.99999999989992
  0
ARC
  5
171
330
BE
100
AcDbEntity
  8
1
  6
Continuous
 62
     7
100
AcDbCircle
 10
2039.061556170953
 20
1167.190055930491
 30
0.0
 40
0.3623188405802583
100
AcDbArc
 50
-163.0000000001001
 51
-90.0
  0
ARC
  5
172
330
BE
100
AcDbEntity
  8
1
  6
Continuous
 62
     7
100
AcDbCircle
 10
2030.137619466269
 20
1166.68280955368
 30
0.0
 40
0.1449275362308526
100
AcDbArc
 50
90.0
 51
180.0
  0
ARC
  5
173
330
BE
100
AcDbEntity
  8
1
  6
Continuous
 62
     7
100
AcDbCircle
 10
2032.166604973516
 20
1166.68280955368
 30
0.0
 40
0.1449275362308526
100
AcDbArc
 50
0.0
 51
90.0
  0
ARC
  5
174
330
BE
100
AcDbEntity
  8
1
  6
Continuous
 62
     7
100
AcDbCircle
 10
2035.499938306849
 20
1166.68280955368
 30
0.0
 40
0.1449275362308526
100
AcDbArc
 50
90.0
 51
180.0
  0
ARC
  5
175
330
BE
100
AcDbEntity
  8
1
  6
Continuous
 62
     7
100
AcDbCircle
 10
2039.557909321342
 20
1166.68280955368
 30
0.0
 40
0.1449275362319895
100
AcDbArc
 50
0.0
 51
90.0
  0
ARC
  5
176
330
BE
100
AcDbEntity
  8
1
  6
Continuous
 62
     7
100
AcDbCircle
 10
2041.224575988008
 20
1174.871215350781
 30
0.0
 40
0.5072463768119633
100
AcDbArc
 50
0.0
 51
90.0
  0
ARC
  5
177
330
BE
100
AcDbEntity
  8
1
  6
Continuous
 62
     7
100
AcDbCircle
 10
2044.992691930038
 20
1174.871215350781
 30
0.0
 40
0.5072463768119633
100
AcDbArc
 50
90.0
 51
180.0
  0
ARC
  5
178
330
BE
100
AcDbEntity
  8
1
  6
Continuous
 62
     7
100
AcDbCircle
 10
2045.201203996382
 20
1174.363968973969
 30
0.0
 40
1.014492753623862
100
AcDbArc
 50
17.47288527032429
 51
90.0
  0
ARC
  5
179
330
BE
100
AcDbEntity
  8
1
  6
Continuous
 62
     7
100
AcDbCircle
 10
2041.016063921664
 20
1174.363968973969
 30
0.0
 40
1.014492753624153
100
AcDbArc
 50
90.0
 51
162.5271147296757
  0
ARC
  5
17A
330
BE
100
AcDbEntity
  8
1
  6
Continuous
 62
     7
100
AcDbCircle
 10
2041.36950352424
 20
1167.190055930491
 30
0.0
 40
0.3623188405802011
100
AcDbArc
 50
-90.0
 51
0.0
  0
ARC
  5
17B
330
BE
100
AcDbEntity
  8
1
  6
Continuous
 62
     7
100
AcDbCircle
 10
2044.847764393806
 20
1167.190055930491
 30
0.0
 40
0.3623188405799738
100
AcDbArc
 50
180.0
 51
-90.0
  0
ARC
  5
17C
330
BE
100
AcDbEntity
  8
1
  6
Continuous
 62
     7
100
AcDbCircle
 10
2045.13761946627
 20
1166.68280955368
 30
0.0
 40
0.1449275362308526
100
AcDbArc
 50
0.0
 51
90.0
  0
ARC
  5
17D
330
BE
100
AcDbEntity
  8
1
  6
Continuous
 62
     7
100
AcDbCircle
 10
2041.079648451777
 20
1166.68280955368
 30
0.0
 40
0.1449275362308526
100
AcDbArc
 50
90.0
 51
180.0
  0
ARC
  5
17E
330
BE
100
AcDbEntity
  8
1
  6
Continuous
 62
     7
100
AcDbCircle
 10
2058.978199176415
 20
1175.523389263825
 30
0.0
 40
0.144927536232899
100
AcDbArc
 50
180.0
 51
-90.0
  0
ARC
  5
17F
330
BE
100
AcDbEntity
  8
1
  6
Continuous
 62
     7
100
AcDbCircle
 10
2069.847764393806
 20
1175.523389263825
 30
0.0
 40
0.1449275362319895
100
AcDbArc
 50
-90.0
 51
0.0
  0
ARC
  5
180
330
BE
100
AcDbEntity
  8
1
  6
Continuous
 62
     7
100
AcDbCircle
 10
2069.847764393806
 20
1166.68280955368
 30
0.0
 40
0.1449275362319895
100
AcDbArc
 50
0.0
 51
90.0
  0
ARC
  5
181
330
BE
100
AcDbEntity
  8
1
  6
Continuous
 62
     7
100
AcDbCircle
 10
2066.079648451777
 20
1166.68280955368
 30
0.0
 40
0.1449275362308526
100
AcDbArc
 50
90.0
 51
180.0
  0
ARC
  5
182
330
BE
100
AcDbEntity
  8
1
  6
Continuous
 62
     7
100
AcDbCircle
 10
2058.978199176415
 20
1166.68280955368
 30
0.0
 40
0.1449275362308526
100
AcDbArc
 50
90.0
 51
-179.9999999995505
  0
ARC
  5
183
330
BE
100
AcDbEntity
  8
1
  6
Continuous
 62
     7
100
AcDbCircle
 10
2060.717329611197
 20
1166.68280955368
 30
0.0
 40
0.1449275362319895
100
AcDbArc
 50
0.0
 51
90.0
  0
ARC
  5
184
330
BE
100
AcDbEntity
  8
1
  6
Continuous
 62
     7
100
AcDbCircle
 10
2059.340518016994
 20
1175.161070423245
 30
0.0
 40
0.2173913043479843
100
AcDbArc
 50
0.0
 51
90.0
  0
ARC
  5
185
330
BE
100
AcDbEntity
  8
1
  6
Continuous
 62
     7
100
AcDbCircle
 10
2059.340518016994
 20
1167.045128394259
 30
0.0
 40
0.2173913043482116
100
AcDbArc
 50
-90.0
 51
0.0
  0
ARC
  5
186
330
BE
100
AcDbEntity
  8
1
  6
Continuous
 62
     7
100
AcDbCircle
 10
2060.499938306849
 20
1167.045128394259
 30
0.0
 40
0.2173913043470748
100
AcDbArc
 50
180.0
 51
-90.0
  0
ARC
  5
187
330
BE
100
AcDbEntity
  8
1
  6
Continuous
 62
     7
100
AcDbCircle
 10
2060.499938306849
 20
1175.209241146008
 30
0.0
 40
0.2173913043475401
100
AcDbArc
 50
14.99999999979347
 51
180.0
  0
ARC
  5
188
330
BE
100
AcDbEntity
  8
1
  6
Continuous
 62
     7
100
AcDbCircle
 10
2064.41298178511
 20
1171.804704087858
 30
0.0
 40
0.2173913043473363
100
AcDbArc
 50
-164.999999999944
 51
-15.00000000002501
  0
ARC
  5
189
330
BE
100
AcDbEntity
  8
1
  6
Continuous
 62
     7
100
AcDbCircle
 10
2066.514431060472
 20
1175.16776354706
 30
0.0
 40
0.2173913043479843
100
AcDbArc
 50
0.0
 51
164.999999999944
  0
ARC
  5
18A
330
BE
100
AcDbEntity
  8
1
  6
Continuous
 62
     7
100
AcDbCircle
 10
2069.557909321342
 20
1175.016142887013
 30
0.0
 40
0.3623188405799738
100
AcDbArc
 50
90.0
 51
180.0
  0
ARC
  5
18B
330
BE
100
AcDbEntity
  8
1
  6
Continuous
 62
     7
100
AcDbCircle
 10
2066.369503524241
 20
1167.190055930491
 30
0.0
 40
0.3623188405802011
100
AcDbArc
 50
-90.0
 51
0.0
  0
ARC
  5
18C
330
BE
100
AcDbEntity
  8
1
  6
Continuous
 62
     7
100
AcDbCircle
 10
2069.557909321342
 20
1167.190055930491
 30
0.0
 40
0.3623188405790643
100
AcDbArc
 50
180.0
 51
-90.0
  0
TEXT
  5
18D
330
BE
100
AcDbEntity
  8
1
 62
     3
100
AcDbText
 10
2157.02866391753
 20
1179.96401974047
 30
0.0
 40
4.0
  1
HR-250N
 41
0.63
  7
CONVERTER_11
100
AcDbText
  0
MTEXT
  5
18E
330
BE
100
AcDbEntity
  8
1
 62
     3
100
AcDbMText
 10
2043.62489033412
 20
1181.987051851726
 30
0.0
 40
5.0
 41
0.0
 71
     4
 72
     1
  1
1:1
  7
CONVERTER_11
 73
     1
 44
1.32052821128451
1001
ACAD
1000
MTEXTBEGIN
1070
    73
1070
     1
1070
    44
1040
1.32052821128451
1070
    74
1070
     0
1000
MTEXTEND
  0
MTEXT
  5
18F
330
BE
100
AcDbEntity
  8
1
 62
     3
100
AcDbMText
 10
2156.183721934301
 20
1168.039733173476
 30
0.0
 40
5.0
 41
0.0
 71
     4
 72
     1
  1
組立図
  7
CONVERTER_12
 73
     1
 44
1.32052821128451
1001
ACAD
1000
MTEXTBEGIN
1070
    73
1070
     1
1070
    44
1040
1.32052821128451
1070
    74
1070
     0
1000
MTEXTEND
  0
MTEXT
  5
190
330
BE
100
AcDbEntity
  8
1
 62
     3
100
AcDbMText
 10
2120.0066973077
 20
1168.090110609666
 30
0.0
 40
5.0
 41
0.0
 71
     4
 72
     1
  1
関根
  7
CONVERTER_12
 73
     1
 44
1.32052821128451
1001
ACAD
1000
MTEXTBEGIN
1070
    73
1070
     1
1070
    44
1040
1.32052821128451
1070
    74
1070
     0
1000
MTEXTEND
  0
MTEXT
  5
191
330
BE
100
AcDbEntity
  8
1
 62
     3
100
AcDbMText
 10
2131.485886475561
 20
1167.999347253796
 30
0.0
 40
4.0
 41
0.0
 71
     4
 72
     1
  1
2007.10.30
  7
CONVERTER_11
 73
     1
 44
1.32052821128451
1001
ACAD
1000
MTEXTBEGIN
1070
    73
1070
     1
1070
    44
1040
1.32052821128451
1070
    74
1070
     0
1000
MTEXTEND
  0
MTEXT
  5
192
330
BE
100
AcDbEntity
  8
1
 62
     3
100
AcDbMText
 10
2120.0066973077
 20
1161.090110609666
 30
0.0
 40
5.0
 41
0.0
 71
     4
 72
     1
  1
関根
  7
CONVERTER_12
 73
     1
 44
1.32052821128451
1001
ACAD
1000
MTEXTBEGIN
1070
    73
1070
     1
1070
    44
1040
1.32052821128451
1070
    74
1070
     0
1000
MTEXTEND
  0
MTEXT
  5
193
330
BE
100
AcDbEntity
  8
1
 62
     3
100
AcDbMText
 10
2131.485886475561
 20
1160.999347253796
 30
0.0
 40
4.0
 41
0.0
 71
     4
 72
     1
  1
2007.10.30
  7
CONVERTER_11
 73
     1
 44
1.32052821128451
1001
ACAD
1000
MTEXTBEGIN
1070
    73
1070
     1
1070
    44
1040
1.32052821128451
1070
    74
1070
     0
1000
MTEXTEND
  0
MTEXT
  5
194
330
BE
100
AcDbEntity
  8
1
 62
     3
100
AcDbMText
 10
2063.697211341461
 20
1181.978434335916
 30
0.0
 40
5.0
 41
0.0
 71
     4
 72
     1
  1
HR-250
  7
CONVERTER_11
 73
     1
 44
1.32052821128451
1001
ACAD
1000
MTEXTBEGIN
1070
    73
1070
     1
1070
    44
1040
1.32052821128451
1070
    74
1070
     0
1000
MTEXTEND
  0
MTEXT
  5
195
330
BE
100
AcDbEntity
  8
1
 62
     3
100
AcDbMText
 10
2191.676195364295
 20
1431.033468565699
 30
0.0
 40
4.0
 41
0.0
 71
     4
 72
     1
  1
改正日
  7
CONVERTER_12
 73
     1
 44
1.32052821128451
1001
ACAD
1000
MTEXTBEGIN
1070
    73
1070
     1
1070
    44
1040
1.32052821128451
1070
    74
1070
     0
1000
MTEXTEND
  0
MTEXT
  5
196
330
BE
100
AcDbEntity
  8
1
 62
     3
100
AcDbMText
 10
2025.049097353108
 20
1431.187205667665
 30
0.0
 40
4.0
 41
0.0
 71
     4
 72
     1
  1
改番
  7
CONVERTER_12
 73
     1
 44
1.32052821128451
1001
ACAD
1000
MTEXTBEGIN
1070
    73
1070
     1
1070
    44
1040
1.32052821128451
1070
    74
1070
     0
1000
MTEXTEND
  0
MTEXT
  5
197
330
BE
100
AcDbEntity
  8
1
 62
     3
100
AcDbMText
 10
2056.244601112961
 20
1430.910597048111
 30
0.0
 40
4.0
 41
0.0
 71
     4
 72
     1
  1
改     正      理      由
  7
CONVERTER_12
 73
     1
 44
1.32052821128451
1001
ACAD
1000
MTEXTBEGIN
1070
    73
1070
     1
1070
    44
1040
1.32052821128451
1070
    74
1070
     0
1000
MTEXTEND
  0
MTEXT
  5
198
330
BE
100
AcDbEntity
  8
1
 62
     3
100
AcDbMText
 10
2170.157098659123
 20
1431.122605317712
 30
0.0
 40
4.0
 41
0.0
 71
     4
 72
     1
  1
改正担当
  7
CONVERTER_12
 73
     1
 44
1.32052821128451
1001
ACAD
1000
MTEXTBEGIN
1070
    73
1070
     1
1070
    44
1040
1.32052821128451
1070
    74
1070
     0
1000
MTEXTEND
  0
MTEXT
  5
199
330
BE
100
AcDbEntity
  8
1
 62
     3
100
AcDbMText
 10
2129.989660934131
 20
1430.795892483928
 30
0.0
 40
4.0
 41
0.0
 71
     4
 72
     1
  1
改正承認
  7
CONVERTER_12
 73
     1
 44
1.32052821128451
1001
ACAD
1000
MTEXTBEGIN
1070
    73
1070
     1
1070
    44
1040
1.32052821128451
1070
    74
1070
     0
1000
MTEXTEND
  0
MTEXT
  5
19A
330
BE
100
AcDbEntity
  8
1
 62
     3
100
AcDbMText
 10
2148.876195364294
 20
1431.033468565699
 30
0.0
 40
4.0
 41
0.0
 71
     4
 72
     1
  1
改正承認日
  7
CONVERTER_12
 73
     1
 44
1.32052821128451
1001
ACAD
1000
MTEXTBEGIN
1070
    73
1070
     1
1070
    44
1040
1.32052821128451
1070
    74
1070
     0
1000
MTEXTEND
  0
MTEXT
  5
19B
330
BE
100
AcDbEntity
  8
1
 62
     3
100
AcDbMText
 10
2053.69680071185
 20
1182.008039521813
 30
0.0
 40
3.5
 41
0.0
 71
     4
 72
     1
  1
A3
  7
CONVERTER_11
 73
     1
 44
1.32052821128451
1001
ACAD
1000
MTEXTBEGIN
1070
    73
1070
     1
1070
    44
1040
1.32052821128451
1070
    74
1070
     0
1000
MTEXTEND
  0
MTEXT
  5
19C
330
BE
100
AcDbEntity
  8
1
 62
     4
100
AcDbMText
 10
2037.830399693836
 20
1183.591059794123
 30
0.0
 40
3.0
 41
0.0
 71
     4
 72
     1
  1
尺
  7
CONVERTER_12
 73
     1
 44
1.32052821128451
1001
ACAD
1000
MTEXTBEGIN
1070
    73
1070
     1
1070
    44
1040
1.32052821128451
1070
    74
1070
     0
1000
MTEXTEND
  0
MTEXT
  5
19D
330
BE
100
AcDbEntity
  8
1
 62
     4
100
AcDbMText
 10
2037.832851826046
 20
1180.440656728659
 30
0.0
 40
3.0
 41
0.0
 71
     4
 72
     1
  1
度
  7
CONVERTER_12
 73
     1
 44
1.32052821128451
1001
ACAD
1000
MTEXTBEGIN
1070
    73
1070
     1
1070
    44
1040
1.32052821128451
1070
    74
1070
     0
1000
MTEXTEND
  0
MTEXT
  5
19E
330
BE
100
AcDbEntity
  8
1
 62
     4
100
AcDbMText
 10
2114.330399693837
 20
1183.591059794123
 30
0.0
 40
3.0
 41
0.0
 71
     4
 72
     1
  1
承
  7
CONVERTER_12
 73
     1
 44
1.32052821128451
1001
ACAD
1000
MTEXTBEGIN
1070
    73
1070
     1
1070
    44
1040
1.32052821128451
1070
    74
1070
     0
1000
MTEXTEND
  0
MTEXT
  5
19F
330
BE
100
AcDbEntity
  8
1
 62
     4
100
AcDbMText
 10
2114.332851826046
 20
1180.440656728659
 30
0.0
 40
3.0
 41
0.0
 71
     4
 72
     1
  1
認
  7
CONVERTER_12
 73
     1
 44
1.32052821128451
1001
ACAD
1000
MTEXTBEGIN
1070
    73
1070
     1
1070
    44
1040
1.32052821128451
1070
    74
1070
     0
1000
MTEXTEND
  0
MTEXT
  5
1A0
330
BE
100
AcDbEntity
  8
1
 62
     4
100
AcDbMText
 10
2114.330399693837
 20
1176.591059794123
 30
0.0
 40
3.0
 41
0.0
 71
     4
 72
     1
  1
検
  7
CONVERTER_12
 73
     1
 44
1.32052821128451
1001
ACAD
1000
MTEXTBEGIN
1070
    73
1070
     1
1070
    44
1040
1.32052821128451
1070
    74
1070
     0
1000
MTEXTEND
  0
MTEXT
  5
1A1
330
BE
100
AcDbEntity
  8
1
 62
     4
100
AcDbMText
 10
2114.332851826046
 20
1173.440656728659
 30
0.0
 40
3.0
 41
0.0
 71
     4
 72
     1
  1
図
  7
CONVERTER_12
 73
     1
 44
1.32052821128451
1001
ACAD
1000
MTEXTBEGIN
1070
    73
1070
     1
1070
    44
1040
1.32052821128451
1070
    74
1070
     0
1000
MTEXTEND
  0
MTEXT
  5
1A2
330
BE
100
AcDbEntity
  8
1
 62
     4
100
AcDbMText
 10
2114.330399693838
 20
1162.591059794123
 30
0.0
 40
3.0
 41
0.0
 71
     4
 72
     1
  1
作
  7
CONVERTER_12
 73
     1
 44
1.32052821128451
1001
ACAD
1000
MTEXTBEGIN
1070
    73
1070
     1
1070
    44
1040
1.32052821128451
1070
    74
1070
     0
1000
MTEXTEND
  0
MTEXT
  5
1A3
330
BE
100
AcDbEntity
  8
1
 62
     4
100
AcDbMText
 10
2114.332851826047
 20
1159.440656728659
 30
0.0
 40
3.0
 41
0.0
 71
     4
 72
     1
  1
図
  7
CONVERTER_12
 73
     1
 44
1.32052821128451
1001
ACAD
1000
MTEXTBEGIN
1070
    73
1070
     1
1070
    44
1040
1.32052821128451
1070
    74
1070
     0
1000
MTEXTEND
  0
MTEXT
  5
1A4
330
BE
100
AcDbEntity
  8
1
 62
     4
100
AcDbMText
 10
2114.330399693838
 20
1169.591059794123
 30
0.0
 40
3.0
 41
0.0
 71
     4
 72
     1
  1
設
  7
CONVERTER_12
 73
     1
 44
1.32052821128451
1001
ACAD
1000
MTEXTBEGIN
1070
    73
1070
     1
1070
    44
1040
1.32052821128451
1070
    74
1070
     0
1000
MTEXTEND
  0
MTEXT
  5
1A5
330
BE
100
AcDbEntity
  8
1
 62
     4
100
AcDbMText
 10
2114.332851826047
 20
1166.440656728659
 30
0.0
 40
3.0
 41
0.0
 71
     4
 72
     1
  1
計
  7
CONVERTER_12
 73
     1
 44
1.32052821128451
1001
ACAD
1000
MTEXTBEGIN
1070
    73
1070
     1
1070
    44
1040
1.32052821128451
1070
    74
1070
     0
1000
MTEXTEND
  0
MTEXT
  5
1A6
330
BE
100
AcDbEntity
  8
1
 62
     4
100
AcDbMText
 10
2152.832851826047
 20
1180.440656728659
 30
0.0
 40
3.0
 41
0.0
 71
     4
 72
     1
  1
名
  7
CONVERTER_12
 73
     1
 44
1.32052821128451
1001
ACAD
1000
MTEXTBEGIN
1070
    73
1070
     1
1070
    44
1040
1.32052821128451
1070
    74
1070
     0
1000
MTEXTEND
  0
MTEXT
  5
1A7
330
BE
100
AcDbEntity
  8
1
 62
     4
100
AcDbMText
 10
2152.830399693838
 20
1183.591059794123
 30
0.0
 40
3.0
 41
0.0
 71
     4
 72
     1
  1
品
  7
CONVERTER_12
 73
     1
 44
1.32052821128451
1001
ACAD
1000
MTEXTBEGIN
1070
    73
1070
     1
1070
    44
1040
1.32052821128451
1070
    74
1070
     0
1000
MTEXTEND
  0
MTEXT
  5
1A8
330
BE
100
AcDbEntity
  8
1
 62
     4
100
AcDbMText
 10
2059.832851826047
 20
1180.440656728659
 30
0.0
 40
3.0
 41
0.0
 71
     4
 72
     1
  1
称
  7
CONVERTER_12
 73
     1
 44
1.32052821128451
1001
ACAD
1000
MTEXTBEGIN
1070
    73
1070
     1
1070
    44
1040
1.32052821128451
1070
    74
1070
     0
1000
MTEXTEND
  0
MTEXT
  5
1A9
330
BE
100
AcDbEntity
  8
1
 62
     4
100
AcDbMText
 10
2059.830399693837
 20
1183.591059794123
 30
0.0
 40
3.0
 41
0.0
 71
     4
 72
     1
  1
名
  7
CONVERTER_12
 73
     1
 44
1.32052821128451
1001
ACAD
1000
MTEXTBEGIN
1070
    73
1070
     1
1070
    44
1040
1.32052821128451
1070
    74
1070
     0
1000
MTEXTEND
  0
MTEXT
  5
1AA
330
BE
100
AcDbEntity
  8
1
 62
     4
100
AcDbMText
 10
2152.832851826047
 20
1166.440656728659
 30
0.0
 40
3.0
 41
0.0
 71
     4
 72
     1
  1
名
  7
CONVERTER_12
 73
     1
 44
1.32052821128451
1001
ACAD
1000
MTEXTBEGIN
1070
    73
1070
     1
1070
    44
1040
1.32052821128451
1070
    74
1070
     0
1000
MTEXTEND
  0
MTEXT
  5
1AB
330
BE
100
AcDbEntity
  8
1
 62
     4
100
AcDbMText
 10
2152.830399693838
 20
1169.591059794123
 30
0.0
 40
3.0
 41
0.0
 71
     4
 72
     1
  1
図
  7
CONVERTER_12
 73
     1
 44
1.32052821128451
1001
ACAD
1000
MTEXTBEGIN
1070
    73
1070
     1
1070
    44
1040
1.32052821128451
1070
    74
1070
     0
1000
MTEXTEND
  0
MTEXT
  5
1AC
330
BE
100
AcDbEntity
  8
1
 62
     4
100
AcDbMText
 10
2152.832851826047
 20
1173.440656728659
 30
0.0
 40
3.0
 41
0.0
 71
     4
 72
     1
  1
番
  7
CONVERTER_12
 73
     1
 44
1.32052821128451
1001
ACAD
1000
MTEXTBEGIN
1070
    73
1070
     1
1070
    44
1040
1.32052821128451
1070
    74
1070
     0
1000
MTEXTEND
  0
MTEXT
  5
1AD
330
BE
100
AcDbEntity
  8
1
 62
     4
100
AcDbMText
 10
2152.830399693838
 20
1176.591059794123
 30
0.0
 40
3.0
 41
0.0
 71
     4
 72
     1
  1
品
  7
CONVERTER_12
 73
     1
 44
1.32052821128451
1001
ACAD
1000
MTEXTBEGIN
1070
    73
1070
     1
1070
    44
1040
1.32052821128451
1070
    74
1070
     0
1000
MTEXTEND
  0
MTEXT
  5
1AE
330
BE
100
AcDbEntity
  8
1
 62
     4
100
AcDbMText
 10
2152.832851826047
 20
1159.440656728659
 30
0.0
 40
3.0
 41
0.0
 71
     4
 72
     1
  1
番
  7
CONVERTER_12
 73
     1
 44
1.32052821128451
1001
ACAD
1000
MTEXTBEGIN
1070
    73
1070
     1
1070
    44
1040
1.32052821128451
1070
    74
1070
     0
1000
MTEXTEND
  0
MTEXT
  5
1AF
330
BE
100
AcDbEntity
  8
1
 62
     4
100
AcDbMText
 10
2152.830399693838
 20
1162.591059794123
 30
0.0
 40
3.0
 41
0.0
 71
     4
 72
     1
  1
図
  7
CONVERTER_12
 73
     1
 44
1.32052821128451
1001
ACAD
1000
MTEXTBEGIN
1070
    73
1070
     1
1070
    44
1040
1.32052821128451
1070
    74
1070
     0
1000
MTEXTEND
  0
MTEXT
  5
1B0
330
BE
100
AcDbEntity
  8
1
 62
     4
100
AcDbMText
 10
2027.53344933645
 20
1189.071706793807
 30
0.0
 40
3.0
 41
0.0
 71
     5
 72
     1
  1
部番
  7
CONVERTER_13
 73
     1
 44
1.200480192076829
1001
ACAD
1000
MTEXTBEGIN
1070
    73
1070
     1
1070
    44
1040
1.200480192076829
1070
    74
1070
     0
1000
MTEXTEND
  0
MTEXT
  5
1B1
330
BE
100
AcDbEntity
  8
1
 62
     4
100
AcDbMText
 10
2056.03344933645
 20
1189.071706793807
 30
0.0
 40
3.0
 41
0.0
 71
     5
 72
     1
  1
部     品     名
  7
CONVERTER_13
 73
     1
 44
1.200480192076829
1001
ACAD
1000
MTEXTBEGIN
1070
    73
1070
     1
1070
    44
1040
1.200480192076829
1070
    74
1070
     0
1000
MTEXTEND
  0
MTEXT
  5
1B2
330
BE
100
AcDbEntity
  8
1
 62
     4
100
AcDbMText
 10
2095.165950341539
 20
1189.071706793807
 30
0.0
 40
3.0
 41
0.0
 71
     5
 72
     1
  1
材   質
  7
CONVERTER_13
 73
     1
 44
1.200480192076829
1001
ACAD
1000
MTEXTBEGIN
1070
    73
1070
     1
1070
    44
1040
1.200480192076829
1070
    74
1070
     0
1000
MTEXTEND
  0
MTEXT
  5
1B3
330
BE
100
AcDbEntity
  8
1
 62
     4
100
AcDbMText
 10
2112.733449336451
 20
1189.071706793807
 30
0.0
 40
3.0
 41
0.0
 71
     5
 72
     1
  1
数量
  7
CONVERTER_13
 73
     1
 44
1.200480192076829
1001
ACAD
1000
MTEXTBEGIN
1070
    73
1070
     1
1070
    44
1040
1.200480192076829
1070
    74
1070
     0
1000
MTEXTEND
  0
MTEXT
  5
1B4
330
BE
100
AcDbEntity
  8
1
 62
     4
100
AcDbMText
 10
2141.309933318565
 20
1189.071706793807
 30
0.0
 40
3.0
 41
0.0
 71
     5
 72
     1
  1
表   面   処   理
  7
CONVERTER_13
 73
     1
 44
1.200480192076829
1001
ACAD
1000
MTEXTBEGIN
1070
    73
1070
     1
1070
    44
1040
1.200480192076829
1070
    74
1070
     0
1000
MTEXTEND
  0
MTEXT
  5
1B5
330
BE
100
AcDbEntity
  8
1
 62
     4
100
AcDbMText
 10
2186.992615465664
 20
1189.334978096451
 30
0.0
 40
3.0
 41
0.0
 71
     5
 72
     1
  1
備    考
  7
CONVERTER_13
 73
     1
 44
1.200480192076829
1001
ACAD
1000
MTEXTBEGIN
1070
    73
1070
     1
1070
    44
1040
1.200480192076829
1070
    74
1070
     0
1000
MTEXTEND
  0
MTEXT
  5
1B6
330
BE
100
AcDbEntity
  8
1
 62
     3
100
AcDbMText
 10
2084.149965107704
 20
1169.610560065872
 30
0.0
 40
3.5
 41
0.0
 71
     4
 72
     1
  1
開  発  部
  7
CONVERTER_12
 73
     1
 44
1.32052821128451
1001
ACAD
1000
MTEXTBEGIN
1070
    73
1070
     1
1070
    44
1040
1.32052821128451
1070
    74
1070
     0
1000
MTEXTEND
  0
MTEXT
  5
1B7
330
BE
100
AcDbEntity
  8
1
 62
     3
100
AcDbMText
 10
2084.086747297733
 20
1161.211993286064
 30
0.0
 40
2.5
 41
0.0
 71
     4
 72
     1
  1
東京都 台東区 入谷 1-27-4
  7
CONVERTER_12
 73
     1
 44
1.32052821128451
1001
ACAD
1000
MTEXTBEGIN
1070
    73
1070
     1
1070
    44
1040
1.32052821128451
1070
    74
1070
     0
1000
MTEXTEND
  0
MTEXT
  5
1B8
330
BE
100
AcDbEntity
  8
1
 62
     3
100
AcDbMText
 10
2084.103397000768
 20
1165.055486077536
 30
0.0
 40
2.5
 41
0.0
 71
     4
 72
     1
  1
〒110-8680
  7
CONVERTER_12
 73
     1
 44
1.32052821128451
1001
ACAD
1000
MTEXTBEGIN
1070
    73
1070
     1
1070
    44
1040
1.32052821128451
1070
    74
1070
     0
1000
MTEXTEND
  0
MTEXT
  5
1B9
330
BE
100
AcDbEntity
  8
1
 62
     3
100
AcDbMText
 10
2027.642015192885
 20
1161.739036357399
 30
0.0
 40
5.0
 41
0.0
 71
     4
 72
     1
  1
アトムリビンテック株式会社
  7
CONVERTER_12
 73
     1
 44
1.32052821128451
1001
ACAD
1000
MTEXTBEGIN
1070
    73
1070
     1
1070
    44
1040
1.32052821128451
1070
    74
1070
     0
1000
MTEXTEND
  0
MTEXT
  5
1BA
330
BE
100
AcDbEntity
  8
1
 62
     3
100
AcDbMText
 10
2131.485886475561
 20
1174.999347253796
 30
0.0
 40
4.0
 41
0.0
 71
     4
 72
     1
  1
2007.10.30
  7
CONVERTER_11
 73
     1
 44
1.32052821128451
1001
ACAD
1000
MTEXTBEGIN
1070
    73
1070
     1
1070
    44
1040
1.32052821128451
1070
    74
1070
     0
1000
MTEXTEND
  0
MTEXT
  5
1BB
330
BE
100
AcDbEntity
  8
1
 62
     3
100
AcDbMText
 10
2131.485886475561
 20
1181.999347253796
 30
0.0
 40
4.0
 41
0.0
 71
     4
 72
     1
  1
2007.10.30
  7
CONVERTER_11
 73
     1
 44
1.32052821128451
1001
ACAD
1000
MTEXTBEGIN
1070
    73
1070
     1
1070
    44
1040
1.32052821128451
1070
    74
1070
     0
1000
MTEXTEND
  0
MTEXT
  5
1BC
330
BE
100
AcDbEntity
  8
1
 62
     3
100
AcDbMText
 10
2120.0066973077
 20
1175.090110609666
 30
0.0
 40
5.0
 41
0.0
 71
     4
 72
     1
  1
中島
  7
CONVERTER_12
 73
     1
 44
1.32052821128451
1001
ACAD
1000
MTEXTBEGIN
1070
    73
1070
     1
1070
    44
1040
1.32052821128451
1070
    74
1070
     0
1000
MTEXTEND
  0
MTEXT
  5
1BD
330
BE
100
AcDbEntity
  8
1
 62
     3
100
AcDbMText
 10
2120.0066973077
 20
1182.090110609666
 30
0.0
 40
5.0
 41
0.0
 71
     4
 72
     1
  1
伊藤
  7
CONVERTER_12
 73
     1
 44
1.32052821128451
1001
ACAD
1000
MTEXTBEGIN
1070
    73
1070
     1
1070
    44
1040
1.32052821128451
1070
    74
1070
     0
1000
MTEXTEND
  0
ENDBLK
  5
1BE
330
BE
100
AcDbEntity
  8
0
100
AcDbBlockEnd
  0
BLOCK
  5
BC
330
BB
100
AcDbEntity
  8
0
100
AcDbBlockBegin
  2
format_A3
 70
     0
 10
1809.722512313482
 20
33.2928437062634
 30
0.0
  3
format_A3
  1

  0
INSERT
  5
BD
330
BB
100
AcDbEntity
  8
0
100
AcDbBlockReference
  2
______
 10
2206.142476022541
 20
11.42129913978783
 30
0.0
  0
LINE
  5
1BF
330
BB
100
AcDbEntity
  8
1
  6
Continuous
 62
     7
100
AcDbLine
 10
1808.23344933645
 20
1434.571706793807
 30
0.0
 11
1808.23344933645
 21
1157.571706793808
 31
0.0
  0
LINE
  5
1C0
330
BB
100
AcDbEntity
  8
1
  6
Continuous
 62
     7
100
AcDbLine
 10
2208.233449336451
 20
1434.571706793807
 30
0.0
 11
1808.23344933645
 21
1434.571706793807
 31
0.0
  0
LINE
  5
1C1
330
BB
100
AcDbEntity
  8
1
  6
Continuous
 62
     7
100
AcDbLine
 10
2208.233449336451
 20
1199.571706793807
 30
0.0
 11
2208.233449336451
 21
1434.571706793807
 31
0.0
  0
LINE
  5
1C2
330
BB
100
AcDbEntity
  8
1
  6
Continuous
 62
     7
100
AcDbLine
 10
2024.23344933645
 20
1157.571706793807
 30
0.0
 11
1808.23344933645
 21
1157.571706793808
 31
0.0
  0
ENDBLK
  5
1C3
330
BB
100
AcDbEntity
  8
0
100
AcDbBlockEnd
  0
BLOCK
  5
1C6
330
1C5
100
AcDbEntity
  8
0
100
AcDbBlockBegin
  2
_4
 70
     0
 10
1453.612233912012
 20
750.3787028492713
 30
0.0
  3
_4
  1

  0
LINE
  5
1C7
330
1C5
100
AcDbEntity
  8
1
  6
Continuous
 62
     7
100
AcDbLine
 10
1870.374775120904
 20
1314.36707313372
 30
0.0
 11
1870.374775120904
 21
1320.86707313372
 31
0.0
  0
LINE
  5
1C8
330
1C5
100
AcDbEntity
  8
1
  6
Continuous
 62
     7
100
AcDbLine
 10
1876.374775120904
 20
1320.86707313372
 30
0.0
 11
1876.374775120904
 21
1314.36707313372
 31
0.0
  0
LINE
  5
1C9
330
1C5
100
AcDbEntity
  8
1
  6
Continuous
 62
     7
100
AcDbLine
 10
2045.124775120904
 20
1319.86707313372
 30
0.0
 11
2045.124775120904
 21
1314.36707313372
 31
0.0
  0
LINE
  5
1CA
330
1C5
100
AcDbEntity
  8
1
  6
Continuous
 62
     7
100
AcDbLine
 10
2039.124775120905
 20
1314.36707313372
 30
0.0
 11
2039.124775120905
 21
1319.86707313372
 31
0.0
  0
ENDBLK
  5
1CB
330
1C5
100
AcDbEntity
  8
0
100
AcDbBlockEnd
  0
BLOCK
  5
1CE
330
1CD
100
AcDbEntity
  8
0
100
AcDbBlockBegin
  2
_6
 70
     0
 10
1568.976862826482
 20
616.7380796226202
 30
0.0
  3
_6
  1

  0
LINE
  5
1CF
330
1CD
100
AcDbEntity
  8
1
  6
CENTER_NEW
 62
     2
100
AcDbLine
 10
1873.374775120904
 20
1266.36707313372
 30
0.0
 11
1873.374775120904
 21
1343.86707313372
 31
0.0
  0
LINE
  5
1D0
330
1CD
100
AcDbEntity
  8
1
  6
CENTER_NEW
 62
     2
100
AcDbLine
 10
2042.124775120904
 20
1266.36707313372
 30
0.0
 11
2042.124775120904
 21
1343.86707313372
 31
0.0
  0
ENDBLK
  5
1D1
330
1CD
100
AcDbEntity
  8
0
100
AcDbBlockEnd
  0
BLOCK
  5
21A
330
219
100
AcDbEntity
  8
0
100
AcDbBlockBegin
  2
*D6
 70
     1
 10
0.0
 20
0.0
 30
0.0
  3
*D6
  1

  0
LINE
  5
21B
330
219
100
AcDbEntity
  8
1
  6
Continuous
 62
     2
100
AcDbLine
 10
2009.124775120904
 20
1354.429900957026
 30
0.0
 11
2079.124775120904
 21
1354.429900957026
 31
0.0
  0
LINE
  5
21C
330
219
100
AcDbEntity
  8
1
  6
Continuous
 62
     2
100
AcDbLine
 10
2079.124775120904
 20
1339.16707313372
 30
0.0
 11
2079.124775120904
 21
1355.429900957026
 31
0.0
  0
LINE
  5
21D
330
219
100
AcDbEntity
  8
1
  6
Continuous
 62
     2
100
AcDbLine
 10
2009.124775120904
 20
1339.16707313372
 30
0.0
 11
2009.124775120904
 21
1355.429900957026
 31
0.0
  0
LINE
  5
21E
330
219
100
AcDbEntity
  8
1
 62
     2
100
AcDbLine
 10
2009.124775120904
 20
1354.429900957026
 30
0.0
 11
2011.574775120904
 21
1355.086376478482
 31
0.0
  0
LINE
  5
21F
330
219
100
AcDbEntity
  8
1
 62
     2
100
AcDbLine
 10
2009.124775120904
 20
1354.429900957026
 30
0.0
 11
2011.574775120904
 21
1353.773425435569
 31
0.0
  0
LINE
  5
220
330
219
100
AcDbEntity
  8
1
 62
     2
100
AcDbLine
 10
2079.124775120904
 20
1354.429900957026
 30
0.0
 11
2076.674775120904
 21
1353.773425435569
 31
0.0
  0
LINE
  5
221
330
219
100
AcDbEntity
  8
1
 62
     2
100
AcDbLine
 10
2079.124775120904
 20
1354.429900957026
 30
0.0
 11
2076.674775120904
 21
1355.086376478482
 31
0.0
  0
MTEXT
  5
222
330
219
100
AcDbEntity
  8
1
 62
     3
100
AcDbMText
 10
2042.287275120904
 20
1355.429900957026
 30
0.0
 40
3.5
 41
0.0
 71
     7
 72
     1
  1
70
  7
CONVERTER_14
 11
0.999999999997062
 21
0.0000024240684055
 31
0.0
 73
     1
 44
0.6002400960384202
1001
ACAD
1000
MTEXTBEGIN
1070
    73
1070
     1
1070
    44
1040
0.6002400960384202
1070
    74
1070
     0
1000
MTEXTEND
  0
ENDBLK
  5
223
330
219
100
AcDbEntity
  8
0
100
AcDbBlockEnd
  0
BLOCK
  5
226
330
225
100
AcDbEntity
  8
0
100
AcDbBlockBegin
  2
*D7
 70
     1
 10
0.0
 20
0.0
 30
0.0
  3
*D7
  1

  0
LINE
  5
227
330
225
100
AcDbEntity
  8
1
  6
Continuous
 62
     2
100
AcDbLine
 10
2072.124775120904
 20
1347.281215074418
 30
0.0
 11
2079.124775120904
 21
1347.281215074418
 31
0.0
  0
LINE
  5
228
330
225
100
AcDbEntity
  8
1
  6
Continuous
 62
     2
100
AcDbLine
 10
2072.124775120904
 20
1342.16707313372
 30
0.0
 11
2072.124775120904
 21
1348.281215074418
 31
0.0
  0
LINE
  5
229
330
225
100
AcDbEntity
  8
1
  6
Continuous
 62
     2
100
AcDbLine
 10
2079.124775120904
 20
1339.16707313372
 30
0.0
 11
2079.124775120904
 21
1348.281215074418
 31
0.0
  0
LINE
  5
22A
330
225
100
AcDbEntity
  8
1
 62
     2
100
AcDbLine
 10
2072.124775120904
 20
1347.281215074418
 30
0.0
 11
2074.574775120904
 21
1347.937690595874
 31
0.0
  0
LINE
  5
22B
330
225
100
AcDbEntity
  8
1
 62
     2
100
AcDbLine
 10
2072.124775120904
 20
1347.281215074418
 30
0.0
 11
2074.574775120904
 21
1346.624739552962
 31
0.0
  0
LINE
  5
22C
330
225
100
AcDbEntity
  8
1
 62
     2
100
AcDbLine
 10
2079.124775120904
 20
1347.281215074418
 30
0.0
 11
2076.674775120904
 21
1346.624739552962
 31
0.0
  0
LINE
  5
22D
330
225
100
AcDbEntity
  8
1
 62
     2
100
AcDbLine
 10
2079.124775120904
 20
1347.281215074418
 30
0.0
 11
2076.674775120904
 21
1347.937690595874
 31
0.0
  0
MTEXT
  5
22E
330
225
100
AcDbEntity
  8
1
 62
     3
100
AcDbMText
 10
2074.889775120904
 20
1348.281215074418
 30
0.0
 40
3.5
 41
0.0
 71
     7
 72
     1
  1
7
  7
CONVERTER_14
 11
0.999999999997062
 21
0.0000024240684055
 31
0.0
 73
     1
 44
0.6002400960384202
1001
ACAD
1000
MTEXTBEGIN
1070
    73
1070
     1
1070
    44
1040
0.6002400960384202
1070
    74
1070
     0
1000
MTEXTEND
  0
ENDBLK
  5
22F
330
225
100
AcDbEntity
  8
0
100
AcDbBlockEnd
  0
BLOCK
  5
232
330
231
100
AcDbEntity
  8
0
100
AcDbBlockBegin
  2
*D8
 70
     1
 10
0.0
 20
0.0
 30
0.0
  3
*D8
  1

  0
LINE
  5
233
330
231
100
AcDbEntity
  8
1
  6
Continuous
 62
     2
100
AcDbLine
 10
2042.124775120904
 20
1347.281215074418
 30
0.0
 11
2072.124775120904
 21
1347.281215074418
 31
0.0
  0
LINE
  5
234
330
231
100
AcDbEntity
  8
1
  6
Continuous
 62
     2
100
AcDbLine
 10
2042.124775120904
 20
1344.86707313372
 30
0.0
 11
2042.124775120904
 21
1348.281215074418
 31
0.0
  0
LINE
  5
235
330
231
100
AcDbEntity
  8
1
  6
Continuous
 62
     2
100
AcDbLine
 10
2072.124775120904
 20
1342.16707313372
 30
0.0
 11
2072.124775120904
 21
1348.281215074418
 31
0.0
  0
LINE
  5
236
330
231
100
AcDbEntity
  8
1
 62
     2
100
AcDbLine
 10
2042.124775120904
 20
1347.281215074418
 30
0.0
 11
2044.574775120904
 21
1347.937690595874
 31
0.0
  0
LINE
  5
237
330
231
100
AcDbEntity
  8
1
 62
     2
100
AcDbLine
 10
2042.124775120904
 20
1347.281215074418
 30
0.0
 11
2044.574775120904
 21
1346.624739552962
 31
0.0
  0
LINE
  5
238
330
231
100
AcDbEntity
  8
1
 62
     2
100
AcDbLine
 10
2072.124775120904
 20
1347.281215074418
 30
0.0
 11
2069.674775120904
 21
1346.624739552962
 31
0.0
  0
LINE
  5
239
330
231
100
AcDbEntity
  8
1
 62
     2
100
AcDbLine
 10
2072.124775120904
 20
1347.281215074418
 30
0.0
 11
2069.674775120904
 21
1347.937690595874
 31
0.0
  0
MTEXT
  5
23A
330
231
100
AcDbEntity
  8
1
 62
     3
100
AcDbMText
 10
2055.287275120904
 20
1348.281215074418
 30
0.0
 40
3.5
 41
0.0
 71
     7
 72
     1
  1
30
  7
CONVERTER_14
 11
0.999999999997062
 21
0.0000024240684055
 31
0.0
 73
     1
 44
0.6002400960384202
1001
ACAD
1000
MTEXTBEGIN
1070
    73
1070
     1
1070
    44
1040
0.6002400960384202
1070
    74
1070
     0
1000
MTEXTEND
  0
ENDBLK
  5
23B
330
231
100
AcDbEntity
  8
0
100
AcDbBlockEnd
  0
BLOCK
  5
23E
330
23D
100
AcDbEntity
  8
0
100
AcDbBlockBegin
  2
*D9
 70
     1
 10
0.0
 20
0.0
 30
0.0
  3
*D9
  1

  0
LINE
  5
23F
330
23D
100
AcDbEntity
  8
1
  6
Continuous
 62
     2
100
AcDbLine
 10
2009.124775120904
 20
1347.281215074418
 30
0.0
 11
2042.124775120904
 21
1347.281215074418
 31
0.0
  0
LINE
  5
240
330
23D
100
AcDbEntity
  8
1
  6
Continuous
 62
     2
100
AcDbLine
 10
2042.124775120904
 20
1344.86707313372
 30
0.0
 11
2042.124775120904
 21
1348.281215074418
 31
0.0
  0
LINE
  5
241
330
23D
100
AcDbEntity
  8
1
  6
Continuous
 62
     2
100
AcDbLine
 10
2009.124775120904
 20
1339.16707313372
 30
0.0
 11
2009.124775120904
 21
1348.281215074418
 31
0.0
  0
LINE
  5
242
330
23D
100
AcDbEntity
  8
1
 62
     2
100
AcDbLine
 10
2009.124775120904
 20
1347.281215074418
 30
0.0
 11
2011.574775120904
 21
1347.937690595874
 31
0.0
  0
LINE
  5
243
330
23D
100
AcDbEntity
  8
1
 62
     2
100
AcDbLine
 10
2009.124775120904
 20
1347.281215074418
 30
0.0
 11
2011.574775120904
 21
1346.624739552962
 31
0.0
  0
LINE
  5
244
330
23D
100
AcDbEntity
  8
1
 62
     2
100
AcDbLine
 10
2042.124775120904
 20
1347.281215074418
 30
0.0
 11
2039.674775120904
 21
1346.624739552962
 31
0.0
  0
LINE
  5
245
330
23D
100
AcDbEntity
  8
1
 62
     2
100
AcDbLine
 10
2042.124775120904
 20
1347.281215074418
 30
0.0
 11
2039.674775120904
 21
1347.937690595874
 31
0.0
  0
MTEXT
  5
246
330
23D
100
AcDbEntity
  8
1
 62
     3
100
AcDbMText
 10
2026.990602897265
 20
1348.281215074418
 30
0.0
 40
3.5
 41
0.0
 71
     7
 72
     1
  1
33
  7
CONVERTER_14
 11
0.999999999997062
 21
0.0000024240684055
 31
0.0
 73
     1
 44
0.6002400960384202
1001
ACAD
1000
MTEXTBEGIN
1070
    73
1070
     1
1070
    44
1040
0.6002400960384202
1070
    74
1070
     0
1000
MTEXTEND
  0
ENDBLK
  5
247
330
23D
100
AcDbEntity
  8
0
100
AcDbBlockEnd
  0
BLOCK
  5
24A
330
249
100
AcDbEntity
  8
0
100
AcDbBlockBegin
  2
*D10
 70
     1
 10
0.0
 20
0.0
 30
0.0
  3
*D10
  1

  0
LINE
  5
24B
330
249
100
AcDbEntity
  8
1
  6
Continuous
 62
     2
100
AcDbLine
 10
1860.974775120904
 20
1347.281215074418
 30
0.0
 11
1885.774775120904
 21
1347.281215074418
 31
0.0
  0
LINE
  5
24C
330
249
100
AcDbEntity
  8
1
  6
Continuous
 62
     2
100
AcDbLine
 10
1860.974775120904
 20
1338.16707313372
 30
0.0
 11
1860.974775120904
 21
1348.281215074418
 31
0.0
  0
LINE
  5
24D
330
249
100
AcDbEntity
  8
1
  6
Continuous
 62
     2
100
AcDbLine
 10
1885.774775120904
 20
1338.16707313372
 30
0.0
 11
1885.774775120904
 21
1348.281215074418
 31
0.0
  0
LINE
  5
24E
330
249
100
AcDbEntity
  8
1
 62
     2
100
AcDbLine
 10
1860.974775120904
 20
1347.281215074418
 30
0.0
 11
1863.424775120904
 21
1347.937690595874
 31
0.0
  0
LINE
  5
24F
330
249
100
AcDbEntity
  8
1
 62
     2
100
AcDbLine
 10
1860.974775120904
 20
1347.281215074418
 30
0.0
 11
1863.424775120904
 21
1346.624739552962
 31
0.0
  0
LINE
  5
250
330
249
100
AcDbEntity
  8
1
 62
     2
100
AcDbLine
 10
1885.774775120904
 20
1347.281215074418
 30
0.0
 11
1883.324775120904
 21
1346.624739552962
 31
0.0
  0
LINE
  5
251
330
249
100
AcDbEntity
  8
1
 62
     2
100
AcDbLine
 10
1885.774775120904
 20
1347.281215074418
 30
0.0
 11
1883.324775120904
 21
1347.937690595874
 31
0.0
  0
MTEXT
  5
252
330
249
100
AcDbEntity
  8
1
 62
     3
100
AcDbMText
 10
1870.006025120904
 20
1348.281215074418
 30
0.0
 40
3.5
 41
0.0
 71
     7
 72
     1
  1
24.8
  7
CONVERTER_14
 11
0.999999999997062
 21
0.0000024240684055
 31
0.0
 73
     1
 44
0.6002400960384202
1001
ACAD
1000
MTEXTBEGIN
1070
    73
1070
     1
1070
    44
1040
0.6002400960384202
1070
    74
1070
     0
1000
MTEXTEND
  0
ENDBLK
  5
253
330
249
100
AcDbEntity
  8
0
100
AcDbBlockEnd
  0
BLOCK
  5
256
330
255
100
AcDbEntity
  8
0
100
AcDbBlockBegin
  2
*D11
 70
     1
 10
0.0
 20
0.0
 30
0.0
  3
*D11
  1

  0
LINE
  5
257
330
255
100
AcDbEntity
  8
1
  6
Continuous
 62
     2
100
AcDbLine
 10
1899.02206203075
 20
1320.86707313372
 30
0.0
 11
1899.02206203075
 21
1339.16707313372
 31
0.0
  0
LINE
  5
258
330
255
100
AcDbEntity
  8
1
  6
Continuous
 62
     2
100
AcDbLine
 10
1884.774775120904
 20
1339.16707313372
 30
0.0
 11
1900.02206203075
 21
1339.16707313372
 31
0.0
  0
LINE
  5
259
330
255
100
AcDbEntity
  8
1
  6
Continuous
 62
     2
100
AcDbLine
 10
1882.974775120904
 20
1320.86707313372
 30
0.0
 11
1900.02206203075
 21
1320.86707313372
 31
0.0
  0
LINE
  5
25A
330
255
100
AcDbEntity
  8
1
 62
     2
100
AcDbLine
 10
1899.02206203075
 20
1320.86707313372
 30
0.0
 11
1898.365586509294
 21
1323.31707313372
 31
0.0
  0
LINE
  5
25B
330
255
100
AcDbEntity
  8
1
 62
     2
100
AcDbLine
 10
1899.02206203075
 20
1320.86707313372
 30
0.0
 11
1899.678537552206
 21
1323.31707313372
 31
0.0
  0
LINE
  5
25C
330
255
100
AcDbEntity
  8
1
 62
     2
100
AcDbLine
 10
1899.02206203075
 20
1339.16707313372
 30
0.0
 11
1899.678537552206
 21
1336.71707313372
 31
0.0
  0
LINE
  5
25D
330
255
100
AcDbEntity
  8
1
 62
     2
100
AcDbLine
 10
1899.02206203075
 20
1339.16707313372
 30
0.0
 11
1898.365586509294
 21
1336.71707313372
 31
0.0
  0
MTEXT
  5
25E
330
255
100
AcDbEntity
  8
1
 62
     3
100
AcDbMText
 10
1898.02206203075
 20
1326.89332313372
 30
0.0
 40
3.5
 41
0.0
 71
     7
 72
     1
  1
18.3
  7
CONVERTER_14
 11
0.0
 21
1.0
 31
0.0
 73
     1
 44
0.6002400960384202
1001
ACAD
1000
MTEXTBEGIN
1070
    73
1070
     1
1070
    44
1040
0.6002400960384202
1070
    74
1070
     0
1000
MTEXTEND
  0
ENDBLK
  5
25F
330
255
100
AcDbEntity
  8
0
100
AcDbBlockEnd
  0
BLOCK
  5
B9
330
B8
100
AcDbEntity
  8
0
100
AcDbBlockBegin
  2
Top__1
 70
     0
 10
10.780633097344
 20
-906.4184836411099
 30
0.0
  3
Top__1
  1

  0
INSERT
  5
BA
330
B8
100
AcDbEntity
  8
0
100
AcDbBlockReference
  2
format_A3
 10
1809.722512313482
 20
33.2928437062634
 30
0.0
  0
INSERT
  5
1C4
330
B8
100
AcDbEntity
  8
1
100
AcDbBlockReference
  2
_4
 10
1453.612233912012
 20
750.3787028492713
 30
0.0
  0
INSERT
  5
1CC
330
B8
100
AcDbEntity
  8
1
100
AcDbBlockReference
  2
_6
 10
1568.976862826482
 20
616.7380796226202
 30
0.0
  0
LINE
  5
1D2
330
B8
100
AcDbEntity
  8
1
  6
CENTER_NEW
 62
     2
100
AcDbLine
 10
2072.124775120904
 20
1341.16707313372
 30
0.0
 11
2072.124775120904
 21
1318.86707313372
 31
0.0
  0
LINE
  5
1D3
330
B8
100
AcDbEntity
  8
1
  6
CENTER_NEW
 62
     2
100
AcDbLine
 10
2072.124775120904
 20
1286.185562661
 30
0.0
 11
2072.124775120904
 21
1314.785562661
 31
0.0
  0
LINE
  5
1D4
330
B8
100
AcDbEntity
  8
1
  6
Continuous
 62
     7
100
AcDbLine
 10
2066.124775120904
 20
1295.785562661
 30
0.0
 11
2066.124775120904
 21
1293.185562661
 31
0.0
  0
LINE
  5
1D5
330
B8
100
AcDbEntity
  8
1
  6
Continuous
 62
     7
100
AcDbLine
 10
2078.124775120904
 20
1295.785562661
 30
0.0
 11
2066.124775120904
 21
1295.785562661
 31
0.0
  0
LINE
  5
1D6
330
B8
100
AcDbEntity
  8
1
  6
Continuous
 62
     7
100
AcDbLine
 10
2072.624775120904
 20
1309.785562661
 30
0.0
 11
2075.124775120904
 21
1307.285562661
 31
0.0
  0
LINE
  5
1D7
330
B8
100
AcDbEntity
  8
1
  6
Continuous
 62
     7
100
AcDbLine
 10
2069.124775120904
 20
1307.285562661
 30
0.0
 11
2071.624775120904
 21
1309.785562661
 31
0.0
  0
LINE
  5
1D8
330
B8
100
AcDbEntity
  8
1
  6
Continuous
 62
     3
100
AcDbLine
 10
2069.124775120904
 20
1307.285562661
 30
0.0
 11
2069.124775120904
 21
1295.785562661
 31
0.0
  0
LINE
  5
1D9
330
B8
100
AcDbEntity
  8
1
  6
Continuous
 62
     7
100
AcDbLine
 10
2069.124775120904
 20
1307.285562661
 30
0.0
 11
2075.124775120904
 21
1307.285562661
 31
0.0
  0
LINE
  5
1DA
330
B8
100
AcDbEntity
  8
1
  6
Continuous
 62
     7
100
AcDbLine
 10
2072.624775120904
 20
1309.785562661
 30
0.0
 11
2071.624775120904
 21
1309.785562661
 31
0.0
  0
LINE
  5
1DB
330
B8
100
AcDbEntity
  8
1
  6
Continuous
 62
     7
100
AcDbLine
 10
2071.308108454237
 20
1291.95385138404
 30
0.0
 11
2070.958108454237
 21
1291.25385138404
 31
0.0
  0
LINE
  5
1DC
330
B8
100
AcDbEntity
  8
1
  6
Continuous
 62
     7
100
AcDbLine
 10
2072.941441787571
 20
1291.95385138404
 30
0.0
 11
2071.308108454237
 21
1291.95385138404
 31
0.0
  0
LINE
  5
1DD
330
B8
100
AcDbEntity
  8
1
  6
Continuous
 62
     7
100
AcDbLine
 10
2073.29144178757
 20
1291.25385138404
 30
0.0
 11
2072.941441787571
 21
1291.95385138404
 31
0.0
  0
LINE
  5
1DE
330
B8
100
AcDbEntity
  8
1
  6
Continuous
 62
     7
100
AcDbLine
 10
2078.124775120904
 20
1293.185562661
 30
0.0
 11
2078.124775120904
 21
1295.785562661
 31
0.0
  0
LINE
  5
1DF
330
B8
100
AcDbEntity
  8
1
  6
Continuous
 62
     7
100
AcDbLine
 10
2069.666275120904
 20
1295.785562661
 30
0.0
 11
2069.666275120904
 21
1307.285562661
 31
0.0
  0
LINE
  5
1E0
330
B8
100
AcDbEntity
  8
1
  6
Continuous
 62
     7
100
AcDbLine
 10
2074.583275120904
 20
1295.785562661
 30
0.0
 11
2074.583275120904
 21
1307.285562661
 31
0.0
  0
LINE
  5
1E1
330
B8
100
AcDbEntity
  8
1
  6
Continuous
 62
     3
100
AcDbLine
 10
2075.124775120904
 20
1295.785562661
 30
0.0
 11
2075.124775120904
 21
1307.285562661
 31
0.0
  0
LINE
  5
1E2
330
B8
100
AcDbEntity
  8
1
  6
Continuous
 62
     7
100
AcDbLine
 10
2037.124775120904
 20
1336.16707313372
 30
0.0
 11
2037.124775120904
 21
1338.16707313372
 31
0.0
  0
LINE
  5
1E3
330
B8
100
AcDbEntity
  8
1
  6
Continuous
 62
     7
100
AcDbLine
 10
2047.124775120904
 20
1336.16707313372
 30
0.0
 11
2047.124775120904
 21
1338.16707313372
 31
0.0
  0
LINE
  5
1E4
330
B8
100
AcDbEntity
  8
1
  6
Continuous
 62
     7
100
AcDbLine
 10
2037.124775120904
 20
1336.16707313372
 30
0.0
 11
2047.124775120904
 21
1336.16707313372
 31
0.0
  0
LINE
  5
1E5
330
B8
100
AcDbEntity
  8
1
  6
CENTER_NEW
 62
     2
100
AcDbLine
 10
2038.949775120904
 20
1332.86707313372
 30
0.0
 11
2045.299775120904
 21
1332.86707313372
 31
0.0
  0
LINE
  5
1E6
330
B8
100
AcDbEntity
  8
1
  6
Continuous
 62
     7
100
AcDbLine
 10
2036.124775120904
 20
1339.16707313372
 30
0.0
 11
2010.124775120904
 21
1339.16707313372
 31
0.0
  0
LINE
  5
1E7
330
B8
100
AcDbEntity
  8
1
  6
Continuous
 62
     7
100
AcDbLine
 10
2037.124775120904
 20
1332.86707313372
 30
0.0
 11
2037.124775120904
 21
1336.16707313372
 31
0.0
  0
LINE
  5
1E8
330
B8
100
AcDbEntity
  8
1
  6
Continuous
 62
     7
100
AcDbLine
 10
2047.124775120904
 20
1332.86707313372
 30
0.0
 11
2047.124775120904
 21
1336.16707313372
 31
0.0
  0
LINE
  5
1E9
330
B8
100
AcDbEntity
  8
1
  6
Continuous
 62
     7
100
AcDbLine
 10
2047.374775120904
 20
1320.86707313372
 30
0.0
 11
2078.124775120904
 21
1320.86707313372
 31
0.0
  0
LINE
  5
1EA
330
B8
100
AcDbEntity
  8
1
  6
Continuous
 62
     7
100
AcDbLine
 10
2047.374775120904
 20
1320.36707313372
 30
0.0
 11
2047.374775120904
 21
1320.86707313372
 31
0.0
  0
LINE
  5
1EB
330
B8
100
AcDbEntity
  8
1
  6
Continuous
 62
     7
100
AcDbLine
 10
2037.374775120904
 20
1319.86707313372
 30
0.0
 11
2046.874775120904
 21
1319.86707313372
 31
0.0
  0
LINE
  5
1EC
330
B8
100
AcDbEntity
  8
1
  6
Continuous
 62
     7
100
AcDbLine
 10
2036.874775120904
 20
1320.86707313372
 30
0.0
 11
2047.374775120904
 21
1320.86707313372
 31
0.0
  0
LINE
  5
1ED
330
B8
100
AcDbEntity
  8
1
  6
Continuous
 62
     7
100
AcDbLine
 10
2036.874775120904
 20
1320.86707313372
 30
0.0
 11
2036.874775120904
 21
1320.36707313372
 31
0.0
  0
LINE
  5
1EE
330
B8
100
AcDbEntity
  8
1
  6
Continuous
 62
     7
100
AcDbLine
 10
2009.124775120904
 20
1322.617457771866
 30
0.0
 11
2009.124775120904
 21
1321.86707313372
 31
0.0
  0
LINE
  5
1EF
330
B8
100
AcDbEntity
  8
1
  6
Continuous
 62
     7
100
AcDbLine
 10
2079.124775120904
 20
1322.617457771866
 30
0.0
 11
2079.124775120904
 21
1338.16707313372
 31
0.0
  0
LINE
  5
1F0
330
B8
100
AcDbEntity
  8
1
  6
Continuous
 62
     7
100
AcDbLine
 10
2009.124775120904
 20
1322.617457771866
 30
0.0
 11
2079.124775120904
 21
1322.617457771866
 31
0.0
  0
LINE
  5
1F1
330
B8
100
AcDbEntity
  8
1
  6
Continuous
 62
     7
100
AcDbLine
 10
1868.124775120904
 20
1321.61707313372
 30
0.0
 11
1868.124775120904
 21
1321.36707313372
 31
0.0
  0
LINE
  5
1F2
330
B8
100
AcDbEntity
  8
1
  6
Continuous
 62
     7
100
AcDbLine
 10
1867.874775120904
 20
1322.36707313372
 30
0.0
 11
1878.874775120904
 21
1322.36707313372
 31
0.0
  0
LINE
  5
1F3
330
B8
100
AcDbEntity
  8
1
  6
Continuous
 62
     7
100
AcDbLine
 10
1868.624775120904
 20
1320.86707313372
 30
0.0
 11
1878.124775120904
 21
1320.86707313372
 31
0.0
  0
LINE
  5
1F4
330
B8
100
AcDbEntity
  8
1
  6
Continuous
 62
     7
100
AcDbLine
 10
1867.874775120904
 20
1321.944064084534
 30
0.0
 11
1867.874775120904
 21
1322.36707313372
 31
0.0
  0
LINE
  5
1F5
330
B8
100
AcDbEntity
  8
1
  6
Continuous
 62
     7
100
AcDbLine
 10
1878.874775120904
 20
1321.944064084534
 30
0.0
 11
1878.874775120904
 21
1322.36707313372
 31
0.0
  0
LINE
  5
1F6
330
B8
100
AcDbEntity
  8
1
  6
Continuous
 62
     7
100
AcDbLine
 10
1885.774775120904
 20
1322.617457771866
 30
0.0
 11
1885.774775120904
 21
1337.16707313372
 31
0.0
  0
LINE
  5
1F7
330
B8
100
AcDbEntity
  8
1
  6
Continuous
 62
     7
100
AcDbLine
 10
1883.374775120904
 20
1337.16707313372
 30
0.0
 11
1883.374775120904
 21
1339.16707313372
 31
0.0
  0
LINE
  5
1F8
330
B8
100
AcDbEntity
  8
1
  6
Continuous
 62
     7
100
AcDbLine
 10
1864.374775120904
 20
1336.16707313372
 30
0.0
 11
1882.374775120904
 21
1336.16707313372
 31
0.0
  0
LINE
  5
1F9
330
B8
100
AcDbEntity
  8
1
  6
Continuous
 62
     7
100
AcDbLine
 10
1863.374775120904
 20
1339.16707313372
 30
0.0
 11
1862.974775120904
 21
1339.16707313372
 31
0.0
  0
LINE
  5
1FA
330
B8
100
AcDbEntity
  8
1
  6
Continuous
 62
     7
100
AcDbLine
 10
1863.374775120904
 20
1339.16707313372
 30
0.0
 11
1863.374775120904
 21
1337.16707313372
 31
0.0
  0
LINE
  5
1FB
330
B8
100
AcDbEntity
  8
1
  6
Continuous
 62
     7
100
AcDbLine
 10
1860.974775120904
 20
1337.16707313372
 30
0.0
 11
1860.974775120904
 21
1322.617457771866
 31
0.0
  0
LINE
  5
1FC
330
B8
100
AcDbEntity
  8
1
  6
Continuous
 62
     7
100
AcDbLine
 10
1883.774775120904
 20
1339.16707313372
 30
0.0
 11
1883.374775120904
 21
1339.16707313372
 31
0.0
  0
LINE
  5
1FD
330
B8
100
AcDbEntity
  8
1
  6
Continuous
 62
     7
100
AcDbLine
 10
2009.124775120904
 20
1338.16707313372
 30
0.0
 11
2009.124775120904
 21
1322.617457771866
 31
0.0
  0
LINE
  5
1FE
330
B8
100
AcDbEntity
  8
1
  6
Continuous
 62
     7
100
AcDbLine
 10
2078.124775120904
 20
1339.16707313372
 30
0.0
 11
2048.124775120904
 21
1339.16707313372
 31
0.0
  0
LINE
  5
1FF
330
B8
100
AcDbEntity
  8
1
  6
Continuous
 62
     7
100
AcDbLine
 10
2079.124775120904
 20
1321.86707313372
 30
0.0
 11
2079.124775120904
 21
1322.617457771866
 31
0.0
  0
LINE
  5
200
330
B8
100
AcDbEntity
  8
1
  6
Continuous
 62
     7
100
AcDbLine
 10
2010.124775120904
 20
1320.86707313372
 30
0.0
 11
2036.874775120904
 21
1320.86707313372
 31
0.0
  0
ARC
  5
201
330
B8
100
AcDbEntity
  8
1
  6
Continuous
 62
     7
100
AcDbCircle
 10
2072.124775120904
 20
1301.185562661
 30
0.0
 40
10.0
100
AcDbArc
 50
-126.869897645844
 51
-96.69976517776177
  0
ARC
  5
202
330
B8
100
AcDbEntity
  8
1
  6
Continuous
 62
     7
100
AcDbCircle
 10
2072.124775120904
 20
1301.185562661
 30
0.0
 40
10.00000000000017
100
AcDbArc
 50
-83.30023482224342
 51
-53.13010235415598
  0
ARC
  5
203
330
B8
100
AcDbEntity
  8
1
  6
Continuous
 62
     7
100
AcDbCircle
 10
1881.974775120904
 20
1325.86707313372
 30
0.0
 40
4.999999999999625
100
AcDbArc
 50
-128.3161344736712
 51
-90.0
  0
ARC
  5
204
330
B8
100
AcDbEntity
  8
1
  6
Continuous
 62
     7
100
AcDbCircle
 10
2042.124775120904
 20
1332.86707313372
 30
0.0
 40
5.0
100
AcDbArc
 50
180.0
 51
0.0
  0
ARC
  5
205
330
B8
100
AcDbEntity
  8
1
  6
Continuous
 62
     7
100
AcDbCircle
 10
1879.624775120904
 20
1321.36707313372
 30
0.0
 40
0.9999999999999827
100
AcDbArc
 50
138.5903778907303
 51
180.0
  0
ARC
  5
206
330
B8
100
AcDbEntity
  8
1
  6
Continuous
 62
     7
100
AcDbCircle
 10
1867.374775120904
 20
1321.61707313372
 30
0.0
 40
0.75
100
AcDbArc
 50
0.0
 51
48.18968510422624
  0
ARC
  5
207
330
B8
100
AcDbEntity
  8
1
  6
Continuous
 62
     7
100
AcDbCircle
 10
1864.774775120904
 20
1325.86707313372
 30
0.0
 40
4.999999999999722
100
AcDbArc
 50
-139.4641978886864
 51
-51.68386552633092
  0
ARC
  5
208
330
B8
100
AcDbEntity
  8
1
  6
Continuous
 62
     7
100
AcDbCircle
 10
1881.974775120904
 20
1325.86707313372
 30
0.0
 40
5.0
100
AcDbArc
 50
-90.0
 51
-40.53580211131365
  0
CIRCLE
  5
209
330
B8
100
AcDbEntity
  8
1
  6
Continuous
 62
     7
100
AcDbCircle
 10
2042.124775120904
 20
1332.86707313372
 30
0.0
 40
1.175000000000181
  0
ARC
  5
20A
330
B8
100
AcDbEntity
  8
1
  6
Continuous
 62
     7
100
AcDbCircle
 10
1882.374775120904
 20
1337.16707313372
 30
0.0
 40
1.0
100
AcDbArc
 50
-90.0
 51
0.0
  0
ARC
  5
20B
330
B8
100
AcDbEntity
  8
1
  6
Continuous
 62
     7
100
AcDbCircle
 10
1864.374775120904
 20
1337.16707313372
 30
0.0
 40
1.0
100
AcDbArc
 50
180.0
 51
-90.0
  0
ARC
  5
20C
330
B8
100
AcDbEntity
  8
1
  6
Continuous
 62
     7
100
AcDbCircle
 10
1883.774775120904
 20
1337.16707313372
 30
0.0
 40
2.0
100
AcDbArc
 50
0.0
 51
90.0
  0
ARC
  5
20D
330
B8
100
AcDbEntity
  8
1
  6
Continuous
 62
     7
100
AcDbCircle
 10
1862.974775120904
 20
1337.16707313372
 30
0.0
 40
2.0
100
AcDbArc
 50
90.0
 51
180.0
  0
ARC
  5
20E
330
B8
100
AcDbEntity
  8
1
  6
Continuous
 62
     7
100
AcDbCircle
 10
2048.124775120904
 20
1338.16707313372
 30
0.0
 40
1.0
100
AcDbArc
 50
90.0
 51
180.0
  0
ARC
  5
20F
330
B8
100
AcDbEntity
  8
1
  6
Continuous
 62
     7
100
AcDbCircle
 10
2036.124775120904
 20
1338.16707313372
 30
0.0
 40
1.0
100
AcDbArc
 50
0.0
 51
90.0
  0
ARC
  5
210
330
B8
100
AcDbEntity
  8
1
  6
Continuous
 62
     7
100
AcDbCircle
 10
2046.874775120904
 20
1320.36707313372
 30
0.0
 40
0.5
100
AcDbArc
 50
-90.0
 51
0.0
  0
ARC
  5
211
330
B8
100
AcDbEntity
  8
1
  6
Continuous
 62
     7
100
AcDbCircle
 10
2037.374775120904
 20
1320.36707313372
 30
0.0
 40
0.5
100
AcDbArc
 50
180.0
 51
-90.0
  0
ARC
  5
212
330
B8
100
AcDbEntity
  8
1
  6
Continuous
 62
     7
100
AcDbCircle
 10
2078.124775120904
 20
1338.16707313372
 30
0.0
 40
1.0
100
AcDbArc
 50
0.0
 51
90.0
  0
ARC
  5
213
330
B8
100
AcDbEntity
  8
1
  6
Continuous
 62
     7
100
AcDbCircle
 10
2078.124775120904
 20
1321.86707313372
 30
0.0
 40
1.0
100
AcDbArc
 50
-90.0
 51
0.0
  0
ARC
  5
214
330
B8
100
AcDbEntity
  8
1
  6
Continuous
 62
     7
100
AcDbCircle
 10
2010.124775120904
 20
1321.86707313372
 30
0.0
 40
1.0
100
AcDbArc
 50
180.0
 51
-90.0
  0
ARC
  5
215
330
B8
100
AcDbEntity
  8
1
  6
Continuous
 62
     7
100
AcDbCircle
 10
2010.124775120904
 20
1338.16707313372
 30
0.0
 40
1.0
100
AcDbArc
 50
90.0
 51
180.0
  0
ARC
  5
216
330
B8
100
AcDbEntity
  8
1
  6
Continuous
 62
     7
100
AcDbCircle
 10
1878.124775120904
 20
1321.36707313372
 30
0.0
 40
0.5
100
AcDbArc
 50
-90.0
 51
0.0
  0
ARC
  5
217
330
B8
100
AcDbEntity
  8
1
  6
Continuous
 62
     7
100
AcDbCircle
 10
1868.624775120904
 20
1321.36707313372
 30
0.0
 40
0.5
100
AcDbArc
 50
180.0
 51
-90.0
  0
DIMENSION
  5
218
330
B8
100
AcDbEntity
  8
1
100
AcDbDimension
  2
*D6
 10
2009.124775120904
 20
1354.429900957026
 30
0.0
 11
2044.124775120904
 21
1357.179900957026
 31
0.0
  1
<>
 71
     5
 42
-1.0
 53
0.00013888888889
  3
ME10_DIM_10
100
AcDbAlignedDimension
 13
2079.124775120904
 23
1338.16707313372
 33
0.0
 14
2009.124775120904
 24
1338.16707313372
 34
0.0
100
AcDbRotatedDimension
  0
DIMENSION
  5
224
330
B8
100
AcDbEntity
  8
1
100
AcDbDimension
  2
*D7
 10
2072.124775120904
 20
1347.281215074418
 30
0.0
 11
2075.624775120904
 21
1350.031215074418
 31
0.0
  1
<>
 71
     5
 42
-1.0
 53
0.00013888888889
  3
ME10_DIM_11
100
AcDbAlignedDimension
 13
2079.124775120904
 23
1338.16707313372
 33
0.0
 14
2072.124775120904
 24
1341.16707313372
 34
0.0
100
AcDbRotatedDimension
  0
DIMENSION
  5
230
330
B8
100
AcDbEntity
  8
1
100
AcDbDimension
  2
*D8
 10
2042.124775120904
 20
1347.281215074418
 30
0.0
 11
2057.124775120904
 21
1350.031215074418
 31
0.0
  1
<>
 71
     5
 42
-1.0
 53
0.00013888888889
  3
ME10_DIM_12
100
AcDbAlignedDimension
 13
2072.124775120904
 23
1341.16707313372
 33
0.0
 14
2042.124775120904
 24
1343.86707313372
 34
0.0
100
AcDbRotatedDimension
  0
DIMENSION
  5
23C
330
B8
100
AcDbEntity
  8
1
100
AcDbDimension
  2
*D9
 10
2009.124775120904
 20
1347.281215074418
 30
0.0
 11
2028.828102897265
 21
1350.031215074418
 31
0.0
  1
<>
 71
     5
 42
-1.0
 53
0.00013888888889
  3
ME10_DIM_13
100
AcDbAlignedDimension
 13
2042.124775120904
 23
1343.86707313372
 33
0.0
 14
2009.124775120904
 24
1338.16707313372
 34
0.0
100
AcDbRotatedDimension
  0
DIMENSION
  5
248
330
B8
100
AcDbEntity
  8
1
100
AcDbDimension
  2
*D10
 10
1860.974775120904
 20
1347.281215074418
 30
0.0
 11
1873.374775120904
 21
1350.031215074418
 31
0.0
  1
<>
 71
     5
 42
-1.0
 53
0.00013888888889
  3
ME10_DIM_14
100
AcDbAlignedDimension
 13
1885.774775120904
 23
1337.16707313372
 33
0.0
 14
1860.974775120904
 24
1337.16707313372
 34
0.0
100
AcDbRotatedDimension
  0
DIMENSION
  5
254
330
B8
100
AcDbEntity
  8
1
100
AcDbDimension
  2
*D11
 10
1899.02206203075
 20
1320.86707313372
 30
0.0
 11
1896.27206203075
 21
1330.01707313372
 31
0.0
  1
<>
 71
     5
 42
-1.0
 53
90.0
  3
ME10_DIM_15
100
AcDbAlignedDimension
 13
1883.774775120904
 23
1339.16707313372
 33
0.0
 14
1881.974775120904
 24
1320.86707313372
 34
0.0
 50
90.0
100
AcDbRotatedDimension
  0
ENDBLK
  5
260
330
B8
100
AcDbEntity
  8
0
100
AcDbBlockEnd
  0
BLOCK
  5
3B4
330
3B3
100
AcDbEntity
  8
0
100
AcDbBlockBegin
  2
*D13
 70
     1
 10
0.0
 20
0.0
 30
0.0
  3
*D13
  1

  0
LINE
  5
3B5
330
3B3
100
AcDbEntity
  8
1
  6
Continuous
 62
     2
100
AcDbLine
 10
2078.964141405278
 20
1376.346327823175
 30
0.0
 11
2090.526592888495
 21
1368.858585918063
 31
0.0
  0
LINE
  5
3B6
330
3B3
100
AcDbEntity
  8
1
 62
     2
100
AcDbLine
 10
2078.964141405278
 20
1376.346327823175
 30
0.0
 11
2081.377426722813
 21
1375.565613991837
 31
0.0
  0
LINE
  5
3B7
330
3B3
100
AcDbEntity
  8
1
 62
     2
100
AcDbLine
 10
2078.964141405278
 20
1376.346327823175
 30
0.0
 11
2080.663750881175
 21
1374.463567153383
 31
0.0
  0
MTEXT
  5
3B8
330
3B3
100
AcDbEntity
  8
1
 62
     3
100
AcDbMText
 10
2088.044243658048
 20
1371.657508442553
 30
0.0
 40
3.5
 41
0.0
 71
     7
 72
     1
  1
\C3;R\C3;1
  7
CONVERTER_14
 11
0.8393662843737288
 21
-0.543566224720264
 31
0.0
 73
     1
 44
0.6002400960384202
1001
ACAD
1000
MTEXTBEGIN
1070
    73
1070
     1
1070
    44
1040
0.6002400960384202
1070
    74
1070
     0
1000
MTEXTEND
  0
ENDBLK
  5
3B9
330
3B3
100
AcDbEntity
  8
0
100
AcDbBlockEnd
  0
BLOCK
  5
3BB
330
3BA
100
AcDbEntity
  8
0
100
AcDbBlockBegin
  2
*D14
 70
     1
 10
0.0
 20
0.0
 30
0.0
  3
*D14
  1

  0
LINE
  5
5E6
330
3BA
100
AcDbEntity
  8
1
 62
     2
370
    -2
100
AcDbLine
 10
155.5195324828287
 20
285.3065094507127
 30
0.0
 11
155.5195324828287
 21
272.1897560704694
 31
0.0
  0
LINE
  5
5E7
330
3BA
100
AcDbEntity
  8
1
 62
     2
370
    -2
100
AcDbLine
 10
148.5195324824374
 20
284.8552919938977
 30
0.0
 11
148.5195324824374
 21
272.1897560704694
 31
0.0
  0
LINE
  5
5E8
330
3BA
100
AcDbEntity
  8
1
 62
     2
370
    -2
100
AcDbLine
 10
159.0195324830244
 20
273.1897560705253
 30
0.0
 11
162.5195324832201
 21
273.1897560705253
 31
0.0
  0
LINE
  5
5E9
330
3BA
100
AcDbEntity
  8
1
 62
     2
370
    -2
100
AcDbLine
 10
145.0195324822417
 20
273.1897560705253
 30
0.0
 11
141.519532482046
 21
273.1897560705253
 31
0.0
  0
LINE
  5
5EA
330
3BA
100
AcDbEntity
  8
1
 62
     2
370
    -2
100
AcDbLine
 10
155.5195324828287
 20
273.1897560705253
 30
0.0
 11
148.5195324824374
 21
273.1897560705253
 31
0.0
  0
INSERT
  5
5EB
330
3BA
100
AcDbEntity
  8
1
 62
     2
370
    -2
100
AcDbBlockReference
  2
_Open30
 10
155.5195324828287
 20
273.1897560705253
 30
0.0
 41
3.500000000195708
 42
3.500000000195708
 43
3.500000000195708
 50
180.0
  0
INSERT
  5
5EC
330
3BA
100
AcDbEntity
  8
1
 62
     2
370
    -2
100
AcDbBlockReference
  2
_Open30
 10
148.5195324824374
 20
273.1897560705253
 30
0.0
 41
3.500000000195708
 42
3.500000000195708
 43
3.500000000195708
  0
MTEXT
  5
5ED
330
3BA
100
AcDbEntity
  8
1
 62
     3
100
AcDbMText
 10
152.019532482633
 20
275.4397560706511
 30
0.0
 40
3.500000000195708
 41
0.0
 71
     5
 72
     1
  1
\A1;7
  7
CONVERTER_11
 73
     1
 44
1.0
1001
ACAD
1000
MTEXTBEGIN
1070
    73
1070
     1
1070
    44
1040
1.0
1070
    74
1070
     0
1000
MTEXTEND
  0
POINT
  5
5EE
330
3BA
100
AcDbEntity
  8
Defpoints
 62
     0
100
AcDbPoint
 10
155.5195324828287
 20
286.3065094507687
 30
0.0
  0
POINT
  5
5EF
330
3BA
100
AcDbEntity
  8
Defpoints
 62
     0
100
AcDbPoint
 10
148.5195324824374
 20
285.8552919939535
 30
0.0
  0
POINT
  5
5F0
330
3BA
100
AcDbEntity
  8
Defpoints
 62
     0
100
AcDbPoint
 10
148.5195324824374
 20
273.1897560705253
 30
0.0
  0
ENDBLK
  5
3BC
330
3BA
100
AcDbEntity
  8
0
100
AcDbBlockEnd
  0
BLOCK
  5
3C9
330
3C8
100
AcDbEntity
  8
0
100
AcDbBlockBegin
  2
*D15
 70
     1
 10
0.0
 20
0.0
 30
0.0
  3
*D15
  1

  0
LINE
  5
5F1
330
3C8
100
AcDbEntity
  8
1
 62
     2
370
    -2
100
AcDbLine
 10
155.5195324828287
 20
285.3065094507127
 30
0.0
 11
155.5195324828287
 21
272.1897560704694
 31
0.0
  0
LINE
  5
5F2
330
3C8
100
AcDbEntity
  8
1
 62
     2
370
    -2
100
AcDbLine
 10
183.0195324843664
 20
281.806509450517
 30
0.0
 11
183.0195324843664
 21
272.1897560704694
 31
0.0
  0
LINE
  5
5F3
330
3C8
100
AcDbEntity
  8
1
 62
     2
370
    -2
100
AcDbLine
 10
159.0195324830244
 20
273.1897560705253
 30
0.0
 11
179.5195324841707
 21
273.1897560705253
 31
0.0
  0
INSERT
  5
5F4
330
3C8
100
AcDbEntity
  8
1
 62
     2
370
    -2
100
AcDbBlockReference
  2
_Open30
 10
155.5195324828287
 20
273.1897560705253
 30
0.0
 41
3.500000000195708
 42
3.500000000195708
 43
3.500000000195708
 50
180.0
  0
INSERT
  5
5F5
330
3C8
100
AcDbEntity
  8
1
 62
     2
370
    -2
100
AcDbBlockReference
  2
_Open30
 10
183.0195324843664
 20
273.1897560705253
 30
0.0
 41
3.500000000195708
 42
3.500000000195708
 43
3.500000000195708
  0
MTEXT
  5
5F6
330
3C8
100
AcDbEntity
  8
1
 62
     3
100
AcDbMText
 10
169.2695324835975
 20
275.4397560706511
 30
0.0
 40
3.500000000195708
 41
0.0
 71
     5
 72
     1
  1
\A1;27.5
  7
CONVERTER_11
 73
     1
 44
1.0
1001
ACAD
1000
MTEXTBEGIN
1070
    73
1070
     1
1070
    44
1040
1.0
1070
    74
1070
     0
1000
MTEXTEND
  0
POINT
  5
5F7
330
3C8
100
AcDbEntity
  8
Defpoints
 62
     0
100
AcDbPoint
 10
155.5195324828287
 20
286.3065094507687
 30
0.0
  0
POINT
  5
5F8
330
3C8
100
AcDbEntity
  8
Defpoints
 62
     0
100
AcDbPoint
 10
183.0195324843664
 20
282.8065094505729
 30
0.0
  0
POINT
  5
5F9
330
3C8
100
AcDbEntity
  8
Defpoints
 62
     0
100
AcDbPoint
 10
183.0195324843664
 20
273.1897560705253
 30
0.0
  0
ENDBLK
  5
3CA
330
3C8
100
AcDbEntity
  8
0
100
AcDbBlockEnd
  0
BLOCK
  5
3D5
330
3D4
100
AcDbEntity
  8
0
100
AcDbBlockBegin
  2
*D16
 70
     1
 10
0.0
 20
0.0
 30
0.0
  3
*D16
  1

  0
LINE
  5
5FA
330
3D4
100
AcDbEntity
  8
1
 62
     2
370
    -2
100
AcDbLine
 10
155.5195324828287
 20
285.3065094507127
 30
0.0
 11
155.5195324828287
 21
263.3403814668444
 31
0.0
  0
LINE
  5
5FB
330
3D4
100
AcDbEntity
  8
1
 62
     2
370
    -2
100
AcDbLine
 10
192.0195324848696
 20
285.8065094507407
 30
0.0
 11
192.0195324848696
 21
263.3403814668444
 31
0.0
  0
LINE
  5
5FC
330
3D4
100
AcDbEntity
  8
1
 62
     2
370
    -2
100
AcDbLine
 10
157.9695324829657
 20
264.3403814669003
 30
0.0
 11
189.5695324847326
 21
264.3403814669003
 31
0.0
  0
INSERT
  5
5FD
330
3D4
100
AcDbEntity
  8
1
 62
     2
370
    -2
100
AcDbBlockReference
  2
_Open30
 10
155.5195324828287
 20
264.3403814669003
 30
0.0
 41
2.450000000136996
 42
2.450000000136996
 43
2.450000000136996
 50
180.0
  0
INSERT
  5
5FE
330
3D4
100
AcDbEntity
  8
1
 62
     2
370
    -2
100
AcDbBlockReference
  2
_Open30
 10
192.0195324848696
 20
264.3403814669003
 30
0.0
 41
2.450000000136996
 42
2.450000000136996
 43
2.450000000136996
  0
MTEXT
  5
5FF
330
3D4
100
AcDbEntity
  8
1
 62
     3
100
AcDbMText
 10
173.7695324838491
 20
267.0903814670541
 30
0.0
 40
3.500000000195708
 41
0.0
 71
     5
 72
     1
  1
\A1;36.5
  7
CONVERTER_14
 73
     1
 44
1.0
1001
ACAD
1000
MTEXTBEGIN
1070
    73
1070
     1
1070
    44
1040
1.0
1070
    74
1070
     0
1000
MTEXTEND
  0
POINT
  5
600
330
3D4
100
AcDbEntity
  8
Defpoints
 62
     0
100
AcDbPoint
 10
155.5195324828287
 20
286.3065094507687
 30
0.0
  0
POINT
  5
601
330
3D4
100
AcDbEntity
  8
Defpoints
 62
     0
100
AcDbPoint
 10
192.0195324848696
 20
286.8065094507966
 30
0.0
  0
POINT
  5
602
330
3D4
100
AcDbEntity
  8
Defpoints
 62
     0
100
AcDbPoint
 10
192.0195324848696
 20
264.3403814669003
 30
0.0
  0
ENDBLK
  5
3D6
330
3D4
100
AcDbEntity
  8
0
100
AcDbBlockEnd
  0
BLOCK
  5
3E1
330
3E0
100
AcDbEntity
  8
0
100
AcDbBlockBegin
  2
*D17
 70
     1
 10
0.0
 20
0.0
 30
0.0
  3
*D17
  1

  0
LINE
  5
603
330
3E0
100
AcDbEntity
  8
1
 62
     2
370
    -2
100
AcDbLine
 10
23.16953247542822
 20
330.806509453257
 30
0.0
 11
51.16953247699392
 21
330.806509453257
 31
0.0
  0
LINE
  5
604
330
3E0
100
AcDbEntity
  8
1
 62
     2
370
    -2
100
AcDbLine
 10
15.26953247498634
 20
285.8065094507407
 30
0.0
 11
51.16953247699392
 21
285.8065094507407
 31
0.0
  0
LINE
  5
605
330
3E0
100
AcDbEntity
  8
1
 62
     2
370
    -2
100
AcDbLine
 10
50.16953247693801
 20
328.35650945312
 30
0.0
 11
50.169532476938
 21
288.2565094508777
 31
0.0
  0
INSERT
  5
606
330
3E0
100
AcDbEntity
  8
1
 62
     2
370
    -2
100
AcDbBlockReference
  2
_Open30
 10
50.16953247693801
 20
330.806509453257
 30
0.0
 41
2.450000000136996
 42
2.450000000136996
 43
2.450000000136996
 50
90.0
  0
INSERT
  5
607
330
3E0
100
AcDbEntity
  8
1
 62
     2
370
    -2
100
AcDbBlockReference
  2
_Open30
 10
50.169532476938
 20
285.8065094507407
 30
0.0
 41
2.450000000136996
 42
2.450000000136996
 43
2.450000000136996
 50
270.0
  0
MTEXT
  5
608
330
3E0
100
AcDbEntity
  8
1
 62
     3
100
AcDbMText
 10
47.41953247678419
 20
308.3065094519989
 30
0.0
 40
3.500000000195708
 41
0.0
 71
     5
 72
     1
  1
\A1;45
  7
CONVERTER_14
 11
0.0000000000000001
 21
1.0
 31
0.0
 73
     1
 44
1.0
1001
ACAD
1000
MTEXTBEGIN
1070
    73
1070
     1
1070
    44
1040
1.0
1070
    74
1070
     0
1000
MTEXTEND
  0
POINT
  5
609
330
3E0
100
AcDbEntity
  8
Defpoints
 62
     0
100
AcDbPoint
 10
22.16953247537231
 20
330.806509453257
 30
0.0
  0
POINT
  5
60A
330
3E0
100
AcDbEntity
  8
Defpoints
 62
     0
100
AcDbPoint
 10
14.26953247493043
 20
285.8065094507407
 30
0.0
  0
POINT
  5
60B
330
3E0
100
AcDbEntity
  8
Defpoints
 62
     0
100
AcDbPoint
 10
50.169532476938
 20
285.8065094507407
 30
0.0
  0
ENDBLK
  5
3E2
330
3E0
100
AcDbEntity
  8
0
100
AcDbBlockEnd
  0
BLOCK
  5
3ED
330
3EC
100
AcDbEntity
  8
0
100
AcDbBlockBegin
  2
*D18
 70
     1
 10
0.0
 20
0.0
 30
0.0
  3
*D18
  1

  0
LINE
  5
60C
330
3EC
100
AcDbEntity
  8
1
 62
     2
370
    -2
100
AcDbLine
 10
6.369532474488776
 20
292.7065094511267
 30
0.0
 11
6.369532474488776
 21
263.8065094495106
 31
0.0
  0
LINE
  5
60D
330
3EC
100
AcDbEntity
  8
1
 62
     2
370
    -2
100
AcDbLine
 10
22.16953247537231
 20
292.7065094511267
 30
0.0
 11
22.1695324753723
 21
263.8065094495106
 31
0.0
  0
LINE
  5
60E
330
3EC
100
AcDbEntity
  8
1
 62
     2
370
    -2
100
AcDbLine
 10
8.819532474625773
 20
264.8065094495665
 30
0.0
 11
19.71953247523531
 21
264.8065094495665
 31
0.0
  0
INSERT
  5
60F
330
3EC
100
AcDbEntity
  8
1
 62
     2
370
    -2
100
AcDbBlockReference
  2
_Open30
 10
6.369532474488776
 20
264.8065094495665
 30
0.0
 41
2.450000000136996
 42
2.450000000136996
 43
2.450000000136996
 50
180.0
  0
INSERT
  5
610
330
3EC
100
AcDbEntity
  8
1
 62
     2
370
    -2
100
AcDbBlockReference
  2
_Open30
 10
22.16953247537231
 20
264.8065094495665
 30
0.0
 41
2.450000000136996
 42
2.450000000136996
 43
2.450000000136996
  0
MTEXT
  5
611
330
3EC
100
AcDbEntity
  8
1
 62
     3
100
AcDbMText
 10
14.26953247493054
 20
267.5565094497203
 30
0.0
 40
3.500000000195708
 41
0.0
 71
     5
 72
     1
  1
\A1;15.8
  7
CONVERTER_14
 73
     1
 44
1.0
1001
ACAD
1000
MTEXTBEGIN
1070
    73
1070
     1
1070
    44
1040
1.0
1070
    74
1070
     0
1000
MTEXTEND
  0
POINT
  5
612
330
3EC
100
AcDbEntity
  8
Defpoints
 62
     0
100
AcDbPoint
 10
6.369532474488776
 20
293.7065094511826
 30
0.0
  0
POINT
  5
613
330
3EC
100
AcDbEntity
  8
Defpoints
 62
     0
100
AcDbPoint
 10
22.16953247537231
 20
293.7065094511826
 30
0.0
  0
POINT
  5
614
330
3EC
100
AcDbEntity
  8
Defpoints
 62
     0
100
AcDbPoint
 10
22.16953247537231
 20
264.8065094495665
 30
0.0
  0
ENDBLK
  5
3EE
330
3EC
100
AcDbEntity
  8
0
100
AcDbBlockEnd
  0
BLOCK
  5
3F9
330
3F8
100
AcDbEntity
  8
0
100
AcDbBlockBegin
  2
*D19
 70
     1
 10
0.0
 20
0.0
 30
0.0
  3
*D19
  1

  0
LINE
  5
615
330
3F8
100
AcDbEntity
  8
1
 62
     2
370
    -2
100
AcDbLine
 10
195.0195324850374
 20
318.8065094525861
 30
0.0
 11
205.1763029348912
 21
318.8065094525861
 31
0.0
  0
LINE
  5
616
330
3F8
100
AcDbEntity
  8
1
 62
     2
370
    -2
100
AcDbLine
 10
193.0195324849255
 20
330.806509453257
 30
0.0
 11
205.1763029348912
 21
330.806509453257
 31
0.0
  0
LINE
  5
617
330
3F8
100
AcDbEntity
  8
1
 62
     2
370
    -2
100
AcDbLine
 10
204.1763029348353
 20
321.2565094527231
 30
0.0
 11
204.1763029348353
 21
328.35650945312
 31
0.0
  0
INSERT
  5
618
330
3F8
100
AcDbEntity
  8
1
 62
     2
370
    -2
100
AcDbBlockReference
  2
_Open30
 10
204.1763029348353
 20
318.8065094525861
 30
0.0
 41
2.450000000136996
 42
2.450000000136996
 43
2.450000000136996
 50
270.0
  0
INSERT
  5
619
330
3F8
100
AcDbEntity
  8
1
 62
     2
370
    -2
100
AcDbBlockReference
  2
_Open30
 10
204.1763029348353
 20
330.806509453257
 30
0.0
 41
2.450000000136996
 42
2.450000000136996
 43
2.450000000136996
 50
90.0
  0
MTEXT
  5
61A
330
3F8
100
AcDbEntity
  8
1
 62
     3
100
AcDbMText
 10
201.4263029346815
 20
324.8065094529217
 30
0.0
 40
3.500000000195708
 41
0.0
 71
     5
 72
     1
  1
\A1;12
  7
CONVERTER_14
 11
0.0000000000000001
 21
1.0
 31
0.0
 73
     1
 44
1.0
1001
ACAD
1000
MTEXTBEGIN
1070
    73
1070
     1
1070
    44
1040
1.0
1070
    74
1070
     0
1000
MTEXTEND
  0
POINT
  5
61B
330
3F8
100
AcDbEntity
  8
Defpoints
 62
     0
100
AcDbPoint
 10
194.0195324849815
 20
318.8065094525861
 30
0.0
  0
POINT
  5
61C
330
3F8
100
AcDbEntity
  8
Defpoints
 62
     0
100
AcDbPoint
 10
192.0195324848696
 20
330.806509453257
 30
0.0
  0
POINT
  5
61D
330
3F8
100
AcDbEntity
  8
Defpoints
 62
     0
100
AcDbPoint
 10
204.1763029348353
 20
330.806509453257
 30
0.0
  0
ENDBLK
  5
3FA
330
3F8
100
AcDbEntity
  8
0
100
AcDbBlockEnd
  0
BLOCK
  5
405
330
404
100
AcDbEntity
  8
0
100
AcDbBlockBegin
  2
*D20
 70
     1
 10
0.0
 20
0.0
 30
0.0
  3
*D20
  1

  0
LINE
  5
61E
330
404
100
AcDbEntity
  8
1
 62
     2
370
    -2
100
AcDbLine
 10
192.0195324848696
 20
285.8065094507407
 30
0.0
 11
205.1763029348912
 21
285.8065094507407
 31
0.0
  0
LINE
  5
61F
330
404
100
AcDbEntity
  8
1
 62
     2
370
    -2
100
AcDbLine
 10
195.0195324850374
 20
318.8065094525861
 30
0.0
 11
205.1763029348912
 21
318.8065094525861
 31
0.0
  0
LINE
  5
620
330
404
100
AcDbEntity
  8
1
 62
     2
370
    -2
100
AcDbLine
 10
204.1763029348353
 20
288.2565094508777
 30
0.0
 11
204.1763029348353
 21
316.3565094524491
 31
0.0
  0
INSERT
  5
621
330
404
100
AcDbEntity
  8
1
 62
     2
370
    -2
100
AcDbBlockReference
  2
_Open30
 10
204.1763029348353
 20
285.8065094507407
 30
0.0
 41
2.450000000136996
 42
2.450000000136996
 43
2.450000000136996
 50
270.0
  0
INSERT
  5
622
330
404
100
AcDbEntity
  8
1
 62
     2
370
    -2
100
AcDbBlockReference
  2
_Open30
 10
204.1763029348353
 20
318.8065094525861
 30
0.0
 41
2.450000000136996
 42
2.450000000136996
 43
2.450000000136996
 50
90.0
  0
MTEXT
  5
623
330
404
100
AcDbEntity
  8
1
 62
     3
100
AcDbMText
 10
201.4263029346816
 20
302.3065094516634
 30
0.0
 40
3.500000000195708
 41
0.0
 71
     5
 72
     1
  1
\A1;33
  7
CONVERTER_14
 11
0.0000000000000001
 21
1.0
 31
0.0
 73
     1
 44
1.0
1001
ACAD
1000
MTEXTBEGIN
1070
    73
1070
     1
1070
    44
1040
1.0
1070
    74
1070
     0
1000
MTEXTEND
  0
POINT
  5
624
330
404
100
AcDbEntity
  8
Defpoints
 62
     0
100
AcDbPoint
 10
191.0195324848137
 20
285.8065094507407
 30
0.0
  0
POINT
  5
625
330
404
100
AcDbEntity
  8
Defpoints
 62
     0
100
AcDbPoint
 10
194.0195324849815
 20
318.8065094525861
 30
0.0
  0
POINT
  5
626
330
404
100
AcDbEntity
  8
Defpoints
 62
     0
100
AcDbPoint
 10
204.1763029348353
 20
318.8065094525861
 30
0.0
  0
ENDBLK
  5
406
330
404
100
AcDbEntity
  8
0
100
AcDbBlockEnd
  0
BLOCK
  5
411
330
410
100
AcDbEntity
  8
0
100
AcDbBlockBegin
  2
*D21
 70
     1
 10
0.0
 20
0.0
 30
0.0
  3
*D21
  1

  0
LINE
  5
627
330
410
100
AcDbEntity
  8
1
 62
     2
370
    -2
100
AcDbLine
 10
150.0195324825213
 20
417.1293303722599
 30
0.0
 11
139.4501842938462
 21
417.1293303722599
 31
0.0
  0
LINE
  5
628
330
410
100
AcDbEntity
  8
1
 62
     2
370
    -2
100
AcDbLine
 10
149.0195324824654
 20
414.7293303721258
 30
0.0
 11
139.4501842938462
 21
414.7293303721258
 31
0.0
  0
LINE
  5
629
330
410
100
AcDbEntity
  8
1
 62
     2
370
    -2
100
AcDbLine
 10
140.4501842939021
 20
419.5793303723968
 30
0.0
 11
140.4501842939021
 21
422.0293303725338
 31
0.0
  0
LINE
  5
62A
330
410
100
AcDbEntity
  8
1
 62
     2
370
    -2
100
AcDbLine
 10
140.4501842939021
 20
412.2793303719888
 30
0.0
 11
140.4501842939021
 21
403.3405803714891
 31
0.0
  0
LINE
  5
62B
330
410
100
AcDbEntity
  8
1
 62
     2
370
    -2
100
AcDbLine
 10
140.4501842939021
 20
417.1293303722599
 30
0.0
 11
140.4501842939021
 21
414.7293303721258
 31
0.0
  0
INSERT
  5
62C
330
410
100
AcDbEntity
  8
1
 62
     2
370
    -2
100
AcDbBlockReference
  2
_Open30
 10
140.4501842939021
 20
417.1293303722599
 30
0.0
 41
2.450000000136996
 42
2.450000000136996
 43
2.450000000136996
 50
270.0
  0
INSERT
  5
62D
330
410
100
AcDbEntity
  8
1
 62
     2
370
    -2
100
AcDbBlockReference
  2
_Open30
 10
140.4501842939021
 20
414.7293303721258
 30
0.0
 41
2.450000000136996
 42
2.450000000136996
 43
2.450000000136996
 50
90.0
  0
MTEXT
  5
62E
330
410
100
AcDbEntity
  8
1
 62
     3
100
AcDbMText
 10
137.7001842937483
 20
406.5849553716705
 30
0.0
 40
3.500000000195708
 41
0.0
 71
     5
 72
     1
  1
\A1;2.4
  7
CONVERTER_14
 11
0.0000000000000001
 21
1.0
 31
0.0
 73
     1
 44
1.0
1001
ACAD
1000
MTEXTBEGIN
1070
    73
1070
     1
1070
    44
1040
1.0
1070
    74
1070
     0
1000
MTEXTEND
  0
POINT
  5
62F
330
410
100
AcDbEntity
  8
Defpoints
 62
     0
100
AcDbPoint
 10
151.0195324825772
 20
417.1293303722599
 30
0.0
  0
POINT
  5
630
330
410
100
AcDbEntity
  8
Defpoints
 62
     0
100
AcDbPoint
 10
150.0195324825213
 20
414.7293303721258
 30
0.0
  0
POINT
  5
631
330
410
100
AcDbEntity
  8
Defpoints
 62
     0
100
AcDbPoint
 10
140.4501842939021
 20
414.7293303721258
 30
0.0
  0
ENDBLK
  5
412
330
410
100
AcDbEntity
  8
0
100
AcDbBlockEnd
  0
BLOCK
  5
41F
330
41E
100
AcDbEntity
  8
0
100
AcDbBlockBegin
  2
*D22
 70
     1
 10
0.0
 20
0.0
 30
0.0
  3
*D22
  1

  0
LINE
  5
632
330
41E
100
AcDbEntity
  8
1
 62
     2
370
    -2
100
AcDbLine
 10
150.0195324825213
 20
392.3293303708732
 30
0.0
 11
139.4501842938462
 21
392.3293303708732
 31
0.0
  0
LINE
  5
633
330
41E
100
AcDbEntity
  8
1
 62
     2
370
    -2
100
AcDbLine
 10
151.019532482577
 20
394.7293303710076
 30
0.0
 11
139.4501842938462
 21
394.7293303710076
 31
0.0
  0
LINE
  5
634
330
41E
100
AcDbEntity
  8
1
 62
     2
370
    -2
100
AcDbLine
 10
140.4501842939021
 20
397.1793303711444
 30
0.0
 11
140.4501842939021
 21
399.6293303712815
 31
0.0
  0
LINE
  5
635
330
41E
100
AcDbEntity
  8
1
 62
     2
370
    -2
100
AcDbLine
 10
140.4501842939021
 20
389.8793303707362
 30
0.0
 11
140.4501842939021
 21
380.940580369781
 31
0.0
  0
LINE
  5
636
330
41E
100
AcDbEntity
  8
1
 62
     2
370
    -2
100
AcDbLine
 10
140.4501842939021
 20
394.7293303710076
 30
0.0
 11
140.4501842939021
 21
392.3293303708732
 31
0.0
  0
INSERT
  5
637
330
41E
100
AcDbEntity
  8
1
 62
     2
370
    -2
100
AcDbBlockReference
  2
_Open30
 10
140.4501842939021
 20
394.7293303710076
 30
0.0
 41
2.450000000136996
 42
2.450000000136996
 43
2.450000000136996
 50
270.0
  0
INSERT
  5
638
330
41E
100
AcDbEntity
  8
1
 62
     2
370
    -2
100
AcDbBlockReference
  2
_Open30
 10
140.4501842939021
 20
392.3293303708732
 30
0.0
 41
2.450000000136996
 42
2.450000000136996
 43
2.450000000136996
 50
90.0
  0
MTEXT
  5
639
330
41E
100
AcDbEntity
  8
1
 62
     3
100
AcDbMText
 10
137.7001842937483
 20
384.1849553699625
 30
0.0
 40
3.500000000195708
 41
0.0
 71
     5
 72
     1
  1
\A1;2.4
  7
CONVERTER_14
 11
0.0000000000000001
 21
1.0
 31
0.0
 73
     1
 44
1.0
1001
ACAD
1000
MTEXTBEGIN
1070
    73
1070
     1
1070
    44
1040
1.0
1070
    74
1070
     0
1000
MTEXTEND
  0
POINT
  5
63A
330
41E
100
AcDbEntity
  8
Defpoints
 62
     0
100
AcDbPoint
 10
151.0195324825772
 20
392.3293303708732
 30
0.0
  0
POINT
  5
63B
330
41E
100
AcDbEntity
  8
Defpoints
 62
     0
100
AcDbPoint
 10
152.0195324826329
 20
394.7293303710076
 30
0.0
  0
POINT
  5
63C
330
41E
100
AcDbEntity
  8
Defpoints
 62
     0
100
AcDbPoint
 10
140.4501842939021
 20
394.7293303710076
 30
0.0
  0
ENDBLK
  5
420
330
41E
100
AcDbEntity
  8
0
100
AcDbBlockEnd
  0
BLOCK
  5
42D
330
42C
100
AcDbEntity
  8
0
100
AcDbBlockBegin
  2
*D23
 70
     1
 10
0.0
 20
0.0
 30
0.0
  3
*D23
  1

  0
LINE
  5
63D
330
42C
100
AcDbEntity
  8
1
 62
     2
370
    -2
100
AcDbLine
 10
152.0195324826329
 20
415.7293303721817
 30
0.0
 11
152.0195324826329
 21
424.7799026051576
 31
0.0
  0
LINE
  5
63E
330
42C
100
AcDbEntity
  8
1
 62
     2
370
    -2
100
AcDbLine
 10
150.0195324825213
 20
415.7293303721817
 30
0.0
 11
150.0195324825213
 21
424.7799026051576
 31
0.0
  0
LINE
  5
63F
330
42C
100
AcDbEntity
  8
1
 62
     2
370
    -2
100
AcDbLine
 10
154.4695324827699
 20
423.7799026051017
 30
0.0
 11
156.9195324829069
 21
423.7799026051017
 31
0.0
  0
LINE
  5
640
330
42C
100
AcDbEntity
  8
1
 62
     2
370
    -2
100
AcDbLine
 10
147.5695324823843
 20
423.7799026051017
 30
0.0
 11
141.7230324820574
 21
423.7799026051017
 31
0.0
  0
LINE
  5
641
330
42C
100
AcDbEntity
  8
1
 62
     2
370
    -2
100
AcDbLine
 10
152.0195324826329
 20
423.7799026051017
 30
0.0
 11
150.0195324825213
 21
423.7799026051017
 31
0.0
  0
INSERT
  5
642
330
42C
100
AcDbEntity
  8
1
 62
     2
370
    -2
100
AcDbBlockReference
  2
_Open30
 10
152.0195324826329
 20
423.7799026051017
 30
0.0
 41
2.450000000136996
 42
2.450000000136996
 43
2.450000000136996
 50
180.0
  0
INSERT
  5
643
330
42C
100
AcDbEntity
  8
1
 62
     2
370
    -2
100
AcDbBlockReference
  2
_Open30
 10
150.0195324825213
 20
423.7799026051017
 30
0.0
 41
2.450000000136996
 42
2.450000000136996
 43
2.450000000136996
  0
MTEXT
  5
644
330
42C
100
AcDbEntity
  8
1
 62
     3
100
AcDbMText
 10
143.4212824821523
 20
426.5299026052553
 30
0.0
 40
3.500000000195708
 41
0.0
 71
     5
 72
     1
  1
\A1;2
  7
CONVERTER_14
 73
     1
 44
1.0
1001
ACAD
1000
MTEXTBEGIN
1070
    73
1070
     1
1070
    44
1040
1.0
1070
    74
1070
     0
1000
MTEXTEND
  0
POINT
  5
645
330
42C
100
AcDbEntity
  8
Defpoints
 62
     0
100
AcDbPoint
 10
152.0195324826329
 20
414.7293303721258
 30
0.0
  0
POINT
  5
646
330
42C
100
AcDbEntity
  8
Defpoints
 62
     0
100
AcDbPoint
 10
150.0195324825213
 20
414.7293303721258
 30
0.0
  0
POINT
  5
647
330
42C
100
AcDbEntity
  8
Defpoints
 62
     0
100
AcDbPoint
 10
150.0195324825213
 20
423.7799026051017
 30
0.0
  0
ENDBLK
  5
42E
330
42C
100
AcDbEntity
  8
0
100
AcDbBlockEnd
  0
BLOCK
  5
43B
330
43A
100
AcDbEntity
  8
0
100
AcDbBlockBegin
  2
*D24
 70
     1
 10
0.0
 20
0.0
 30
0.0
  3
*D24
  1

  0
LINE
  5
648
330
43A
100
AcDbEntity
  8
1
 62
     2
370
    -2
100
AcDbLine
 10
220.0195324864353
 20
415.7293303721817
 30
0.0
 11
220.0195324864353
 21
424.7799026051576
 31
0.0
  0
LINE
  5
649
330
43A
100
AcDbEntity
  8
1
 62
     2
370
    -2
100
AcDbLine
 10
218.0195324863234
 20
415.7293303721817
 30
0.0
 11
218.0195324863234
 21
424.7799026051576
 31
0.0
  0
LINE
  5
64A
330
43A
100
AcDbEntity
  8
1
 62
     2
370
    -2
100
AcDbLine
 10
222.4695324865723
 20
423.7799026051017
 30
0.0
 11
224.9195324867093
 21
423.7799026051017
 31
0.0
  0
LINE
  5
64B
330
43A
100
AcDbEntity
  8
1
 62
     2
370
    -2
100
AcDbLine
 10
215.5695324861864
 20
423.7799026051017
 30
0.0
 11
209.7230324858595
 21
423.7799026051017
 31
0.0
  0
LINE
  5
64C
330
43A
100
AcDbEntity
  8
1
 62
     2
370
    -2
100
AcDbLine
 10
220.0195324864353
 20
423.7799026051017
 30
0.0
 11
218.0195324863234
 21
423.7799026051017
 31
0.0
  0
INSERT
  5
64D
330
43A
100
AcDbEntity
  8
1
 62
     2
370
    -2
100
AcDbBlockReference
  2
_Open30
 10
220.0195324864353
 20
423.7799026051017
 30
0.0
 41
2.450000000136996
 42
2.450000000136996
 43
2.450000000136996
 50
180.0
  0
INSERT
  5
64E
330
43A
100
AcDbEntity
  8
1
 62
     2
370
    -2
100
AcDbBlockReference
  2
_Open30
 10
218.0195324863234
 20
423.7799026051017
 30
0.0
 41
2.450000000136996
 42
2.450000000136996
 43
2.450000000136996
  0
MTEXT
  5
64F
330
43A
100
AcDbEntity
  8
1
 62
     3
100
AcDbMText
 10
211.4212824859545
 20
426.5299026052553
 30
0.0
 40
3.500000000195708
 41
0.0
 71
     5
 72
     1
  1
\A1;2
  7
CONVERTER_14
 73
     1
 44
1.0
1001
ACAD
1000
MTEXTBEGIN
1070
    73
1070
     1
1070
    44
1040
1.0
1070
    74
1070
     0
1000
MTEXTEND
  0
POINT
  5
650
330
43A
100
AcDbEntity
  8
Defpoints
 62
     0
100
AcDbPoint
 10
220.0195324864353
 20
414.7293303721258
 30
0.0
  0
POINT
  5
651
330
43A
100
AcDbEntity
  8
Defpoints
 62
     0
100
AcDbPoint
 10
218.0195324863234
 20
414.7293303721258
 30
0.0
  0
POINT
  5
652
330
43A
100
AcDbEntity
  8
Defpoints
 62
     0
100
AcDbPoint
 10
218.0195324863234
 20
423.7799026051017
 30
0.0
  0
ENDBLK
  5
43C
330
43A
100
AcDbEntity
  8
0
100
AcDbBlockEnd
  0
BLOCK
  5
449
330
448
100
AcDbEntity
  8
0
100
AcDbBlockBegin
  2
*D25
 70
     1
 10
0.0
 20
0.0
 30
0.0
  3
*D25
  1

  0
LINE
  5
653
330
448
100
AcDbEntity
  8
1
 62
     2
370
    -2
100
AcDbLine
 10
188.0195324846461
 20
417.3234273083308
 30
0.0
 11
188.0195324846461
 21
424.7799026051576
 31
0.0
  0
LINE
  5
654
330
448
100
AcDbEntity
  8
1
 62
     2
370
    -2
100
AcDbLine
 10
178.019532484087
 20
415.7293303721817
 30
0.0
 11
178.019532484087
 21
424.7799026051576
 31
0.0
  0
LINE
  5
655
330
448
100
AcDbEntity
  8
1
 62
     2
370
    -2
100
AcDbLine
 10
185.5695324845091
 20
423.7799026051017
 30
0.0
 11
180.469532484224
 21
423.7799026051017
 31
0.0
  0
INSERT
  5
656
330
448
100
AcDbEntity
  8
1
 62
     2
370
    -2
100
AcDbBlockReference
  2
_Open30
 10
188.0195324846461
 20
423.7799026051017
 30
0.0
 41
2.450000000136996
 42
2.450000000136996
 43
2.450000000136996
  0
INSERT
  5
657
330
448
100
AcDbEntity
  8
1
 62
     2
370
    -2
100
AcDbBlockReference
  2
_Open30
 10
178.019532484087
 20
423.7799026051017
 30
0.0
 41
2.450000000136996
 42
2.450000000136996
 43
2.450000000136996
 50
180.0
  0
MTEXT
  5
658
330
448
100
AcDbEntity
  8
1
 62
     3
100
AcDbMText
 10
183.0195324843665
 20
426.5299026052553
 30
0.0
 40
3.500000000195708
 41
0.0
 71
     5
 72
     1
  1
\A1;10
  7
CONVERTER_14
 73
     1
 44
1.0
1001
ACAD
1000
MTEXTBEGIN
1070
    73
1070
     1
1070
    44
1040
1.0
1070
    74
1070
     0
1000
MTEXTEND
  0
POINT
  5
659
330
448
100
AcDbEntity
  8
Defpoints
 62
     0
100
AcDbPoint
 10
188.0195324846461
 20
416.3234273082748
 30
0.0
  0
POINT
  5
65A
330
448
100
AcDbEntity
  8
Defpoints
 62
     0
100
AcDbPoint
 10
178.019532484087
 20
414.7293303721258
 30
0.0
  0
POINT
  5
65B
330
448
100
AcDbEntity
  8
Defpoints
 62
     0
100
AcDbPoint
 10
178.019532484087
 20
423.7799026051017
 30
0.0
  0
ENDBLK
  5
44A
330
448
100
AcDbEntity
  8
0
100
AcDbBlockEnd
  0
BLOCK
  5
455
330
454
100
AcDbEntity
  8
0
100
AcDbBlockBegin
  2
*D26
 70
     1
 10
0.0
 20
0.0
 30
0.0
  3
*D26
  1

  0
LINE
  5
65C
330
454
100
AcDbEntity
  8
1
 62
     2
370
    -2
100
AcDbLine
 10
190.0195324847577
 20
393.7293303709515
 30
0.0
 11
190.0195324847577
 21
382.5828693557681
 31
0.0
  0
LINE
  5
65D
330
454
100
AcDbEntity
  8
1
 62
     2
370
    -2
100
AcDbLine
 10
176.0195324839751
 20
393.7293303709515
 30
0.0
 11
176.0195324839751
 21
382.5828693557681
 31
0.0
  0
LINE
  5
65E
330
454
100
AcDbEntity
  8
1
 62
     2
370
    -2
100
AcDbLine
 10
187.5695324846207
 20
383.5828693558241
 30
0.0
 11
185.5656574845163
 21
383.5828693558241
 31
0.0
  0
LINE
  5
65F
330
454
100
AcDbEntity
  8
1
 62
     2
370
    -2
100
AcDbLine
 10
178.4695324841121
 20
383.5828693558241
 30
0.0
 11
180.4734074842166
 21
383.5828693558241
 31
0.0
  0
INSERT
  5
660
330
454
100
AcDbEntity
  8
1
 62
     2
370
    -2
100
AcDbBlockReference
  2
_Open30
 10
190.0195324847577
 20
383.5828693558241
 30
0.0
 41
2.450000000136996
 42
2.450000000136996
 43
2.450000000136996
  0
INSERT
  5
661
330
454
100
AcDbEntity
  8
1
 62
     2
370
    -2
100
AcDbBlockReference
  2
_Open30
 10
176.0195324839751
 20
383.5828693558241
 30
0.0
 41
2.450000000136996
 42
2.450000000136996
 43
2.450000000136996
 50
180.0
  0
MTEXT
  5
662
330
454
100
AcDbEntity
  8
1
 62
     3
100
AcDbMText
 10
183.0195324843664
 20
383.5828693558241
 30
0.0
 40
3.500000000195708
 41
0.0
 71
     5
 72
     1
  1
\A1;14
  7
CONVERTER_14
 11
0.999999999997062
 21
0.0000024240684056
 31
0.0
 73
     1
 44
1.0
1001
ACAD
1000
MTEXTBEGIN
1070
    73
1070
     1
1070
    44
1040
1.0
1070
    74
1070
     0
1000
MTEXTEND
  0
POINT
  5
663
330
454
100
AcDbEntity
  8
Defpoints
 62
     0
100
AcDbPoint
 10
190.0195324847577
 20
394.7293303710076
 30
0.0
  0
POINT
  5
664
330
454
100
AcDbEntity
  8
Defpoints
 62
     0
100
AcDbPoint
 10
176.0195324839751
 20
394.7293303710076
 30
0.0
  0
POINT
  5
665
330
454
100
AcDbEntity
  8
Defpoints
 62
     0
100
AcDbPoint
 10
176.0195324839751
 20
383.5828693558241
 30
0.0
  0
ENDBLK
  5
456
330
454
100
AcDbEntity
  8
0
100
AcDbBlockEnd
  0
BLOCK
  5
717
330
716
100
AcDbEntity
  8
0
100
AcDbBlockBegin
  2
*D27
 70
     1
 10
0.0
 20
0.0
 30
0.0
  3
*D27
  1

  0
LINE
  5
764
330
716
100
AcDbEntity
  8
1
 62
     2
370
    -2
100
AcDbLine
 10
213.0195323707799
 20
358.6065093290768
 30
0.0
 11
213.0195323707799
 21
364.720651269775
 31
0.0
  0
LINE
  5
765
330
716
100
AcDbEntity
  8
1
 62
     2
370
    -2
100
AcDbLine
 10
183.0195323707799
 20
361.3065093290769
 30
0.0
 11
183.0195323707799
 21
364.720651269775
 31
0.0
  0
LINE
  5
766
330
716
100
AcDbEntity
  8
1
 62
     2
370
    -2
100
AcDbLine
 10
210.5695323707799
 20
363.720651269775
 30
0.0
 11
200.7152823707878
 21
363.720651269775
 31
0.0
  0
LINE
  5
767
330
716
100
AcDbEntity
  8
1
 62
     2
370
    -2
100
AcDbLine
 10
185.4695323707798
 20
363.720651269775
 30
0.0
 11
195.3237823707719
 21
363.720651269775
 31
0.0
  0
INSERT
  5
768
330
716
100
AcDbEntity
  8
1
 62
     2
370
    -2
100
AcDbBlockReference
  2
_Open30
 10
213.0195323707799
 20
363.720651269775
 30
0.0
 41
2.45
 42
2.45
 43
2.45
  0
INSERT
  5
769
330
716
100
AcDbEntity
  8
1
 62
     2
370
    -2
100
AcDbBlockReference
  2
_Open30
 10
183.0195323707799
 20
363.720651269775
 30
0.0
 41
2.45
 42
2.45
 43
2.45
 50
180.0
  0
MTEXT
  5
76A
330
716
100
AcDbEntity
  8
1
 62
     3
100
AcDbMText
 10
198.0195323707798
 20
363.720651269775
 30
0.0
 40
3.5
 41
0.0
 71
     5
 72
     1
  1
\A1;30
  7
CONVERTER_14
 11
0.999999999997062
 21
0.0000024240684056
 31
0.0
 73
     1
 44
1.0
1001
ACAD
1000
MTEXTBEGIN
1070
    73
1070
     1
1070
    44
1040
1.0
1070
    74
1070
     0
1000
MTEXTEND
  0
POINT
  5
76B
330
716
100
AcDbEntity
  8
Defpoints
 62
     0
100
AcDbPoint
 10
213.0195323707799
 20
357.6065093290769
 30
0.0
  0
POINT
  5
76C
330
716
100
AcDbEntity
  8
Defpoints
 62
     0
100
AcDbPoint
 10
183.0195323707799
 20
360.3065093290769
 30
0.0
  0
POINT
  5
76D
330
716
100
AcDbEntity
  8
Defpoints
 62
     0
100
AcDbPoint
 10
183.0195323707799
 20
363.720651269775
 30
0.0
  0
ENDBLK
  5
718
330
716
100
AcDbEntity
  8
0
100
AcDbBlockEnd
  0
BLOCK
  5
724
330
723
100
AcDbEntity
  8
0
100
AcDbBlockBegin
  2
*D28
 70
     1
 10
0.0
 20
0.0
 30
0.0
  3
*D28
  1

  0
LINE
  5
76E
330
723
100
AcDbEntity
  8
1
 62
     2
370
    -2
100
AcDbLine
 10
183.0195323707799
 20
361.3065093290769
 30
0.0
 11
183.0195323707799
 21
364.720651269775
 31
0.0
  0
LINE
  5
76F
330
723
100
AcDbEntity
  8
1
 62
     2
370
    -2
100
AcDbLine
 10
150.0195323707798
 20
355.6065093290769
 30
0.0
 11
150.0195323707798
 21
364.720651269775
 31
0.0
  0
LINE
  5
770
330
723
100
AcDbEntity
  8
1
 62
     2
370
    -2
100
AcDbLine
 10
180.5695323707799
 20
363.720651269775
 30
0.0
 11
169.2152823707878
 21
363.720651269775
 31
0.0
  0
LINE
  5
771
330
723
100
AcDbEntity
  8
1
 62
     2
370
    -2
100
AcDbLine
 10
152.4695323707798
 20
363.720651269775
 30
0.0
 11
163.8237823707719
 21
363.720651269775
 31
0.0
  0
INSERT
  5
772
330
723
100
AcDbEntity
  8
1
 62
     2
370
    -2
100
AcDbBlockReference
  2
_Open30
 10
183.0195323707799
 20
363.720651269775
 30
0.0
 41
2.45
 42
2.45
 43
2.45
  0
INSERT
  5
773
330
723
100
AcDbEntity
  8
1
 62
     2
370
    -2
100
AcDbBlockReference
  2
_Open30
 10
150.0195323707798
 20
363.720651269775
 30
0.0
 41
2.45
 42
2.45
 43
2.45
 50
180.0
  0
MTEXT
  5
774
330
723
100
AcDbEntity
  8
1
 62
     3
100
AcDbMText
 10
166.5195323707798
 20
363.720651269775
 30
0.0
 40
3.5
 41
0.0
 71
     5
 72
     1
  1
\A1;33
  7
CONVERTER_14
 11
0.999999999997062
 21
0.0000024240684056
 31
0.0
 73
     1
 44
1.0
1001
ACAD
1000
MTEXTBEGIN
1070
    73
1070
     1
1070
    44
1040
1.0
1070
    74
1070
     0
1000
MTEXTEND
  0
POINT
  5
775
330
723
100
AcDbEntity
  8
Defpoints
 62
     0
100
AcDbPoint
 10
183.0195323707799
 20
360.3065093290769
 30
0.0
  0
POINT
  5
776
330
723
100
AcDbEntity
  8
Defpoints
 62
     0
100
AcDbPoint
 10
150.0195323707798
 20
354.6065093290768
 30
0.0
  0
POINT
  5
777
330
723
100
AcDbEntity
  8
Defpoints
 62
     0
100
AcDbPoint
 10
150.0195323707798
 20
363.720651269775
 30
0.0
  0
ENDBLK
  5
725
330
723
100
AcDbEntity
  8
0
100
AcDbBlockEnd
  0
BLOCK
  5
731
330
730
100
AcDbEntity
  8
0
100
AcDbBlockBegin
  2
*D29
 70
     1
 10
0.0
 20
0.0
 30
0.0
  3
*D29
  1

  0
LINE
  5
778
330
730
100
AcDbEntity
  8
1
 62
     2
370
    -2
100
AcDbLine
 10
26.66953237077996
 20
354.6065093290768
 30
0.0
 11
26.66953237077996
 21
364.720651269775
 31
0.0
  0
LINE
  5
779
330
730
100
AcDbEntity
  8
1
 62
     2
370
    -2
100
AcDbLine
 10
1.869532370780007
 20
354.6065093290768
 30
0.0
 11
1.869532370780007
 21
364.720651269775
 31
0.0
  0
LINE
  5
77A
330
730
100
AcDbEntity
  8
1
 62
     2
370
    -2
100
AcDbLine
 10
24.21953237077997
 20
363.720651269775
 30
0.0
 11
18.4615323707923
 21
363.720651269775
 31
0.0
  0
LINE
  5
77B
330
730
100
AcDbEntity
  8
1
 62
     2
370
    -2
100
AcDbLine
 10
4.319532370780008
 20
363.720651269775
 30
0.0
 11
10.07753237076767
 21
363.720651269775
 31
0.0
  0
INSERT
  5
77C
330
730
100
AcDbEntity
  8
1
 62
     2
370
    -2
100
AcDbBlockReference
  2
_Open30
 10
26.66953237077996
 20
363.720651269775
 30
0.0
 41
2.45
 42
2.45
 43
2.45
  0
INSERT
  5
77D
330
730
100
AcDbEntity
  8
1
 62
     2
370
    -2
100
AcDbBlockReference
  2
_Open30
 10
1.869532370780007
 20
363.720651269775
 30
0.0
 41
2.45
 42
2.45
 43
2.45
 50
180.0
  0
MTEXT
  5
77E
330
730
100
AcDbEntity
  8
1
 62
     3
100
AcDbMText
 10
14.26953237077998
 20
363.720651269775
 30
0.0
 40
3.5
 41
0.0
 71
     5
 72
     1
  1
\A1;24.8
  7
CONVERTER_14
 11
0.999999999997062
 21
0.0000024240684056
 31
0.0
 73
     1
 44
1.0
1001
ACAD
1000
MTEXTBEGIN
1070
    73
1070
     1
1070
    44
1040
1.0
1070
    74
1070
     0
1000
MTEXTEND
  0
POINT
  5
77F
330
730
100
AcDbEntity
  8
Defpoints
 62
     0
100
AcDbPoint
 10
26.66953237077996
 20
353.6065093290769
 30
0.0
  0
POINT
  5
780
330
730
100
AcDbEntity
  8
Defpoints
 62
     0
100
AcDbPoint
 10
1.869532370780007
 20
353.6065093290769
 30
0.0
  0
POINT
  5
781
330
730
100
AcDbEntity
  8
Defpoints
 62
     0
100
AcDbPoint
 10
1.869532370780007
 20
363.720651269775
 30
0.0
  0
ENDBLK
  5
732
330
730
100
AcDbEntity
  8
0
100
AcDbBlockEnd
  0
BLOCK
  5
73E
330
73D
100
AcDbEntity
  8
0
100
AcDbBlockBegin
  2
*D30
 70
     1
 10
0.0
 20
0.0
 30
0.0
  3
*D30
  1

  0
LINE
  5
782
330
73D
100
AcDbEntity
  8
1
 62
     2
370
    -2
100
AcDbLine
 10
25.66953237077996
 20
355.6065093290769
 30
0.0
 11
40.91681928062598
 21
355.6065093290769
 31
0.0
  0
LINE
  5
783
330
73D
100
AcDbEntity
  8
1
 62
     2
370
    -2
100
AcDbLine
 10
23.86953237078001
 20
337.3065093290769
 30
0.0
 11
40.91681928062598
 21
337.3065093290769
 31
0.0
  0
LINE
  5
784
330
73D
100
AcDbEntity
  8
1
 62
     2
370
    -2
100
AcDbLine
 10
39.91681928062599
 20
353.1565093290769
 30
0.0
 11
39.91681928062599
 21
350.4490093290769
 31
0.0
  0
LINE
  5
785
330
73D
100
AcDbEntity
  8
1
 62
     2
370
    -2
100
AcDbLine
 10
39.91681928062599
 20
339.7565093290769
 30
0.0
 11
39.91681928062599
 21
342.4640093290769
 31
0.0
  0
INSERT
  5
786
330
73D
100
AcDbEntity
  8
1
 62
     2
370
    -2
100
AcDbBlockReference
  2
_Open30
 10
39.91681928062599
 20
355.6065093290769
 30
0.0
 41
2.45
 42
2.45
 43
2.45
 50
90.0
  0
INSERT
  5
787
330
73D
100
AcDbEntity
  8
1
 62
     2
370
    -2
100
AcDbBlockReference
  2
_Open30
 10
39.91681928062599
 20
337.3065093290769
 30
0.0
 41
2.45
 42
2.45
 43
2.45
 50
270.0
  0
MTEXT
  5
788
330
73D
100
AcDbEntity
  8
1
 62
     3
100
AcDbMText
 10
39.91681928062593
 20
346.4565093290769
 30
0.0
 40
3.5
 41
0.0
 71
     5
 72
     1
  1
\A1;18.3
  7
CONVERTER_14
 11
0.0000000000000001
 21
1.0
 31
0.0
 73
     1
 44
1.0
1001
ACAD
1000
MTEXTBEGIN
1070
    73
1070
     1
1070
    44
1040
1.0
1070
    74
1070
     0
1000
MTEXTEND
  0
POINT
  5
789
330
73D
100
AcDbEntity
  8
Defpoints
 62
     0
100
AcDbPoint
 10
24.66953237077996
 20
355.6065093290769
 30
0.0
  0
POINT
  5
78A
330
73D
100
AcDbEntity
  8
Defpoints
 62
     0
100
AcDbPoint
 10
22.86953237078001
 20
337.3065093290769
 30
0.0
  0
POINT
  5
78B
330
73D
100
AcDbEntity
  8
Defpoints
 62
     0
100
AcDbPoint
 10
39.91681928062599
 20
337.3065093290769
 30
0.0
  0
ENDBLK
  5
73F
330
73D
100
AcDbEntity
  8
0
100
AcDbBlockEnd
  0
BLOCK
  5
74B
330
74A
100
AcDbEntity
  8
0
100
AcDbBlockBegin
  2
*D31
 70
     1
 10
0.0
 20
0.0
 30
0.0
  3
*D31
  1

  0
LINE
  5
78C
330
74A
100
AcDbEntity
  8
1
 62
     2
370
    -2
100
AcDbLine
 10
220.0195323707799
 20
355.6065093290769
 30
0.0
 11
220.0195323707799
 21
371.8693371523831
 31
0.0
  0
LINE
  5
78D
330
74A
100
AcDbEntity
  8
1
 62
     2
370
    -2
100
AcDbLine
 10
150.0195323707798
 20
355.6065093290769
 30
0.0
 11
150.0195323707798
 21
371.8693371523831
 31
0.0
  0
LINE
  5
78E
330
74A
100
AcDbEntity
  8
1
 62
     2
370
    -2
100
AcDbLine
 10
217.5695323707799
 20
370.8693371523831
 30
0.0
 11
187.7152823707878
 21
370.8693371523831
 31
0.0
  0
LINE
  5
78F
330
74A
100
AcDbEntity
  8
1
 62
     2
370
    -2
100
AcDbLine
 10
152.4695323707798
 20
370.8693371523831
 30
0.0
 11
182.3237823707719
 21
370.8693371523831
 31
0.0
  0
INSERT
  5
790
330
74A
100
AcDbEntity
  8
1
 62
     2
370
    -2
100
AcDbBlockReference
  2
_Open30
 10
220.0195323707799
 20
370.8693371523831
 30
0.0
 41
2.45
 42
2.45
 43
2.45
  0
INSERT
  5
791
330
74A
100
AcDbEntity
  8
1
 62
     2
370
    -2
100
AcDbBlockReference
  2
_Open30
 10
150.0195323707798
 20
370.8693371523831
 30
0.0
 41
2.45
 42
2.45
 43
2.45
 50
180.0
  0
MTEXT
  5
792
330
74A
100
AcDbEntity
  8
1
 62
     3
100
AcDbMText
 10
185.0195323707799
 20
370.8693371523831
 30
0.0
 40
3.5
 41
0.0
 71
     5
 72
     1
  1
\A1;70
  7
CONVERTER_14
 11
0.999999999997062
 21
0.0000024240684056
 31
0.0
 73
     1
 44
1.0
1001
ACAD
1000
MTEXTBEGIN
1070
    73
1070
     1
1070
    44
1040
1.0
1070
    74
1070
     0
1000
MTEXTEND
  0
POINT
  5
793
330
74A
100
AcDbEntity
  8
Defpoints
 62
     0
100
AcDbPoint
 10
220.0195323707799
 20
354.6065093290768
 30
0.0
  0
POINT
  5
794
330
74A
100
AcDbEntity
  8
Defpoints
 62
     0
100
AcDbPoint
 10
150.0195323707798
 20
354.6065093290768
 30
0.0
  0
POINT
  5
795
330
74A
100
AcDbEntity
  8
Defpoints
 62
     0
100
AcDbPoint
 10
150.0195323707798
 20
370.8693371523831
 30
0.0
  0
ENDBLK
  5
74C
330
74A
100
AcDbEntity
  8
0
100
AcDbBlockEnd
  0
BLOCK
  5
758
330
757
100
AcDbEntity
  8
0
100
AcDbBlockBegin
  2
*D32
 70
     1
 10
0.0
 20
0.0
 30
0.0
  3
*D32
  1

  0
LINE
  5
796
330
757
100
AcDbEntity
  8
1
 62
     2
370
    -2
100
AcDbLine
 10
220.0195323707799
 20
355.6065093290769
 30
0.0
 11
220.0195323707799
 21
364.720651269775
 31
0.0
  0
LINE
  5
797
330
757
100
AcDbEntity
  8
1
 62
     2
370
    -2
100
AcDbLine
 10
213.0195323707799
 20
358.6065093290768
 30
0.0
 11
213.0195323707799
 21
364.720651269775
 31
0.0
  0
LINE
  5
798
330
757
100
AcDbEntity
  8
1
 62
     2
370
    -2
100
AcDbLine
 10
217.5695323707799
 20
363.720651269775
 30
0.0
 11
215.4695323707799
 21
363.720651269775
 31
0.0
  0
LINE
  5
799
330
757
100
AcDbEntity
  8
1
 62
     2
370
    -2
100
AcDbLine
 10
213.0195323707799
 20
363.720651269775
 30
0.0
 11
210.5695323707799
 21
363.720651269775
 31
0.0
  0
INSERT
  5
79A
330
757
100
AcDbEntity
  8
1
 62
     2
370
    -2
100
AcDbBlockReference
  2
_Open30
 10
220.0195323707799
 20
363.720651269775
 30
0.0
 41
2.45
 42
2.45
 43
2.45
  0
INSERT
  5
79B
330
757
100
AcDbEntity
  8
1
 62
     2
370
    -2
100
AcDbBlockReference
  2
_Open30
 10
213.0195323707799
 20
363.720651269775
 30
0.0
 41
2.45
 42
2.45
 43
2.45
 50
180.0
  0
MTEXT
  5
79C
330
757
100
AcDbEntity
  8
1
 62
     3
100
AcDbMText
 10
208.8712823707749
 20
363.720651269775
 30
0.0
 40
3.5
 41
0.0
 71
     5
 72
     1
  1
\A1;7
  7
CONVERTER_14
 11
0.999999999997062
 21
0.0000024240684056
 31
0.0
 73
     1
 44
1.0
1001
ACAD
1000
MTEXTBEGIN
1070
    73
1070
     1
1070
    44
1040
1.0
1070
    74
1070
     0
1000
MTEXTEND
  0
POINT
  5
79D
330
757
100
AcDbEntity
  8
Defpoints
 62
     0
100
AcDbPoint
 10
220.0195323707799
 20
354.6065093290768
 30
0.0
  0
POINT
  5
79E
330
757
100
AcDbEntity
  8
Defpoints
 62
     0
100
AcDbPoint
 10
213.0195323707799
 20
357.6065093290769
 30
0.0
  0
POINT
  5
79F
330
757
100
AcDbEntity
  8
Defpoints
 62
     0
100
AcDbPoint
 10
213.0195323707799
 20
363.720651269775
 30
0.0
  0
ENDBLK
  5
759
330
757
100
AcDbEntity
  8
0
100
AcDbBlockEnd
  0
ENDSEC
  0
SECTION
  2
ENTITIES
  0
LINE
  5
263
330
6C
100
AcDbEntity
  8
1
  6
Continuous
 62
     7
100
AcDbLine
 10
179.594532484175
 20
330.806509453257
 30
0.0
 11
159.5195324830524
 21
330.806509453257
 31
0.0
  0
LINE
  5
264
330
6C
100
AcDbEntity
  8
1
  6
Continuous
 62
     7
100
AcDbLine
 10
186.4445324845581
 20
330.806509453257
 30
0.0
 11
179.594532484175
 21
330.806509453257
 31
0.0
  0
LINE
  5
265
330
6C
100
AcDbEntity
  8
1
  6
Continuous
 62
     7
100
AcDbLine
 10
22.16953247537231
 20
293.7065094511826
 30
0.0
 11
22.16953247537231
 21
330.806509453257
 31
0.0
  0
LINE
  5
266
330
6C
100
AcDbEntity
  8
1
  6
Continuous
 62
     7
100
AcDbLine
 10
6.369532474488776
 20
330.806509453257
 30
0.0
 11
6.369532474488776
 21
293.7065094511826
 31
0.0
  0
LINE
  5
267
330
6C
100
AcDbEntity
  8
1
  6
Continuous
 62
     7
100
AcDbLine
 10
22.16953247537231
 20
330.806509453257
 30
0.0
 11
6.369532474488776
 21
330.806509453257
 31
0.0
  0
LINE
  5
26A
330
6C
100
AcDbEntity
  8
1
  6
Continuous
 62
     7
100
AcDbLine
 10
191.0195324848137
 20
330.806509453257
 30
0.0
 11
186.4445324845581
 21
330.806509453257
 31
0.0
  0
LINE
  5
26B
330
6C
100
AcDbEntity
  8
1
  6
Continuous
 62
     7
100
AcDbLine
 10
191.0195324848137
 20
285.8065094507407
 30
0.0
 11
191.0195324848137
 21
330.806509453257
 31
0.0
  0
LINE
  5
26C
330
6C
100
AcDbEntity
  8
1
  6
Continuous
 62
     7
100
AcDbLine
 10
192.0195324848696
 20
286.8065094507966
 30
0.0
 11
191.0195324848137
 21
285.8065094507407
 31
0.0
  0
LINE
  5
26D
330
6C
100
AcDbEntity
  8
1
  6
Continuous
 62
     7
100
AcDbLine
 10
192.0195324848696
 20
286.8065094507966
 30
0.0
 11
192.0195324848696
 21
330.806509453257
 31
0.0
  0
LINE
  5
26E
330
6C
100
AcDbEntity
  8
1
  6
Continuous
 62
     7
100
AcDbLine
 10
159.5195324830524
 20
285.8065094507407
 30
0.0
 11
191.0195324848137
 21
285.8065094507407
 31
0.0
  0
LINE
  5
26F
330
6C
100
AcDbEntity
  8
1
  6
Continuous
 62
     7
100
AcDbLine
 10
192.0195324848696
 20
330.806509453257
 30
0.0
 11
191.0195324848137
 21
330.806509453257
 31
0.0
  0
LINE
  5
270
330
6C
100
AcDbEntity
  8
1
  6
Continuous
 62
     7
100
AcDbLine
 10
22.16953247537231
 20
294.2065094512106
 30
0.0
 11
22.16953247537231
 21
330.806509453257
 31
0.0
  0
LINE
  5
271
330
6C
100
AcDbEntity
  8
1
  6
Continuous
 62
     7
100
AcDbLine
 10
6.369532474488776
 20
330.806509453257
 30
0.0
 11
6.369532474488776
 21
294.2065094512106
 31
0.0
  0
LINE
  5
272
330
6C
100
AcDbEntity
  8
1
  6
Continuous
 62
     7
100
AcDbLine
 10
22.16953247537231
 20
330.806509453257
 30
0.0
 11
6.369532474488776
 21
330.806509453257
 31
0.0
  0
LINE
  5
273
330
6C
100
AcDbEntity
  8
1
  6
CENTER_NEW
 62
     2
100
AcDbLine
 10
19.51953247522397
 20
294.7065094512385
 30
0.0
 11
9.019532474636887
 21
294.7065094512385
 31
0.0
  0
LINE
  5
274
330
6C
100
AcDbEntity
  8
1
  6
CENTER_NEW
 62
     2
100
AcDbLine
 10
8.019532474580955
 20
306.2065094518815
 30
0.0
 11
20.5195324752799
 21
306.2065094518815
 31
0.0
  0
LINE
  5
275
330
6C
100
AcDbEntity
  8
1
  6
CENTER_NEW
 62
     2
100
AcDbLine
 10
17.7695324751262
 20
318.8065094525861
 30
0.0
 11
10.76953247473466
 21
318.8065094525861
 31
0.0
  0
LINE
  5
276
330
6C
100
AcDbEntity
  8
1
  6
Continuous
 62
     3
100
AcDbLine
 10
19.58198806963969
 20
313.0961985277917
 30
0.0
 11
21.16953247531637
 21
309.8438161479797
 31
0.0
  0
LINE
  5
277
330
6C
100
AcDbEntity
  8
1
  6
Continuous
 62
     3
100
AcDbLine
 10
21.16953247531637
 20
309.8438161479797
 30
0.0
 11
18.18240113186721
 21
311.8897707408674
 31
0.0
  0
LINE
  5
278
330
6C
100
AcDbEntity
  8
1
  6
Continuous
 62
     3
100
AcDbLine
 10
18.18240113186721
 20
311.8897707408674
 30
0.0
 11
18.65094201113152
 21
312.2936475710948
 31
0.0
  0
LINE
  5
279
330
6C
100
AcDbEntity
  8
1
  6
Continuous
 62
     3
100
AcDbLine
 10
19.11731430588156
 20
312.6956551064983
 30
0.0
 11
19.58198806963969
 21
313.0961985277917
 31
0.0
  0
LINE
  5
27A
330
6C
100
AcDbEntity
  8
1
  6
Continuous
 62
     3
100
AcDbLine
 10
9.888122938729566
 20
312.2936475710948
 30
0.0
 11
10.35666381799478
 21
311.8897707408674
 31
0.0
  0
LINE
  5
27B
330
6C
100
AcDbEntity
  8
1
  6
Continuous
 62
     3
100
AcDbLine
 10
10.35666381799478
 20
311.8897707408674
 30
0.0
 11
7.369532474544712
 21
309.8438161479797
 31
0.0
  0
LINE
  5
27C
330
6C
100
AcDbEntity
  8
1
  6
Continuous
 62
     3
100
AcDbLine
 10
8.957076880221618
 20
313.0961985277917
 30
0.0
 11
9.421750643979519
 21
312.6956551064983
 31
0.0
  0
LINE
  5
27D
330
6C
100
AcDbEntity
  8
1
  6
Continuous
 62
     3
100
AcDbLine
 10
7.369532474544712
 20
309.8438161479797
 30
0.0
 11
8.957076880221618
 21
313.0961985277917
 31
0.0
  0
LINE
  5
27E
330
6C
100
AcDbEntity
  8
1
  6
Continuous
 62
     7
100
AcDbLine
 10
14.76953247495839
 20
308.7065094520213
 30
0.0
 11
13.76953247490246
 21
308.7065094520213
 31
0.0
  0
LINE
  5
27F
330
6C
100
AcDbEntity
  8
1
  6
Continuous
 62
     7
100
AcDbLine
 10
13.76953247490246
 20
308.7065094520213
 30
0.0
 11
13.76953247490246
 21
307.2065094519374
 31
0.0
  0
LINE
  5
280
330
6C
100
AcDbEntity
  8
1
  6
Continuous
 62
     7
100
AcDbLine
 10
13.26953247487449
 20
306.7065094519095
 30
0.0
 11
11.76953247479059
 21
306.7065094519095
 31
0.0
  0
LINE
  5
281
330
6C
100
AcDbEntity
  8
1
  6
Continuous
 62
     7
100
AcDbLine
 10
11.76953247479059
 20
306.7065094519095
 30
0.0
 11
11.76953247479059
 21
305.7065094518535
 31
0.0
  0
LINE
  5
282
330
6C
100
AcDbEntity
  8
1
  6
Continuous
 62
     7
100
AcDbLine
 10
11.76953247479059
 20
305.7065094518535
 30
0.0
 11
13.26953247487449
 21
305.7065094518535
 31
0.0
  0
LINE
  5
283
330
6C
100
AcDbEntity
  8
1
  6
Continuous
 62
     7
100
AcDbLine
 10
13.76953247490246
 20
305.2065094518257
 30
0.0
 11
13.76953247490246
 21
303.7065094517417
 31
0.0
  0
LINE
  5
284
330
6C
100
AcDbEntity
  8
1
  6
Continuous
 62
     7
100
AcDbLine
 10
13.76953247490246
 20
303.7065094517417
 30
0.0
 11
14.76953247495839
 21
303.7065094517417
 31
0.0
  0
LINE
  5
285
330
6C
100
AcDbEntity
  8
1
  6
Continuous
 62
     7
100
AcDbLine
 10
14.76953247495839
 20
303.7065094517417
 30
0.0
 11
14.76953247495839
 21
305.2065094518257
 31
0.0
  0
LINE
  5
286
330
6C
100
AcDbEntity
  8
1
  6
Continuous
 62
     7
100
AcDbLine
 10
15.26953247498636
 20
305.7065094518535
 30
0.0
 11
16.76953247507026
 21
305.7065094518535
 31
0.0
  0
LINE
  5
287
330
6C
100
AcDbEntity
  8
1
  6
Continuous
 62
     7
100
AcDbLine
 10
16.76953247507026
 20
305.7065094518535
 30
0.0
 11
16.76953247507026
 21
306.7065094519095
 31
0.0
  0
LINE
  5
288
330
6C
100
AcDbEntity
  8
1
  6
Continuous
 62
     7
100
AcDbLine
 10
16.76953247507026
 20
306.7065094519095
 30
0.0
 11
15.26953247498636
 21
306.7065094519095
 31
0.0
  0
LINE
  5
289
330
6C
100
AcDbEntity
  8
1
  6
Continuous
 62
     7
100
AcDbLine
 10
14.76953247495839
 20
307.2065094519374
 30
0.0
 11
14.76953247495839
 21
308.7065094520213
 31
0.0
  0
LINE
  5
28A
330
6C
100
AcDbEntity
  8
1
  6
Continuous
 62
     7
100
AcDbLine
 10
14.66953247495303
 20
296.7065094513504
 30
0.0
 11
13.86953247490828
 21
296.7065094513504
 31
0.0
  0
LINE
  5
28B
330
6C
100
AcDbEntity
  8
1
  6
Continuous
 62
     7
100
AcDbLine
 10
13.86953247490828
 20
296.7065094513504
 30
0.0
 11
13.86953247490828
 21
295.5065094512832
 31
0.0
  0
LINE
  5
28C
330
6C
100
AcDbEntity
  8
1
  6
Continuous
 62
     7
100
AcDbLine
 10
13.46953247488568
 20
295.1065094512606
 30
0.0
 11
12.26953247481856
 21
295.1065094512606
 31
0.0
  0
LINE
  5
28D
330
6C
100
AcDbEntity
  8
1
  6
Continuous
 62
     7
100
AcDbLine
 10
12.26953247481856
 20
295.1065094512606
 30
0.0
 11
12.26953247481856
 21
294.3065094512158
 31
0.0
  0
LINE
  5
28E
330
6C
100
AcDbEntity
  8
1
  6
Continuous
 62
     7
100
AcDbLine
 10
12.26953247481856
 20
294.3065094512158
 30
0.0
 11
13.46953247488568
 21
294.3065094512158
 31
0.0
  0
LINE
  5
28F
330
6C
100
AcDbEntity
  8
1
  6
Continuous
 62
     7
100
AcDbLine
 10
13.86953247490828
 20
293.9065094511938
 30
0.0
 11
13.86953247490828
 21
292.7065094511267
 31
0.0
  0
LINE
  5
290
330
6C
100
AcDbEntity
  8
1
  6
Continuous
 62
     7
100
AcDbLine
 10
13.86953247490828
 20
292.7065094511267
 30
0.0
 11
14.66953247495303
 21
292.7065094511267
 31
0.0
  0
LINE
  5
291
330
6C
100
AcDbEntity
  8
1
  6
Continuous
 62
     7
100
AcDbLine
 10
14.66953247495303
 20
292.7065094511267
 30
0.0
 11
14.66953247495303
 21
293.9065094511938
 31
0.0
  0
LINE
  5
292
330
6C
100
AcDbEntity
  8
1
  6
Continuous
 62
     7
100
AcDbLine
 10
15.0695324749754
 20
294.3065094512158
 30
0.0
 11
16.2695324750423
 21
294.3065094512158
 31
0.0
  0
LINE
  5
293
330
6C
100
AcDbEntity
  8
1
  6
Continuous
 62
     7
100
AcDbLine
 10
16.2695324750423
 20
294.3065094512158
 30
0.0
 11
16.2695324750423
 21
295.1065094512606
 31
0.0
  0
LINE
  5
294
330
6C
100
AcDbEntity
  8
1
  6
Continuous
 62
     7
100
AcDbLine
 10
16.2695324750423
 20
295.1065094512606
 30
0.0
 11
15.0695324749754
 21
295.1065094512606
 31
0.0
  0
LINE
  5
295
330
6C
100
AcDbEntity
  8
1
  6
Continuous
 62
     7
100
AcDbLine
 10
14.66953247495303
 20
295.5065094512832
 30
0.0
 11
14.66953247495303
 21
296.7065094513504
 31
0.0
  0
LINE
  5
296
330
6C
100
AcDbEntity
  8
1
  6
Continuous
 62
     7
100
AcDbLine
 10
159.0195324830244
 20
330.806509453257
 30
0.0
 11
155.5195324828287
 21
330.806509453257
 31
0.0
  0
LINE
  5
297
330
6C
100
AcDbEntity
  8
1
  6
Continuous
 62
     7
100
AcDbLine
 10
159.0195324830244
 20
286.3065094507687
 30
0.0
 11
159.0195324830244
 21
330.806509453257
 31
0.0
  0
LINE
  5
298
330
6C
100
AcDbEntity
  8
1
  6
Continuous
 62
     7
100
AcDbLine
 10
159.5195324830524
 20
286.8065094507966
 30
0.0
 11
159.0195324830244
 21
286.3065094507687
 31
0.0
  0
LINE
  5
299
330
6C
100
AcDbEntity
  8
1
  6
Continuous
 62
     7
100
AcDbLine
 10
159.5195324830524
 20
286.8065094507966
 30
0.0
 11
159.5195324830524
 21
330.806509453257
 31
0.0
  0
LINE
  5
29A
330
6C
100
AcDbEntity
  8
1
  6
Continuous
 62
     7
100
AcDbLine
 10
155.5195324828287
 20
286.3065094507687
 30
0.0
 11
159.0195324830244
 21
286.3065094507687
 31
0.0
  0
LINE
  5
29B
330
6C
100
AcDbEntity
  8
1
  6
Continuous
 62
     7
100
AcDbLine
 10
155.5195324828287
 20
330.806509453257
 30
0.0
 11
155.5195324828287
 21
286.3065094507687
 31
0.0
  0
LINE
  5
29C
330
6C
100
AcDbEntity
  8
1
  6
Continuous
 62
     7
100
AcDbLine
 10
159.5195324830524
 20
330.806509453257
 30
0.0
 11
159.0195324830244
 21
330.806509453257
 31
0.0
  0
LINE
  5
29E
330
6C
100
AcDbEntity
  8
1
  6
Continuous
 62
     7
100
AcDbLine
 10
159.5195324830524
 20
330.806509453257
 30
0.0
 11
159.5195324830524
 21
285.8065094507407
 31
0.0
  0
ARC
  5
2CF
330
6C
100
AcDbEntity
  8
1
  6
Continuous
 62
     7
100
AcDbCircle
 10
14.26953247493043
 20
293.7065094511826
 30
0.0
 40
7.900000000441835
100
AcDbArc
 50
270.0
 51
0.0
  0
ARC
  5
2D0
330
6C
100
AcDbEntity
  8
1
  6
Continuous
 62
     7
100
AcDbCircle
 10
14.26953247493043
 20
293.7065094511826
 30
0.0
 40
7.900000000441607
100
AcDbArc
 50
180.0
 51
270.0
  0
ARC
  5
2D1
330
6C
100
AcDbEntity
  8
1
  6
Continuous
 62
     7
100
AcDbCircle
 10
14.26953247493043
 20
294.2065094512106
 30
0.0
 40
7.900000000441607
100
AcDbArc
 50
180.0
 51
0.0
  0
LWPOLYLINE
  5
2D2
330
6C
100
AcDbEntity
  8
1
  6
Continuous
 62
     7
100
AcDbPolyline
 90
        2
 70
     1
 43
0.0
 10
14.26953247493043
 20
321.3065094527256
 42
1.0
 10
14.26953247493043
 20
316.3065094524462
 42
1.0
  0
LWPOLYLINE
  5
2D3
330
6C
100
AcDbEntity
  8
1
  6
Continuous
 62
     7
100
AcDbPolyline
 90
        2
 70
     1
 43
0.0
 10
14.26953247493043
 20
320.4565094526782
 42
1.0
 10
14.26953247493043
 20
317.1565094524939
 42
1.0
  0
LWPOLYLINE
  5
2D4
330
6C
100
AcDbEntity
  8
1
  6
Continuous
 62
     7
100
AcDbPolyline
 90
        2
 70
     1
 43
0.0
 10
14.26953247493043
 20
311.4565094521751
 42
1.0
 10
14.26953247493043
 20
300.956509451588
 42
1.0
  0
LWPOLYLINE
  5
2D5
330
6C
100
AcDbEntity
  8
1
  6
Continuous
 62
     7
100
AcDbPolyline
 90
        2
 70
     1
 43
0.0
 10
14.26953247493043
 20
298.9565094514761
 42
1.0
 10
14.26953247493043
 20
290.4565094510008
 42
1.0
  0
ARC
  5
2D6
330
6C
100
AcDbEntity
  8
1
  6
Continuous
 62
     3
100
AcDbCircle
 10
14.26953247493043
 20
306.2065094518815
 30
0.0
 40
7.500000000419455
100
AcDbArc
 50
54.2543577407152
 51
125.7456422592847
  0
ARC
  5
2D7
330
6C
100
AcDbEntity
  8
1
  6
Continuous
 62
     3
100
AcDbCircle
 10
14.26953247493043
 20
306.2065094518815
 30
0.0
 40
8.100000000452576
100
AcDbArc
 50
53.23805847507863
 51
126.7619415249213
  0
LWPOLYLINE
  5
2D8
330
6C
100
AcDbEntity
  8
1
  6
Continuous
 62
     7
100
AcDbPolyline
 90
        2
 70
     1
 43
0.0
 10
14.76953247495839
 20
311.1814466376927
 42
1.0
 10
13.76953247490246
 20
301.2315722660704
 42
1.0
  0
LWPOLYLINE
  5
2D9
330
6C
100
AcDbEntity
  8
1
  6
Continuous
 62
     7
100
AcDbPolyline
 90
        2
 70
     1
 43
0.0
 10
14.26953247493043
 20
298.6065094514564
 42
1.0
 10
14.26953247493043
 20
290.8065094510204
 42
1.0
  0
ARC
  5
2EC
330
6C
100
AcDbEntity
  8
1
  6
Continuous
 62
     7
100
AcDbCircle
 10
15.26953247498636
 20
305.2065094518257
 30
0.0
 40
0.5000000000279587
100
AcDbArc
 50
90.0
 51
180.0
  0
ARC
  5
2ED
330
6C
100
AcDbEntity
  8
1
  6
Continuous
 62
     7
100
AcDbCircle
 10
13.26953247487449
 20
305.2065094518257
 30
0.0
 40
0.5000000000279587
100
AcDbArc
 50
0.0
 51
90.0
  0
ARC
  5
2EE
330
6C
100
AcDbEntity
  8
1
  6
Continuous
 62
     7
100
AcDbCircle
 10
13.26953247487449
 20
307.2065094519374
 30
0.0
 40
0.5000000000279587
100
AcDbArc
 50
270.0
 51
0.0
  0
ARC
  5
2EF
330
6C
100
AcDbEntity
  8
1
  6
Continuous
 62
     7
100
AcDbCircle
 10
15.26953247498636
 20
307.2065094519374
 30
0.0
 40
0.5000000000279587
100
AcDbArc
 50
180.0
 51
270.0
  0
ARC
  5
2F0
330
6C
100
AcDbEntity
  8
1
  6
Continuous
 62
     7
100
AcDbCircle
 10
15.0695324749754
 20
293.9065094511938
 30
0.0
 40
0.4000000000222304
100
AcDbArc
 50
90.0
 51
180.0
  0
ARC
  5
2F1
330
6C
100
AcDbEntity
  8
1
  6
Continuous
 62
     7
100
AcDbCircle
 10
13.46953247488568
 20
293.9065094511938
 30
0.0
 40
0.4000000000224578
100
AcDbArc
 50
0.0
 51
90.0
  0
ARC
  5
2F2
330
6C
100
AcDbEntity
  8
1
  6
Continuous
 62
     7
100
AcDbCircle
 10
13.46953247488568
 20
295.5065094512832
 30
0.0
 40
0.4000000000224578
100
AcDbArc
 50
270.0
 51
0.0
  0
ARC
  5
2F3
330
6C
100
AcDbEntity
  8
1
  6
Continuous
 62
     7
100
AcDbCircle
 10
15.0695324749754
 20
295.5065094512832
 30
0.0
 40
0.4000000000224578
100
AcDbArc
 50
180.0
 51
270.0
  0
MTEXT
  5
2FC
330
6C
100
AcDbEntity
  8
1
 62
     3
100
AcDbMText
 10
9.36953247465658
 20
320.8065094526977
 30
0.0
 40
3.500000000195708
 41
0.0
 71
     5
 72
     1
  1
下
  7
CONVERTER_13
 73
     1
 44
1.32052821128451
1001
ACAD
1000
MTEXTBEGIN
1070
    73
1070
     1
1070
    44
1040
1.32052821128451
1070
    74
1070
     0
1000
MTEXTEND
  0
MTEXT
  5
2FD
330
6C
100
AcDbEntity
  8
1
 62
     3
100
AcDbMText
 10
19.1695324752045
 20
320.8065094526977
 30
0.0
 40
3.500000000195708
 41
0.0
 71
     5
 72
     1
  1
上
  7
CONVERTER_13
 73
     1
 44
1.32052821128451
1001
ACAD
1000
MTEXTBEGIN
1070
    73
1070
     1
1070
    44
1040
1.32052821128451
1070
    74
1070
     0
1000
MTEXTEND
  0
MTEXT
  5
5E5
330
6C
100
AcDbEntity
  8
0
100
AcDbMText
 10
-19.79617902536961
 20
222.4562888556574
 30
0.0
 40
2.5
 41
0.0
 71
     1
 72
     1
  1

 73
     1
 44
1.0
1001
ACAD
1000
MTEXTBEGIN
1070
    73
1070
     1
1070
    44
1040
1.0
1070
    74
1070
     0
1000
MTEXTEND
  0
INSERT
  5
6C8
330
6C
100
AcDbEntity
  8
1
100
AcDbBlockReference
  2
_4
 10
-405.4930088381119
 20
-233.1818609553717
 30
0.0
  0
INSERT
  5
6C9
330
6C
100
AcDbEntity
  8
1
100
AcDbBlockReference
  2
_6
 10
-290.1283799236421
 20
-366.8224841820228
 30
0.0
  0
LINE
  5
6DA
330
6C
100
AcDbEntity
  8
1
  6
Continuous
 62
     7
100
AcDbLine
 10
178.0195323707799
 20
352.6065093290768
 30
0.0
 11
178.0195323707799
 21
354.6065093290768
 31
0.0
  0
LINE
  5
6DB
330
6C
100
AcDbEntity
  8
1
  6
Continuous
 62
     7
100
AcDbLine
 10
188.0195323707799
 20
352.6065093290768
 30
0.0
 11
188.0195323707799
 21
354.6065093290768
 31
0.0
  0
LINE
  5
6DC
330
6C
100
AcDbEntity
  8
1
  6
Continuous
 62
     7
100
AcDbLine
 10
178.0195323707799
 20
352.6065093290768
 30
0.0
 11
188.0195323707799
 21
352.6065093290768
 31
0.0
  0
LINE
  5
6DD
330
6C
100
AcDbEntity
  8
1
  6
CENTER_NEW
 62
     2
100
AcDbLine
 10
179.8445323707799
 20
349.3065093290769
 30
0.0
 11
186.1945323707798
 21
349.3065093290769
 31
0.0
  0
LINE
  5
6DE
330
6C
100
AcDbEntity
  8
1
  6
Continuous
 62
     7
100
AcDbLine
 10
177.0195323707798
 20
355.6065093290769
 30
0.0
 11
151.0195323707798
 21
355.6065093290769
 31
0.0
  0
LINE
  5
6DF
330
6C
100
AcDbEntity
  8
1
  6
Continuous
 62
     7
100
AcDbLine
 10
178.0195323707799
 20
349.3065093290769
 30
0.0
 11
178.0195323707799
 21
352.6065093290768
 31
0.0
  0
LINE
  5
6E0
330
6C
100
AcDbEntity
  8
1
  6
Continuous
 62
     7
100
AcDbLine
 10
188.0195323707799
 20
349.3065093290769
 30
0.0
 11
188.0195323707799
 21
352.6065093290768
 31
0.0
  0
LINE
  5
6E1
330
6C
100
AcDbEntity
  8
1
  6
Continuous
 62
     7
100
AcDbLine
 10
188.2695323707799
 20
337.3065093290769
 30
0.0
 11
219.0195323707799
 21
337.3065093290769
 31
0.0
  0
LINE
  5
6E2
330
6C
100
AcDbEntity
  8
1
  6
Continuous
 62
     7
100
AcDbLine
 10
188.2695323707799
 20
336.8065093290769
 30
0.0
 11
188.2695323707799
 21
337.3065093290769
 31
0.0
  0
LINE
  5
6E3
330
6C
100
AcDbEntity
  8
1
  6
Continuous
 62
     7
100
AcDbLine
 10
178.2695323707798
 20
336.3065093290769
 30
0.0
 11
187.7695323707798
 21
336.3065093290769
 31
0.0
  0
LINE
  5
6E4
330
6C
100
AcDbEntity
  8
1
  6
Continuous
 62
     7
100
AcDbLine
 10
177.7695323707798
 20
337.3065093290769
 30
0.0
 11
188.2695323707799
 21
337.3065093290769
 31
0.0
  0
LINE
  5
6E5
330
6C
100
AcDbEntity
  8
1
  6
Continuous
 62
     7
100
AcDbLine
 10
177.7695323707798
 20
337.3065093290769
 30
0.0
 11
177.7695323707798
 21
336.8065093290769
 31
0.0
  0
LINE
  5
6E6
330
6C
100
AcDbEntity
  8
1
  6
Continuous
 62
     7
100
AcDbLine
 10
150.0195323707798
 20
339.0568939672229
 30
0.0
 11
150.0195323707798
 21
338.3065093290769
 31
0.0
  0
LINE
  5
6E7
330
6C
100
AcDbEntity
  8
1
  6
Continuous
 62
     7
100
AcDbLine
 10
220.0195323707799
 20
339.0568939672229
 30
0.0
 11
220.0195323707799
 21
354.6065093290768
 31
0.0
  0
LINE
  5
6E8
330
6C
100
AcDbEntity
  8
1
  6
Continuous
 62
     7
100
AcDbLine
 10
150.0195323707798
 20
339.0568939672229
 30
0.0
 11
220.0195323707799
 21
339.0568939672229
 31
0.0
  0
LINE
  5
6E9
330
6C
100
AcDbEntity
  8
1
  6
Continuous
 62
     7
100
AcDbLine
 10
9.01953237077987
 20
338.0565093290769
 30
0.0
 11
9.01953237077987
 21
337.8065093290769
 31
0.0
  0
LINE
  5
6EA
330
6C
100
AcDbEntity
  8
1
  6
Continuous
 62
     7
100
AcDbLine
 10
8.76953237077987
 20
338.8065093290769
 30
0.0
 11
19.76953237077987
 21
338.8065093290769
 31
0.0
  0
LINE
  5
6EB
330
6C
100
AcDbEntity
  8
1
  6
Continuous
 62
     7
100
AcDbLine
 10
9.51953237077987
 20
337.3065093290769
 30
0.0
 11
19.01953237077987
 21
337.3065093290769
 31
0.0
  0
LINE
  5
6EC
330
6C
100
AcDbEntity
  8
1
  6
Continuous
 62
     7
100
AcDbLine
 10
8.76953237077987
 20
338.3835002798909
 30
0.0
 11
8.76953237077987
 21
338.8065093290769
 31
0.0
  0
LINE
  5
6ED
330
6C
100
AcDbEntity
  8
1
  6
Continuous
 62
     7
100
AcDbLine
 10
19.76953237077987
 20
338.3835002798909
 30
0.0
 11
19.76953237077987
 21
338.8065093290769
 31
0.0
  0
LINE
  5
6EE
330
6C
100
AcDbEntity
  8
1
  6
Continuous
 62
     7
100
AcDbLine
 10
26.66953237077996
 20
339.0568939672229
 30
0.0
 11
26.66953237077996
 21
353.6065093290769
 31
0.0
  0
LINE
  5
6EF
330
6C
100
AcDbEntity
  8
1
  6
Continuous
 62
     7
100
AcDbLine
 10
24.26953237077987
 20
353.6065093290769
 30
0.0
 11
24.26953237077987
 21
355.6065093290769
 31
0.0
  0
LINE
  5
6F0
330
6C
100
AcDbEntity
  8
1
  6
Continuous
 62
     7
100
AcDbLine
 10
5.26953237077987
 20
352.6065093290768
 30
0.0
 11
23.26953237077987
 21
352.6065093290768
 31
0.0
  0
LINE
  5
6F1
330
6C
100
AcDbEntity
  8
1
  6
Continuous
 62
     7
100
AcDbLine
 10
4.26953237077987
 20
355.6065093290769
 30
0.0
 11
3.869532370780007
 21
355.6065093290769
 31
0.0
  0
LINE
  5
6F2
330
6C
100
AcDbEntity
  8
1
  6
Continuous
 62
     7
100
AcDbLine
 10
4.26953237077987
 20
355.6065093290769
 30
0.0
 11
4.26953237077987
 21
353.6065093290769
 31
0.0
  0
LINE
  5
6F3
330
6C
100
AcDbEntity
  8
1
  6
Continuous
 62
     7
100
AcDbLine
 10
1.869532370780007
 20
353.6065093290769
 30
0.0
 11
1.869532370780007
 21
339.0568939672229
 31
0.0
  0
LINE
  5
6F4
330
6C
100
AcDbEntity
  8
1
  6
Continuous
 62
     7
100
AcDbLine
 10
24.66953237077996
 20
355.6065093290769
 30
0.0
 11
24.26953237077987
 21
355.6065093290769
 31
0.0
  0
LINE
  5
6F5
330
6C
100
AcDbEntity
  8
1
  6
Continuous
 62
     7
100
AcDbLine
 10
150.0195323707798
 20
354.6065093290768
 30
0.0
 11
150.0195323707798
 21
339.0568939672229
 31
0.0
  0
LINE
  5
6F6
330
6C
100
AcDbEntity
  8
1
  6
Continuous
 62
     7
100
AcDbLine
 10
219.0195323707799
 20
355.6065093290769
 30
0.0
 11
189.0195323707798
 21
355.6065093290769
 31
0.0
  0
LINE
  5
6F7
330
6C
100
AcDbEntity
  8
1
  6
Continuous
 62
     7
100
AcDbLine
 10
220.0195323707799
 20
338.3065093290769
 30
0.0
 11
220.0195323707799
 21
339.0568939672229
 31
0.0
  0
LINE
  5
6F8
330
6C
100
AcDbEntity
  8
1
  6
Continuous
 62
     7
100
AcDbLine
 10
151.0195323707798
 20
337.3065093290769
 30
0.0
 11
177.7695323707798
 21
337.3065093290769
 31
0.0
  0
ARC
  5
6FB
330
6C
100
AcDbEntity
  8
1
  6
Continuous
 62
     7
100
AcDbCircle
 10
22.86953237078001
 20
342.3065093290769
 30
0.0
 40
4.999999999999625
100
AcDbArc
 50
231.6838655263256
 51
270.0
  0
ARC
  5
6FC
330
6C
100
AcDbEntity
  8
1
  6
Continuous
 62
     7
100
AcDbCircle
 10
183.0195323707799
 20
349.3065093290769
 30
0.0
 40
5.0
100
AcDbArc
 50
180.0
 51
0.0
  0
ARC
  5
6FD
330
6C
100
AcDbEntity
  8
1
  6
Continuous
 62
     7
100
AcDbCircle
 10
20.51953237077987
 20
337.8065093290769
 30
0.0
 40
0.9999999999999827
100
AcDbArc
 50
138.5903778907302
 51
180.0
  0
ARC
  5
6FE
330
6C
100
AcDbEntity
  8
1
  6
Continuous
 62
     7
100
AcDbCircle
 10
8.26953237077987
 20
338.0565093290769
 30
0.0
 40
0.75
100
AcDbArc
 50
0.0
 51
48.18968510422982
  0
ARC
  5
6FF
330
6C
100
AcDbEntity
  8
1
  6
Continuous
 62
     7
100
AcDbCircle
 10
5.669532370779961
 20
342.3065093290769
 30
0.0
 40
4.999999999999722
100
AcDbArc
 50
220.5358021113146
 51
308.3161344736704
  0
ARC
  5
700
330
6C
100
AcDbEntity
  8
1
  6
Continuous
 62
     7
100
AcDbCircle
 10
22.86953237078001
 20
342.3065093290769
 30
0.0
 40
5.0
100
AcDbArc
 50
270.0
 51
319.4641978886854
  0
CIRCLE
  5
701
330
6C
100
AcDbEntity
  8
1
  6
Continuous
 62
     7
100
AcDbCircle
 10
183.0195323707799
 20
349.3065093290769
 30
0.0
 40
1.175000000000181
  0
ARC
  5
702
330
6C
100
AcDbEntity
  8
1
  6
Continuous
 62
     7
100
AcDbCircle
 10
23.26953237077987
 20
353.6065093290769
 30
0.0
 40
1.0
100
AcDbArc
 50
270.0
 51
0.0
  0
ARC
  5
703
330
6C
100
AcDbEntity
  8
1
  6
Continuous
 62
     7
100
AcDbCircle
 10
5.26953237077987
 20
353.6065093290769
 30
0.0
 40
1.0
100
AcDbArc
 50
180.0
 51
270.0
  0
ARC
  5
704
330
6C
100
AcDbEntity
  8
1
  6
Continuous
 62
     7
100
AcDbCircle
 10
24.66953237077996
 20
353.6065093290769
 30
0.0
 40
2.0
100
AcDbArc
 50
0.0
 51
90.0
  0
ARC
  5
705
330
6C
100
AcDbEntity
  8
1
  6
Continuous
 62
     7
100
AcDbCircle
 10
3.869532370780007
 20
353.6065093290769
 30
0.0
 40
2.0
100
AcDbArc
 50
90.0
 51
180.0
  0
ARC
  5
706
330
6C
100
AcDbEntity
  8
1
  6
Continuous
 62
     7
100
AcDbCircle
 10
189.0195323707798
 20
354.6065093290768
 30
0.0
 40
1.0
100
AcDbArc
 50
90.0
 51
180.0
  0
ARC
  5
707
330
6C
100
AcDbEntity
  8
1
  6
Continuous
 62
     7
100
AcDbCircle
 10
177.0195323707798
 20
354.6065093290768
 30
0.0
 40
1.0
100
AcDbArc
 50
0.0
 51
90.0
  0
ARC
  5
708
330
6C
100
AcDbEntity
  8
1
  6
Continuous
 62
     7
100
AcDbCircle
 10
187.7695323707798
 20
336.8065093290769
 30
0.0
 40
0.5
100
AcDbArc
 50
270.0
 51
0.0
  0
ARC
  5
709
330
6C
100
AcDbEntity
  8
1
  6
Continuous
 62
     7
100
AcDbCircle
 10
178.2695323707798
 20
336.8065093290769
 30
0.0
 40
0.5
100
AcDbArc
 50
180.0
 51
270.0
  0
ARC
  5
70A
330
6C
100
AcDbEntity
  8
1
  6
Continuous
 62
     7
100
AcDbCircle
 10
219.0195323707799
 20
354.6065093290768
 30
0.0
 40
1.0
100
AcDbArc
 50
0.0
 51
90.0
  0
ARC
  5
70B
330
6C
100
AcDbEntity
  8
1
  6
Continuous
 62
     7
100
AcDbCircle
 10
219.0195323707799
 20
338.3065093290769
 30
0.0
 40
1.0
100
AcDbArc
 50
270.0
 51
0.0
  0
ARC
  5
70C
330
6C
100
AcDbEntity
  8
1
  6
Continuous
 62
     7
100
AcDbCircle
 10
151.0195323707798
 20
338.3065093290769
 30
0.0
 40
1.0
100
AcDbArc
 50
180.0
 51
270.0
  0
ARC
  5
70D
330
6C
100
AcDbEntity
  8
1
  6
Continuous
 62
     7
100
AcDbCircle
 10
151.0195323707798
 20
354.6065093290768
 30
0.0
 40
1.0
100
AcDbArc
 50
90.0
 51
180.0
  0
ARC
  5
70E
330
6C
100
AcDbEntity
  8
1
  6
Continuous
 62
     7
100
AcDbCircle
 10
19.01953237077987
 20
337.8065093290769
 30
0.0
 40
0.5
100
AcDbArc
 50
270.0
 51
0.0
  0
ARC
  5
70F
330
6C
100
AcDbEntity
  8
1
  6
Continuous
 62
     7
100
AcDbCircle
 10
9.51953237077987
 20
337.8065093290769
 30
0.0
 40
0.5
100
AcDbArc
 50
180.0
 51
270.0
  0
ENDSEC
  0
SECTION
  2
OBJECTS
  0
DICTIONARY
  5
C
330
0
100
AcDbDictionary
281
     1
  3
ACAD_CIP_PREVIOUS_PRODUCT_INFO
350
675
  3
ACAD_COLOR
350
63
  3
ACAD_GROUP
350
D
  3
ACAD_LAYOUT
350
62
  3
ACAD_MATERIAL
350
10
  3
ACAD_MLEADERSTYLE
350
66
  3
ACAD_MLINESTYLE
350
5F
  3
ACAD_PLOTSETTINGS
350
61
  3
ACAD_PLOTSTYLENAME
350
E
  3
ACAD_SCALELIST
350
42
  3
ACAD_TABLESTYLE
350
64
  3
ACAD_VISUALSTYLE
350
29
  3
ACDB_RECOMPOSE_DATA
350
7AE
  3
AcDbVariableDictionary
350
668
  3
ASE_INDEX_DICTIONARY
350
7A7
  3
DWGPROPS
350
7AF
  0
DICTIONARY
  5
676
330
54
100
AcDbDictionary
280
     1
281
     1
  3
ADSK_XREC_LAYER_RECONCILED
360
677
  0
DICTIONARY
  5
B4
330
B3
100
AcDbDictionary
280
     1
281
     1
  3
ADSK_XREC_LAYER_RECONCILED
360
B5
  0
DICTIONARY
  5
C2
330
C1
100
AcDbDictionary
280
     1
281
     1
  3
ADSK_XREC_LAYER_RECONCILED
360
C3
  0
DICTIONARY
  5
5E3
330
6C
100
AcDbDictionary
280
     1
281
     1
  3
ACAD_SORTENTS
360
5E4
  0
XRECORD
  5
675
102
{ACAD_REACTORS
330
C
102
}
330
C
100
AcDbXrecord
280
     1
300
ACD
300
2012
300
ACD_F_S
  0
DICTIONARY
  5
63
102
{ACAD_REACTORS
330
C
102
}
330
C
100
AcDbDictionary
281
     1
  0
DICTIONARY
  5
D
102
{ACAD_REACTORS
330
C
102
}
330
C
100
AcDbDictionary
281
     1
  0
DICTIONARY
  5
62
102
{ACAD_REACTORS
330
C
102
}
330
C
100
AcDbDictionary
281
     1
  3
Model
350
6F
  3
レイアウト1
350
6B
  3
レイアウト2
350
73
  0
DICTIONARY
  5
10
102
{ACAD_REACTORS
330
C
102
}
330
C
100
AcDbDictionary
281
     1
  3
ByBlock
350
19
  3
ByLayer
350
11
  3
Global
350
21
  0
DICTIONARY
  5
66
102
{ACAD_REACTORS
330
C
102
}
330
C
100
AcDbDictionary
281
     1
  3
Standard
350
67
  0
DICTIONARY
  5
5F
102
{ACAD_REACTORS
330
C
102
}
330
C
100
AcDbDictionary
281
     1
  3
Standard
350
60
  0
DICTIONARY
  5
61
102
{ACAD_REACTORS
330
C
102
}
330
C
100
AcDbDictionary
281
     1
  0
ACDBDICTIONARYWDFLT
  5
E
102
{ACAD_REACTORS
330
C
102
}
330
C
100
AcDbDictionary
281
     1
  3
invisible
350
9E
  3
Normal
350
F
  3
Style 1
350
9F
100
AcDbDictionaryWithDefault
340
F
  0
DICTIONARY
  5
42
102
{ACAD_REACTORS
330
C
102
}
330
C
100
AcDbDictionary
281
     1
  3
*A1
350
A0
  3
*A10
350
A8
  3
*A11
350
A9
  3
*A12
350
AA
  3
*A13
350
AB
  3
*A14
350
AC
  3
*A15
350
AD
  3
*A16
350
AE
  3
*A17
350
AF
  3
*A18
350
B0
  3
*A2
350
B1
  3
*A3
350
A1
  3
*A4
350
A2
  3
*A5
350
A3
  3
*A6
350
A4
  3
*A7
350
A5
  3
*A8
350
A6
  3
*A9
350
A7
  3
A0
350
43
  3
A1
350
44
  3
A2
350
45
  3
A3
350
46
  3
A4
350
47
  3
A5
350
48
  3
A6
350
49
  3
A7
350
4A
  3
A8
350
4B
  3
A9
350
4C
  3
B0
350
4D
  3
B1
350
4E
  3
B2
350
4F
  3
B3
350
50
  3
B4
350
51
  3
B5
350
52
  3
B6
350
53
  0
DICTIONARY
  5
64
102
{ACAD_REACTORS
330
C
102
}
330
C
100
AcDbDictionary
281
     1
  3
Standard
350
65
  0
DICTIONARY
  5
29
102
{ACAD_REACTORS
330
C
102
}
330
C
100
AcDbDictionary
281
     1
  3
2dWireframe
350
2F
  3
Basic
350
2E
  3
Brighten
350
35
  3
ColorChange
350
39
  3
Conceptual
350
32
  3
Dim
350
34
  3
EdgeColorOff
350
41
  3
Facepattern
350
38
  3
Flat
350
2A
  3
FlatWithEdges
350
2B
  3
Gouraud
350
2C
  3
GouraudWithEdges
350
2D
  3
Hidden
350
31
  3
JitterOff
350
3F
  3
Linepattern
350
37
  3
OverhangOff
350
40
  3
Realistic
350
33
  3
Shaded
350
3E
  3
Shaded with edges
350
3D
  3
Shades of Gray
350
3A
  3
Sketchy
350
3B
  3
Thicken
350
36
  3
Wireframe
350
30
  3
X-Ray
350
3C
  0
XRECORD
  5
7AE
102
{ACAD_REACTORS
330
C
102
}
330
C
100
AcDbXrecord
280
     1
 90
        1
330
65
  0
DICTIONARY
  5
668
102
{ACAD_REACTORS
330
C
102
}
330
C
100
AcDbDictionary
281
     1
  3
ANNOALLVISIBLE
350
66B
  3
CANNOSCALE
350
66C
  3
CMLEADERSTYLE
350
66A
  3
CTABLESTYLE
350
669
  3
DIMASSOC
350
67E
  3
HIDETEXT
350
67C
  3
INDEXCTL
350
67B
  3
LAYEREVAL
350
66D
  3
LAYERNOTIFY
350
66E
  3
LIGHTINGUNITS
350
679
  3
MSLTSCALE
350
678
  3
SORTENTS
350
67A
  3
XCLIPFRAME
350
7AA
  0
DICTIONARY
  5
7A7
102
{ACAD_REACTORS
330
C
102
}
330
C
100
AcDbDictionary
281
     1
  3
ASEBlockHierarchyIndexRecord
350
7A9
1001
DCO15
1040
1882601289.924
  0
XRECORD
  5
7AF
102
{ACAD_REACTORS
330
C
102
}
330
C
100
AcDbXrecord
280
     1
  1
DWGPROPS COOKIE
  2

  3

  4

  6

  7

  8
0035sekine
  9

300
=
301
=
302
=
303
=
304
=
305
=
306
=
307
=
308
=
309
=
 40
0.0013957523148148
 41
2457463.690282928
 42
2457592.57863338
  1

 90
        0
  0
XRECORD
  5
677
102
{ACAD_REACTORS
330
676
102
}
330
676
100
AcDbXrecord
280
     1
290
     1
  0
XRECORD
  5
B5
102
{ACAD_REACTORS
330
B4
102
}
330
B4
100
AcDbXrecord
280
     1
290
     1
  0
XRECORD
  5
C3
102
{ACAD_REACTORS
330
C2
102
}
330
C2
100
AcDbXrecord
280
     1
290
     1
  0
SORTENTSTABLE
  5
5E4
102
{ACAD_REACTORS
330
5E3
102
}
330
5E3
100
AcDbSortentsTable
330
6C
331
2CF
  5
6D8
331
28B
  5
2DA
331
29C
  5
2EB
331
27A
  5
2C9
331
6F1
  5
28B
331
702
  5
29C
331
6E0
  5
27A
331
289
  5
2D8
331
29A
  5
2E9
331
278
  5
2C7
331
266
  5
2B5
331
6EF
  5
289
331
700
  5
29A
331
6DE
  5
278
331
2FD
  5
706
331
264
  5
2B3
331
70F
  5
2A9
331
6ED
  5
287
331
298
  5
2E7
331
6FE
  5
298
331
287
  5
2D6
331
6DC
  5
276
331
276
  5
2C5
331
6C9
  5
263
331
70D
  5
2A7
331
6EB
  5
285
331
296
  5
2E5
331
285
  5
2D4
331
6FC
  5
296
331
6DA
  5
274
331
274
  5
2C3
331
70B
  5
2A5
331
6E9
  5
283
331
2D8
  5
6E1
331
294
  5
2E3
331
272
  5
2C1
331
2F2
  5
6FB
331
283
  5
2D2
331
292
  5
2E1
331
270
  5
2BF
331
709
  5
2A3
331
2D6
  5
6DF
331
2F0
  5
6F9
331
281
  5
2D0
331
6F8
  5
292
331
6E7
  5
281
331
2D4
  5
6DD
331
290
  5
2DF
331
26E
  5
2BD
331
2EE
  5
6F7
331
27F
  5
2CE
331
6F6
  5
290
331
707
  5
2A1
331
6E5
  5
27F
331
2D2
  5
6DB
331
28E
  5
2DD
331
26C
  5
2BB
331
2EC
  5
6F5
331
27D
  5
2CC
331
6F4
  5
28E
331
705
  5
29F
331
6E3
  5
27D
331
2D0
  5
6D9
331
28C
  5
2DB
331
26A
  5
2B9
331
27B
  5
2CA
331
6F2
  5
28C
331
703
  5
29D
331
6E1
  5
27B
331
28A
  5
2D9
331
29B
  5
2EA
331
279
  5
2C8
331
267
  5
2B6
331
6F0
  5
28A
331
701
  5
29B
331
6DF
  5
279
331
288
  5
2D7
331
265
  5
2B4
331
6EE
  5
288
331
299
  5
2E8
331
6FF
  5
299
331
6DD
  5
277
331
277
  5
2C6
331
2FC
  5
705
331
263
  5
2B2
331
70E
  5
2A8
331
6EC
  5
286
331
297
  5
2E6
331
6FD
  5
297
331
286
  5
2D5
331
6DB
  5
275
331
275
  5
2C4
331
6C8
  5
262
331
70C
  5
2A6
331
6EA
  5
284
331
2D9
  5
6E2
331
295
  5
2E4
331
2F3
  5
6FC
331
284
  5
2D3
331
6FB
  5
295
331
273
  5
2C2
331
70A
  5
2A4
331
6E8
  5
282
331
2D7
  5
6E0
331
293
  5
2E2
331
271
  5
2C0
331
2F1
  5
6FA
331
282
  5
2D1
331
5E5
  5
715
331
708
  5
2A2
331
26F
  5
2BE
331
2D5
  5
6DE
331
291
  5
2E0
331
2EF
  5
6F8
331
280
  5
2CF
331
6F7
  5
291
331
6E6
  5
280
331
2D3
  5
6DC
331
28F
  5
2DE
331
26D
  5
2BC
331
2ED
  5
6F6
331
27E
  5
2CD
331
6F5
  5
28F
331
706
  5
2A0
331
6E4
  5
27E
331
28D
  5
2DC
331
26B
  5
2BA
331
2D1
  5
6DA
331
29E
  5
2ED
331
27C
  5
2CB
331
6F3
  5
28D
331
704
  5
29E
331
6E2
  5
27C
  0
LAYOUT
  5
6F
102
{ACAD_XDICTIONARY
360
7E3
102
}
102
{ACAD_REACTORS
330
62
102
}
330
62
100
AcDbPlotSettings
  1

  2
Adobe PDF
  4
A4
  6

 40
3.174999952316283
 41
3.174999952316283
 42
3.175003051757812
 43
3.17498779296875
 44
209.9733276367186
 45
297.0318298339844
 46
-4.894741058349608
 47
-4.905582427978514
 48
0.0
 49
0.0
140
0.0
141
0.0
142
1.0
143
1.932334030004891
 70
 11954
 72
     1
 73
     1
 74
     0
  7
monochrome.stb
 75
     0
147
0.5175088698290265
148
76.11140727840075
149
-163.6182548295242
100
AcDbLayout
  1
Model
 70
     1
 71
     0
 10
0.0
 20
0.0
 11
12.0
 21
9.0
 12
0.0
 22
0.0
 32
0.0
 14
0.0
 24
0.0
 34
0.0
 15
0.0
 25
0.0
 35
0.0
146
0.0
 13
0.0
 23
0.0
 33
0.0
 16
1.0
 26
0.0
 36
0.0
 17
0.0
 27
1.0
 37
0.0
 76
     0
330
6C
331
57
1001
ACAD_PSEXT
1000
Adobe PDF
1000
Adobe PDF Converter
1000
Documents\*.pdf
1000

1070
     0
  0
LAYOUT
  5
6B
102
{ACAD_XDICTIONARY
360
7E1
102
}
102
{ACAD_REACTORS
330
62
102
}
330
62
100
AcDbPlotSettings
  1

  2
Adobe PDF
  4

  6

 40
0.0
 41
0.0
 42
0.0
 43
0.0
 44
0.0
 45
0.0
 46
0.0
 47
0.0
 48
0.0
 49
0.0
140
0.0
141
0.0
142
1.0
143
1.0
 70
   688
 72
     0
 73
     0
 74
     5
  7

 75
    16
147
1.0
148
0.0
149
0.0
100
AcDbLayout
  1
レイアウト1
 70
     1
 71
     1
 10
0.0
 20
0.0
 11
12.0
 21
9.0
 12
0.0
 22
0.0
 32
0.0
 14
1.000000000000000E+20
 24
1.000000000000000E+20
 34
1.000000000000000E+20
 15
-1.000000000000000E+20
 25
-1.000000000000000E+20
 35
-1.000000000000000E+20
146
0.0
 13
0.0
 23
0.0
 33
0.0
 16
1.0
 26
0.0
 36
0.0
 17
0.0
 27
1.0
 37
0.0
 76
     0
330
68
  0
LAYOUT
  5
73
102
{ACAD_XDICTIONARY
360
7E5
102
}
102
{ACAD_REACTORS
330
62
102
}
330
62
100
AcDbPlotSettings
  1

  2
Adobe PDF
  4

  6

 40
0.0
 41
0.0
 42
0.0
 43
0.0
 44
0.0
 45
0.0
 46
0.0
 47
0.0
 48
0.0
 49
0.0
140
0.0
141
0.0
142
1.0
143
1.0
 70
   688
 72
     0
 73
     0
 74
     5
  7

 75
    16
147
1.0
148
0.0
149
0.0
100
AcDbLayout
  1
レイアウト2
 70
     1
 71
     2
 10
0.0
 20
0.0
 11
12.0
 21
9.0
 12
0.0
 22
0.0
 32
0.0
 14
0.0
 24
0.0
 34
0.0
 15
0.0
 25
0.0
 35
0.0
146
0.0
 13
0.0
 23
0.0
 33
0.0
 16
1.0
 26
0.0
 36
0.0
 17
0.0
 27
1.0
 37
0.0
 76
     0
330
70
  0
MATERIAL
  5
19
102
{ACAD_XDICTIONARY
360
1A
102
}
102
{ACAD_REACTORS
330
10
102
}
330
10
100
AcDbMaterial
  1
ByBlock
 72
     0
 43
0.0208333333333333
 43
0.0
 43
0.0
 43
0.0
 43
0.0
 43
0.0208333333333333
 43
0.0
 43
0.0
 43
0.0
 43
0.0
 43
1.0
 43
0.0
 43
0.0
 43
0.0
 43
0.0
 43
1.0
 77
     0
 47
0.0208333333333333
 47
0.0
 47
0.0
 47
0.0
 47
0.0
 47
0.0208333333333333
 47
0.0
 47
0.0
 47
0.0
 47
0.0
 47
1.0
 47
0.0
 47
0.0
 47
0.0
 47
0.0
 47
1.0
171
     0
 49
0.0208333333333333
 49
0.0
 49
0.0
 49
0.0
 49
0.0
 49
0.0208333333333333
 49
0.0
 49
0.0
 49
0.0
 49
0.0
 49
1.0
 49
0.0
 49
0.0
 49
0.0
 49
0.0
 49
1.0
175
     0
142
0.0208333333333333
142
0.0
142
0.0
142
0.0
142
0.0
142
0.0208333333333333
142
0.0
142
0.0
142
0.0
142
0.0
142
1.0
142
0.0
142
0.0
142
0.0
142
0.0
142
1.0
179
     0
144
0.0208333333333333
144
0.0
144
0.0
144
0.0
144
0.0
144
0.0208333333333333
144
0.0
144
0.0
144
0.0
144
0.0
144
1.0
144
0.0
144
0.0
144
0.0
144
0.0
144
1.0
147
0.0208333333333333
147
0.0
147
0.0
147
0.0
147
0.0
147
0.0208333333333333
147
0.0
147
0.0
147
0.0
147
0.0
147
1.0
147
0.0
147
0.0
147
0.0
147
0.0
147
1.0
  0
MATERIAL
  5
11
102
{ACAD_XDICTIONARY
360
12
102
}
102
{ACAD_REACTORS
330
10
102
}
330
10
100
AcDbMaterial
  1
ByLayer
 72
     0
 43
0.0208333333333333
 43
0.0
 43
0.0
 43
0.0
 43
0.0
 43
0.0208333333333333
 43
0.0
 43
0.0
 43
0.0
 43
0.0
 43
1.0
 43
0.0
 43
0.0
 43
0.0
 43
0.0
 43
1.0
 77
     0
 47
0.0208333333333333
 47
0.0
 47
0.0
 47
0.0
 47
0.0
 47
0.0208333333333333
 47
0.0
 47
0.0
 47
0.0
 47
0.0
 47
1.0
 47
0.0
 47
0.0
 47
0.0
 47
0.0
 47
1.0
171
     0
 49
0.0208333333333333
 49
0.0
 49
0.0
 49
0.0
 49
0.0
 49
0.0208333333333333
 49
0.0
 49
0.0
 49
0.0
 49
0.0
 49
1.0
 49
0.0
 49
0.0
 49
0.0
 49
0.0
 49
1.0
175
     0
142
0.0208333333333333
142
0.0
142
0.0
142
0.0
142
0.0
142
0.0208333333333333
142
0.0
142
0.0
142
0.0
142
0.0
142
1.0
142
0.0
142
0.0
142
0.0
142
0.0
142
1.0
179
     0
144
0.0208333333333333
144
0.0
144
0.0
144
0.0
144
0.0
144
0.0208333333333333
144
0.0
144
0.0
144
0.0
144
0.0
144
1.0
144
0.0
144
0.0
144
0.0
144
0.0
144
1.0
147
0.0208333333333333
147
0.0
147
0.0
147
0.0
147
0.0
147
0.0208333333333333
147
0.0
147
0.0
147
0.0
147
0.0
147
1.0
147
0.0
147
0.0
147
0.0
147
0.0
147
1.0
  0
MATERIAL
  5
21
102
{ACAD_XDICTIONARY
360
22
102
}
102
{ACAD_REACTORS
330
10
102
}
330
10
100
AcDbMaterial
  1
Global
 72
     0
 43
0.0208333333333333
 43
0.0
 43
0.0
 43
0.0
 43
0.0
 43
0.0208333333333333
 43
0.0
 43
0.0
 43
0.0
 43
0.0
 43
1.0
 43
0.0
 43
0.0
 43
0.0
 43
0.0
 43
1.0
 77
     0
 47
0.0208333333333333
 47
0.0
 47
0.0
 47
0.0
 47
0.0
 47
0.0208333333333333
 47
0.0
 47
0.0
 47
0.0
 47
0.0
 47
1.0
 47
0.0
 47
0.0
 47
0.0
 47
0.0
 47
1.0
171
     0
 49
0.0208333333333333
 49
0.0
 49
0.0
 49
0.0
 49
0.0
 49
0.0208333333333333
 49
0.0
 49
0.0
 49
0.0
 49
0.0
 49
1.0
 49
0.0
 49
0.0
 49
0.0
 49
0.0
 49
1.0
175
     0
142
0.0208333333333333
142
0.0
142
0.0
142
0.0
142
0.0
142
0.0208333333333333
142
0.0
142
0.0
142
0.0
142
0.0
142
1.0
142
0.0
142
0.0
142
0.0
142
0.0
142
1.0
179
     0
144
0.0208333333333333
144
0.0
144
0.0
144
0.0
144
0.0
144
0.0208333333333333
144
0.0
144
0.0
144
0.0
144
0.0
144
1.0
144
0.0
144
0.0
144
0.0
144
0.0
144
1.0
147
0.0208333333333333
147
0.0
147
0.0
147
0.0
147
0.0
147
0.0208333333333333
147
0.0
147
0.0
147
0.0
147
0.0
147
1.0
147
0.0
147
0.0
147
0.0
147
0.0
147
1.0
  0
MLEADERSTYLE
  5
67
102
{ACAD_XDICTIONARY
360
7AC
102
}
102
{ACAD_REACTORS
330
66
102
}
330
66
100
AcDbMLeaderStyle
170
     2
171
     1
172
     0
 90
        2
 40
0.0
 41
0.0
173
     1
 91
-1056964608
340
5B
 92
       -2
290
     1
 42
0.09
291
     1
 43
0.36
  3
Standard
 44
0.18
300

342
55
174
     1
178
     6
175
     1
176
     0
 93
-1056964608
 45
0.18
292
     0
297
     0
 46
0.18
 94
-1056964608
 47
1.0
 49
1.0
140
1.0
293
     1
141
0.0
294
     1
177
     0
142
1.0
295
     0
296
     0
143
0.125
1001
ACAD_MLEADERVER
1070
     2
  0
MLINESTYLE
  5
60
102
{ACAD_REACTORS
330
5F
102
}
330
5F
100
AcDbMlineStyle
  2
STANDARD
 70
     0
  3

 62
   256
 51
90.0
 52
90.0
 71
     2
 49
0.5
 62
   256
  6
BYLAYER
 49
-0.5
 62
   256
  6
BYLAYER
  0
ACDBPLACEHOLDER
  5
9E
102
{ACAD_REACTORS
330
E
102
}
330
E
  0
ACDBPLACEHOLDER
  5
F
102
{ACAD_REACTORS
330
E
102
}
330
E
  0
ACDBPLACEHOLDER
  5
9F
102
{ACAD_REACTORS
330
E
102
}
330
E
  0
SCALE
  5
A0
102
{ACAD_REACTORS
330
42
102
}
330
42
100
AcDbScale
 70
     0
300
3:1
140
3.0
141
1.0
290
     0
  0
SCALE
  5
A8
102
{ACAD_REACTORS
330
42
102
}
330
42
100
AcDbScale
 70
     0
300
3/16" = 1'-0"
140
0.1875
141
12.0
290
     0
  0
SCALE
  5
A9
102
{ACAD_REACTORS
330
42
102
}
330
42
100
AcDbScale
 70
     0
300
1/4" = 1'-0"
140
0.25
141
12.0
290
     0
  0
SCALE
  5
AA
102
{ACAD_REACTORS
330
42
102
}
330
42
100
AcDbScale
 70
     0
300
3/8" = 1'-0"
140
0.375
141
12.0
290
     0
  0
SCALE
  5
AB
102
{ACAD_REACTORS
330
42
102
}
330
42
100
AcDbScale
 70
     0
300
1/2" = 1'-0"
140
0.5
141
12.0
290
     0
  0
SCALE
  5
AC
102
{ACAD_REACTORS
330
42
102
}
330
42
100
AcDbScale
 70
     0
300
3/4" = 1'-0"
140
0.75
141
12.0
290
     0
  0
SCALE
  5
AD
102
{ACAD_REACTORS
330
42
102
}
330
42
100
AcDbScale
 70
     0
300
1" = 1'-0"
140
1.0
141
12.0
290
     0
  0
SCALE
  5
AE
102
{ACAD_REACTORS
330
42
102
}
330
42
100
AcDbScale
 70
     0
300
1-1/2" = 1'-0"
140
1.5
141
12.0
290
     0
  0
SCALE
  5
AF
102
{ACAD_REACTORS
330
42
102
}
330
42
100
AcDbScale
 70
     0
300
3" = 1'-0"
140
3.0
141
12.0
290
     0
  0
SCALE
  5
B0
102
{ACAD_REACTORS
330
42
102
}
330
42
100
AcDbScale
 70
     0
300
6" = 1'-0"
140
6.0
141
12.0
290
     0
  0
SCALE
  5
B1
102
{ACAD_REACTORS
330
42
102
}
330
42
100
AcDbScale
 70
     0
300
1'-0" = 1'-0"
140
12.0
141
12.0
290
     0
  0
SCALE
  5
A1
102
{ACAD_REACTORS
330
42
102
}
330
42
100
AcDbScale
 70
     0
300
5:1
140
5.0
141
1.0
290
     0
  0
SCALE
  5
A2
102
{ACAD_REACTORS
330
42
102
}
330
42
100
AcDbScale
 70
     0
300
1/128" = 1'-0"
140
0.0078125
141
12.0
290
     0
  0
SCALE
  5
A3
102
{ACAD_REACTORS
330
42
102
}
330
42
100
AcDbScale
 70
     0
300
1/64" = 1'-0"
140
0.015625
141
12.0
290
     0
  0
SCALE
  5
A4
102
{ACAD_REACTORS
330
42
102
}
330
42
100
AcDbScale
 70
     0
300
1/32" = 1'-0"
140
0.03125
141
12.0
290
     0
  0
SCALE
  5
A5
102
{ACAD_REACTORS
330
42
102
}
330
42
100
AcDbScale
 70
     0
300
1/16" = 1'-0"
140
0.0625
141
12.0
290
     0
  0
SCALE
  5
A6
102
{ACAD_REACTORS
330
42
102
}
330
42
100
AcDbScale
 70
     0
300
3/32" = 1'-0"
140
0.09375
141
12.0
290
     0
  0
SCALE
  5
A7
102
{ACAD_REACTORS
330
42
102
}
330
42
100
AcDbScale
 70
     0
300
1/8" = 1'-0"
140
0.125
141
12.0
290
     0
  0
SCALE
  5
43
102
{ACAD_REACTORS
330
42
102
}
330
42
100
AcDbScale
 70
     0
300
1:1
140
1.0
141
1.0
290
     1
  0
SCALE
  5
44
102
{ACAD_REACTORS
330
42
102
}
330
42
100
AcDbScale
 70
     0
300
1:2
140
1.0
141
2.0
290
     0
  0
SCALE
  5
45
102
{ACAD_REACTORS
330
42
102
}
330
42
100
AcDbScale
 70
     0
300
1:4
140
1.0
141
4.0
290
     0
  0
SCALE
  5
46
102
{ACAD_REACTORS
330
42
102
}
330
42
100
AcDbScale
 70
     0
300
1:5
140
1.0
141
5.0
290
     0
  0
SCALE
  5
47
102
{ACAD_REACTORS
330
42
102
}
330
42
100
AcDbScale
 70
     0
300
1:8
140
1.0
141
8.0
290
     0
  0
SCALE
  5
48
102
{ACAD_REACTORS
330
42
102
}
330
42
100
AcDbScale
 70
     0
300
1:10
140
1.0
141
10.0
290
     0
  0
SCALE
  5
49
102
{ACAD_REACTORS
330
42
102
}
330
42
100
AcDbScale
 70
     0
300
1:16
140
1.0
141
16.0
290
     0
  0
SCALE
  5
4A
102
{ACAD_REACTORS
330
42
102
}
330
42
100
AcDbScale
 70
     0
300
1:20
140
1.0
141
20.0
290
     0
  0
SCALE
  5
4B
102
{ACAD_REACTORS
330
42
102
}
330
42
100
AcDbScale
 70
     0
300
1:30
140
1.0
141
30.0
290
     0
  0
SCALE
  5
4C
102
{ACAD_REACTORS
330
42
102
}
330
42
100
AcDbScale
 70
     0
300
1:40
140
1.0
141
40.0
290
     0
  0
SCALE
  5
4D
102
{ACAD_REACTORS
330
42
102
}
330
42
100
AcDbScale
 70
     0
300
1:50
140
1.0
141
50.0
290
     0
  0
SCALE
  5
4E
102
{ACAD_REACTORS
330
42
102
}
330
42
100
AcDbScale
 70
     0
300
1:100
140
1.0
141
100.0
290
     0
  0
SCALE
  5
4F
102
{ACAD_REACTORS
330
42
102
}
330
42
100
AcDbScale
 70
     0
300
2:1
140
2.0
141
1.0
290
     0
  0
SCALE
  5
50
102
{ACAD_REACTORS
330
42
102
}
330
42
100
AcDbScale
 70
     0
300
4:1
140
4.0
141
1.0
290
     0
  0
SCALE
  5
51
102
{ACAD_REACTORS
330
42
102
}
330
42
100
AcDbScale
 70
     0
300
8:1
140
8.0
141
1.0
290
     0
  0
SCALE
  5
52
102
{ACAD_REACTORS
330
42
102
}
330
42
100
AcDbScale
 70
     0
300
10:1
140
10.0
141
1.0
290
     0
  0
SCALE
  5
53
102
{ACAD_REACTORS
330
42
102
}
330
42
100
AcDbScale
 70
     0
300
100:1
140
100.0
141
1.0
290
     0
  0
TABLESTYLE
  5
65
102
{ACAD_XDICTIONARY
360
680
102
}
102
{ACAD_REACTORS
330
64
102
}
330
64
100
AcDbTableStyle
  3
Standard
 70
     0
 71
     3
 40
1.5
 41
1.5
280
     0
281
     0
  7
Standard
140
4.5
170
     2
 62
     0
 63
     7
283
     0
274
    -2
284
     1
 64
     0
275
    -2
285
     1
 65
     0
276
    -2
286
     1
 66
     0
277
    -2
287
     1
 67
     0
278
    -2
288
     1
 68
     0
279
    -2
289
     1
 69
     0
  7
Standard
140
6.0
170
     5
 62
     0
 63
     7
283
     0
274
    -2
284
     1
 64
     0
275
    -2
285
     1
 65
     0
276
    -2
286
     1
 66
     0
277
    -2
287
     1
 67
     0
278
    -2
288
     1
 68
     0
279
    -2
289
     1
 69
     0
  7
Standard
140
4.5
170
     5
 62
     0
 63
     7
283
     0
274
    -2
284
     1
 64
     0
275
    -2
285
     1
 65
     0
276
    -2
286
     1
 66
     0
277
    -2
287
     1
 67
     0
278
    -2
288
     1
 68
     0
279
    -2
289
     1
 69
     0
  0
VISUALSTYLE
  5
2F
102
{ACAD_XDICTIONARY
360
7BA
102
}
102
{ACAD_REACTORS
330
29
102
}
330
29
100
AcDbVisualStyle
  2

 70
     4
 71
     0
 72
     2
 73
     0
 90
        0
 40
-0.6
 41
-30.0
 62
     5
 63
     7
 74
     1
 91
        4
 64
     7
 65
   257
 75
     1
175
     1
 42
1.0
 92
        0
 66
   257
 43
1.0
 76
     1
 77
     6
 78
     2
 67
     7
 79
     5
170
     0
171
     0
290
     0
174
     0
 93
        1
 44
0.0
173
     0
291
     0
 45
0.0
1001
ACAD
1000
AcDbSavedByObjectVersion
1070
     0
  0
VISUALSTYLE
  5
2E
102
{ACAD_XDICTIONARY
360
7B8
102
}
102
{ACAD_REACTORS
330
29
102
}
330
29
100
AcDbVisualStyle
  2

 70
     7
 71
     1
 72
     0
 73
     1
 90
        0
 40
-0.6
 41
-30.0
 62
     5
 63
     7
 74
     0
 91
        4
 64
     7
 65
   257
 75
     1
175
     1
 42
1.0
 92
        8
 66
     7
 43
1.0
 76
     1
 77
     6
 78
     2
 67
     7
 79
     5
170
     0
171
     0
290
     0
174
     0
 93
        1
 44
0.0
173
     0
291
     1
 45
0.0
1001
ACAD
1000
AcDbSavedByObjectVersion
1070
     0
  0
VISUALSTYLE
  5
35
102
{ACAD_XDICTIONARY
360
7C6
102
}
102
{ACAD_REACTORS
330
29
102
}
330
29
100
AcDbVisualStyle
  2

 70
    12
 71
     2
 72
     2
 73
     0
 90
        0
 40
-0.6
 41
-30.0
 62
     5
 63
     7
 74
     1
 91
        4
 64
     7
 65
   257
 75
     1
175
     1
 42
1.0
 92
        8
 66
     7
 43
1.0
 76
     1
 77
     6
 78
     2
 67
     7
 79
     5
170
     0
171
     0
290
     0
174
     0
 93
        1
 44
50.0
173
     0
291
     1
 45
0.0
1001
ACAD
1000
AcDbSavedByObjectVersion
1070
     0
  0
VISUALSTYLE
  5
39
102
{ACAD_XDICTIONARY
360
7CE
102
}
102
{ACAD_REACTORS
330
29
102
}
330
29
100
AcDbVisualStyle
  2

 70
    16
 71
     2
 72
     2
 73
     3
 90
        0
 40
-0.6
 41
-30.0
 62
     5
 63
     8
 74
     1
 91
        4
 64
     7
 65
   257
 75
     1
175
     1
 42
1.0
 92
        8
 66
     8
 43
1.0
 76
     1
 77
     6
 78
     2
 67
     7
 79
     5
170
     0
171
     0
290
     0
174
     0
 93
        1
 44
0.0
173
     0
291
     1
 45
0.0
1001
ACAD
1000
AcDbSavedByObjectVersion
1070
     0
  0
VISUALSTYLE
  5
32
102
{ACAD_XDICTIONARY
360
7C0
102
}
102
{ACAD_REACTORS
330
29
102
}
330
29
100
AcDbVisualStyle
  2

 70
     9
 71
     3
 72
     2
 73
     0
 90
        0
 40
-0.6
 41
-30.0
 62
     5
 63
     7
 74
     2
 91
        2
 64
     7
 65
   257
 75
     1
175
     1
 42
179.0
 92
        8
 66
     7
 43
1.0
 76
     1
 77
     6
 78
     2
 67
     7
 79
     3
170
     0
171
     0
290
     0
174
     0
 93
        1
 44
0.0
173
     0
291
     0
 45
0.0
1001
ACAD
1000
AcDbSavedByObjectVersion
1070
     0
  0
VISUALSTYLE
  5
34
102
{ACAD_XDICTIONARY
360
7C4
102
}
102
{ACAD_REACTORS
330
29
102
}
330
29
100
AcDbVisualStyle
  2

 70
    11
 71
     2
 72
     2
 73
     0
 90
        0
 40
-0.6
 41
-30.0
 62
     5
 63
     7
 74
     1
 91
        4
 64
     7
 65
   257
 75
     1
175
     1
 42
1.0
 92
        8
 66
     7
 43
1.0
 76
     1
 77
     6
 78
     2
 67
     7
 79
     5
170
     0
171
     0
290
     0
174
     0
 93
        1
 44
-50.0
173
     0
291
     1
 45
0.0
1001
ACAD
1000
AcDbSavedByObjectVersion
1070
     0
  0
VISUALSTYLE
  5
41
102
{ACAD_XDICTIONARY
360
7DE
102
}
102
{ACAD_REACTORS
330
29
102
}
330
29
100
AcDbVisualStyle
  2

 70
    22
 71
     2
 72
     2
 73
     0
 90
        0
 40
-0.6
 41
-30.0
 62
     5
 63
     7
 74
     1
 91
        4
 64
     7
 65
   257
 75
     1
175
     1
 42
1.0
 92
        8
 66
     7
 43
1.0
 76
     1
 77
     6
 78
     2
 67
     7
 79
     5
170
     0
171
     0
290
     0
174
     0
 93
        1
 44
0.0
173
     0
291
     1
 45
0.0
1001
ACAD
1000
AcDbSavedByObjectVersion
1070
     0
  0
VISUALSTYLE
  5
38
102
{ACAD_XDICTIONARY
360
7CC
102
}
102
{ACAD_REACTORS
330
29
102
}
330
29
100
AcDbVisualStyle
  2

 70
    15
 71
     2
 72
     2
 73
     0
 90
        0
 40
-0.6
 41
-30.0
 62
     5
 63
     7
 74
     1
 91
        4
 64
     7
 65
   257
 75
     1
175
     1
 42
1.0
 92
        8
 66
     7
 43
1.0
 76
     1
 77
     6
 78
     2
 67
     7
 79
     5
170
     0
171
     0
290
     0
174
     0
 93
        1
 44
0.0
173
     0
291
     1
 45
0.0
1001
ACAD
1000
AcDbSavedByObjectVersion
1070
     0
  0
VISUALSTYLE
  5
2A
102
{ACAD_XDICTIONARY
360
7B0
102
}
102
{ACAD_REACTORS
330
29
102
}
330
29
100
AcDbVisualStyle
  2

 70
     0
 71
     2
 72
     1
 73
     1
 90
        2
 40
-0.6
 41
30.0
 62
     5
 63
     7
 74
     0
 91
        0
 64
     7
 65
   257
 75
     1
175
     1
 42
1.0
 92
        8
 66
     7
 43
1.0
 76
     1
 77
     6
 78
     2
 67
     7
 79
     5
170
     0
171
     0
290
     0
174
     0
 93
       13
 44
0.0
173
     0
291
     1
 45
0.0
1001
ACAD
1000
AcDbSavedByObjectVersion
1070
     0
  0
VISUALSTYLE
  5
2B
102
{ACAD_XDICTIONARY
360
7B2
102
}
102
{ACAD_REACTORS
330
29
102
}
330
29
100
AcDbVisualStyle
  2

 70
     1
 71
     2
 72
     1
 73
     1
 90
        2
 40
-0.6
 41
30.0
 62
     5
 63
     7
 74
     1
 91
        0
 64
     7
 65
   257
 75
     1
175
     1
 42
1.0
 92
        0
 66
   257
 43
1.0
 76
     1
 77
     6
 78
     2
 67
     7
 79
     5
170
     0
171
     0
290
     0
174
     0
 93
       13
 44
0.0
173
     0
291
     1
 45
0.0
1001
ACAD
1000
AcDbSavedByObjectVersion
1070
     0
  0
VISUALSTYLE
  5
2C
102
{ACAD_XDICTIONARY
360
7B4
102
}
102
{ACAD_REACTORS
330
29
102
}
330
29
100
AcDbVisualStyle
  2

 70
     2
 71
     2
 72
     2
 73
     1
 90
        2
 40
-0.6
 41
30.0
 62
     5
 63
     7
 74
     0
 91
        0
 64
     7
 65
   257
 75
     1
175
     1
 42
1.0
 92
        0
 66
     7
 43
1.0
 76
     1
 77
     6
 78
     2
 67
     7
 79
     5
170
     0
171
     0
290
     0
174
     0
 93
       13
 44
0.0
173
     0
291
     1
 45
0.0
1001
ACAD
1000
AcDbSavedByObjectVersion
1070
     0
  0
VISUALSTYLE
  5
2D
102
{ACAD_XDICTIONARY
360
7B6
102
}
102
{ACAD_REACTORS
330
29
102
}
330
29
100
AcDbVisualStyle
  2

 70
     3
 71
     2
 72
     2
 73
     1
 90
        2
 40
-0.6
 41
30.0
 62
     5
 63
     7
 74
     1
 91
        0
 64
     7
 65
   257
 75
     1
175
     1
 42
1.0
 92
        0
 66
   257
 43
1.0
 76
     1
 77
     6
 78
     2
 67
     7
 79
     5
170
     0
171
     0
290
     0
174
     0
 93
       13
 44
0.0
173
     0
291
     1
 45
0.0
1001
ACAD
1000
AcDbSavedByObjectVersion
1070
     0
  0
VISUALSTYLE
  5
31
102
{ACAD_XDICTIONARY
360
7BE
102
}
102
{ACAD_REACTORS
330
29
102
}
330
29
100
AcDbVisualStyle
  2

 70
     6
 71
     1
 72
     2
 73
     2
 90
        0
 40
-0.6
 41
-30.0
 62
     5
 63
     7
 74
     2
 91
        2
 64
     7
 65
   257
 75
     2
175
     1
 42
40.0
 92
        0
 66
   257
 43
1.0
 76
     1
 77
     6
 78
     2
 67
     7
 79
     3
170
     0
171
     0
290
     0
174
     0
 93
        1
 44
0.0
173
     0
291
     0
 45
0.0
1001
ACAD
1000
AcDbSavedByObjectVersion
1070
     0
  0
VISUALSTYLE
  5
3F
102
{ACAD_XDICTIONARY
360
7DA
102
}
102
{ACAD_REACTORS
330
29
102
}
330
29
100
AcDbVisualStyle
  2

 70
    20
 71
     2
 72
     2
 73
     0
 90
        0
 40
-0.6
 41
-30.0
 62
     5
 63
     7
 74
     1
 91
        4
 64
     7
 65
   257
 75
     1
175
     1
 42
1.0
 92
       10
 66
     7
 43
1.0
 76
     1
 77
     6
 78
     2
 67
     7
 79
     5
170
     0
171
     0
290
     0
174
     0
 93
        1
 44
0.0
173
     0
291
     1
 45
0.0
1001
ACAD
1000
AcDbSavedByObjectVersion
1070
     0
  0
VISUALSTYLE
  5
37
102
{ACAD_XDICTIONARY
360
7CA
102
}
102
{ACAD_REACTORS
330
29
102
}
330
29
100
AcDbVisualStyle
  2

 70
    14
 71
     2
 72
     2
 73
     0
 90
        0
 40
-0.6
 41
-30.0
 62
     5
 63
     7
 74
     1
 91
        4
 64
     7
 65
   257
 75
     7
175
     7
 42
1.0
 92
        8
 66
     7
 43
1.0
 76
     1
 77
     6
 78
     2
 67
     7
 79
     5
170
     0
171
     0
290
     0
174
     0
 93
        1
 44
0.0
173
     0
291
     1
 45
0.0
1001
ACAD
1000
AcDbSavedByObjectVersion
1070
     0
  0
VISUALSTYLE
  5
40
102
{ACAD_XDICTIONARY
360
7DC
102
}
102
{ACAD_REACTORS
330
29
102
}
330
29
100
AcDbVisualStyle
  2

 70
    21
 71
     2
 72
     2
 73
     0
 90
        0
 40
-0.6
 41
-30.0
 62
     5
 63
     7
 74
     1
 91
        4
 64
     7
 65
   257
 75
     1
175
     1
 42
1.0
 92
        9
 66
     7
 43
1.0
 76
     1
 77
     6
 78
     2
 67
     7
 79
     5
170
     0
171
     0
290
     0
174
     0
 93
        1
 44
0.0
173
     0
291
     1
 45
0.0
1001
ACAD
1000
AcDbSavedByObjectVersion
1070
     0
  0
VISUALSTYLE
  5
33
102
{ACAD_XDICTIONARY
360
7C2
102
}
102
{ACAD_REACTORS
330
29
102
}
330
29
100
AcDbVisualStyle
  2

 70
     8
 71
     2
 72
     3
 73
     0
 90
        2
 40
-0.6
 41
30.0
 62
     5
 63
     7
 74
     0
 91
        0
 64
     7
 65
   257
 75
     1
175
     1
 42
1.0
 92
        8
 66
   257
 43
1.0
 76
     1
 77
     6
 78
     2
 67
     7
 79
     3
170
     0
171
     0
290
     0
174
     0
 93
       13
 44
0.0
173
     0
291
     0
 45
0.0
1001
ACAD
1000
AcDbSavedByObjectVersion
1070
     0
  0
VISUALSTYLE
  5
3E
102
{ACAD_XDICTIONARY
360
7D8
102
}
102
{ACAD_REACTORS
330
29
102
}
330
29
100
AcDbVisualStyle
  2

 70
    27
 71
     2
 72
     2
 73
     1
 90
        2
 40
-0.6
 41
30.0
 62
     5
 63
     7
 74
     0
 91
        4
 64
     7
 65
   257
 75
     1
175
     1
 42
1.0
 92
        8
 66
   257
 43
1.0
 76
     1
 77
     6
 78
     2
 67
     8
 79
     3
170
     0
171
     0
290
     0
174
     0
 93
        5
 44
0.0
173
     0
291
     0
 45
0.0
1001
ACAD
1000
AcDbSavedByObjectVersion
1070
     0
  0
VISUALSTYLE
  5
3D
102
{ACAD_XDICTIONARY
360
7D6
102
}
102
{ACAD_REACTORS
330
29
102
}
330
29
100
AcDbVisualStyle
  2

 70
    26
 71
     2
 72
     2
 73
     1
 90
        2
 40
-0.6
 41
30.0
 62
     5
 63
     7
 74
     1
 91
       10
 64
     7
 65
   257
 75
     2
175
     1
 42
1.0
 92
        8
 66
   257
 43
1.0
 76
     1
 77
     6
 78
     2
 67
     7
 79
     3
170
     0
171
     0
290
     0
174
     0
 93
        5
 44
0.0
173
     0
291
     0
 45
0.0
1001
ACAD
1000
AcDbSavedByObjectVersion
1070
     0
  0
VISUALSTYLE
  5
3A
102
{ACAD_XDICTIONARY
360
7D0
102
}
102
{ACAD_REACTORS
330
29
102
}
330
29
100
AcDbVisualStyle
  2

 70
    23
 71
     2
 72
     2
 73
     3
 90
        0
 40
-0.6
 41
-30.0
 62
     5
 63
     7
 74
     2
 91
        2
 64
     7
 65
     7
 75
     1
175
     1
 42
40.0
 92
        8
 66
     7
 43
1.0
 76
     1
 77
     6
 78
     2
 67
     7
 79
     3
170
     0
171
     0
290
     0
174
     0
 93
        1
 44
0.0
173
     0
291
     0
 45
0.0
1001
ACAD
1000
AcDbSavedByObjectVersion
1070
     0
  0
VISUALSTYLE
  5
3B
102
{ACAD_XDICTIONARY
360
7D2
102
}
102
{ACAD_REACTORS
330
29
102
}
330
29
100
AcDbVisualStyle
  2

 70
    24
 71
     1
 72
     2
 73
     2
 90
        0
 40
-0.6
 41
-30.0
 62
     5
 63
     7
 74
     2
 91
        2
 64
     7
 65
     7
 75
     1
175
     1
 42
40.0
 92
       11
 66
     7
 43
1.0
 76
     1
 77
     6
 78
     2
 67
     7
 79
     6
170
     0
171
     0
290
     0
174
     0
 93
        1
 44
0.0
173
     0
291
     0
 45
0.0
1001
ACAD
1000
AcDbSavedByObjectVersion
1070
     0
  0
VISUALSTYLE
  5
36
102
{ACAD_XDICTIONARY
360
7C8
102
}
102
{ACAD_REACTORS
330
29
102
}
330
29
100
AcDbVisualStyle
  2

 70
    13
 71
     2
 72
     2
 73
     0
 90
        0
 40
-0.6
 41
-30.0
 62
     5
 63
     7
 74
     1
 91
        4
 64
     7
 65
   257
 75
     1
175
     1
 42
1.0
 92
       12
 66
     7
 43
1.0
 76
     1
 77
     6
 78
     2
 67
     7
 79
     5
170
     0
171
     0
290
     0
174
     0
 93
        1
 44
0.0
173
     0
291
     1
 45
0.0
1001
ACAD
1000
AcDbSavedByObjectVersion
1070
     0
  0
VISUALSTYLE
  5
30
102
{ACAD_XDICTIONARY
360
7BC
102
}
102
{ACAD_REACTORS
330
29
102
}
330
29
100
AcDbVisualStyle
  2

 70
     5
 71
     0
 72
     2
 73
     0
 90
        0
 40
-0.6
 41
-30.0
 62
     5
 63
     7
 74
     1
 91
        4
 64
     7
 65
   257
 75
     1
175
     1
 42
1.0
 92
        0
 66
   257
 43
1.0
 76
     1
 77
     6
 78
     2
 67
     7
 79
     3
170
     0
171
     0
290
     0
174
     0
 93
        1
 44
0.0
173
     0
291
     0
 45
0.0
1001
ACAD
1000
AcDbSavedByObjectVersion
1070
     0
  0
VISUALSTYLE
  5
3C
102
{ACAD_XDICTIONARY
360
7D4
102
}
102
{ACAD_REACTORS
330
29
102
}
330
29
100
AcDbVisualStyle
  2

 70
    25
 71
     2
 72
     2
 73
     1
 90
        1
 40
0.5
 41
-30.0
 62
     5
 63
     7
 74
     1
 91
        0
 64
     7
 65
   257
 75
     1
175
     1
 42
1.0
 92
        8
 66
     7
 43
1.0
 76
     1
 77
     6
 78
     2
 67
     7
 79
     3
170
     0
171
     0
290
     0
174
     0
 93
       13
 44
0.0
173
     0
291
     0
 45
0.0
1001
ACAD
1000
AcDbSavedByObjectVersion
1070
     0
  0
DICTIONARYVAR
  5
66B
102
{ACAD_REACTORS
330
668
102
}
330
668
100
DictionaryVariables
280
     0
  1
0
  0
DICTIONARYVAR
  5
66C
102
{ACAD_REACTORS
330
668
102
}
330
668
100
DictionaryVariables
280
     0
  1
1:1
  0
DICTIONARYVAR
  5
66A
102
{ACAD_REACTORS
330
668
102
}
330
668
100
DictionaryVariables
280
     0
  1
STANDARD
  0
DICTIONARYVAR
  5
669
102
{ACAD_REACTORS
330
668
102
}
330
668
100
DictionaryVariables
280
     0
  1
STANDARD
  0
DICTIONARYVAR
  5
67E
102
{ACAD_REACTORS
330
668
102
}
330
668
100
DictionaryVariables
280
     0
  1
2
  0
DICTIONARYVAR
  5
67C
102
{ACAD_REACTORS
330
668
102
}
330
668
100
DictionaryVariables
280
     0
  1
1
  0
DICTIONARYVAR
  5
67B
102
{ACAD_REACTORS
330
668
102
}
330
668
100
DictionaryVariables
280
     0
  1
0
  0
DICTIONARYVAR
  5
66D
102
{ACAD_REACTORS
330
668
102
}
330
668
100
DictionaryVariables
280
     0
  1
1
  0
DICTIONARYVAR
  5
66E
102
{ACAD_REACTORS
330
668
102
}
330
668
100
DictionaryVariables
280
     0
  1
15
  0
DICTIONARYVAR
  5
679
102
{ACAD_REACTORS
330
668
102
}
330
668
100
DictionaryVariables
280
     0
  1
2
  0
DICTIONARYVAR
  5
678
102
{ACAD_REACTORS
330
668
102
}
330
668
100
DictionaryVariables
280
     0
  1
1
  0
DICTIONARYVAR
  5
67A
102
{ACAD_REACTORS
330
668
102
}
330
668
100
DictionaryVariables
280
     0
  1
127
  0
DICTIONARYVAR
  5
7AA
102
{ACAD_REACTORS
330
668
102
}
330
668
100
DictionaryVariables
280
     0
  1
2
  0
XRECORD
  5
7A9
102
{ACAD_REACTORS
330
7A7
102
}
330
7A7
100
AcDbXrecord
280
     1
330
6C8
330
6C9
330
BD
330
BA
330
1C4
330
1CC
330
5EB
330
5EC
330
5F4
330
5F5
330
5FD
330
5FE
330
606
330
607
330
60F
330
610
330
618
330
619
330
621
330
622
330
62C
330
62D
330
637
330
638
330
642
330
643
330
64D
330
64E
330
656
330
657
330
660
330
661
330
768
330
769
330
772
330
773
330
77C
330
77D
330
786
330
787
330
790
330
791
330
79A
330
79B
  0
DICTIONARY
  5
7E3
330
6F
100
AcDbDictionary
280
     1
281
     1
  3
ACAD_XREC_ROUNDTRIP
360
7E4
  0
DICTIONARY
  5
7E1
330
6B
100
AcDbDictionary
280
     1
281
     1
  3
ACAD_XREC_ROUNDTRIP
360
7E2
  0
DICTIONARY
  5
7E5
330
73
100
AcDbDictionary
280
     1
281
     1
  3
ACAD_XREC_ROUNDTRIP
360
7E6
  0
DICTIONARY
  5
1A
330
19
100
AcDbDictionary
280
     1
281
     1
  3
ACAD_XREC_ROUNDTRIP
360
687
  3
BUMPTILE
360
1C
  3
DIFFUSETILE
360
1B
  3
OPACITYTILE
360
1F
  3
REFLECTIONTILE
360
1E
  3
REFRACTIONTILE
360
20
  3
SPECULARTILE
360
1D
  0
DICTIONARY
  5
12
330
11
100
AcDbDictionary
280
     1
281
     1
  3
ACAD_XREC_ROUNDTRIP
360
686
  3
BUMPTILE
360
14
  3
DIFFUSETILE
360
13
  3
OPACITYTILE
360
17
  3
REFLECTIONTILE
360
16
  3
REFRACTIONTILE
360
18
  3
SPECULARTILE
360
15
  0
DICTIONARY
  5
22
330
21
100
AcDbDictionary
280
     1
281
     1
  3
ACAD_XREC_ROUNDTRIP
360
688
  3
BUMPTILE
360
24
  3
DIFFUSETILE
360
23
  3
OPACITYTILE
360
27
  3
REFLECTIONTILE
360
26
  3
REFRACTIONTILE
360
28
  3
SPECULARTILE
360
25
  0
DICTIONARY
  5
7AC
330
67
100
AcDbDictionary
280
     1
281
     1
  3
ACAD_XREC_ROUNDTRIP
360
7AD
  0
DICTIONARY
  5
680
330
65
100
AcDbDictionary
280
     1
281
     1
  3
ACAD_ROUNDTRIP_2008_TABLESTYLE_CELLSTYLEMAP
360
7AB
  3
ACAD_XREC_ROUNDTRIP
360
7E0
  0
DICTIONARY
  5
7BA
330
2F
100
AcDbDictionary
280
     1
281
     1
  3
ACAD_XREC_ROUNDTRIP
360
7BB
  0
DICTIONARY
  5
7B8
330
2E
100
AcDbDictionary
280
     1
281
     1
  3
ACAD_XREC_ROUNDTRIP
360
7B9
  0
DICTIONARY
  5
7C6
330
35
100
AcDbDictionary
280
     1
281
     1
  3
ACAD_XREC_ROUNDTRIP
360
7C7
  0
DICTIONARY
  5
7CE
330
39
100
AcDbDictionary
280
     1
281
     1
  3
ACAD_XREC_ROUNDTRIP
360
7CF
  0
DICTIONARY
  5
7C0
330
32
100
AcDbDictionary
280
     1
281
     1
  3
ACAD_XREC_ROUNDTRIP
360
7C1
  0
DICTIONARY
  5
7C4
330
34
100
AcDbDictionary
280
     1
281
     1
  3
ACAD_XREC_ROUNDTRIP
360
7C5
  0
DICTIONARY
  5
7DE
330
41
100
AcDbDictionary
280
     1
281
     1
  3
ACAD_XREC_ROUNDTRIP
360
7DF
  0
DICTIONARY
  5
7CC
330
38
100
AcDbDictionary
280
     1
281
     1
  3
ACAD_XREC_ROUNDTRIP
360
7CD
  0
DICTIONARY
  5
7B0
330
2A
100
AcDbDictionary
280
     1
281
     1
  3
ACAD_XREC_ROUNDTRIP
360
7B1
  0
DICTIONARY
  5
7B2
330
2B
100
AcDbDictionary
280
     1
281
     1
  3
ACAD_XREC_ROUNDTRIP
360
7B3
  0
DICTIONARY
  5
7B4
330
2C
100
AcDbDictionary
280
     1
281
     1
  3
ACAD_XREC_ROUNDTRIP
360
7B5
  0
DICTIONARY
  5
7B6
330
2D
100
AcDbDictionary
280
     1
281
     1
  3
ACAD_XREC_ROUNDTRIP
360
7B7
  0
DICTIONARY
  5
7BE
330
31
100
AcDbDictionary
280
     1
281
     1
  3
ACAD_XREC_ROUNDTRIP
360
7BF
  0
DICTIONARY
  5
7DA
330
3F
100
AcDbDictionary
280
     1
281
     1
  3
ACAD_XREC_ROUNDTRIP
360
7DB
  0
DICTIONARY
  5
7CA
330
37
100
AcDbDictionary
280
     1
281
     1
  3
ACAD_XREC_ROUNDTRIP
360
7CB
  0
DICTIONARY
  5
7DC
330
40
100
AcDbDictionary
280
     1
281
     1
  3
ACAD_XREC_ROUNDTRIP
360
7DD
  0
DICTIONARY
  5
7C2
330
33
100
AcDbDictionary
280
     1
281
     1
  3
ACAD_XREC_ROUNDTRIP
360
7C3
  0
DICTIONARY
  5
7D8
330
3E
100
AcDbDictionary
280
     1
281
     1
  3
ACAD_XREC_ROUNDTRIP
360
7D9
  0
DICTIONARY
  5
7D6
330
3D
100
AcDbDictionary
280
     1
281
     1
  3
ACAD_XREC_ROUNDTRIP
360
7D7
  0
DICTIONARY
  5
7D0
330
3A
100
AcDbDictionary
280
     1
281
     1
  3
ACAD_XREC_ROUNDTRIP
360
7D1
  0
DICTIONARY
  5
7D2
330
3B
100
AcDbDictionary
280
     1
281
     1
  3
ACAD_XREC_ROUNDTRIP
360
7D3
  0
DICTIONARY
  5
7C8
330
36
100
AcDbDictionary
280
     1
281
     1
  3
ACAD_XREC_ROUNDTRIP
360
7C9
  0
DICTIONARY
  5
7BC
330
30
100
AcDbDictionary
280
     1
281
     1
  3
ACAD_XREC_ROUNDTRIP
360
7BD
  0
DICTIONARY
  5
7D4
330
3C
100
AcDbDictionary
280
     1
281
     1
  3
ACAD_XREC_ROUNDTRIP
360
7D5
  0
XRECORD
  5
7E4
102
{ACAD_REACTORS
330
7E3
102
}
330
7E3
100
AcDbXrecord
280
     1
102
SHADEPLOT
 70
     0
102
SHADEPLOTRESLEVEL
 70
     2
102
SHADEPLOTCUSTOMDPI
 70
   300
  0
XRECORD
  5
7E2
102
{ACAD_REACTORS
330
7E1
102
}
330
7E1
100
AcDbXrecord
280
     1
102
SHADEPLOT
 70
     0
102
SHADEPLOTRESLEVEL
 70
     2
102
SHADEPLOTCUSTOMDPI
 70
   300
  0
XRECORD
  5
7E6
102
{ACAD_REACTORS
330
7E5
102
}
330
7E5
100
AcDbXrecord
280
     1
102
SHADEPLOT
 70
     0
102
SHADEPLOTRESLEVEL
 70
     2
102
SHADEPLOTCUSTOMDPI
 70
   300
  0
XRECORD
  5
687
102
{ACAD_REACTORS
330
1A
102
}
330
1A
100
AcDbXrecord
280
     1
102
MATERIAL
148
0.0
149
0.0
149
0.0
 93
        0
 94
      127
282
     0
 72
     0
 77
     0
171
     0
175
     0
179
     0
273
     0
  0
XRECORD
  5
1C
102
{ACAD_REACTORS
330
1A
102
}
330
1A
100
AcDbXrecord
280
     1
270
     1
271
     1
  0
XRECORD
  5
1B
102
{ACAD_REACTORS
330
1A
102
}
330
1A
100
AcDbXrecord
280
     1
270
     1
271
     1
  0
XRECORD
  5
1F
102
{ACAD_REACTORS
330
1A
102
}
330
1A
100
AcDbXrecord
280
     1
270
     1
271
     1
  0
XRECORD
  5
1E
102
{ACAD_REACTORS
330
1A
102
}
330
1A
100
AcDbXrecord
280
     1
270
     1
271
     1
  0
XRECORD
  5
20
102
{ACAD_REACTORS
330
1A
102
}
330
1A
100
AcDbXrecord
280
     1
270
     1
271
     1
  0
XRECORD
  5
1D
102
{ACAD_REACTORS
330
1A
102
}
330
1A
100
AcDbXrecord
280
     1
270
     1
271
     1
  0
XRECORD
  5
686
102
{ACAD_REACTORS
330
12
102
}
330
12
100
AcDbXrecord
280
     1
102
MATERIAL
148
0.0
149
0.0
149
0.0
 93
        0
 94
      127
282
     0
 72
     0
 77
     0
171
     0
175
     0
179
     0
273
     0
  0
XRECORD
  5
14
102
{ACAD_REACTORS
330
12
102
}
330
12
100
AcDbXrecord
280
     1
270
     1
271
     1
  0
XRECORD
  5
13
102
{ACAD_REACTORS
330
12
102
}
330
12
100
AcDbXrecord
280
     1
270
     1
271
     1
  0
XRECORD
  5
17
102
{ACAD_REACTORS
330
12
102
}
330
12
100
AcDbXrecord
280
     1
270
     1
271
     1
  0
XRECORD
  5
16
102
{ACAD_REACTORS
330
12
102
}
330
12
100
AcDbXrecord
280
     1
270
     1
271
     1
  0
XRECORD
  5
18
102
{ACAD_REACTORS
330
12
102
}
330
12
100
AcDbXrecord
280
     1
270
     1
271
     1
  0
XRECORD
  5
15
102
{ACAD_REACTORS
330
12
102
}
330
12
100
AcDbXrecord
280
     1
270
     1
271
     1
  0
XRECORD
  5
688
102
{ACAD_REACTORS
330
22
102
}
330
22
100
AcDbXrecord
280
     1
102
MATERIAL
148
0.0
149
0.0
149
0.0
 93
        0
 94
      127
282
     0
 72
     0
 77
     0
171
     0
175
     0
179
     0
273
     0
  0
XRECORD
  5
24
102
{ACAD_REACTORS
330
22
102
}
330
22
100
AcDbXrecord
280
     1
270
     1
271
     1
  0
XRECORD
  5
23
102
{ACAD_REACTORS
330
22
102
}
330
22
100
AcDbXrecord
280
     1
270
     1
271
     1
  0
XRECORD
  5
27
102
{ACAD_REACTORS
330
22
102
}
330
22
100
AcDbXrecord
280
     1
270
     1
271
     1
  0
XRECORD
  5
26
102
{ACAD_REACTORS
330
22
102
}
330
22
100
AcDbXrecord
280
     1
270
     1
271
     1
  0
XRECORD
  5
28
102
{ACAD_REACTORS
330
22
102
}
330
22
100
AcDbXrecord
280
     1
270
     1
271
     1
  0
XRECORD
  5
25
102
{ACAD_REACTORS
330
22
102
}
330
22
100
AcDbXrecord
280
     1
270
     1
271
     1
  0
XRECORD
  5
7AD
102
{ACAD_REACTORS
330
7AC
102
}
330
7AC
100
AcDbXrecord
280
     1
102
ACAD_ROUNDTRIP_2012_MLEADER_STYLE
298
     1
  0
CELLSTYLEMAP
  5
7AB
102
{ACAD_REACTORS
330
680
102
}
330
680
100
AcDbCellStyleMap
 90
        3
300
CELLSTYLE
  1
TABLEFORMAT_BEGIN
 90
        5
170
     1
 91
        0
 92
    32768
 62
   257
 93
        1
300
CONTENTFORMAT
  1
CONTENTFORMAT_BEGIN
 90
        0
 91
        0
 92
      512
 93
        0
300

 40
0.0
140
1.0
 94
        5
 62
     0
340
55
144
6.0
309
CONTENTFORMAT_END
171
     1
301
MARGIN
  1
CELLMARGIN_BEGIN
 40
1.5
 40
1.5
 40
1.5
 40
1.5
 40
0.18
 40
0.18
309
CELLMARGIN_END
 94
        6
 95
        1
302
GRIDFORMAT
  1
GRIDFORMAT_BEGIN
 90
        0
 91
        1
 62
     0
 92
       -2
340
0
 93
        0
 40
1.125
309
GRIDFORMAT_END
 95
        2
302
GRIDFORMAT
  1
GRIDFORMAT_BEGIN
 90
        0
 91
        1
 62
     0
 92
       -2
340
0
 93
        0
 40
1.125
309
GRIDFORMAT_END
 95
        4
302
GRIDFORMAT
  1
GRIDFORMAT_BEGIN
 90
        0
 91
        1
 62
     0
 92
       -2
340
0
 93
        0
 40
1.125
309
GRIDFORMAT_END
 95
        8
302
GRIDFORMAT
  1
GRIDFORMAT_BEGIN
 90
        0
 91
        1
 62
     0
 92
       -2
340
0
 93
        0
 40
1.125
309
GRIDFORMAT_END
 95
       16
302
GRIDFORMAT
  1
GRIDFORMAT_BEGIN
 90
        0
 91
        1
 62
     0
 92
       -2
340
0
 93
        0
 40
1.125
309
GRIDFORMAT_END
 95
       32
302
GRIDFORMAT
  1
GRIDFORMAT_BEGIN
 90
        0
 91
        1
 62
     0
 92
       -2
340
0
 93
        0
 40
1.125
309
GRIDFORMAT_END
309
TABLEFORMAT_END
  1
CELLSTYLE_BEGIN
 90
        1
 91
        1
300
_TITLE
309
CELLSTYLE_END
300
CELLSTYLE
  1
TABLEFORMAT_BEGIN
 90
        5
170
     1
 91
        0
 92
        0
 62
   257
 93
        1
300
CONTENTFORMAT
  1
CONTENTFORMAT_BEGIN
 90
        0
 91
        0
 92
      512
 93
        0
300

 40
0.0
140
1.0
 94
        5
 62
     0
340
55
144
4.5
309
CONTENTFORMAT_END
171
     1
301
MARGIN
  1
CELLMARGIN_BEGIN
 40
1.5
 40
1.5
 40
1.5
 40
1.5
 40
0.18
 40
0.18
309
CELLMARGIN_END
 94
        6
 95
        1
302
GRIDFORMAT
  1
GRIDFORMAT_BEGIN
 90
        0
 91
        1
 62
     0
 92
       -2
340
0
 93
        0
 40
1.125
309
GRIDFORMAT_END
 95
        2
302
GRIDFORMAT
  1
GRIDFORMAT_BEGIN
 90
        0
 91
        1
 62
     0
 92
       -2
340
0
 93
        0
 40
1.125
309
GRIDFORMAT_END
 95
        4
302
GRIDFORMAT
  1
GRIDFORMAT_BEGIN
 90
        0
 91
        1
 62
     0
 92
       -2
340
0
 93
        0
 40
1.125
309
GRIDFORMAT_END
 95
        8
302
GRIDFORMAT
  1
GRIDFORMAT_BEGIN
 90
        0
 91
        1
 62
     0
 92
       -2
340
0
 93
        0
 40
1.125
309
GRIDFORMAT_END
 95
       16
302
GRIDFORMAT
  1
GRIDFORMAT_BEGIN
 90
        0
 91
        1
 62
     0
 92
       -2
340
0
 93
        0
 40
1.125
309
GRIDFORMAT_END
 95
       32
302
GRIDFORMAT
  1
GRIDFORMAT_BEGIN
 90
        0
 91
        1
 62
     0
 92
       -2
340
0
 93
        0
 40
1.125
309
GRIDFORMAT_END
309
TABLEFORMAT_END
  1
CELLSTYLE_BEGIN
 90
        2
 91
        1
300
_HEADER
309
CELLSTYLE_END
300
CELLSTYLE
  1
TABLEFORMAT_BEGIN
 90
        5
170
     1
 91
        0
 92
        0
 62
   257
 93
        1
300
CONTENTFORMAT
  1
CONTENTFORMAT_BEGIN
 90
        0
 91
        0
 92
      512
 93
        0
300

 40
0.0
140
1.0
 94
        2
 62
     0
340
55
144
4.5
309
CONTENTFORMAT_END
171
     1
301
MARGIN
  1
CELLMARGIN_BEGIN
 40
1.5
 40
1.5
 40
1.5
 40
1.5
 40
0.18
 40
0.18
309
CELLMARGIN_END
 94
        6
 95
        1
302
GRIDFORMAT
  1
GRIDFORMAT_BEGIN
 90
        0
 91
        1
 62
     0
 92
       -2
340
0
 93
        0
 40
1.125
309
GRIDFORMAT_END
 95
        2
302
GRIDFORMAT
  1
GRIDFORMAT_BEGIN
 90
        0
 91
        1
 62
     0
 92
       -2
340
0
 93
        0
 40
1.125
309
GRIDFORMAT_END
 95
        4
302
GRIDFORMAT
  1
GRIDFORMAT_BEGIN
 90
        0
 91
        1
 62
     0
 92
       -2
340
0
 93
        0
 40
1.125
309
GRIDFORMAT_END
 95
        8
302
GRIDFORMAT
  1
GRIDFORMAT_BEGIN
 90
        0
 91
        1
 62
     0
 92
       -2
340
0
 93
        0
 40
1.125
309
GRIDFORMAT_END
 95
       16
302
GRIDFORMAT
  1
GRIDFORMAT_BEGIN
 90
        0
 91
        1
 62
     0
 92
       -2
340
0
 93
        0
 40
1.125
309
GRIDFORMAT_END
 95
       32
302
GRIDFORMAT
  1
GRIDFORMAT_BEGIN
 90
        0
 91
        1
 62
     0
 92
       -2
340
0
 93
        0
 40
1.125
309
GRIDFORMAT_END
309
TABLEFORMAT_END
  1
CELLSTYLE_BEGIN
 90
        3
 91
        2
300
_DATA
309
CELLSTYLE_END
  0
XRECORD
  5
7E0
102
{ACAD_REACTORS
330
680
102
}
330
680
100
AcDbXrecord
280
     1
102
ACAD_ROUNDTRIP_PRE2007_TABLESTYLE
 90
      512
 91
        0
  1

 92
      512
 93
        0
  2

 94
      512
 95
        0
  3

  0
XRECORD
  5
7BB
102
{ACAD_REACTORS
330
7BA
102
}
330
7BA
100
AcDbXrecord
280
     1
102
RTVSPropertyOp0
 70
     1
102
RTVSPropertyOp1
 70
     1
102
RTVSPropertyOp2
 70
     1
102
RTVSPropertyOp3
 70
     1
102
RTVSPropertyOp4
 70
     1
102
RTVSPropertyOp5
 70
     1
102
RTVSPropertyOp6
 70
     1
102
RTVSPropertyOp7
 70
     1
102
RTVSPropertyOp8
 70
     1
102
RTVSPropertyOp9
 70
     1
102
RTVSPropertyOp10
 70
     1
102
RTVSPropertyOp11
 70
     1
102
RTVSPropertyOp12
 70
     1
102
RTVSPropertyOp13
 70
     1
102
RTVSPropertyOp14
 70
     1
102
RTVSPropertyOp15
 70
     1
102
RTVSPropertyOp16
 70
     1
102
RTVSPropertyOp17
 70
     1
102
RTVSPropertyOp18
 70
     1
102
RTVSPropertyOp19
 70
     1
102
RTVSPropertyOp20
 70
     1
102
RTVSPropertyOp21
 70
     1
102
RTVSPropertyOp22
 70
     1
102
RTVSPropertyOp23
 70
     1
102
RTVSPropertyOp24
 70
     1
102
RTVSPropertyOp25
 70
     1
102
RTVSPropertyOp26
 70
     1
102
RTVSPropertyOp27
 70
     1
102
RTVSPropertyOp28
 70
     1
102
RTVSPropertyOp29
 70
     1
102
RTVSPropertyOp30
 70
     1
102
RTVSPropertyOp31
 70
     1
102
RTVSPropertyOp32
 70
     1
  0
XRECORD
  5
7B9
102
{ACAD_REACTORS
330
7B8
102
}
330
7B8
100
AcDbXrecord
280
     1
102
RTVSPropertyOp0
 70
     1
102
RTVSPropertyOp1
 70
     1
102
RTVSPropertyOp2
 70
     1
102
RTVSPropertyOp3
 70
     1
102
RTVSPropertyOp4
 70
     1
102
RTVSPropertyOp5
 70
     1
102
RTVSPropertyOp6
 70
     1
102
RTVSPropertyOp7
 70
     1
102
RTVSPropertyOp8
 70
     1
102
RTVSPropertyOp9
 70
     1
102
RTVSPropertyOp10
 70
     1
102
RTVSPropertyOp11
 70
     1
102
RTVSPropertyOp12
 70
     1
102
RTVSPropertyOp13
 70
     1
102
RTVSPropertyOp14
 70
     1
102
RTVSPropertyOp15
 70
     1
102
RTVSPropertyOp16
 70
     1
102
RTVSPropertyOp17
 70
     1
102
RTVSPropertyOp18
 70
     1
102
RTVSPropertyOp19
 70
     1
102
RTVSPropertyOp20
 70
     1
102
RTVSPropertyOp21
 70
     1
102
RTVSPropertyOp22
 70
     1
102
RTVSPropertyOp23
 70
     1
102
RTVSPropertyOp24
 70
     1
102
RTVSPropertyOp25
 70
     1
102
RTVSPropertyOp26
 70
     1
102
RTVSPropertyOp27
 70
     1
102
RTVSPropertyOp28
 70
     1
102
RTVSPropertyOp29
 70
     1
102
RTVSPropertyOp30
 70
     1
102
RTVSPropertyOp31
 70
     1
102
RTVSPropertyOp32
 70
     1
  0
XRECORD
  5
7C7
102
{ACAD_REACTORS
330
7C6
102
}
330
7C6
100
AcDbXrecord
280
     1
102
RTVSPropertyOp0
 70
     1
102
RTVSPropertyOp1
 70
     1
102
RTVSPropertyOp2
 70
     1
102
RTVSPropertyOp3
 70
     1
102
RTVSPropertyOp4
 70
     1
102
RTVSPropertyOp5
 70
     1
102
RTVSPropertyOp6
 70
     1
102
RTVSPropertyOp7
 70
     1
102
RTVSPropertyOp8
 70
     1
102
RTVSPropertyOp9
 70
     1
102
RTVSPropertyOp10
 70
     1
102
RTVSPropertyOp11
 70
     1
102
RTVSPropertyOp12
 70
     1
102
RTVSPropertyOp13
 70
     1
102
RTVSPropertyOp14
 70
     1
102
RTVSPropertyOp15
 70
     1
102
RTVSPropertyOp16
 70
     1
102
RTVSPropertyOp17
 70
     1
102
RTVSPropertyOp18
 70
     1
102
RTVSPropertyOp19
 70
     1
102
RTVSPropertyOp20
 70
     1
102
RTVSPropertyOp21
 70
     1
102
RTVSPropertyOp22
 70
     1
102
RTVSPropertyOp23
 70
     1
102
RTVSPropertyOp24
 70
     1
102
RTVSPropertyOp25
 70
     1
102
RTVSPropertyOp26
 70
     1
102
RTVSPropertyOp27
 70
     1
102
RTVSPropertyOp28
 70
     1
102
RTVSPropertyOp29
 70
     1
102
RTVSPropertyOp30
 70
     1
102
RTVSPropertyOp31
 70
     1
102
RTVSPropertyOp32
 70
     1
  0
XRECORD
  5
7CF
102
{ACAD_REACTORS
330
7CE
102
}
330
7CE
100
AcDbXrecord
280
     1
102
RTVSPropertyOp0
 70
     1
102
RTVSPropertyOp1
 70
     1
102
RTVSPropertyOp2
 70
     1
102
RTVSPropertyOp3
 70
     1
102
RTVSPropertyOp4
 70
     1
102
RTVSPropertyOp5
 70
     1
102
RTVSPropertyOp6
 70
     1
102
RTVSPropertyOp7
 70
     1
102
RTVSPropertyOp8
 70
     1
102
RTVSPropertyOp9
 70
     1
102
RTVSPropertyOp10
 70
     1
102
RTVSPropertyOp11
 70
     1
102
RTVSPropertyOp12
 70
     1
102
RTVSPropertyOp13
 70
     1
102
RTVSPropertyOp14
 70
     1
102
RTVSPropertyOp15
 70
     1
102
RTVSPropertyOp16
 70
     1
102
RTVSPropertyOp17
 70
     1
102
RTVSPropertyOp18
 70
     1
102
RTVSPropertyOp19
 70
     1
102
RTVSPropertyOp20
 70
     1
102
RTVSPropertyOp21
 70
     1
102
RTVSPropertyOp22
 70
     1
102
RTVSPropertyOp23
 70
     1
102
RTVSPropertyOp24
 70
     1
102
RTVSPropertyOp25
 70
     1
102
RTVSPropertyOp26
 70
     1
102
RTVSPropertyOp27
 70
     1
102
RTVSPropertyOp28
 70
     1
102
RTVSPropertyOp29
 70
     1
102
RTVSPropertyOp30
 70
     1
102
RTVSPropertyOp31
 70
     1
102
RTVSPropertyOp32
 70
     1
  0
XRECORD
  5
7C1
102
{ACAD_REACTORS
330
7C0
102
}
330
7C0
100
AcDbXrecord
280
     1
102
RTVSPropertyOp0
 70
     1
102
RTVSPropertyOp1
 70
     1
102
RTVSPropertyOp2
 70
     1
102
RTVSPropertyOp3
 70
     1
102
RTVSPropertyOp4
 70
     1
102
RTVSPropertyOp5
 70
     1
102
RTVSPropertyOp6
 70
     1
102
RTVSPropertyOp7
 70
     1
102
RTVSPropertyOp8
 70
     1
102
RTVSPropertyOp9
 70
     1
102
RTVSPropertyOp10
 70
     1
102
RTVSPropertyOp11
 70
     1
102
RTVSPropertyOp12
 70
     1
102
RTVSPropertyOp13
 70
     1
102
RTVSPropertyOp14
 70
     1
102
RTVSPropertyOp15
 70
     1
102
RTVSPropertyOp16
 70
     1
102
RTVSPropertyOp17
 70
     1
102
RTVSPropertyOp18
 70
     1
102
RTVSPropertyOp19
 70
     1
102
RTVSPropertyOp20
 70
     1
102
RTVSPropertyOp21
 70
     1
102
RTVSPropertyOp22
 70
     1
102
RTVSPropertyOp23
 70
     1
102
RTVSPropertyOp24
 70
     1
102
RTVSPropertyOp25
 70
     1
102
RTVSPropertyOp26
 70
     1
102
RTVSPropertyOp27
 70
     1
102
RTVSPropertyOp28
 70
     1
102
RTVSPropertyOp29
 70
     1
102
RTVSPropertyOp30
 70
     1
102
RTVSPropertyOp31
 70
     1
102
RTVSPropertyOp32
 70
     1
  0
XRECORD
  5
7C5
102
{ACAD_REACTORS
330
7C4
102
}
330
7C4
100
AcDbXrecord
280
     1
102
RTVSPropertyOp0
 70
     1
102
RTVSPropertyOp1
 70
     1
102
RTVSPropertyOp2
 70
     1
102
RTVSPropertyOp3
 70
     1
102
RTVSPropertyOp4
 70
     1
102
RTVSPropertyOp5
 70
     1
102
RTVSPropertyOp6
 70
     1
102
RTVSPropertyOp7
 70
     1
102
RTVSPropertyOp8
 70
     1
102
RTVSPropertyOp9
 70
     1
102
RTVSPropertyOp10
 70
     1
102
RTVSPropertyOp11
 70
     1
102
RTVSPropertyOp12
 70
     1
102
RTVSPropertyOp13
 70
     1
102
RTVSPropertyOp14
 70
     1
102
RTVSPropertyOp15
 70
     1
102
RTVSPropertyOp16
 70
     1
102
RTVSPropertyOp17
 70
     1
102
RTVSPropertyOp18
 70
     1
102
RTVSPropertyOp19
 70
     1
102
RTVSPropertyOp20
 70
     1
102
RTVSPropertyOp21
 70
     1
102
RTVSPropertyOp22
 70
     1
102
RTVSPropertyOp23
 70
     1
102
RTVSPropertyOp24
 70
     1
102
RTVSPropertyOp25
 70
     1
102
RTVSPropertyOp26
 70
     1
102
RTVSPropertyOp27
 70
     1
102
RTVSPropertyOp28
 70
     1
102
RTVSPropertyOp29
 70
     1
102
RTVSPropertyOp30
 70
     1
102
RTVSPropertyOp31
 70
     1
102
RTVSPropertyOp32
 70
     1
  0
XRECORD
  5
7DF
102
{ACAD_REACTORS
330
7DE
102
}
330
7DE
100
AcDbXrecord
280
     1
102
RTVSPropertyOp0
 70
     0
102
RTVSPropertyOp1
 70
     0
102
RTVSPropertyOp2
 70
     0
102
RTVSPropertyOp3
 70
     0
102
RTVSPropertyOp4
 70
     0
102
RTVSPropertyOp5
 70
     0
102
RTVSPropertyOp6
 70
     0
102
RTVSPropertyOp7
 70
     0
102
RTVSPropertyOp8
 70
     0
102
RTVSPropertyOp9
 70
     0
102
RTVSPropertyOp10
 70
     0
102
RTVSPropertyOp11
 70
     0
102
RTVSPropertyOp12
 70
     0
102
RTVSPropertyOp13
 70
     0
102
RTVSPropertyOp14
 70
     2
102
RTVSPropertyOp15
 70
     0
102
RTVSPropertyOp16
 70
     0
102
RTVSPropertyOp17
 70
     0
102
RTVSPropertyOp18
 70
     0
102
RTVSPropertyOp19
 70
     0
102
RTVSPropertyOp20
 70
     0
102
RTVSPropertyOp21
 70
     0
102
RTVSPropertyOp22
 70
     0
102
RTVSPropertyOp23
 70
     0
102
RTVSPropertyOp24
 70
     0
102
RTVSPropertyOp25
 70
     0
102
RTVSPropertyOp26
 70
     0
102
RTVSPropertyOp27
 70
     0
102
RTVSPropertyOp28
 70
     1
102
RTVSPropertyOp29
 70
     1
102
RTVSPropertyOp30
 70
     1
102
RTVSPropertyOp31
 70
     1
102
RTVSPropertyOp32
 70
     1
  0
XRECORD
  5
7CD
102
{ACAD_REACTORS
330
7CC
102
}
330
7CC
100
AcDbXrecord
280
     1
102
RTVSPropertyOp0
 70
     1
102
RTVSPropertyOp1
 70
     1
102
RTVSPropertyOp2
 70
     1
102
RTVSPropertyOp3
 70
     1
102
RTVSPropertyOp4
 70
     1
102
RTVSPropertyOp5
 70
     1
102
RTVSPropertyOp6
 70
     1
102
RTVSPropertyOp7
 70
     1
102
RTVSPropertyOp8
 70
     1
102
RTVSPropertyOp9
 70
     1
102
RTVSPropertyOp10
 70
     1
102
RTVSPropertyOp11
 70
     1
102
RTVSPropertyOp12
 70
     1
102
RTVSPropertyOp13
 70
     1
102
RTVSPropertyOp14
 70
     1
102
RTVSPropertyOp15
 70
     1
102
RTVSPropertyOp16
 70
     1
102
RTVSPropertyOp17
 70
     1
102
RTVSPropertyOp18
 70
     1
102
RTVSPropertyOp19
 70
     1
102
RTVSPropertyOp20
 70
     1
102
RTVSPropertyOp21
 70
     1
102
RTVSPropertyOp22
 70
     1
102
RTVSPropertyOp23
 70
     1
102
RTVSPropertyOp24
 70
     1
102
RTVSPropertyOp25
 70
     1
102
RTVSPropertyOp26
 70
     1
102
RTVSPropertyOp27
 70
     1
102
RTVSPropertyOp28
 70
     1
102
RTVSPropertyOp29
 70
     1
102
RTVSPropertyOp30
 70
     1
102
RTVSPropertyOp31
 70
     1
102
RTVSPropertyOp32
 70
     1
  0
XRECORD
  5
7B1
102
{ACAD_REACTORS
330
7B0
102
}
330
7B0
100
AcDbXrecord
280
     1
102
RTVSPropertyOp0
 70
     1
102
RTVSPropertyOp1
 70
     1
102
RTVSPropertyOp2
 70
     1
102
RTVSPropertyOp3
 70
     1
102
RTVSPropertyOp4
 70
     1
102
RTVSPropertyOp5
 70
     1
102
RTVSPropertyOp6
 70
     1
102
RTVSPropertyOp7
 70
     1
102
RTVSPropertyOp8
 70
     1
102
RTVSPropertyOp9
 70
     1
102
RTVSPropertyOp10
 70
     1
102
RTVSPropertyOp11
 70
     1
102
RTVSPropertyOp12
 70
     1
102
RTVSPropertyOp13
 70
     1
102
RTVSPropertyOp14
 70
     1
102
RTVSPropertyOp15
 70
     1
102
RTVSPropertyOp16
 70
     1
102
RTVSPropertyOp17
 70
     1
102
RTVSPropertyOp18
 70
     1
102
RTVSPropertyOp19
 70
     1
102
RTVSPropertyOp20
 70
     1
102
RTVSPropertyOp21
 70
     1
102
RTVSPropertyOp22
 70
     1
102
RTVSPropertyOp23
 70
     1
102
RTVSPropertyOp24
 70
     1
102
RTVSPropertyOp25
 70
     1
102
RTVSPropertyOp26
 70
     1
102
RTVSPropertyOp27
 70
     1
102
RTVSPropertyOp28
 70
     1
102
RTVSPropertyOp29
 70
     1
102
RTVSPropertyOp30
 70
     1
102
RTVSPropertyOp31
 70
     1
102
RTVSPropertyOp32
 70
     1
  0
XRECORD
  5
7B3
102
{ACAD_REACTORS
330
7B2
102
}
330
7B2
100
AcDbXrecord
280
     1
102
RTVSPropertyOp0
 70
     1
102
RTVSPropertyOp1
 70
     1
102
RTVSPropertyOp2
 70
     1
102
RTVSPropertyOp3
 70
     1
102
RTVSPropertyOp4
 70
     1
102
RTVSPropertyOp5
 70
     1
102
RTVSPropertyOp6
 70
     1
102
RTVSPropertyOp7
 70
     1
102
RTVSPropertyOp8
 70
     1
102
RTVSPropertyOp9
 70
     1
102
RTVSPropertyOp10
 70
     1
102
RTVSPropertyOp11
 70
     1
102
RTVSPropertyOp12
 70
     1
102
RTVSPropertyOp13
 70
     1
102
RTVSPropertyOp14
 70
     1
102
RTVSPropertyOp15
 70
     1
102
RTVSPropertyOp16
 70
     1
102
RTVSPropertyOp17
 70
     1
102
RTVSPropertyOp18
 70
     1
102
RTVSPropertyOp19
 70
     1
102
RTVSPropertyOp20
 70
     1
102
RTVSPropertyOp21
 70
     1
102
RTVSPropertyOp22
 70
     1
102
RTVSPropertyOp23
 70
     1
102
RTVSPropertyOp24
 70
     1
102
RTVSPropertyOp25
 70
     1
102
RTVSPropertyOp26
 70
     1
102
RTVSPropertyOp27
 70
     1
102
RTVSPropertyOp28
 70
     1
102
RTVSPropertyOp29
 70
     1
102
RTVSPropertyOp30
 70
     1
102
RTVSPropertyOp31
 70
     1
102
RTVSPropertyOp32
 70
     1
  0
XRECORD
  5
7B5
102
{ACAD_REACTORS
330
7B4
102
}
330
7B4
100
AcDbXrecord
280
     1
102
RTVSPropertyOp0
 70
     1
102
RTVSPropertyOp1
 70
     1
102
RTVSPropertyOp2
 70
     1
102
RTVSPropertyOp3
 70
     1
102
RTVSPropertyOp4
 70
     1
102
RTVSPropertyOp5
 70
     1
102
RTVSPropertyOp6
 70
     1
102
RTVSPropertyOp7
 70
     1
102
RTVSPropertyOp8
 70
     1
102
RTVSPropertyOp9
 70
     1
102
RTVSPropertyOp10
 70
     1
102
RTVSPropertyOp11
 70
     1
102
RTVSPropertyOp12
 70
     1
102
RTVSPropertyOp13
 70
     1
102
RTVSPropertyOp14
 70
     1
102
RTVSPropertyOp15
 70
     1
102
RTVSPropertyOp16
 70
     1
102
RTVSPropertyOp17
 70
     1
102
RTVSPropertyOp18
 70
     1
102
RTVSPropertyOp19
 70
     1
102
RTVSPropertyOp20
 70
     1
102
RTVSPropertyOp21
 70
     1
102
RTVSPropertyOp22
 70
     1
102
RTVSPropertyOp23
 70
     1
102
RTVSPropertyOp24
 70
     1
102
RTVSPropertyOp25
 70
     1
102
RTVSPropertyOp26
 70
     1
102
RTVSPropertyOp27
 70
     1
102
RTVSPropertyOp28
 70
     1
102
RTVSPropertyOp29
 70
     1
102
RTVSPropertyOp30
 70
     1
102
RTVSPropertyOp31
 70
     1
102
RTVSPropertyOp32
 70
     1
  0
XRECORD
  5
7B7
102
{ACAD_REACTORS
330
7B6
102
}
330
7B6
100
AcDbXrecord
280
     1
102
RTVSPropertyOp0
 70
     1
102
RTVSPropertyOp1
 70
     1
102
RTVSPropertyOp2
 70
     1
102
RTVSPropertyOp3
 70
     1
102
RTVSPropertyOp4
 70
     1
102
RTVSPropertyOp5
 70
     1
102
RTVSPropertyOp6
 70
     1
102
RTVSPropertyOp7
 70
     1
102
RTVSPropertyOp8
 70
     1
102
RTVSPropertyOp9
 70
     1
102
RTVSPropertyOp10
 70
     1
102
RTVSPropertyOp11
 70
     1
102
RTVSPropertyOp12
 70
     1
102
RTVSPropertyOp13
 70
     1
102
RTVSPropertyOp14
 70
     1
102
RTVSPropertyOp15
 70
     1
102
RTVSPropertyOp16
 70
     1
102
RTVSPropertyOp17
 70
     1
102
RTVSPropertyOp18
 70
     1
102
RTVSPropertyOp19
 70
     1
102
RTVSPropertyOp20
 70
     1
102
RTVSPropertyOp21
 70
     1
102
RTVSPropertyOp22
 70
     1
102
RTVSPropertyOp23
 70
     1
102
RTVSPropertyOp24
 70
     1
102
RTVSPropertyOp25
 70
     1
102
RTVSPropertyOp26
 70
     1
102
RTVSPropertyOp27
 70
     1
102
RTVSPropertyOp28
 70
     1
102
RTVSPropertyOp29
 70
     1
102
RTVSPropertyOp30
 70
     1
102
RTVSPropertyOp31
 70
     1
102
RTVSPropertyOp32
 70
     1
  0
XRECORD
  5
7BF
102
{ACAD_REACTORS
330
7BE
102
}
330
7BE
100
AcDbXrecord
280
     1
102
RTVSPropertyOp0
 70
     1
102
RTVSPropertyOp1
 70
     1
102
RTVSPropertyOp2
 70
     1
102
RTVSPropertyOp3
 70
     1
102
RTVSPropertyOp4
 70
     1
102
RTVSPropertyOp5
 70
     1
102
RTVSPropertyOp6
 70
     1
102
RTVSPropertyOp7
 70
     1
102
RTVSPropertyOp8
 70
     1
102
RTVSPropertyOp9
 70
     1
102
RTVSPropertyOp10
 70
     1
102
RTVSPropertyOp11
 70
     1
102
RTVSPropertyOp12
 70
     1
102
RTVSPropertyOp13
 70
     1
102
RTVSPropertyOp14
 70
     1
102
RTVSPropertyOp15
 70
     1
102
RTVSPropertyOp16
 70
     1
102
RTVSPropertyOp17
 70
     1
102
RTVSPropertyOp18
 70
     1
102
RTVSPropertyOp19
 70
     1
102
RTVSPropertyOp20
 70
     1
102
RTVSPropertyOp21
 70
     1
102
RTVSPropertyOp22
 70
     1
102
RTVSPropertyOp23
 70
     1
102
RTVSPropertyOp24
 70
     1
102
RTVSPropertyOp25
 70
     1
102
RTVSPropertyOp26
 70
     1
102
RTVSPropertyOp27
 70
     1
102
RTVSPropertyOp28
 70
     1
102
RTVSPropertyOp29
 70
     1
102
RTVSPropertyOp30
 70
     1
102
RTVSPropertyOp31
 70
     1
102
RTVSPropertyOp32
 70
     1
  0
XRECORD
  5
7DB
102
{ACAD_REACTORS
330
7DA
102
}
330
7DA
100
AcDbXrecord
280
     1
102
RTVSPropertyOp0
 70
     0
102
RTVSPropertyOp1
 70
     0
102
RTVSPropertyOp2
 70
     0
102
RTVSPropertyOp3
 70
     0
102
RTVSPropertyOp4
 70
     0
102
RTVSPropertyOp5
 70
     0
102
RTVSPropertyOp6
 70
     0
102
RTVSPropertyOp7
 70
     0
102
RTVSPropertyOp8
 70
     0
102
RTVSPropertyOp9
 70
     0
102
RTVSPropertyOp10
 70
     0
102
RTVSPropertyOp11
 70
     0
102
RTVSPropertyOp12
 70
     0
102
RTVSPropertyOp13
 70
     0
102
RTVSPropertyOp14
 70
     2
102
RTVSPropertyOp15
 70
     0
102
RTVSPropertyOp16
 70
     0
102
RTVSPropertyOp17
 70
     0
102
RTVSPropertyOp18
 70
     0
102
RTVSPropertyOp19
 70
     0
102
RTVSPropertyOp20
 70
     0
102
RTVSPropertyOp21
 70
     0
102
RTVSPropertyOp22
 70
     0
102
RTVSPropertyOp23
 70
     0
102
RTVSPropertyOp24
 70
     0
102
RTVSPropertyOp25
 70
     0
102
RTVSPropertyOp26
 70
     0
102
RTVSPropertyOp27
 70
     0
102
RTVSPropertyOp28
 70
     1
102
RTVSPropertyOp29
 70
     1
102
RTVSPropertyOp30
 70
     1
102
RTVSPropertyOp31
 70
     1
102
RTVSPropertyOp32
 70
     1
  0
XRECORD
  5
7CB
102
{ACAD_REACTORS
330
7CA
102
}
330
7CA
100
AcDbXrecord
280
     1
102
RTVSPropertyOp0
 70
     1
102
RTVSPropertyOp1
 70
     1
102
RTVSPropertyOp2
 70
     1
102
RTVSPropertyOp3
 70
     1
102
RTVSPropertyOp4
 70
     1
102
RTVSPropertyOp5
 70
     1
102
RTVSPropertyOp6
 70
     1
102
RTVSPropertyOp7
 70
     1
102
RTVSPropertyOp8
 70
     1
102
RTVSPropertyOp9
 70
     1
102
RTVSPropertyOp10
 70
     1
102
RTVSPropertyOp11
 70
     1
102
RTVSPropertyOp12
 70
     1
102
RTVSPropertyOp13
 70
     1
102
RTVSPropertyOp14
 70
     1
102
RTVSPropertyOp15
 70
     1
102
RTVSPropertyOp16
 70
     1
102
RTVSPropertyOp17
 70
     1
102
RTVSPropertyOp18
 70
     1
102
RTVSPropertyOp19
 70
     1
102
RTVSPropertyOp20
 70
     1
102
RTVSPropertyOp21
 70
     1
102
RTVSPropertyOp22
 70
     1
102
RTVSPropertyOp23
 70
     1
102
RTVSPropertyOp24
 70
     1
102
RTVSPropertyOp25
 70
     1
102
RTVSPropertyOp26
 70
     1
102
RTVSPropertyOp27
 70
     1
102
RTVSPropertyOp28
 70
     1
102
RTVSPropertyOp29
 70
     1
102
RTVSPropertyOp30
 70
     1
102
RTVSPropertyOp31
 70
     1
102
RTVSPropertyOp32
 70
     1
  0
XRECORD
  5
7DD
102
{ACAD_REACTORS
330
7DC
102
}
330
7DC
100
AcDbXrecord
280
     1
102
RTVSPropertyOp0
 70
     0
102
RTVSPropertyOp1
 70
     0
102
RTVSPropertyOp2
 70
     0
102
RTVSPropertyOp3
 70
     0
102
RTVSPropertyOp4
 70
     0
102
RTVSPropertyOp5
 70
     0
102
RTVSPropertyOp6
 70
     0
102
RTVSPropertyOp7
 70
     0
102
RTVSPropertyOp8
 70
     0
102
RTVSPropertyOp9
 70
     0
102
RTVSPropertyOp10
 70
     0
102
RTVSPropertyOp11
 70
     0
102
RTVSPropertyOp12
 70
     0
102
RTVSPropertyOp13
 70
     0
102
RTVSPropertyOp14
 70
     2
102
RTVSPropertyOp15
 70
     0
102
RTVSPropertyOp16
 70
     0
102
RTVSPropertyOp17
 70
     0
102
RTVSPropertyOp18
 70
     0
102
RTVSPropertyOp19
 70
     0
102
RTVSPropertyOp20
 70
     0
102
RTVSPropertyOp21
 70
     0
102
RTVSPropertyOp22
 70
     0
102
RTVSPropertyOp23
 70
     0
102
RTVSPropertyOp24
 70
     0
102
RTVSPropertyOp25
 70
     0
102
RTVSPropertyOp26
 70
     0
102
RTVSPropertyOp27
 70
     0
102
RTVSPropertyOp28
 70
     1
102
RTVSPropertyOp29
 70
     1
102
RTVSPropertyOp30
 70
     1
102
RTVSPropertyOp31
 70
     1
102
RTVSPropertyOp32
 70
     1
  0
XRECORD
  5
7C3
102
{ACAD_REACTORS
330
7C2
102
}
330
7C2
100
AcDbXrecord
280
     1
102
RTVSPropertyOp0
 70
     1
102
RTVSPropertyOp1
 70
     1
102
RTVSPropertyOp2
 70
     1
102
RTVSPropertyOp3
 70
     1
102
RTVSPropertyOp4
 70
     1
102
RTVSPropertyOp5
 70
     1
102
RTVSPropertyOp6
 70
     1
102
RTVSPropertyOp7
 70
     1
102
RTVSPropertyOp8
 70
     1
102
RTVSPropertyOp9
 70
     1
102
RTVSPropertyOp10
 70
     1
102
RTVSPropertyOp11
 70
     1
102
RTVSPropertyOp12
 70
     1
102
RTVSPropertyOp13
 70
     1
102
RTVSPropertyOp14
 70
     1
102
RTVSPropertyOp15
 70
     1
102
RTVSPropertyOp16
 70
     1
102
RTVSPropertyOp17
 70
     1
102
RTVSPropertyOp18
 70
     1
102
RTVSPropertyOp19
 70
     1
102
RTVSPropertyOp20
 70
     1
102
RTVSPropertyOp21
 70
     1
102
RTVSPropertyOp22
 70
     1
102
RTVSPropertyOp23
 70
     1
102
RTVSPropertyOp24
 70
     1
102
RTVSPropertyOp25
 70
     1
102
RTVSPropertyOp26
 70
     1
102
RTVSPropertyOp27
 70
     1
102
RTVSPropertyOp28
 70
     1
102
RTVSPropertyOp29
 70
     1
102
RTVSPropertyOp30
 70
     1
102
RTVSPropertyOp31
 70
     1
102
RTVSPropertyOp32
 70
     1
  0
XRECORD
  5
7D9
102
{ACAD_REACTORS
330
7D8
102
}
330
7D8
100
AcDbXrecord
280
     1
102
RTVSPropertyOp0
 70
     1
102
RTVSPropertyOp1
 70
     1
102
RTVSPropertyOp2
 70
     1
102
RTVSPropertyOp3
 70
     1
102
RTVSPropertyOp4
 70
     1
102
RTVSPropertyOp5
 70
     1
102
RTVSPropertyOp6
 70
     1
102
RTVSPropertyOp7
 70
     1
102
RTVSPropertyOp8
 70
     1
102
RTVSPropertyOp9
 70
     1
102
RTVSPropertyOp10
 70
     1
102
RTVSPropertyOp11
 70
     1
102
RTVSPropertyOp12
 70
     1
102
RTVSPropertyOp13
 70
     1
102
RTVSPropertyOp14
 70
     1
102
RTVSPropertyOp15
 70
     1
102
RTVSPropertyOp16
 70
     1
102
RTVSPropertyOp17
 70
     1
102
RTVSPropertyOp18
 70
     1
102
RTVSPropertyOp19
 70
     1
102
RTVSPropertyOp20
 70
     1
102
RTVSPropertyOp21
 70
     1
102
RTVSPropertyOp22
 70
     1
102
RTVSPropertyOp23
 70
     1
102
RTVSPropertyOp24
 70
     1
102
RTVSPropertyOp25
 70
     1
102
RTVSPropertyOp26
 70
     1
102
RTVSPropertyOp27
 70
     1
102
RTVSPropertyOp28
 70
     1
102
RTVSPropertyOp29
 70
     1
102
RTVSPropertyOp30
 70
     1
102
RTVSPropertyOp31
 70
     1
102
RTVSPropertyOp32
 70
     1
  0
XRECORD
  5
7D7
102
{ACAD_REACTORS
330
7D6
102
}
330
7D6
100
AcDbXrecord
280
     1
102
RTVSPropertyOp0
 70
     1
102
RTVSPropertyOp1
 70
     1
102
RTVSPropertyOp2
 70
     1
102
RTVSPropertyOp3
 70
     1
102
RTVSPropertyOp4
 70
     1
102
RTVSPropertyOp5
 70
     1
102
RTVSPropertyOp6
 70
     1
102
RTVSPropertyOp7
 70
     1
102
RTVSPropertyOp8
 70
     1
102
RTVSPropertyOp9
 70
     1
102
RTVSPropertyOp10
 70
     1
102
RTVSPropertyOp11
 70
     1
102
RTVSPropertyOp12
 70
     1
102
RTVSPropertyOp13
 70
     1
102
RTVSPropertyOp14
 70
     1
102
RTVSPropertyOp15
 70
     1
102
RTVSPropertyOp16
 70
     1
102
RTVSPropertyOp17
 70
     1
102
RTVSPropertyOp18
 70
     1
102
RTVSPropertyOp19
 70
     1
102
RTVSPropertyOp20
 70
     1
102
RTVSPropertyOp21
 70
     1
102
RTVSPropertyOp22
 70
     1
102
RTVSPropertyOp23
 70
     1
102
RTVSPropertyOp24
 70
     1
102
RTVSPropertyOp25
 70
     1
102
RTVSPropertyOp26
 70
     1
102
RTVSPropertyOp27
 70
     1
102
RTVSPropertyOp28
 70
     1
102
RTVSPropertyOp29
 70
     1
102
RTVSPropertyOp30
 70
     1
102
RTVSPropertyOp31
 70
     1
102
RTVSPropertyOp32
 70
     1
  0
XRECORD
  5
7D1
102
{ACAD_REACTORS
330
7D0
102
}
330
7D0
100
AcDbXrecord
280
     1
102
RTVSPropertyOp0
 70
     1
102
RTVSPropertyOp1
 70
     1
102
RTVSPropertyOp2
 70
     1
102
RTVSPropertyOp3
 70
     1
102
RTVSPropertyOp4
 70
     1
102
RTVSPropertyOp5
 70
     1
102
RTVSPropertyOp6
 70
     1
102
RTVSPropertyOp7
 70
     1
102
RTVSPropertyOp8
 70
     1
102
RTVSPropertyOp9
 70
     1
102
RTVSPropertyOp10
 70
     1
102
RTVSPropertyOp11
 70
     1
102
RTVSPropertyOp12
 70
     1
102
RTVSPropertyOp13
 70
     1
102
RTVSPropertyOp14
 70
     1
102
RTVSPropertyOp15
 70
     1
102
RTVSPropertyOp16
 70
     1
102
RTVSPropertyOp17
 70
     1
102
RTVSPropertyOp18
 70
     1
102
RTVSPropertyOp19
 70
     1
102
RTVSPropertyOp20
 70
     1
102
RTVSPropertyOp21
 70
     1
102
RTVSPropertyOp22
 70
     1
102
RTVSPropertyOp23
 70
     1
102
RTVSPropertyOp24
 70
     1
102
RTVSPropertyOp25
 70
     1
102
RTVSPropertyOp26
 70
     1
102
RTVSPropertyOp27
 70
     1
102
RTVSPropertyOp28
 70
     1
102
RTVSPropertyOp29
 70
     1
102
RTVSPropertyOp30
 70
     1
102
RTVSPropertyOp31
 70
     1
102
RTVSPropertyOp32
 70
     1
  0
XRECORD
  5
7D3
102
{ACAD_REACTORS
330
7D2
102
}
330
7D2
100
AcDbXrecord
280
     1
102
RTVSPropertyOp0
 70
     1
102
RTVSPropertyOp1
 70
     1
102
RTVSPropertyOp2
 70
     1
102
RTVSPropertyOp3
 70
     1
102
RTVSPropertyOp4
 70
     1
102
RTVSPropertyOp5
 70
     1
102
RTVSPropertyOp6
 70
     1
102
RTVSPropertyOp7
 70
     1
102
RTVSPropertyOp8
 70
     1
102
RTVSPropertyOp9
 70
     1
102
RTVSPropertyOp10
 70
     1
102
RTVSPropertyOp11
 70
     1
102
RTVSPropertyOp12
 70
     1
102
RTVSPropertyOp13
 70
     1
102
RTVSPropertyOp14
 70
     1
102
RTVSPropertyOp15
 70
     1
102
RTVSPropertyOp16
 70
     1
102
RTVSPropertyOp17
 70
     1
102
RTVSPropertyOp18
 70
     1
102
RTVSPropertyOp19
 70
     1
102
RTVSPropertyOp20
 70
     1
102
RTVSPropertyOp21
 70
     1
102
RTVSPropertyOp22
 70
     1
102
RTVSPropertyOp23
 70
     1
102
RTVSPropertyOp24
 70
     1
102
RTVSPropertyOp25
 70
     1
102
RTVSPropertyOp26
 70
     1
102
RTVSPropertyOp27
 70
     1
102
RTVSPropertyOp28
 70
     1
102
RTVSPropertyOp29
 70
     1
102
RTVSPropertyOp30
 70
     1
102
RTVSPropertyOp31
 70
     1
102
RTVSPropertyOp32
 70
     1
  0
XRECORD
  5
7C9
102
{ACAD_REACTORS
330
7C8
102
}
330
7C8
100
AcDbXrecord
280
     1
102
RTVSPropertyOp0
 70
     1
102
RTVSPropertyOp1
 70
     1
102
RTVSPropertyOp2
 70
     1
102
RTVSPropertyOp3
 70
     1
102
RTVSPropertyOp4
 70
     1
102
RTVSPropertyOp5
 70
     1
102
RTVSPropertyOp6
 70
     1
102
RTVSPropertyOp7
 70
     1
102
RTVSPropertyOp8
 70
     1
102
RTVSPropertyOp9
 70
     1
102
RTVSPropertyOp10
 70
     1
102
RTVSPropertyOp11
 70
     1
102
RTVSPropertyOp12
 70
     1
102
RTVSPropertyOp13
 70
     1
102
RTVSPropertyOp14
 70
     1
102
RTVSPropertyOp15
 70
     1
102
RTVSPropertyOp16
 70
     1
102
RTVSPropertyOp17
 70
     1
102
RTVSPropertyOp18
 70
     1
102
RTVSPropertyOp19
 70
     1
102
RTVSPropertyOp20
 70
     1
102
RTVSPropertyOp21
 70
     1
102
RTVSPropertyOp22
 70
     1
102
RTVSPropertyOp23
 70
     1
102
RTVSPropertyOp24
 70
     1
102
RTVSPropertyOp25
 70
     1
102
RTVSPropertyOp26
 70
     1
102
RTVSPropertyOp27
 70
     1
102
RTVSPropertyOp28
 70
     1
102
RTVSPropertyOp29
 70
     1
102
RTVSPropertyOp30
 70
     1
102
RTVSPropertyOp31
 70
     1
102
RTVSPropertyOp32
 70
     1
  0
XRECORD
  5
7BD
102
{ACAD_REACTORS
330
7BC
102
}
330
7BC
100
AcDbXrecord
280
     1
102
RTVSPropertyOp0
 70
     1
102
RTVSPropertyOp1
 70
     1
102
RTVSPropertyOp2
 70
     1
102
RTVSPropertyOp3
 70
     1
102
RTVSPropertyOp4
 70
     1
102
RTVSPropertyOp5
 70
     1
102
RTVSPropertyOp6
 70
     1
102
RTVSPropertyOp7
 70
     1
102
RTVSPropertyOp8
 70
     1
102
RTVSPropertyOp9
 70
     1
102
RTVSPropertyOp10
 70
     1
102
RTVSPropertyOp11
 70
     1
102
RTVSPropertyOp12
 70
     1
102
RTVSPropertyOp13
 70
     1
102
RTVSPropertyOp14
 70
     1
102
RTVSPropertyOp15
 70
     1
102
RTVSPropertyOp16
 70
     1
102
RTVSPropertyOp17
 70
     1
102
RTVSPropertyOp18
 70
     1
102
RTVSPropertyOp19
 70
     1
102
RTVSPropertyOp20
 70
     1
102
RTVSPropertyOp21
 70
     1
102
RTVSPropertyOp22
 70
     1
102
RTVSPropertyOp23
 70
     1
102
RTVSPropertyOp24
 70
     1
102
RTVSPropertyOp25
 70
     1
102
RTVSPropertyOp26
 70
     1
102
RTVSPropertyOp27
 70
     1
102
RTVSPropertyOp28
 70
     1
102
RTVSPropertyOp29
 70
     1
102
RTVSPropertyOp30
 70
     1
102
RTVSPropertyOp31
 70
     1
102
RTVSPropertyOp32
 70
     1
  0
XRECORD
  5
7D5
102
{ACAD_REACTORS
330
7D4
102
}
330
7D4
100
AcDbXrecord
280
     1
102
RTVSPropertyOp0
 70
     1
102
RTVSPropertyOp1
 70
     1
102
RTVSPropertyOp2
 70
     1
102
RTVSPropertyOp3
 70
     1
102
RTVSPropertyOp4
 70
     1
102
RTVSPropertyOp5
 70
     1
102
RTVSPropertyOp6
 70
     1
102
RTVSPropertyOp7
 70
     1
102
RTVSPropertyOp8
 70
     1
102
RTVSPropertyOp9
 70
     1
102
RTVSPropertyOp10
 70
     1
102
RTVSPropertyOp11
 70
     1
102
RTVSPropertyOp12
 70
     1
102
RTVSPropertyOp13
 70
     1
102
RTVSPropertyOp14
 70
     1
102
RTVSPropertyOp15
 70
     1
102
RTVSPropertyOp16
 70
     1
102
RTVSPropertyOp17
 70
     1
102
RTVSPropertyOp18
 70
     1
102
RTVSPropertyOp19
 70
     1
102
RTVSPropertyOp20
 70
     1
102
RTVSPropertyOp21
 70
     1
102
RTVSPropertyOp22
 70
     1
102
RTVSPropertyOp23
 70
     1
102
RTVSPropertyOp24
 70
     1
102
RTVSPropertyOp25
 70
     1
102
RTVSPropertyOp26
 70
     1
102
RTVSPropertyOp27
 70
     1
102
RTVSPropertyOp28
 70
     1
102
RTVSPropertyOp29
 70
     1
102
RTVSPropertyOp30
 70
     1
102
RTVSPropertyOp31
 70
     1
102
RTVSPropertyOp32
 70
     1
  0
ENDSEC
  0
EOF
