  0
SECTION
  2
HEADER
  9
$ACADVER
  1
AC1018
  9
$ACADMAINTVER
 70
   104
  9
$DWGCODEPAGE
  3
ANSI_932
  9
$LASTSAVEDBY
  1
0035sekine
  9
$INSBASE
 10
0.0
 20
0.0
 30
0.0
  9
$EXTMIN
 10
79.64046705960583
 20
151.9150610632271
 30
-0.0015258207003583
  9
$EXTMAX
 10
135.6592962522448
 20
175.92362111468
 30
0.0000000349246037
  9
$LIMMIN
 10
-57.21084426624829
 20
-82.30590204817749
  9
$LIMMAX
 10
130.2891557337521
 20
52.6940979518225
  9
$ORTHOMODE
 70
     0
  9
$REGENMODE
 70
     1
  9
$FILLMODE
 70
     1
  9
$QTEXTMODE
 70
     0
  9
$MIRRTEXT
 70
     0
  9
$LTSCALE
 40
1.0
  9
$ATTMODE
 70
     1
  9
$TEXTSIZE
 40
3.5
  9
$TRACEWID
 40
0.5
  9
$TEXTSTYLE
  7
STANDARD
  9
$CLAYER
  8
0
  9
$CELTYPE
  6
ByLayer
  9
$CECOLOR
 62
   256
  9
$CELTSCALE
 40
1.0
  9
$DISPSILH
 70
     0
  9
$DIMSCALE
 40
1.0
  9
$DIMASZ
 40
0.18
  9
$DIMEXO
 40
0.0625
  9
$DIMDLI
 40
0.38
  9
$DIMRND
 40
0.0
  9
$DIMDLE
 40
0.0
  9
$DIMEXE
 40
0.18
  9
$DIMTP
 40
0.0
  9
$DIMTM
 40
0.0
  9
$DIMTXT
 40
0.18
  9
$DIMCEN
 40
0.09
  9
$DIMTSZ
 40
0.0
  9
$DIMTOL
 70
     0
  9
$DIMLIM
 70
     0
  9
$DIMTIH
 70
     1
  9
$DIMTOH
 70
     1
  9
$DIMSE1
 70
     0
  9
$DIMSE2
 70
     0
  9
$DIMTAD
 70
     0
  9
$DIMZIN
 70
     0
  9
$DIMBLK
  1

  9
$DIMASO
 70
     1
  9
$DIMSHO
 70
     1
  9
$DIMPOST
  1

  9
$DIMAPOST
  1

  9
$DIMALT
 70
     0
  9
$DIMALTD
 70
     2
  9
$DIMALTF
 40
25.4
  9
$DIMLFAC
 40
1.0
  9
$DIMTOFL
 70
     0
  9
$DIMTVP
 40
0.0
  9
$DIMTIX
 70
     0
  9
$DIMSOXD
 70
     0
  9
$DIMSAH
 70
     0
  9
$DIMBLK1
  1

  9
$DIMBLK2
  1

  9
$DIMSTYLE
  2
Standard
  9
$DIMCLRD
 70
     0
  9
$DIMCLRE
 70
     0
  9
$DIMCLRT
 70
     0
  9
$DIMTFAC
 40
1.0
  9
$DIMGAP
 40
0.09
  9
$DIMJUST
 70
     0
  9
$DIMSD1
 70
     0
  9
$DIMSD2
 70
     0
  9
$DIMTOLJ
 70
     1
  9
$DIMTZIN
 70
     0
  9
$DIMALTZ
 70
     0
  9
$DIMALTTZ
 70
     0
  9
$DIMUPT
 70
     0
  9
$DIMDEC
 70
     4
  9
$DIMTDEC
 70
     4
  9
$DIMALTU
 70
     2
  9
$DIMALTTD
 70
     2
  9
$DIMTXSTY
  7
STANDARD
  9
$DIMAUNIT
 70
     0
  9
$DIMADEC
 70
     0
  9
$DIMALTRND
 40
0.0
  9
$DIMAZIN
 70
     0
  9
$DIMDSEP
 70
    46
  9
$DIMATFIT
 70
     3
  9
$DIMFRAC
 70
     0
  9
$DIMLDRBLK
  1

  9
$DIMLUNIT
 70
     2
  9
$DIMLWD
 70
    -2
  9
$DIMLWE
 70
    -2
  9
$DIMTMOVE
 70
     0
  9
$LUNITS
 70
     2
  9
$LUPREC
 70
     4
  9
$SKETCHINC
 40
0.1
  9
$FILLETRAD
 40
0.0
  9
$AUNITS
 70
     0
  9
$AUPREC
 70
     0
  9
$MENU
  1
ACAD
  9
$ELEVATION
 40
0.0
  9
$PELEVATION
 40
0.0
  9
$THICKNESS
 40
0.0
  9
$LIMCHECK
 70
     0
  9
$CHAMFERA
 40
0.0
  9
$CHAMFERB
 40
0.0
  9
$CHAMFERC
 40
0.0
  9
$CHAMFERD
 40
0.0
  9
$SKPOLY
 70
     0
  9
$TDCREATE
 40
2457584.661953299
  9
$TDUCREATE
 40
2457584.286953299
  9
$TDUPDATE
 40
2457584.662899294
  9
$TDUUPDATE
 40
2457584.287899294
  9
$TDINDWG
 40
0.0009468866
  9
$TDUSRTIMER
 40
0.0009468866
  9
$USRTIMER
 70
     1
  9
$ANGBASE
 50
0.0
  9
$ANGDIR
 70
     0
  9
$PDMODE
 70
     0
  9
$PDSIZE
 40
0.0
  9
$PLINEWID
 40
0.0
  9
$SPLFRAME
 70
     0
  9
$SPLINETYPE
 70
     6
  9
$SPLINESEGS
 70
     8
  9
$HANDSEED
  5
5E8
  9
$SURFTAB1
 70
     6
  9
$SURFTAB2
 70
     6
  9
$SURFTYPE
 70
     6
  9
$SURFU
 70
     6
  9
$SURFV
 70
     6
  9
$UCSBASE
  2

  9
$UCSNAME
  2

  9
$UCSORG
 10
0.0
 20
0.0
 30
0.0
  9
$UCSXDIR
 10
1.0
 20
0.0
 30
0.0
  9
$UCSYDIR
 10
0.0
 20
1.0
 30
0.0
  9
$UCSORTHOREF
  2

  9
$UCSORTHOVIEW
 70
     0
  9
$UCSORGTOP
 10
0.0
 20
0.0
 30
0.0
  9
$UCSORGBOTTOM
 10
0.0
 20
0.0
 30
0.0
  9
$UCSORGLEFT
 10
0.0
 20
0.0
 30
0.0
  9
$UCSORGRIGHT
 10
0.0
 20
0.0
 30
0.0
  9
$UCSORGFRONT
 10
0.0
 20
0.0
 30
0.0
  9
$UCSORGBACK
 10
0.0
 20
0.0
 30
0.0
  9
$PUCSBASE
  2

  9
$PUCSNAME
  2

  9
$PUCSORG
 10
0.0
 20
0.0
 30
0.0
  9
$PUCSXDIR
 10
1.0
 20
0.0
 30
0.0
  9
$PUCSYDIR
 10
0.0
 20
1.0
 30
0.0
  9
$PUCSORTHOREF
  2

  9
$PUCSORTHOVIEW
 70
     0
  9
$PUCSORGTOP
 10
0.0
 20
0.0
 30
0.0
  9
$PUCSORGBOTTOM
 10
0.0
 20
0.0
 30
0.0
  9
$PUCSORGLEFT
 10
0.0
 20
0.0
 30
0.0
  9
$PUCSORGRIGHT
 10
0.0
 20
0.0
 30
0.0
  9
$PUCSORGFRONT
 10
0.0
 20
0.0
 30
0.0
  9
$PUCSORGBACK
 10
0.0
 20
0.0
 30
0.0
  9
$USERI1
 70
     0
  9
$USERI2
 70
     0
  9
$USERI3
 70
     0
  9
$USERI4
 70
     0
  9
$USERI5
 70
     0
  9
$USERR1
 40
0.0
  9
$USERR2
 40
0.0
  9
$USERR3
 40
0.0
  9
$USERR4
 40
0.0
  9
$USERR5
 40
0.0
  9
$WORLDVIEW
 70
     1
  9
$SHADEDGE
 70
     3
  9
$SHADEDIF
 70
    70
  9
$TILEMODE
 70
     1
  9
$MAXACTVP
 70
    64
  9
$PINSBASE
 10
0.0
 20
0.0
 30
0.0
  9
$PLIMCHECK
 70
     0
  9
$PEXTMIN
 10
1.000000000000000E+20
 20
1.000000000000000E+20
 30
1.000000000000000E+20
  9
$PEXTMAX
 10
-1.000000000000000E+20
 20
-1.000000000000000E+20
 30
-1.000000000000000E+20
  9
$PLIMMIN
 10
0.0
 20
0.0
  9
$PLIMMAX
 10
12.0
 20
9.0
  9
$UNITMODE
 70
     0
  9
$VISRETAIN
 70
     1
  9
$PLINEGEN
 70
     0
  9
$PSLTSCALE
 70
     1
  9
$TREEDEPTH
 70
  3020
  9
$CMLSTYLE
  2
Standard
  9
$CMLJUST
 70
     0
  9
$CMLSCALE
 40
1.0
  9
$PROXYGRAPHICS
 70
     1
  9
$MEASUREMENT
 70
     0
  9
$CELWEIGHT
370
    -1
  9
$ENDCAPS
280
     0
  9
$JOINSTYLE
280
     0
  9
$LWDISPLAY
290
     0
  9
$INSUNITS
 70
     0
  9
$HYPERLINKBASE
  1

  9
$STYLESHEET
  1

  9
$XEDIT
290
     1
  9
$CEPSNTYPE
380
     0
  9
$PSTYLEMODE
290
     1
  9
$FINGERPRINTGUID
  2
{80DFF9AA-EEFC-4F97-B7C5-642B4B2D2168}
  9
$VERSIONGUID
  2
{98A518BE-92B8-4D33-96D0-A5A01FE6FE87}
  9
$EXTNAMES
290
     1
  9
$PSVPSCALE
 40
0.0
  9
$OLESTARTUP
290
     0
  9
$SORTENTS
280
   127
  9
$INDEXCTL
280
     0
  9
$HIDETEXT
280
     0
  9
$XCLIPFRAME
290
     0
  9
$HALOGAP
280
     0
  9
$OBSCOLOR
 70
   257
  9
$OBSLTYPE
280
     0
  9
$INTERSECTIONDISPLAY
280
     0
  9
$INTERSECTIONCOLOR
 70
   257
  9
$DIMASSOC
280
     1
  9
$PROJECTNAME
  1

  0
ENDSEC
  0
SECTION
  2
CLASSES
  0
CLASS
  1
ACDBDICTIONARYWDFLT
  2
AcDbDictionaryWithDefault
  3
ObjectDBX Classes
 90
        0
 91
        1
280
     0
281
     0
  0
CLASS
  1
MATERIAL
  2
AcDbMaterial
  3
ObjectDBX Classes
 90
     1153
 91
        3
280
     0
281
     0
  0
CLASS
  1
VISUALSTYLE
  2
AcDbVisualStyle
  3
ObjectDBX Classes
 90
     4095
 91
       24
280
     0
281
     0
  0
CLASS
  1
SCALE
  2
AcDbScale
  3
ObjectDBX Classes
 90
     1153
 91
       17
280
     0
281
     0
  0
CLASS
  1
TABLESTYLE
  2
AcDbTableStyle
  3
ObjectDBX Classes
 90
     4095
 91
        1
280
     0
281
     0
  0
CLASS
  1
MLEADERSTYLE
  2
AcDbMLeaderStyle
  3
ACDB_MLEADERSTYLE_CLASS
 90
     4095
 91
        1
280
     0
281
     0
  0
CLASS
  1
SORTENTSTABLE
  2
AcDbSortentsTable
  3
ObjectDBX Classes
 90
        0
 91
        1
280
     0
281
     0
  0
CLASS
  1
DICTIONARYVAR
  2
AcDbDictionaryVar
  3
ObjectDBX Classes
 90
        0
 91
        4
280
     0
281
     0
  0
CLASS
  1
CELLSTYLEMAP
  2
AcDbCellStyleMap
  3
ObjectDBX Classes
 90
     1152
 91
        1
280
     0
281
     0
  0
ENDSEC
  0
SECTION
  2
TABLES
  0
TABLE
  2
VPORT
  5
8
330
0
100
AcDbSymbolTable
 70
     1
  0
VPORT
  5
86
330
8
100
AcDbSymbolTableRecord
100
AcDbViewportTableRecord
  2
*Active
 70
     0
 10
0.0
 20
0.0
 11
1.0
 21
1.0
 12
133.7154431746111
 22
147.1926632418792
 13
0.0
 23
0.0
 14
1.0
 24
1.0
 15
0.0
 25
0.0
 16
0.0
 26
0.0
 36
1.0
 17
0.0
 27
0.0
 37
0.0
 40
177.2068386480766
 41
2.023923444976076
 42
50.0
 43
0.0
 44
0.0
 50
0.0
 51
0.0
 71
     0
 72
   100
 73
     1
 74
     1
 75
     0
 76
     0
 77
     0
 78
     0
281
     0
 65
     1
110
0.0
120
0.0
130
0.0
111
1.0
121
0.0
131
0.0
112
0.0
122
1.0
132
0.0
 79
     0
146
0.0
1001
ACAD_NAV_VCDISPLAY
1070
     3
  0
ENDTAB
  0
TABLE
  2
LTYPE
  5
5
330
0
100
AcDbSymbolTable
 70
     9
  0
LTYPE
  5
5A
330
5
100
AcDbSymbolTableRecord
100
AcDbLinetypeTableRecord
  2
ByBlock
 70
     0
  3

 72
    65
 73
     0
 40
0.0
  0
LTYPE
  5
5B
330
5
100
AcDbSymbolTableRecord
100
AcDbLinetypeTableRecord
  2
ByLayer
 70
     0
  3

 72
    65
 73
     0
 40
0.0
  0
LTYPE
  5
5C
330
5
100
AcDbSymbolTableRecord
100
AcDbLinetypeTableRecord
  2
CONTINUOUS
 70
     0
  3
Solid line
 72
    65
 73
     0
 40
0.0
  0
LTYPE
  5
76
330
5
100
AcDbSymbolTableRecord
100
AcDbLinetypeTableRecord
  2
BORDER
 70
     0
  3
__ __ . __ __ .
 72
    65
 73
     6
 40
8.634868421052649
 49
2.4671052631579
 74
     0
 49
-1.23355263157895
 74
     0
 49
2.4671052631579
 74
     0
 49
-1.23355263157895
 74
     0
 49
0.0
 74
     0
 49
-1.23355263157895
 74
     0
  0
LTYPE
  5
77
330
5
100
AcDbSymbolTableRecord
100
AcDbLinetypeTableRecord
  2
CENTER
 70
     0
  3
____ _ ____ _
 72
    65
 73
     4
 40
9.8684210526316
 49
6.16776315789475
 74
     0
 49
-1.23355263157895
 74
     0
 49
1.23355263157895
 74
     0
 49
-1.23355263157895
 74
     0
  0
LTYPE
  5
78
330
5
100
AcDbSymbolTableRecord
100
AcDbLinetypeTableRecord
  2
DASHDOT
 70
     0
  3
__ . __ . __ .
 72
    65
 73
     4
 40
4.9342105263158
 49
2.4671052631579
 74
     0
 49
-1.23355263157895
 74
     0
 49
0.0
 74
     0
 49
-1.23355263157895
 74
     0
  0
LTYPE
  5
79
330
5
100
AcDbSymbolTableRecord
100
AcDbLinetypeTableRecord
  2
DASHED
 70
     0
  3
__ __ __ __ __
 72
    65
 73
     2
 40
3.70065789473685
 49
2.4671052631579
 74
     0
 49
-1.23355263157895
 74
     0
  0
LTYPE
  5
7A
330
5
100
AcDbSymbolTableRecord
100
AcDbLinetypeTableRecord
  2
DIVIDE
 70
     0
  3
__ . . __ . . 
 72
    65
 73
     6
 40
6.16776315789475
 49
2.4671052631579
 74
     0
 49
-1.23355263157895
 74
     0
 49
0.0
 74
     0
 49
-1.23355263157895
 74
     0
 49
0.0
 74
     0
 49
-1.23355263157895
 74
     0
  0
LTYPE
  5
7B
330
5
100
AcDbSymbolTableRecord
100
AcDbLinetypeTableRecord
  2
DOT
 70
     0
  3
..............
 72
    65
 73
     4
 40
2.4671052631579
 49
0.0
 74
     0
 49
-1.23355263157895
 74
     0
 49
0.0
 74
     0
 49
-1.23355263157895
 74
     0
  0
LTYPE
  5
7C
330
5
100
AcDbSymbolTableRecord
100
AcDbLinetypeTableRecord
  2
HIDDEN
 70
     0
  3
_ _ _ _ _ _ _
 72
    65
 73
     2
 40
1.850328947368425
 49
1.23355263157895
 74
     0
 49
-0.6167763157894751
 74
     0
  0
LTYPE
  5
7D
330
5
100
AcDbSymbolTableRecord
100
AcDbLinetypeTableRecord
  2
PHANTOM
 70
     0
  3
_____ _ _ _____ _ _ 
 72
    65
 73
     6
 40
12.3355263157895
 49
6.16776315789475
 74
     0
 49
-1.23355263157895
 74
     0
 49
1.23355263157895
 74
     0
 49
-1.23355263157895
 74
     0
 49
1.23355263157895
 74
     0
 49
-1.23355263157895
 74
     0
  0
ENDTAB
  0
TABLE
  2
LAYER
  5
2
330
0
100
AcDbSymbolTable
 70
     3
  0
LAYER
  5
54
102
{ACAD_XDICTIONARY
360
5A2
102
}
330
2
100
AcDbSymbolTableRecord
100
AcDbLayerTableRecord
  2
0
 70
     0
 62
     7
  6
CONTINUOUS
370
    -3
390
F
  0
LAYER
  5
7E
102
{ACAD_XDICTIONARY
360
5A4
102
}
330
2
100
AcDbSymbolTableRecord
100
AcDbLayerTableRecord
  2
1
 70
     0
 62
     7
  6
CONTINUOUS
370
    -3
390
F
  0
LAYER
  5
3A1
330
2
100
AcDbSymbolTableRecord
100
AcDbLayerTableRecord
  2
Defpoints
 70
     0
 62
     7
  6
CONTINUOUS
290
     0
370
    -3
390
F
  0
ENDTAB
  0
TABLE
  2
STYLE
  5
3
330
0
100
AcDbSymbolTable
 70
     5
  0
STYLE
  5
55
330
3
100
AcDbSymbolTableRecord
100
AcDbTextStyleTableRecord
  2
STANDARD
 70
     0
 40
0.0
 41
1.0
 50
0.0
 71
     0
 42
3.5
  3
txt
  4

  0
STYLE
  5
59
330
3
100
AcDbSymbolTableRecord
100
AcDbTextStyleTableRecord
  2
Annotative
 70
     0
 40
0.0
 41
1.0
 50
0.0
 71
     0
 42
0.2
  3
txt
  4

1001
AcadAnnotative
1000
AnnotativeData
1002
{
1070
     1
1070
     1
1002
}
  0
STYLE
  5
7F
330
3
100
AcDbSymbolTableRecord
100
AcDbTextStyleTableRecord
  2
SIMPLEX
 70
     0
 40
0.0
 41
1.0
 50
0.0
 71
     0
 42
3.5
  3
simplex
  4

  0
STYLE
  5
80
330
3
100
AcDbSymbolTableRecord
100
AcDbTextStyleTableRecord
  2
COMPLEX
 70
     0
 40
0.0
 41
1.0
 50
0.0
 71
     0
 42
3.5
  3
complex
  4

  0
STYLE
  5
81
330
3
100
AcDbSymbolTableRecord
100
AcDbTextStyleTableRecord
  2
ITALIC
 70
     0
 40
0.0
 41
1.0
 50
0.0
 71
     0
 42
3.5
  3
italic
  4

  0
ENDTAB
  0
TABLE
  2
VIEW
  5
6
330
0
100
AcDbSymbolTable
 70
     0
  0
ENDTAB
  0
TABLE
  2
UCS
  5
7
330
0
100
AcDbSymbolTable
 70
     0
  0
ENDTAB
  0
TABLE
  2
APPID
  5
9
330
0
100
AcDbSymbolTable
 70
     5
  0
APPID
  5
56
330
9
100
AcDbSymbolTableRecord
100
AcDbRegAppTableRecord
  2
ACAD
 70
     0
  0
APPID
  5
5D
330
9
100
AcDbSymbolTableRecord
100
AcDbRegAppTableRecord
  2
AcadAnnotative
 70
     0
  0
APPID
  5
5A8
330
9
100
AcDbSymbolTableRecord
100
AcDbRegAppTableRecord
  2
DCO15
 70
     0
  0
APPID
  5
5AF
330
9
100
AcDbSymbolTableRecord
100
AcDbRegAppTableRecord
  2
ACAD_NAV_VCDISPLAY
 70
     0
  0
APPID
  5
5E7
330
9
100
AcDbSymbolTableRecord
100
AcDbRegAppTableRecord
  2
ACAD_MLEADERVER
 70
     0
  0
ENDTAB
  0
TABLE
  2
DIMSTYLE
  5
A
330
0
100
AcDbSymbolTable
 70
     9
100
AcDbDimStyleTable
 71
     0
  0
DIMSTYLE
105
57
330
A
100
AcDbSymbolTableRecord
100
AcDbDimStyleTableRecord
  2
Standard
 70
     0
340
55
  0
DIMSTYLE
105
58
330
A
100
AcDbSymbolTableRecord
100
AcDbDimStyleTableRecord
  2
Annotative
 70
     0
340
55
1001
AcadAnnotative
1000
AnnotativeData
1002
{
1070
     1
1070
     1
1002
}
  0
DIMSTYLE
105
6F
102
{ACAD_REACTORS
330
2FE
330
2FF
330
301
330
302
330
304
330
305
102
}
330
A
100
AcDbSymbolTableRecord
100
AcDbDimStyleTableRecord
  2
DMST_1
 70
     0
 41
1.25
 42
0.5
 43
7.0
 44
0.5
 73
     0
 74
     0
 77
     1
 78
     9
140
1.75
141
0.0
176
     2
177
     2
178
     3
279
     2
340
55
  0
DIMSTYLE
105
70
102
{ACAD_REACTORS
330
300
330
308
330
309
330
30F
330
311
330
312
330
314
330
317
102
}
330
A
100
AcDbSymbolTableRecord
100
AcDbDimStyleTableRecord
  2
DMST_2
 70
     0
 41
1.25
 42
0.5
 43
7.0
 44
0.5
 77
     1
 78
     9
140
1.75
141
0.0
176
     2
177
     2
178
     3
279
     2
340
55
  0
DIMSTYLE
105
71
102
{ACAD_REACTORS
330
303
102
}
330
A
100
AcDbSymbolTableRecord
100
AcDbDimStyleTableRecord
  2
DMST_3
 70
     0
 41
1.25
 42
0.5
 43
7.0
 44
0.5
 73
     0
 74
     0
 77
     1
 78
     9
140
1.75
141
0.0
176
     2
177
     2
178
     3
279
     2
340
55
  0
DIMSTYLE
105
72
102
{ACAD_REACTORS
330
306
102
}
330
A
100
AcDbSymbolTableRecord
100
AcDbDimStyleTableRecord
  2
DMST_4
 70
     0
 41
1.25
 42
0.5
 43
7.0
 44
0.5
 47
0.5
 71
     1
 73
     0
 74
     0
 77
     1
 78
     9
140
1.75
141
0.0
146
0.6
176
     2
177
     2
178
     3
279
     2
340
55
  0
DIMSTYLE
105
73
102
{ACAD_REACTORS
330
307
330
30A
330
30B
330
30E
102
}
330
A
100
AcDbSymbolTableRecord
100
AcDbDimStyleTableRecord
  2
DMST_5
 70
     0
 41
1.25
 42
0.5
 43
7.0
 44
0.5
 47
0.5
 71
     1
 77
     1
 78
     9
140
1.75
141
0.0
146
0.6
176
     2
177
     2
178
     3
279
     2
340
55
  0
DIMSTYLE
105
74
102
{ACAD_REACTORS
330
30C
330
30D
102
}
330
A
100
AcDbSymbolTableRecord
100
AcDbDimStyleTableRecord
  2
DMST_6
 70
     0
 41
1.25
 42
0.5
 43
7.0
 44
0.5
 77
     1
 78
     9
140
1.75
141
0.0
176
     2
177
     2
178
     3
279
     2
340
55
  0
DIMSTYLE
105
75
102
{ACAD_REACTORS
330
310
330
313
330
315
330
316
102
}
330
A
100
AcDbSymbolTableRecord
100
AcDbDimStyleTableRecord
  2
DMST_7
 70
     0
 41
1.25
 42
0.5
 43
7.0
 44
0.5
 77
     1
 78
     9
140
1.75
141
0.0
172
     1
176
     2
177
     2
178
     3
279
     2
340
55
  0
ENDTAB
  0
TABLE
  2
BLOCK_RECORD
  5
1
330
0
100
AcDbSymbolTable
 70
    58
  0
BLOCK_RECORD
  5
6B
102
{ACAD_XDICTIONARY
360
4C9
102
}
330
1
100
AcDbSymbolTableRecord
100
AcDbBlockTableRecord
  2
*Model_Space
340
6E
  0
BLOCK_RECORD
  5
67
330
1
100
AcDbSymbolTableRecord
100
AcDbBlockTableRecord
  2
*Paper_Space
340
6A
  0
BLOCK_RECORD
  5
87
330
1
100
AcDbSymbolTableRecord
100
AcDbBlockTableRecord
  2
TOP__1
340
0
102
{BLKREFS
331
318
102
}
  0
BLOCK_RECORD
  5
8B
330
1
100
AcDbSymbolTableRecord
100
AcDbBlockTableRecord
  2
______
340
0
102
{BLKREFS
331
164
102
}
  0
BLOCK_RECORD
  5
15E
330
1
100
AcDbSymbolTableRecord
100
AcDbBlockTableRecord
  2
FORMAT_A3
340
0
102
{BLKREFS
331
319
102
}
  0
BLOCK_RECORD
  5
166
330
1
100
AcDbSymbolTableRecord
100
AcDbBlockTableRecord
  2
TOP__2
340
0
102
{BLKREFS
331
31A
102
}
  0
BLOCK_RECORD
  5
16A
330
1
100
AcDbSymbolTableRecord
100
AcDbBlockTableRecord
  2
TOP__3
340
0
102
{BLKREFS
331
31B
102
}
  0
BLOCK_RECORD
  5
16E
330
1
100
AcDbSymbolTableRecord
100
AcDbBlockTableRecord
  2
*D5
340
0
  0
BLOCK_RECORD
  5
179
330
1
100
AcDbSymbolTableRecord
100
AcDbBlockTableRecord
  2
*D6
340
0
  0
BLOCK_RECORD
  5
186
330
1
100
AcDbSymbolTableRecord
100
AcDbBlockTableRecord
  2
*D7
340
0
  0
BLOCK_RECORD
  5
193
330
1
100
AcDbSymbolTableRecord
100
AcDbBlockTableRecord
  2
*D8
340
0
  0
BLOCK_RECORD
  5
1A0
330
1
100
AcDbSymbolTableRecord
100
AcDbBlockTableRecord
  2
*D9
340
0
  0
BLOCK_RECORD
  5
1AB
330
1
100
AcDbSymbolTableRecord
100
AcDbBlockTableRecord
  2
*D10
340
0
  0
BLOCK_RECORD
  5
1B8
330
1
100
AcDbSymbolTableRecord
100
AcDbBlockTableRecord
  2
*D11
340
0
  0
BLOCK_RECORD
  5
1C5
330
1
100
AcDbSymbolTableRecord
100
AcDbBlockTableRecord
  2
*D12
340
0
  0
BLOCK_RECORD
  5
1D2
330
1
100
AcDbSymbolTableRecord
100
AcDbBlockTableRecord
  2
*D13
340
0
  0
BLOCK_RECORD
  5
1DF
330
1
100
AcDbSymbolTableRecord
100
AcDbBlockTableRecord
  2
*D14
340
0
  0
BLOCK_RECORD
  5
1EC
330
1
100
AcDbSymbolTableRecord
100
AcDbBlockTableRecord
  2
*D15
340
0
  0
BLOCK_RECORD
  5
1F9
330
1
100
AcDbSymbolTableRecord
100
AcDbBlockTableRecord
  2
*D16
340
0
  0
BLOCK_RECORD
  5
206
330
1
100
AcDbSymbolTableRecord
100
AcDbBlockTableRecord
  2
*D17
340
0
  0
BLOCK_RECORD
  5
213
330
1
100
AcDbSymbolTableRecord
100
AcDbBlockTableRecord
  2
*D18
340
0
  0
BLOCK_RECORD
  5
220
330
1
100
AcDbSymbolTableRecord
100
AcDbBlockTableRecord
  2
*D19
340
0
  0
BLOCK_RECORD
  5
22D
330
1
100
AcDbSymbolTableRecord
100
AcDbBlockTableRecord
  2
*D20
340
0
  0
BLOCK_RECORD
  5
23A
330
1
100
AcDbSymbolTableRecord
100
AcDbBlockTableRecord
  2
*D21
340
0
  0
BLOCK_RECORD
  5
247
330
1
100
AcDbSymbolTableRecord
100
AcDbBlockTableRecord
  2
*D22
340
0
  0
BLOCK_RECORD
  5
250
330
1
100
AcDbSymbolTableRecord
100
AcDbBlockTableRecord
  2
*D23
340
0
  0
BLOCK_RECORD
  5
259
330
1
100
AcDbSymbolTableRecord
100
AcDbBlockTableRecord
  2
*D24
340
0
  0
BLOCK_RECORD
  5
262
330
1
100
AcDbSymbolTableRecord
100
AcDbBlockTableRecord
  2
*D25
340
0
  0
BLOCK_RECORD
  5
26B
330
1
100
AcDbSymbolTableRecord
100
AcDbBlockTableRecord
  2
*D26
340
0
  0
BLOCK_RECORD
  5
274
330
1
100
AcDbSymbolTableRecord
100
AcDbBlockTableRecord
  2
*D27
340
0
  0
BLOCK_RECORD
  5
27D
330
1
100
AcDbSymbolTableRecord
100
AcDbBlockTableRecord
  2
*D28
340
0
  0
BLOCK_RECORD
  5
286
330
1
100
AcDbSymbolTableRecord
100
AcDbBlockTableRecord
  2
*D29
340
0
  0
BLOCK_RECORD
  5
28F
330
1
100
AcDbSymbolTableRecord
100
AcDbBlockTableRecord
  2
*D30
340
0
  0
BLOCK_RECORD
  5
298
330
1
100
AcDbSymbolTableRecord
100
AcDbBlockTableRecord
  2
TOP__4
340
0
  0
BLOCK_RECORD
  5
3A2
330
1
100
AcDbSymbolTableRecord
100
AcDbBlockTableRecord
  2
*D32
340
0
  0
BLOCK_RECORD
  5
3AE
330
1
100
AcDbSymbolTableRecord
100
AcDbBlockTableRecord
  2
*D33
340
0
  0
BLOCK_RECORD
  5
3BB
330
1
100
AcDbSymbolTableRecord
100
AcDbBlockTableRecord
  2
*D34
340
0
  0
BLOCK_RECORD
  5
3C7
330
1
100
AcDbSymbolTableRecord
100
AcDbBlockTableRecord
  2
*D35
340
0
  0
BLOCK_RECORD
  5
3D4
330
1
100
AcDbSymbolTableRecord
100
AcDbBlockTableRecord
  2
*D36
340
0
  0
BLOCK_RECORD
  5
3E0
330
1
100
AcDbSymbolTableRecord
100
AcDbBlockTableRecord
  2
*D37
340
0
  0
BLOCK_RECORD
  5
3EC
330
1
100
AcDbSymbolTableRecord
100
AcDbBlockTableRecord
  2
*D38
340
0
  0
BLOCK_RECORD
  5
3F9
330
1
100
AcDbSymbolTableRecord
100
AcDbBlockTableRecord
  2
*D39
340
0
  0
BLOCK_RECORD
  5
406
330
1
100
AcDbSymbolTableRecord
100
AcDbBlockTableRecord
  2
*D40
340
0
  0
BLOCK_RECORD
  5
412
330
1
100
AcDbSymbolTableRecord
100
AcDbBlockTableRecord
  2
*D41
340
0
  0
BLOCK_RECORD
  5
41E
330
1
100
AcDbSymbolTableRecord
100
AcDbBlockTableRecord
  2
*D42
340
0
  0
BLOCK_RECORD
  5
42B
330
1
100
AcDbSymbolTableRecord
100
AcDbBlockTableRecord
  2
*D43
340
0
  0
BLOCK_RECORD
  5
438
330
1
100
AcDbSymbolTableRecord
100
AcDbBlockTableRecord
  2
*D44
340
0
  0
BLOCK_RECORD
  5
444
330
1
100
AcDbSymbolTableRecord
100
AcDbBlockTableRecord
  2
*D45
340
0
  0
BLOCK_RECORD
  5
450
330
1
100
AcDbSymbolTableRecord
100
AcDbBlockTableRecord
  2
*D46
340
0
  0
BLOCK_RECORD
  5
45C
330
1
100
AcDbSymbolTableRecord
100
AcDbBlockTableRecord
  2
*D47
340
0
  0
BLOCK_RECORD
  5
468
330
1
100
AcDbSymbolTableRecord
100
AcDbBlockTableRecord
  2
*D48
340
0
  0
BLOCK_RECORD
  5
474
330
1
100
AcDbSymbolTableRecord
100
AcDbBlockTableRecord
  2
*D49
340
0
  0
BLOCK_RECORD
  5
47D
330
1
100
AcDbSymbolTableRecord
100
AcDbBlockTableRecord
  2
*D50
340
0
  0
BLOCK_RECORD
  5
487
330
1
100
AcDbSymbolTableRecord
100
AcDbBlockTableRecord
  2
*D51
340
0
  0
BLOCK_RECORD
  5
490
330
1
100
AcDbSymbolTableRecord
100
AcDbBlockTableRecord
  2
*D52
340
0
  0
BLOCK_RECORD
  5
499
330
1
100
AcDbSymbolTableRecord
100
AcDbBlockTableRecord
  2
*D53
340
0
  0
BLOCK_RECORD
  5
4A3
330
1
100
AcDbSymbolTableRecord
100
AcDbBlockTableRecord
  2
*D54
340
0
  0
BLOCK_RECORD
  5
4AC
330
1
100
AcDbSymbolTableRecord
100
AcDbBlockTableRecord
  2
*D55
340
0
  0
BLOCK_RECORD
  5
4B6
330
1
100
AcDbSymbolTableRecord
100
AcDbBlockTableRecord
  2
*D56
340
0
  0
BLOCK_RECORD
  5
4C0
330
1
100
AcDbSymbolTableRecord
100
AcDbBlockTableRecord
  2
*D57
340
0
  0
ENDTAB
  0
ENDSEC
  0
SECTION
  2
BLOCKS
  0
BLOCK
  5
6C
330
6B
100
AcDbEntity
  8
0
100
AcDbBlockBegin
  2
*Model_Space
 70
     0
 10
0.0
 20
0.0
 30
0.0
  3
*Model_Space
  1

  0
ENDBLK
  5
6D
330
6B
100
AcDbEntity
  8
0
100
AcDbBlockEnd
  0
BLOCK
  5
68
330
67
100
AcDbEntity
 67
     1
  8
0
100
AcDbBlockBegin
  2
*Paper_Space
 70
     0
 10
0.0
 20
0.0
 30
0.0
  3
*Paper_Space
  1

  0
ENDBLK
  5
69
330
67
100
AcDbEntity
 67
     1
  8
0
100
AcDbBlockEnd
  0
BLOCK
  5
88
330
87
100
AcDbEntity
  8
0
100
AcDbBlockBegin
  2
TOP__1
 70
     0
 10
76.78915573375197
 20
-68.8059020481775
 30
0.0
  3
TOP__1
  1

  0
TEXT
  5
89
330
87
100
AcDbEntity
  8
1
 62
     4
100
AcDbText
 10
83.50351148519392
 20
-67.26465103549324
 30
0.0
 40
7.0
  1
関根
 41
0.6300000000000001
 72
     1
 11
86.44351148519392
 21
-63.76465103549325
 31
0.0
100
AcDbText
 73
     2
  0
ENDBLK
  5
8A
330
87
100
AcDbEntity
  8
0
100
AcDbBlockEnd
  0
BLOCK
  5
8C
330
8B
100
AcDbEntity
  8
0
100
AcDbBlockBegin
  2
______
 70
     0
 10
125.999137588281
 20
-78.2416743314155
 30
0.0
  3
______
  1

  0
LINE
  5
8D
330
8B
100
AcDbEntity
  8
1
 62
     5
100
AcDbLine
 10
-37.34537965946011
 20
-60.06537911249019
 30
0.0
 11
-37.34537965946011
 21
-64.8672999108304
 31
0.0
  0
LINE
  5
8E
330
8B
100
AcDbEntity
  8
1
 62
     5
100
AcDbLine
 10
-37.34537965946011
 20
-58.07601192460631
 30
0.0
 11
-37.34537965946011
 21
-59.58518703265609
 31
0.0
  0
LINE
  5
8F
330
8B
100
AcDbEntity
  8
1
 62
     5
100
AcDbLine
 10
-37.34537965946011
 20
-53.2740911262661
 30
0.0
 11
-37.34537965946011
 21
-57.63011927904618
 31
0.0
  0
LINE
  5
90
330
8B
100
AcDbEntity
  8
1
 62
     5
100
AcDbLine
 10
-21.59519189806602
 20
-58.8701297649395
 30
0.0
 11
-15.14689825458004
 21
-58.8701297649395
 31
0.0
  0
LINE
  5
91
330
8B
100
AcDbEntity
  8
1
 62
     5
100
AcDbLine
 10
-23.20726530893707
 20
-58.8701297649395
 30
0.0
 11
-22.34977945209005
 21
-58.8701297649395
 31
0.0
  0
LINE
  5
92
330
8B
100
AcDbEntity
  8
1
 62
     5
100
AcDbLine
 10
-35.79515768744307
 20
-58.8701297649395
 30
0.0
 11
-23.72175682304498
 21
-58.8701297649395
 31
0.0
  0
LINE
  5
93
330
8B
100
AcDbEntity
  8
1
 62
     5
100
AcDbLine
 10
-38.23041752088705
 20
-58.8701297649395
 30
0.0
 11
-36.27534976727708
 21
-58.8701297649395
 31
0.0
  0
LINE
  5
94
330
8B
100
AcDbEntity
  8
1
 62
     5
100
AcDbLine
 10
-42.82654171358401
 20
-58.8701297649395
 30
0.0
 11
-38.77920846926907
 21
-58.8701297649395
 31
0.0
  0
LINE
  5
95
330
8B
100
AcDbEntity
  8
1
 62
     5
100
AcDbLine
 10
-17.53914322373004
 20
-62.87012976493951
 30
0.0
 11
-27.37049971537908
 21
-60.87012976493951
 31
0.0
  0
LINE
  5
96
330
8B
100
AcDbEntity
  8
1
 62
     5
100
AcDbLine
 10
-17.53914322373004
 20
-54.8701297649395
 30
0.0
 11
-17.53914322373004
 21
-62.87012976493951
 31
0.0
  0
LINE
  5
97
330
8B
100
AcDbEntity
  8
1
 62
     5
100
AcDbLine
 10
-27.37049971537908
 20
-56.8701297649395
 30
0.0
 11
-17.53914322373004
 21
-54.8701297649395
 31
0.0
  0
LINE
  5
98
330
8B
100
AcDbEntity
  8
1
 62
     5
100
AcDbLine
 10
-27.37049971537908
 20
-60.87012976493951
 30
0.0
 11
-27.37049971537908
 21
-56.8701297649395
 31
0.0
  0
LINE
  5
99
330
8B
100
AcDbEntity
  8
1
 62
     7
100
AcDbLine
 10
-16.39157732143104
 20
-71.17921293120871
 30
0.0
 11
-16.39157732143099
 21
-76.93753383956468
 31
0.0
  0
LINE
  5
9A
330
8B
100
AcDbEntity
  8
1
 62
     7
100
AcDbLine
 10
-18.46410081708679
 20
-77.72210063073218
 30
0.0
 11
-16.70005734487204
 21
-71.13860076566691
 31
0.0
  0
LINE
  5
9B
330
8B
100
AcDbEntity
  8
1
 62
     7
100
AcDbLine
 10
-20.73819359225064
 20
-71.10866217469236
 30
0.0
 11
-18.96612809876194
 21
-77.72210063073218
 31
0.0
  0
LINE
  5
9C
330
8B
100
AcDbEntity
  8
1
 62
     7
100
AcDbLine
 10
-21.04667361569159
 20
-77.04214274505369
 30
0.0
 11
-21.04667361569159
 21
-71.1492743402343
 31
0.0
  0
LINE
  5
9D
330
8B
100
AcDbEntity
  8
1
 62
     7
100
AcDbLine
 10
-18.46410081708679
 20
-77.72210063073218
 30
0.0
 11
-18.96612809876194
 21
-77.72210063073218
 31
0.0
  0
LINE
  5
9E
330
8B
100
AcDbEntity
  8
1
 62
     7
100
AcDbLine
 10
-16.86231739613169
 20
-77.19905610328719
 30
0.0
 11
-16.65309958515356
 21
-77.19905610328719
 31
0.0
  0
LINE
  5
9F
330
8B
100
AcDbEntity
  8
1
 62
     7
100
AcDbLine
 10
-16.96692630162069
 20
-77.72210063073218
 30
0.0
 11
-16.96692630162069
 21
-77.30366500877621
 31
0.0
  0
LINE
  5
A0
330
8B
100
AcDbEntity
  8
1
 62
     7
100
AcDbLine
 10
-14.03787694792874
 20
-77.72210063073218
 30
0.0
 11
-16.96692630162069
 21
-77.72210063073218
 31
0.0
  0
LINE
  5
A1
330
8B
100
AcDbEntity
  8
1
 62
     7
100
AcDbLine
 10
-14.03787694792874
 20
-77.30366500877621
 30
0.0
 11
-14.03787694792874
 21
-77.72210063073218
 31
0.0
  0
LINE
  5
A2
330
8B
100
AcDbEntity
  8
1
 62
     7
100
AcDbLine
 10
-14.35170366439559
 20
-77.19905610328719
 30
0.0
 11
-14.14248585341757
 21
-77.19905610328719
 31
0.0
  0
LINE
  5
A3
330
8B
100
AcDbEntity
  8
1
 62
     7
100
AcDbLine
 10
-14.61322592811808
 20
-71.28865294315871
 30
0.0
 11
-14.61322592811808
 21
-76.93753383956468
 31
0.0
  0
LINE
  5
A4
330
8B
100
AcDbEntity
  8
1
 62
     7
100
AcDbLine
 10
-14.14248585341757
 20
-71.02713067943618
 30
0.0
 11
-14.35170366439559
 21
-71.02713067943618
 31
0.0
  0
LINE
  5
A5
330
8B
100
AcDbEntity
  8
1
 62
     7
100
AcDbLine
 10
-14.03787694792874
 20
-70.50408615199119
 30
0.0
 11
-14.03787694792874
 21
-70.92252177394719
 31
0.0
  0
LINE
  5
A6
330
8B
100
AcDbEntity
  8
1
 62
     7
100
AcDbLine
 10
-17.07153520710952
 20
-70.50408615199119
 30
0.0
 11
-14.03787694792874
 21
-70.50408615199119
 31
0.0
  0
LINE
  5
A7
330
8B
100
AcDbEntity
  8
1
 62
     7
100
AcDbLine
 10
-22.09276267058172
 20
-70.50408615199119
 30
0.0
 11
-19.05910441140077
 21
-70.50408615199119
 31
0.0
  0
LINE
  5
A8
330
8B
100
AcDbEntity
  8
1
 62
     7
100
AcDbLine
 10
-22.09276267058172
 20
-70.92252177394719
 30
0.0
 11
-22.09276267058172
 21
-70.50408615199119
 31
0.0
  0
LINE
  5
A9
330
8B
100
AcDbEntity
  8
1
 62
     7
100
AcDbLine
 10
-21.72663150137004
 20
-71.02713067943618
 30
0.0
 11
-21.98815376509265
 21
-71.02713067943618
 31
0.0
  0
LINE
  5
AA
330
8B
100
AcDbEntity
  8
1
 62
     7
100
AcDbLine
 10
-21.56971814313664
 20
-77.04214274505369
 30
0.0
 11
-21.56971814313664
 21
-71.1840440376697
 31
0.0
  0
LINE
  5
AB
330
8B
100
AcDbEntity
  8
1
 62
     7
100
AcDbLine
 10
-21.98815376509265
 20
-77.19905610328719
 30
0.0
 11
-21.72663150137004
 21
-77.19905610328719
 31
0.0
  0
LINE
  5
AC
330
8B
100
AcDbEntity
  8
1
 62
     7
100
AcDbLine
 10
-22.09276267058172
 20
-77.72210063073218
 30
0.0
 11
-22.09276267058158
 21
-77.30366500877621
 31
0.0
  0
LINE
  5
AD
330
8B
100
AcDbEntity
  8
1
 62
     7
100
AcDbLine
 10
-20.62823799373564
 20
-77.72210063073218
 30
0.0
 11
-22.09276267058172
 21
-77.72210063073218
 31
0.0
  0
LINE
  5
AE
330
8B
100
AcDbEntity
  8
1
 62
     7
100
AcDbLine
 10
-20.62823799373564
 20
-77.30366500877621
 30
0.0
 11
-20.62823799373564
 21
-77.72210063073218
 31
0.0
  0
LINE
  5
AF
330
8B
100
AcDbEntity
  8
1
 62
     7
100
AcDbLine
 10
-20.88976025745821
 20
-77.19905610328719
 30
0.0
 11
-20.73284689922468
 21
-77.19905610328719
 31
0.0
  0
LINE
  5
B0
330
8B
100
AcDbEntity
  8
1
 62
     7
100
AcDbLine
 10
-17.91375314404758
 20
-73.64728628368969
 30
0.0
 11
-17.07153520710952
 21
-70.50408615199119
 31
0.0
  0
LINE
  5
B1
330
8B
100
AcDbEntity
  8
1
 62
     7
100
AcDbLine
 10
-19.05910441140077
 20
-70.50408615199119
 30
0.0
 11
-18.21688647446268
 21
-73.64728628368969
 31
0.0
  0
LINE
  5
B2
330
8B
100
AcDbEntity
  8
1
 62
     7
100
AcDbLine
 10
-28.76407674135409
 20
-75.2596232212402
 30
0.0
 11
-25.28750241849669
 21
-71.7830488983828
 31
0.0
  0
LINE
  5
B3
330
8B
100
AcDbEntity
  8
1
 62
     7
100
AcDbLine
 10
-24.10398775539636
 20
-72.9665635614832
 30
0.0
 11
-27.58056207825364
 21
-76.44313788434058
 31
0.0
  0
LINE
  5
B4
330
8B
100
AcDbEntity
  8
1
 62
     7
100
AcDbLine
 10
-33.44282891613824
 20
-77.72210063073218
 30
0.0
 11
-35.01196249847318
 21
-77.72210063073218
 31
0.0
  0
LINE
  5
B5
330
8B
100
AcDbEntity
  8
1
 62
     7
100
AcDbLine
 10
-35.01196249847318
 20
-77.72210063073218
 30
0.0
 11
-35.01196249847318
 21
-77.30366500877621
 31
0.0
  0
LINE
  5
B6
330
8B
100
AcDbEntity
  8
1
 62
     7
100
AcDbLine
 10
-34.90735359298418
 20
-77.19905610328719
 30
0.0
 11
-34.69813578200615
 21
-77.19905610328719
 31
0.0
  0
LINE
  5
B7
330
8B
100
AcDbEntity
  8
1
 62
     7
100
AcDbLine
 10
-34.43661351828364
 20
-76.93753383956468
 30
0.0
 11
-34.43661351828364
 21
-71.3932618486477
 31
0.0
  0
LINE
  5
B8
330
8B
100
AcDbEntity
  8
1
 62
     7
100
AcDbLine
 10
-34.80274468749521
 20
-71.02713067943618
 30
0.0
 11
-34.95324899888198
 21
-71.02713067943618
 31
0.0
  0
LINE
  5
B9
330
8B
100
AcDbEntity
  8
1
 62
     7
100
AcDbLine
 10
-35.65172413084564
 20
-71.53952800859009
 30
0.0
 11
-35.86090060183494
 21
-72.20404740466681
 31
0.0
  0
LINE
  5
BA
330
8B
100
AcDbEntity
  8
1
 62
     7
100
AcDbLine
 10
-36.37174159686936
 20
-72.11707034979429
 30
0.0
 11
-36.31957381708567
 21
-70.50408615199119
 31
0.0
  0
LINE
  5
BB
330
8B
100
AcDbEntity
  8
1
 62
     7
100
AcDbLine
 10
-36.31957381708567
 20
-70.50408615199119
 30
0.0
 11
-33.44282891613824
 21
-70.50408615199119
 31
0.0
  0
LINE
  5
BC
330
8B
100
AcDbEntity
  8
1
 62
     7
100
AcDbLine
 10
-31.87369533380308
 20
-77.72210063073218
 30
0.0
 11
-33.44282891613824
 21
-77.72210063073218
 31
0.0
  0
LINE
  5
BD
330
8B
100
AcDbEntity
  8
1
 62
     7
100
AcDbLine
 10
-31.87369533380308
 20
-77.30366500877621
 30
0.0
 11
-31.87369533380308
 21
-77.72210063073218
 31
0.0
  0
LINE
  5
BE
330
8B
100
AcDbEntity
  8
1
 62
     7
100
AcDbLine
 10
-32.18752205027029
 20
-77.19905610328719
 30
0.0
 11
-31.97830423929209
 21
-77.19905610328719
 31
0.0
  0
LINE
  5
BF
330
8B
100
AcDbEntity
  8
1
 62
     7
100
AcDbLine
 10
-32.44904431399279
 20
-71.3932618486477
 30
0.0
 11
-32.44904431399279
 21
-76.93753383956468
 31
0.0
  0
LINE
  5
C0
330
8B
100
AcDbEntity
  8
1
 62
     7
100
AcDbLine
 10
-31.93240883339445
 20
-71.02713067943618
 30
0.0
 11
-32.08291314478106
 21
-71.02713067943618
 31
0.0
  0
LINE
  5
C1
330
8B
100
AcDbEntity
  8
1
 62
     7
100
AcDbLine
 10
-31.02475723044127
 20
-72.20404740466681
 30
0.0
 11
-31.23393370143054
 21
-71.53952800859009
 31
0.0
  0
LINE
  5
C2
330
8B
100
AcDbEntity
  8
1
 62
     7
100
AcDbLine
 10
-30.56608401519067
 20
-70.50408615199119
 30
0.0
 11
-30.51391623540684
 21
-72.11707034979439
 31
0.0
  0
LINE
  5
C3
330
8B
100
AcDbEntity
  8
1
 62
     7
100
AcDbLine
 10
-33.44282891613824
 20
-70.50408615199119
 30
0.0
 11
-30.56608401519067
 21
-70.50408615199119
 31
0.0
  0
LINE
  5
C4
330
8B
100
AcDbEntity
  8
1
 62
     7
100
AcDbLine
 10
-39.22399791711889
 20
-74.38104308178821
 30
0.0
 11
-39.93543742393678
 21
-72.0540293080197
 31
0.0
  0
LINE
  5
C5
330
8B
100
AcDbEntity
  8
1
 62
     7
100
AcDbLine
 10
-40.79693392150768
 20
-74.58383346606218
 30
0.0
 11
-39.37405490787167
 21
-74.58383346606218
 31
0.0
  0
LINE
  5
C6
330
8B
100
AcDbEntity
  8
1
 62
     7
100
AcDbLine
 10
-40.2355514054425
 20
-72.0540293080197
 30
0.0
 11
-40.94699091226038
 21
-74.38104308178821
 31
0.0
  0
LINE
  5
C7
330
8B
100
AcDbEntity
  8
1
 62
     7
100
AcDbLine
 10
-41.23619237506877
 20
-77.30366500877621
 30
0.0
 11
-41.23619237506877
 21
-77.72210063073218
 31
0.0
  0
LINE
  5
C8
330
8B
100
AcDbEntity
  8
1
 62
     7
100
AcDbLine
 10
-41.59648772055249
 20
-77.19905610328719
 30
0.0
 11
-41.34080128055769
 21
-77.19905610328719
 31
0.0
  0
LINE
  5
C9
330
8B
100
AcDbEntity
  8
1
 62
     7
100
AcDbLine
 10
-41.20284812795484
 20
-75.21791432570019
 30
0.0
 11
-41.74654471130515
 21
-76.99626571901321
 31
0.0
  0
LINE
  5
CA
330
8B
100
AcDbEntity
  8
1
 62
     7
100
AcDbLine
 10
-39.15690095125898
 20
-75.10687799350718
 30
0.0
 11
-41.05279113720184
 21
-75.10687799350718
 31
0.0
  0
LINE
  5
CB
330
8B
100
AcDbEntity
  8
1
 62
     7
100
AcDbLine
 10
-38.44511053219971
 20
-76.9286689242552
 30
0.0
 11
-38.95682496358849
 21
-75.2549264364312
 31
0.0
  0
LINE
  5
CC
330
8B
100
AcDbEntity
  8
1
 62
     7
100
AcDbLine
 10
-38.93479645431069
 20
-77.19905610328719
 30
0.0
 11
-38.64518651987014
 21
-77.19905610328719
 31
0.0
  0
LINE
  5
CD
330
8B
100
AcDbEntity
  8
1
 62
     7
100
AcDbLine
 10
-39.03940535979979
 20
-77.72210063073218
 30
0.0
 11
-39.03940535979979
 21
-77.30366500877621
 31
0.0
  0
LINE
  5
CE
330
8B
100
AcDbEntity
  8
1
 62
     7
100
AcDbLine
 10
-35.90113819512965
 20
-77.72210063073218
 30
0.0
 11
-39.03940535979979
 21
-77.72210063073218
 31
0.0
  0
LINE
  5
CF
330
8B
100
AcDbEntity
  8
1
 62
     7
100
AcDbLine
 10
-35.90113819512965
 20
-77.30366500877621
 30
0.0
 11
-35.90113819512965
 21
-77.72210063073218
 31
0.0
  0
LINE
  5
D0
330
8B
100
AcDbEntity
  8
1
 62
     7
100
AcDbLine
 10
-36.36401552322639
 20
-77.19905610328719
 30
0.0
 11
-36.00574710061869
 21
-77.19905610328719
 31
0.0
  0
LINE
  5
D1
330
8B
100
AcDbEntity
  8
1
 62
     7
100
AcDbLine
 10
-38.60438954418918
 20
-70.50408615199119
 30
0.0
 11
-36.61411050781425
 21
-77.01399554963218
 31
0.0
  0
LINE
  5
D2
330
8B
100
AcDbEntity
  8
1
 62
     7
100
AcDbLine
 10
-40.30862957875274
 20
-70.50408615199119
 30
0.0
 11
-38.60438954418918
 21
-70.50408615199119
 31
0.0
  0
LINE
  5
D3
330
8B
100
AcDbEntity
  8
1
 62
     7
100
AcDbLine
 10
-42.29890861512759
 20
-77.01399554963218
 30
0.0
 11
-40.30862957875274
 21
-70.50408615199119
 31
0.0
  0
LINE
  5
D4
330
8B
100
AcDbEntity
  8
1
 62
     7
100
AcDbLine
 10
-42.80532595740368
 20
-77.19905610328719
 30
0.0
 11
-42.54900359971554
 21
-77.19905610328719
 31
0.0
  0
LINE
  5
D5
330
8B
100
AcDbEntity
  8
1
 62
     7
100
AcDbLine
 10
-42.90993486289266
 20
-77.72210063073218
 30
0.0
 11
-42.90993486289266
 21
-77.30366500877621
 31
0.0
  0
LINE
  5
D6
330
8B
100
AcDbEntity
  8
1
 62
     7
100
AcDbLine
 10
-41.23619237506877
 20
-77.72210063073218
 30
0.0
 11
-42.90993486289266
 21
-77.72210063073218
 31
0.0
  0
LINE
  5
D7
330
8B
100
AcDbEntity
  8
1
 62
     7
100
AcDbLine
 10
47.57917387922293
 20
-59.3701297649395
 30
0.0
 11
47.57917387922293
 21
-66.3701297649395
 31
0.0
  0
LINE
  5
D8
330
8B
100
AcDbEntity
  8
1
 62
     7
100
AcDbLine
 10
-12.42082612077718
 20
-59.3701297649395
 30
0.0
 11
-12.42082612077718
 21
-66.3701297649395
 31
0.0
  0
LINE
  5
D9
330
8B
100
AcDbEntity
  8
1
 62
     5
100
AcDbLine
 10
-12.42082612077718
 20
-59.3701297649395
 30
0.0
 11
47.57917387922293
 21
-59.3701297649395
 31
0.0
  0
LINE
  5
DA
330
8B
100
AcDbEntity
  8
1
 62
     5
100
AcDbLine
 10
-30.42082612077731
 20
-27.37012976493948
 30
0.0
 11
19.57917387922282
 21
-27.37012976493948
 31
0.0
  0
LINE
  5
DB
330
8B
100
AcDbEntity
  8
1
 62
     5
100
AcDbLine
 10
-30.42082612077731
 20
-27.37012976493948
 30
0.0
 11
-30.42082612077718
 21
-34.37012976493938
 31
0.0
  0
LINE
  5
DC
330
8B
100
AcDbEntity
  8
1
 62
     5
100
AcDbLine
 10
19.57917387922282
 20
-27.37012976493948
 30
0.0
 11
49.57917387922293
 21
-27.37012976493948
 31
0.0
  0
LINE
  5
DD
330
8B
100
AcDbEntity
  8
1
 62
     5
100
AcDbLine
 10
19.57917387922282
 20
-27.37012976493948
 30
0.0
 11
19.57917387922282
 21
-34.37012976493938
 31
0.0
  0
LINE
  5
DE
330
8B
100
AcDbEntity
  8
1
 62
     5
100
AcDbLine
 10
49.57917387922293
 20
-27.37012976493948
 30
0.0
 11
64.57917387922293
 21
-27.37012976493948
 31
0.0
  0
LINE
  5
DF
330
8B
100
AcDbEntity
  8
1
 62
     5
100
AcDbLine
 10
49.57917387922293
 20
-27.37012976493948
 30
0.0
 11
49.57917387922293
 21
-34.37012976493938
 31
0.0
  0
LINE
  5
E0
330
8B
100
AcDbEntity
  8
1
 62
     5
100
AcDbLine
 10
64.57917387922293
 20
-27.37012976493948
 30
0.0
 11
104.5791738792228
 21
-27.37012976493948
 31
0.0
  0
LINE
  5
E1
330
8B
100
AcDbEntity
  8
1
 62
     5
100
AcDbLine
 10
64.57917387922293
 20
-27.37012976493948
 30
0.0
 11
64.57917387922293
 21
-34.37012976493938
 31
0.0
  0
LINE
  5
E2
330
8B
100
AcDbEntity
  8
1
 62
     5
100
AcDbLine
 10
104.5791738792228
 20
-27.37012976493948
 30
0.0
 11
134.579173879223
 21
-27.37012976493948
 31
0.0
  0
LINE
  5
E3
330
8B
100
AcDbEntity
  8
1
 62
     5
100
AcDbLine
 10
104.5791738792228
 20
-27.37012976493948
 30
0.0
 11
104.5791738792228
 21
-34.37012976493938
 31
0.0
  0
LINE
  5
E4
330
8B
100
AcDbEntity
  8
1
 62
     5
100
AcDbLine
 10
134.579173879223
 20
-27.37012976493948
 30
0.0
 11
134.579173879223
 21
-34.37012976493938
 31
0.0
  0
LINE
  5
E5
330
8B
100
AcDbEntity
  8
1
 62
     5
100
AcDbLine
 10
-45.42082612077718
 20
-27.37012976493948
 30
0.0
 11
-30.42082612077731
 21
-27.37012976493948
 31
0.0
  0
LINE
  5
E6
330
8B
100
AcDbEntity
  8
1
 62
     5
100
AcDbLine
 10
-45.42082612077718
 20
-34.37012976493938
 30
0.0
 11
-45.42082612077718
 21
-27.37012976493948
 31
0.0
  0
LINE
  5
E7
330
8B
100
AcDbEntity
  8
1
 62
     7
100
AcDbLine
 10
-30.42082612077718
 20
-41.3701297649395
 30
0.0
 11
-12.42082612077718
 21
-41.3701297649395
 31
0.0
  0
LINE
  5
E8
330
8B
100
AcDbEntity
  8
1
 62
     7
100
AcDbLine
 10
-30.42082612077718
 20
-34.37012976493938
 30
0.0
 11
-45.42082612077718
 21
-34.37012976493938
 31
0.0
  0
LINE
  5
E9
330
8B
100
AcDbEntity
  8
1
 62
     7
100
AcDbLine
 10
-30.42082612077718
 20
-34.37012976493938
 30
0.0
 11
-30.42082612077718
 21
-41.3701297649395
 31
0.0
  0
LINE
  5
EA
330
8B
100
AcDbEntity
  8
1
 62
     7
100
AcDbLine
 10
19.57917387922282
 20
-41.3701297649395
 30
0.0
 11
27.57917387922294
 21
-41.3701297649395
 31
0.0
  0
LINE
  5
EB
330
8B
100
AcDbEntity
  8
1
 62
     7
100
AcDbLine
 10
19.57917387922282
 20
-34.37012976493938
 30
0.0
 11
-30.42082612077718
 21
-34.37012976493938
 31
0.0
  0
LINE
  5
EC
330
8B
100
AcDbEntity
  8
1
 62
     7
100
AcDbLine
 10
19.57917387922282
 20
-34.37012976493938
 30
0.0
 11
19.57917387922282
 21
-41.3701297649395
 31
0.0
  0
LINE
  5
ED
330
8B
100
AcDbEntity
  8
1
 62
     7
100
AcDbLine
 10
49.57917387922293
 20
-41.3701297649395
 30
0.0
 11
54.57917387922293
 21
-41.3701297649395
 31
0.0
  0
LINE
  5
EE
330
8B
100
AcDbEntity
  8
1
 62
     7
100
AcDbLine
 10
49.57917387922293
 20
-34.37012976493938
 30
0.0
 11
19.57917387922282
 21
-34.37012976493938
 31
0.0
  0
LINE
  5
EF
330
8B
100
AcDbEntity
  8
1
 62
     7
100
AcDbLine
 10
49.57917387922293
 20
-34.37012976493938
 30
0.0
 11
49.57917387922293
 21
-41.3701297649395
 31
0.0
  0
LINE
  5
F0
330
8B
100
AcDbEntity
  8
1
 62
     7
100
AcDbLine
 10
64.57917387922293
 20
-41.3701297649395
 30
0.0
 11
104.5791738792228
 21
-41.3701297649395
 31
0.0
  0
LINE
  5
F1
330
8B
100
AcDbEntity
  8
1
 62
     7
100
AcDbLine
 10
64.57917387922293
 20
-34.37012976493938
 30
0.0
 11
49.57917387922293
 21
-34.37012976493938
 31
0.0
  0
LINE
  5
F2
330
8B
100
AcDbEntity
  8
1
 62
     7
100
AcDbLine
 10
64.57917387922293
 20
-34.37012976493938
 30
0.0
 11
64.57917387922293
 21
-41.3701297649395
 31
0.0
  0
LINE
  5
F3
330
8B
100
AcDbEntity
  8
1
 62
     7
100
AcDbLine
 10
104.5791738792228
 20
-41.3701297649395
 30
0.0
 11
134.579173879223
 21
-41.3701297649395
 31
0.0
  0
LINE
  5
F4
330
8B
100
AcDbEntity
  8
1
 62
     7
100
AcDbLine
 10
104.5791738792228
 20
-34.37012976493938
 30
0.0
 11
64.57917387922293
 21
-34.37012976493938
 31
0.0
  0
LINE
  5
F5
330
8B
100
AcDbEntity
  8
1
 62
     7
100
AcDbLine
 10
104.5791738792228
 20
-34.37012976493938
 30
0.0
 11
104.5791738792228
 21
-41.3701297649395
 31
0.0
  0
LINE
  5
F6
330
8B
100
AcDbEntity
  8
1
 62
     7
100
AcDbLine
 10
-12.42082612077718
 20
-51.3701297649395
 30
0.0
 11
-12.42082612077718
 21
-59.3701297649395
 31
0.0
  0
LINE
  5
F7
330
8B
100
AcDbEntity
  8
1
 62
     7
100
AcDbLine
 10
-45.42082612077718
 20
-51.3701297649395
 30
0.0
 11
-45.42082612077718
 21
-66.3701297649395
 31
0.0
  0
LINE
  5
F8
330
8B
100
AcDbEntity
  8
1
 62
     7
100
AcDbLine
 10
-45.42082612077718
 20
-51.3701297649395
 30
0.0
 11
-12.42082612077718
 21
-51.3701297649395
 31
0.0
  0
LINE
  5
F9
330
8B
100
AcDbEntity
  8
1
 62
     7
100
AcDbLine
 10
27.57917387922294
 20
-66.3701297649395
 30
0.0
 11
47.57917387922293
 21
-66.3701297649395
 31
0.0
  0
LINE
  5
FA
330
8B
100
AcDbEntity
  8
1
 62
     7
100
AcDbLine
 10
27.57917387922294
 20
-41.3701297649395
 30
0.0
 11
47.57917387922293
 21
-41.3701297649395
 31
0.0
  0
LINE
  5
FB
330
8B
100
AcDbEntity
  8
1
 62
     7
100
AcDbLine
 10
27.57917387922294
 20
-41.3701297649395
 30
0.0
 11
27.57917387922294
 21
-66.3701297649395
 31
0.0
  0
LINE
  5
FC
330
8B
100
AcDbEntity
  8
1
 62
     7
100
AcDbLine
 10
7.579173879222822
 20
-66.3701297649395
 30
0.0
 11
27.57917387922294
 21
-66.3701297649395
 31
0.0
  0
LINE
  5
FD
330
8B
100
AcDbEntity
  8
1
 62
     7
100
AcDbLine
 10
7.579173879222822
 20
-41.3701297649395
 30
0.0
 11
19.57917387922282
 21
-41.3701297649395
 31
0.0
  0
LINE
  5
FE
330
8B
100
AcDbEntity
  8
1
 62
     7
100
AcDbLine
 10
7.579173879222822
 20
-41.3701297649395
 30
0.0
 11
7.579173879222822
 21
-66.3701297649395
 31
0.0
  0
LINE
  5
FF
330
8B
100
AcDbEntity
  8
1
 62
     7
100
AcDbLine
 10
47.57917387922293
 20
-48.37012976493951
 30
0.0
 11
47.57917387922293
 21
-56.3701297649395
 31
0.0
  0
LINE
  5
100
330
8B
100
AcDbEntity
  8
1
 62
     7
100
AcDbLine
 10
-12.42082612077718
 20
-48.37012976493951
 30
0.0
 11
-12.42082612077718
 21
-51.3701297649395
 31
0.0
  0
LINE
  5
101
330
8B
100
AcDbEntity
  8
1
 62
     7
100
AcDbLine
 10
-12.42082612077718
 20
-48.37012976493951
 30
0.0
 11
47.57917387922293
 21
-48.37012976493951
 31
0.0
  0
LINE
  5
102
330
8B
100
AcDbEntity
  8
1
 62
     7
100
AcDbLine
 10
47.57917387922293
 20
-66.3701297649395
 30
0.0
 11
47.57917387922293
 21
-71.37012976493952
 31
0.0
  0
LINE
  5
103
330
8B
100
AcDbEntity
  8
1
 62
     7
100
AcDbLine
 10
-45.42082612077718
 20
-66.3701297649395
 30
0.0
 11
-45.42082612077718
 21
-86.37012976493952
 31
0.0
  0
LINE
  5
104
330
8B
100
AcDbEntity
  8
1
 62
     7
100
AcDbLine
 10
-45.42082612077718
 20
-66.3701297649395
 30
0.0
 11
7.579173879222822
 21
-66.3701297649395
 31
0.0
  0
LINE
  5
105
330
8B
100
AcDbEntity
  8
1
 62
     7
100
AcDbLine
 10
-12.42082612077718
 20
-41.3701297649395
 30
0.0
 11
7.579173879222822
 21
-41.3701297649395
 31
0.0
  0
LINE
  5
106
330
8B
100
AcDbEntity
  8
1
 62
     7
100
AcDbLine
 10
-12.42082612077718
 20
-41.3701297649395
 30
0.0
 11
-12.42082612077718
 21
-48.37012976493951
 31
0.0
  0
LINE
  5
107
330
8B
100
AcDbEntity
  8
1
 62
     7
100
AcDbLine
 10
134.579173879223
 20
-71.37012976493952
 30
0.0
 11
134.579173879223
 21
-56.3701297649395
 31
0.0
  0
LINE
  5
108
330
8B
100
AcDbEntity
  8
1
 62
     7
100
AcDbLine
 10
47.57917387922293
 20
-71.37012976493952
 30
0.0
 11
47.57917387922293
 21
-86.37012976493952
 31
0.0
  0
LINE
  5
109
330
8B
100
AcDbEntity
  8
1
 62
     7
100
AcDbLine
 10
47.57917387922293
 20
-71.37012976493952
 30
0.0
 11
134.579173879223
 21
-71.37012976493952
 31
0.0
  0
LINE
  5
10A
330
8B
100
AcDbEntity
  8
1
 62
     7
100
AcDbLine
 10
134.579173879223
 20
-56.3701297649395
 30
0.0
 11
134.579173879223
 21
-41.3701297649395
 31
0.0
  0
LINE
  5
10B
330
8B
100
AcDbEntity
  8
1
 62
     7
100
AcDbLine
 10
47.57917387922293
 20
-56.3701297649395
 30
0.0
 11
47.57917387922293
 21
-59.3701297649395
 31
0.0
  0
LINE
  5
10C
330
8B
100
AcDbEntity
  8
1
 62
     7
100
AcDbLine
 10
47.57917387922293
 20
-56.3701297649395
 30
0.0
 11
134.579173879223
 21
-56.3701297649395
 31
0.0
  0
LINE
  5
10D
330
8B
100
AcDbEntity
  8
1
 62
     7
100
AcDbLine
 10
54.57917387922293
 20
-86.37012976493952
 30
0.0
 11
134.579173879223
 21
-86.37012976493952
 31
0.0
  0
LINE
  5
10E
330
8B
100
AcDbEntity
  8
1
 62
     7
100
AcDbLine
 10
54.57917387922293
 20
-41.3701297649395
 30
0.0
 11
64.57917387922293
 21
-41.3701297649395
 31
0.0
  0
LINE
  5
10F
330
8B
100
AcDbEntity
  8
1
 62
     7
100
AcDbLine
 10
54.57917387922293
 20
-41.3701297649395
 30
0.0
 11
54.57917387922293
 21
-86.37012976493952
 31
0.0
  0
LINE
  5
110
330
8B
100
AcDbEntity
  8
1
 62
     7
100
AcDbLine
 10
47.57917387922293
 20
-86.37012976493952
 30
0.0
 11
54.57917387922293
 21
-86.37012976493952
 31
0.0
  0
LINE
  5
111
330
8B
100
AcDbEntity
  8
1
 62
     7
100
AcDbLine
 10
47.57917387922293
 20
-41.3701297649395
 30
0.0
 11
49.57917387922293
 21
-41.3701297649395
 31
0.0
  0
LINE
  5
112
330
8B
100
AcDbEntity
  8
1
 62
     7
100
AcDbLine
 10
47.57917387922293
 20
-41.3701297649395
 30
0.0
 11
47.57917387922293
 21
-48.37012976493951
 31
0.0
  0
LINE
  5
113
330
8B
100
AcDbEntity
  8
1
 62
     7
100
AcDbLine
 10
134.579173879223
 20
-41.3701297649395
 30
0.0
 11
134.579173879223
 21
-34.37012976493938
 31
0.0
  0
LINE
  5
114
330
8B
100
AcDbEntity
  8
1
 62
     7
100
AcDbLine
 10
-45.42082612077718
 20
-41.3701297649395
 30
0.0
 11
-45.42082612077718
 21
-51.3701297649395
 31
0.0
  0
LINE
  5
115
330
8B
100
AcDbEntity
  8
1
 62
     7
100
AcDbLine
 10
-45.42082612077718
 20
-41.3701297649395
 30
0.0
 11
-30.42082612077718
 21
-41.3701297649395
 31
0.0
  0
LINE
  5
116
330
8B
100
AcDbEntity
  8
1
 62
     7
100
AcDbLine
 10
-45.42082612077718
 20
-34.37012976493938
 30
0.0
 11
-45.42082612077718
 21
-41.3701297649395
 31
0.0
  0
LINE
  5
117
330
8B
100
AcDbEntity
  8
1
 62
     7
100
AcDbLine
 10
134.579173879223
 20
-34.37012976493938
 30
0.0
 11
104.5791738792228
 21
-34.37012976493938
 31
0.0
  0
LINE
  5
118
330
8B
100
AcDbEntity
  8
1
 62
     7
100
AcDbLine
 10
134.579173879223
 20
-86.37012976493952
 30
0.0
 11
134.579173879223
 21
-71.37012976493952
 31
0.0
  0
LINE
  5
119
330
8B
100
AcDbEntity
  8
1
 62
     7
100
AcDbLine
 10
-45.42082612077718
 20
-86.37012976493952
 30
0.0
 11
47.57917387922293
 21
-86.37012976493952
 31
0.0
  0
ARC
  5
11A
330
8B
100
AcDbEntity
  8
1
 62
     7
100
AcDbCircle
 10
-28.17231940980388
 20
-75.85138055279038
 30
0.0
 40
0.8368712439120001
100
AcDbArc
 50
135.0000000000012
 51
315.0000000000014
  0
ARC
  5
11B
330
8B
100
AcDbEntity
  8
1
 62
     7
100
AcDbCircle
 10
-24.69574508694649
 20
-72.37480622993299
 30
0.0
 40
0.8368712439119649
100
AcDbArc
 50
314.999999999996
 51
135.0000000000007
  0
ARC
  5
11C
330
8B
100
AcDbEntity
  8
1
 62
     7
100
AcDbCircle
 10
-36.11035600610782
 20
-72.12552418707071
 30
0.0
 40
0.2615222637223517
100
AcDbArc
 50
178.1475627146654
 51
342.5271147297037
  0
ARC
  5
11D
330
8B
100
AcDbEntity
  8
1
 62
     7
100
AcDbCircle
 10
-30.77530182616874
 20
-72.12552418707071
 30
0.0
 40
0.2615222637222665
100
AcDbArc
 50
197.4728852703181
 51
1.85243728531354
  0
CIRCLE
  5
11E
330
8B
100
AcDbEntity
  8
1
 62
     5
100
AcDbCircle
 10
-37.34537965946011
 20
-58.8701297649395
 30
0.0
 40
4.0
  0
CIRCLE
  5
11F
330
8B
100
AcDbEntity
  8
1
 62
     5
100
AcDbCircle
 10
-37.34537965946011
 20
-58.8701297649395
 30
0.0
 40
2.0
  0
CIRCLE
  5
120
330
8B
100
AcDbEntity
  8
1
 62
     7
100
AcDbCircle
 10
-26.43403224837505
 20
-74.11309339136169
 30
0.0
 40
3.81822505034836
  0
ARC
  5
121
330
8B
100
AcDbEntity
  8
1
 62
     7
100
AcDbCircle
 10
-14.35170366439559
 20
-76.93753383956468
 30
0.0
 40
0.2615222637224903
100
AcDbArc
 50
180.0
 51
270.0
  0
ARC
  5
122
330
8B
100
AcDbEntity
  8
1
 62
     7
100
AcDbCircle
 10
-16.65309958515356
 20
-76.93753383956468
 30
0.0
 40
0.2615222637224974
100
AcDbArc
 50
270.0
 51
0.0
  0
ARC
  5
123
330
8B
100
AcDbEntity
  8
1
 62
     7
100
AcDbCircle
 10
-14.35170366439559
 20
-71.28865294315871
 30
0.0
 40
0.2615222637225259
100
AcDbArc
 50
90.0
 51
180.0
  0
ARC
  5
124
330
8B
100
AcDbEntity
  8
1
 62
     7
100
AcDbCircle
 10
-16.5484906796648
 20
-71.17921293120871
 30
0.0
 40
0.1569133582337585
100
AcDbArc
 50
0.0
 51
164.9999999999847
  0
ARC
  5
125
330
8B
100
AcDbEntity
  8
1
 62
     7
100
AcDbCircle
 10
-18.06531980925519
 20
-73.60667411814789
 30
0.0
 40
0.1569133582334979
100
AcDbArc
 50
194.9999999999917
 51
345.0000000000196
  0
ARC
  5
126
330
8B
100
AcDbEntity
  8
1
 62
     7
100
AcDbCircle
 10
-20.88976025745821
 20
-71.1492743402343
 30
0.0
 40
0.1569133582336063
100
AcDbArc
 50
15.00000000002414
 51
180.0
  0
ARC
  5
127
330
8B
100
AcDbEntity
  8
1
 62
     7
100
AcDbCircle
 10
-20.88976025745821
 20
-77.04214274505369
 30
0.0
 40
0.1569133582333784
100
AcDbArc
 50
180.0
 51
270.0
  0
ARC
  5
128
330
8B
100
AcDbEntity
  8
1
 62
     7
100
AcDbCircle
 10
-21.72663150137004
 20
-77.04214274505369
 30
0.0
 40
0.1569133582334814
100
AcDbArc
 50
270.0
 51
0.0
  0
ARC
  5
129
330
8B
100
AcDbEntity
  8
1
 62
     7
100
AcDbCircle
 10
-21.72663150137004
 20
-71.1840440376697
 30
0.0
 40
0.1569133582333997
100
AcDbArc
 50
0.0
 51
90.0
  0
ARC
  5
12A
330
8B
100
AcDbEntity
  8
1
 62
     7
100
AcDbCircle
 10
-20.73284689922468
 20
-77.30366500877621
 30
0.0
 40
0.1046089054890373
100
AcDbArc
 50
0.0
 51
90.0
  0
ARC
  5
12B
330
8B
100
AcDbEntity
  8
1
 62
     7
100
AcDbCircle
 10
-21.98815376509265
 20
-77.30366500877621
 30
0.0
 40
0.104608905489016
100
AcDbArc
 50
90.0
 51
180.0
  0
ARC
  5
12C
330
8B
100
AcDbEntity
  8
1
 62
     7
100
AcDbCircle
 10
-16.86231739613169
 20
-77.30366500877621
 30
0.0
 40
0.104608905489016
100
AcDbArc
 50
90.0
 51
180.0
  0
ARC
  5
12D
330
8B
100
AcDbEntity
  8
1
 62
     7
100
AcDbCircle
 10
-14.14248585341757
 20
-77.30366500877621
 30
0.0
 40
0.1046089054888295
100
AcDbArc
 50
0.0
 51
90.0
  0
ARC
  5
12E
330
8B
100
AcDbEntity
  8
1
 62
     7
100
AcDbCircle
 10
-14.14248585341757
 20
-70.92252177394719
 30
0.0
 40
0.1046089054889876
100
AcDbArc
 50
270.0
 51
0.0
  0
ARC
  5
12F
330
8B
100
AcDbEntity
  8
1
 62
     7
100
AcDbCircle
 10
-21.98815376509265
 20
-70.92252177394719
 30
0.0
 40
0.1046089054890587
100
AcDbArc
 50
180.0
 51
270.0
  0
ARC
  5
130
330
8B
100
AcDbEntity
  8
1
 62
     7
100
AcDbCircle
 10
-34.90735359298418
 20
-77.30366500877621
 30
0.0
 40
0.104608905489016
100
AcDbArc
 50
90.0
 51
180.0
  0
ARC
  5
131
330
8B
100
AcDbEntity
  8
1
 62
     7
100
AcDbCircle
 10
-31.97830423929209
 20
-77.30366500877621
 30
0.0
 40
0.1046089054890089
100
AcDbArc
 50
0.0
 51
90.0
  0
ARC
  5
132
330
8B
100
AcDbEntity
  8
1
 62
     7
100
AcDbCircle
 10
-32.18752205027029
 20
-76.93753383956468
 30
0.0
 40
0.2615222637225045
100
AcDbArc
 50
180.0
 51
270.0
  0
ARC
  5
133
330
8B
100
AcDbEntity
  8
1
 62
     7
100
AcDbCircle
 10
-34.69813578200615
 20
-76.93753383956468
 30
0.0
 40
0.2615222637224974
100
AcDbArc
 50
270.0
 51
0.0
  0
ARC
  5
134
330
8B
100
AcDbEntity
  8
1
 62
     7
100
AcDbCircle
 10
-34.95324899888198
 20
-71.7593930178592
 30
0.0
 40
0.7322623384229985
100
AcDbArc
 50
90.0
 51
162.5271147296978
  0
ARC
  5
135
330
8B
100
AcDbEntity
  8
1
 62
     7
100
AcDbCircle
 10
-31.93240883339445
 20
-71.7593930178592
 30
0.0
 40
0.7322623384231206
100
AcDbArc
 50
17.47288527029636
 51
90.0
  0
ARC
  5
136
330
8B
100
AcDbEntity
  8
1
 62
     7
100
AcDbCircle
 10
-32.08291314478106
 20
-71.3932618486477
 30
0.0
 40
0.3661311692115135
100
AcDbArc
 50
90.0
 51
180.0
  0
ARC
  5
137
330
8B
100
AcDbEntity
  8
1
 62
     7
100
AcDbCircle
 10
-34.80274468749521
 20
-71.3932618486477
 30
0.0
 40
0.3661311692115703
100
AcDbArc
 50
0.0
 51
90.0
  0
ARC
  5
138
330
8B
100
AcDbEntity
  8
1
 62
     7
100
AcDbCircle
 10
-36.00574710061869
 20
-77.30366500877621
 30
0.0
 40
0.1046089054890302
100
AcDbArc
 50
0.0
 51
90.0
  0
ARC
  5
139
330
8B
100
AcDbEntity
  8
1
 62
     7
100
AcDbCircle
 10
-38.93479645431069
 20
-77.30366500877621
 30
0.0
 40
0.104608905489016
100
AcDbArc
 50
90.0
 51
180.0
  0
ARC
  5
13A
330
8B
100
AcDbEntity
  8
1
 62
     7
100
AcDbCircle
 10
-41.34080128055769
 20
-77.30366500877621
 30
0.0
 40
0.1046089054889237
100
AcDbArc
 50
0.0
 51
90.0
  0
ARC
  5
13B
330
8B
100
AcDbEntity
  8
1
 62
     7
100
AcDbCircle
 10
-42.80532595740368
 20
-77.30366500877621
 30
0.0
 40
0.104608905489016
100
AcDbArc
 50
90.0
 51
180.0
  0
ARC
  5
13C
330
8B
100
AcDbEntity
  8
1
 62
     7
100
AcDbCircle
 10
-36.36401552322639
 20
-76.93753383956468
 30
0.0
 40
0.2615222637223214
100
AcDbArc
 50
197.0000000000107
 51
270.0
  0
ARC
  5
13D
330
8B
100
AcDbEntity
  8
1
 62
     7
100
AcDbCircle
 10
-42.54900359971554
 20
-76.93753383956468
 30
0.0
 40
0.2615222637224974
100
AcDbArc
 50
270.0
 51
342.9999999999956
  0
ARC
  5
13E
330
8B
100
AcDbEntity
  8
1
 62
     7
100
AcDbCircle
 10
-38.64518651987014
 20
-76.98983829230918
 30
0.0
 40
0.2092178109780036
100
AcDbArc
 50
270.0
 51
16.99999999999696
  0
ARC
  5
13F
330
8B
100
AcDbEntity
  8
1
 62
     7
100
AcDbCircle
 10
-39.15690095125898
 20
-75.31609580448519
 30
0.0
 40
0.2092178109780509
100
AcDbArc
 50
16.99999999999127
 51
90.0
  0
ARC
  5
140
330
8B
100
AcDbEntity
  8
1
 62
     7
100
AcDbCircle
 10
-41.59648772055249
 20
-77.04214274505369
 30
0.0
 40
0.1569133582333402
100
AcDbArc
 50
162.9999999999812
 51
270.0
  0
ARC
  5
141
330
8B
100
AcDbEntity
  8
1
 62
     7
100
AcDbCircle
 10
-41.05279113720184
 20
-75.26379135174067
 30
0.0
 40
0.1569133582335098
100
AcDbArc
 50
90.0
 51
163.0000000000176
  0
ARC
  5
142
330
8B
100
AcDbEntity
  8
1
 62
     7
100
AcDbCircle
 10
-39.37405490787167
 20
-74.4269201078287
 30
0.0
 40
0.1569133582334814
100
AcDbArc
 50
270.0
 51
17.00000000000514
  0
ARC
  5
143
330
8B
100
AcDbEntity
  8
1
 62
     7
100
AcDbCircle
 10
-40.79693392150768
 20
-74.4269201078287
 30
0.0
 40
0.1569133582333741
100
AcDbArc
 50
162.999999999985
 51
270.0
  0
ARC
  5
144
330
8B
100
AcDbEntity
  8
1
 62
     7
100
AcDbCircle
 10
-40.08549441468954
 20
-72.09990633406021
 30
0.0
 40
0.1569133582334353
100
AcDbArc
 50
17.00000000000818
 51
163.0000000000138
  0
TEXT
  5
145
330
8B
100
AcDbEntity
  8
1
 62
     4
100
AcDbText
 10
0.2278836765769145
 20
-77.45693724217701
 30
0.0
 40
2.0
  1
110
 41
0.9
 72
     1
 11
1.877883676576914
 21
-76.45693724217702
 31
0.0
100
AcDbText
 73
     2
  0
TEXT
  5
146
330
8B
100
AcDbEntity
  8
1
 62
     4
100
AcDbText
 10
-1.185728773028571
 20
-82.56113002298759
 30
0.0
 40
2.0
  1
TEL
 41
0.7200000000000001
  7
COMPLEX
 72
     1
 11
0.6999855126857142
 21
-81.56113002298759
 31
0.0
100
AcDbText
 73
     2
  0
TEXT
  5
147
330
8B
100
AcDbEntity
  8
1
 62
     4
100
AcDbText
 10
-2.833537307789093
 20
-77.7693943276342
 30
0.0
 40
2.5
  1
〒
 41
0.9
 72
     1
 11
-2.271037307789093
 21
-76.5193943276342
 31
0.0
100
AcDbText
 73
     2
  0
TEXT
  5
148
330
8B
100
AcDbEntity
  8
1
 62
     4
100
AcDbText
 10
5.265378566106738
 20
-82.58106803386779
 30
0.0
 40
2.0
  1
03 (3876) 0600
 41
0.9
 72
     1
 11
16.36537856610674
 21
-81.58106803386779
 31
0.0
100
AcDbText
 73
     2
  0
TEXT
  5
149
330
8B
100
AcDbEntity
  8
1
 62
     4
100
AcDbText
 10
30.69107680706253
 20
-77.4038229173732
 30
0.0
 40
2.0
  1
1-27-4
 41
0.9
 72
     1
 11
35.49107680706253
 21
-76.40382291737321
 31
0.0
100
AcDbText
 73
     2
  0
TEXT
  5
14A
330
8B
100
AcDbEntity
  8
1
 62
     4
100
AcDbText
 10
12.09003048885366
 20
-77.67224062780839
 30
0.0
 40
2.5
  1
東京都台東区入谷
 41
0.9
 72
     1
 11
19.21503048885366
 21
-76.42224062780839
 31
0.0
100
AcDbText
 73
     2
  0
TEXT
  5
14B
330
8B
100
AcDbEntity
  8
1
 62
     4
100
AcDbText
 10
-2.731113993184155
 20
-73.1933341477293
 30
0.0
 40
3.0
  1
本社
 41
0.9
 72
     1
 11
-0.9311139931841552
 21
-71.6933341477293
 31
0.0
100
AcDbText
 73
     2
  0
TEXT
  5
14C
330
8B
100
AcDbEntity
  8
1
 62
     4
100
AcDbText
 10
-39.89591129118699
 20
-83.96375947540629
 30
0.0
 40
4.0
  1
高橋金物株式会社
 41
0.9
 72
     1
 11
-28.49591129118699
 21
-81.96375947540628
 31
0.0
100
AcDbText
 73
     2
  0
TEXT
  5
14D
330
8B
100
AcDbEntity
  8
1
 62
     4
100
AcDbText
 10
-43.63375462224597
 20
-45.87698578844578
 30
0.0
 40
4.0
  1
尺度
 41
0.9
 72
     1
 11
-41.23375462224597
 21
-43.87698578844577
 31
0.0
100
AcDbText
 73
     2
  0
TEXT
  5
14E
330
8B
100
AcDbEntity
  8
1
 62
     4
100
AcDbText
 10
31.57917387922292
 20
-46.8701297649395
 30
0.0
 40
4.0
  1
担  当
 41
0.9
 72
     1
 11
37.57917387922292
 21
-44.8701297649395
 31
0.0
100
AcDbText
 73
     2
  0
TEXT
  5
14F
330
8B
100
AcDbEntity
  8
1
 62
     4
100
AcDbText
 10
11.57917387922281
 20
-46.8701297649395
 30
0.0
 40
4.0
  1
検  図
 41
0.9
 72
     1
 11
17.57917387922281
 21
-44.8701297649395
 31
0.0
100
AcDbText
 73
     2
  0
TEXT
  5
150
330
8B
100
AcDbEntity
  8
1
 62
     4
100
AcDbText
 10
-12.02082612077718
 20
-46.8701297649395
 30
0.0
 40
4.0
  1
?%d  認
 41
0.9
 72
     1
 11
-2.420826120777177
 21
-44.8701297649395
 31
0.0
100
AcDbText
 73
     2
  0
TEXT
  5
151
330
8B
100
AcDbEntity
  8
1
 62
     4
100
AcDbText
 10
111.7791738792229
 20
-39.8701297649395
 30
0.0
 40
4.0
  1
記   事
 41
0.9
 72
     1
 11
119.5791738792229
 21
-37.87012976493951
 31
0.0
100
AcDbText
 73
     2
  0
TEXT
  5
152
330
8B
100
AcDbEntity
  8
1
 62
     4
100
AcDbText
 10
69.87917387922289
 20
-39.8701297649395
 30
0.0
 40
4.0
  1
仕   上   げ
 41
0.9
 72
     1
 11
84.57917387922289
 21
-37.87012976493951
 31
0.0
100
AcDbText
 73
     2
  0
TEXT
  5
153
330
8B
100
AcDbEntity
  8
1
 62
     4
100
AcDbText
 10
52.87917387922291
 20
-39.8701297649395
 30
0.0
 40
4.0
  1
数 量
 41
0.9
 72
     1
 11
57.07917387922292
 21
-37.87012976493951
 31
0.0
100
AcDbText
 73
     2
  0
TEXT
  5
154
330
8B
100
AcDbEntity
  8
1
 62
     4
100
AcDbText
 10
26.77917387922292
 20
-39.87012976493939
 30
0.0
 40
4.0
  1
坑   質
 41
0.9
 72
     1
 11
34.57917387922292
 21
-37.87012976493939
 31
0.0
100
AcDbText
 73
     2
  0
TEXT
  5
155
330
8B
100
AcDbEntity
  8
1
 62
     4
100
AcDbText
 10
-22.22082612077718
 20
-39.87012976493939
 30
0.0
 40
4.0
  1
品        名
 41
0.9
 72
     1
 11
-5.420826120777177
 21
-37.87012976493939
 31
0.0
100
AcDbText
 73
     2
  0
TEXT
  5
156
330
8B
100
AcDbEntity
  8
1
 62
     4
100
AcDbText
 10
-42.12082612077717
 20
-39.87012976493939
 30
0.0
 40
4.0
  1
品 番
 41
0.9
 72
     1
 11
-37.92082612077718
 21
-37.87012976493939
 31
0.0
100
AcDbText
 73
     2
  0
TEXT
  5
157
330
8B
100
AcDbEntity
  8
1
 62
     4
100
AcDbText
 10
47.47917387922291
 20
-76.87012976493952
 30
0.0
 40
4.0
  1
図
 41
0.9
100
AcDbText
  0
TEXT
  5
158
330
8B
100
AcDbEntity
  8
1
 62
     4
100
AcDbText
 10
47.47917387922291
 20
-84.87012976493952
 30
0.0
 40
4.0
  1
番
 41
0.9
100
AcDbText
  0
TEXT
  5
159
330
8B
100
AcDbEntity
  8
1
 62
     4
100
AcDbText
 10
47.47917387922291
 20
-61.8701297649395
 30
0.0
 40
4.0
  1
図
 41
0.9
100
AcDbText
  0
TEXT
  5
15A
330
8B
100
AcDbEntity
  8
1
 62
     4
100
AcDbText
 10
47.47917387922291
 20
-69.87012976493954
 30
0.0
 40
4.0
  1
名
 41
0.9
100
AcDbText
  0
TEXT
  5
15B
330
8B
100
AcDbEntity
  8
1
 62
     4
100
AcDbText
 10
47.47917387922291
 20
-46.8701297649395
 30
0.0
 40
4.0
  1
品
 41
0.9
100
AcDbText
  0
TEXT
  5
15C
330
8B
100
AcDbEntity
  8
1
 62
     4
100
AcDbText
 10
47.47917387922291
 20
-54.8701297649395
 30
0.0
 40
4.0
  1
名
 41
0.9
100
AcDbText
  0
ENDBLK
  5
15D
330
8B
100
AcDbEntity
  8
0
100
AcDbBlockEnd
  0
BLOCK
  5
15F
330
15E
100
AcDbEntity
  8
0
100
AcDbBlockBegin
  2
FORMAT_A3
 70
     0
 10
-57.21084426624829
 20
-82.30590204817771
 30
0.0
  3
FORMAT_A3
  1

  0
LINE
  5
160
330
15E
100
AcDbEntity
  8
1
 62
     7
100
AcDbLine
 10
137.789155733752
 20
-82.30590204817691
 30
0.0
 11
-57.21084426624829
 21
-82.30590204817509
 31
0.0
  0
LINE
  5
161
330
15E
100
AcDbEntity
  8
1
 62
     7
100
AcDbLine
 10
317.7891557337523
 20
-30.30590204817727
 30
0.0
 11
317.7891557337525
 21
187.6940979518219
 31
0.0
  0
LINE
  5
162
330
15E
100
AcDbEntity
  8
1
 62
     7
100
AcDbLine
 10
317.7891557337525
 20
187.6940979518219
 30
0.0
 11
-57.2108442662479
 21
187.6940979518227
 31
0.0
  0
LINE
  5
163
330
15E
100
AcDbEntity
  8
1
 62
     7
100
AcDbLine
 10
-57.2108442662479
 20
187.6940979518227
 30
0.0
 11
-57.21084426624829
 21
-82.30590204817509
 31
0.0
  0
INSERT
  5
164
330
15E
100
AcDbEntity
  8
0
100
AcDbBlockReference
  2
______
 10
309.2091194428103
 20
-74.17744661465331
 30
0.0
  0
ENDBLK
  5
165
330
15E
100
AcDbEntity
  8
0
100
AcDbBlockEnd
  0
BLOCK
  5
167
330
166
100
AcDbEntity
  8
0
100
AcDbBlockBegin
  2
TOP__2
 70
     0
 10
56.78915573375196
 20
-68.8059020481775
 30
0.0
  3
TOP__2
  1

  0
TEXT
  5
168
330
166
100
AcDbEntity
  8
1
 62
     4
100
AcDbText
 10
63.50351148519393
 20
-67.26465103549324
 30
0.0
 40
7.0
  1
中島
 41
0.6300000000000001
 72
     1
 11
66.44351148519392
 21
-63.76465103549325
 31
0.0
100
AcDbText
 73
     2
  0
ENDBLK
  5
169
330
166
100
AcDbEntity
  8
0
100
AcDbBlockEnd
  0
BLOCK
  5
16B
330
16A
100
AcDbEntity
  8
0
100
AcDbBlockBegin
  2
TOP__3
 70
     0
 10
36.78915573375197
 20
-68.8059020481775
 30
0.0
  3
TOP__3
  1

  0
TEXT
  5
16C
330
16A
100
AcDbEntity
  8
1
 62
     4
100
AcDbText
 10
43.50351148519393
 20
-67.26465103549324
 30
0.0
 40
7.0
  1
逢坂
 41
0.6300000000000001
 72
     1
 11
46.44351148519392
 21
-63.76465103549325
 31
0.0
100
AcDbText
 73
     2
  0
ENDBLK
  5
16D
330
16A
100
AcDbEntity
  8
0
100
AcDbBlockEnd
  0
BLOCK
  5
16F
330
16E
100
AcDbEntity
  8
1
100
AcDbBlockBegin
  2
*D5
 70
     1
 10
0.0
 20
0.0
 30
0.0
  3
*D5
  1

  0
LINE
  5
170
330
16E
100
AcDbEntity
  8
1
 62
     2
100
AcDbLine
 10
-44.55580498226719
 20
-60.0885189125479
 30
0.0
 11
-44.55580498226719
 21
-54.08851891254791
 31
0.0
  0
LINE
  5
171
330
16E
100
AcDbEntity
  8
1
 62
     2
100
AcDbLine
 10
-40.0558049822672
 20
-54.08851891254791
 30
0.0
 11
-45.05580498226719
 21
-54.08851891254791
 31
0.0
  0
LINE
  5
172
330
16E
100
AcDbEntity
  8
1
 62
     2
100
AcDbLine
 10
-40.0558049822672
 20
-60.0885189125479
 30
0.0
 11
-45.05580498226719
 21
-60.0885189125479
 31
0.0
  0
LINE
  5
173
330
16E
100
AcDbEntity
  8
1
 62
     2
100
AcDbLine
 10
-44.55580498226719
 20
-54.08851891254791
 30
0.0
 11
-44.2183049822672
 21
-55.33851891254791
 31
0.0
  0
LINE
  5
174
330
16E
100
AcDbEntity
  8
1
 62
     2
100
AcDbLine
 10
-44.55580498226719
 20
-54.08851891254791
 30
0.0
 11
-44.8933049822672
 21
-55.33851891254791
 31
0.0
  0
LINE
  5
175
330
16E
100
AcDbEntity
  8
1
 62
     2
100
AcDbLine
 10
-44.55580498226719
 20
-60.0885189125479
 30
0.0
 11
-44.8933049822672
 21
-58.8385189125479
 31
0.0
  0
LINE
  5
176
330
16E
100
AcDbEntity
  8
1
 62
     2
100
AcDbLine
 10
-44.55580498226719
 20
-60.0885189125479
 30
0.0
 11
-44.2183049822672
 21
-58.8385189125479
 31
0.0
  0
TEXT
  5
177
330
16E
100
AcDbEntity
  8
1
 62
     3
100
AcDbText
 10
-45.05580498226719
 20
-58.0378939125479
 30
0.0
 40
1.75
  1
1.2
 50
90.0
 41
0.63
  7
SIMPLEX
100
AcDbText
  0
ENDBLK
  5
178
330
16E
100
AcDbEntity
  8
0
100
AcDbBlockEnd
  0
BLOCK
  5
17A
330
179
100
AcDbEntity
  8
1
100
AcDbBlockBegin
  2
*D6
 70
     1
 10
0.0
 20
0.0
 30
0.0
  3
*D6
  1

  0
LINE
  5
17B
330
179
100
AcDbEntity
  8
1
 62
     2
100
AcDbLine
 10
-41.4432882366984
 20
-54.08851891254791
 30
0.0
 11
-41.4432882366984
 21
-48.5467291471453
 31
0.0
  0
LINE
  5
17C
330
179
100
AcDbEntity
  8
1
 62
     2
100
AcDbLine
 10
-41.4432882366984
 20
-55.5885189125479
 30
0.0
 11
-41.4432882366984
 21
-54.08851891254791
 31
0.0
  0
LINE
  5
17D
330
179
100
AcDbEntity
  8
1
 62
     2
100
AcDbLine
 10
-41.4432882366984
 20
-58.0885189125479
 30
0.0
 11
-41.4432882366984
 21
-55.5885189125479
 31
0.0
  0
LINE
  5
17E
330
179
100
AcDbEntity
  8
1
 62
     2
100
AcDbLine
 10
-40.05580498226721
 20
-54.08851891254791
 30
0.0
 11
-41.9432882366984
 21
-54.08851891254791
 31
0.0
  0
LINE
  5
17F
330
179
100
AcDbEntity
  8
1
 62
     2
100
AcDbLine
 10
-30.0558049822672
 20
-55.5885189125479
 30
0.0
 11
-41.9432882366984
 21
-55.5885189125479
 31
0.0
  0
LINE
  5
180
330
179
100
AcDbEntity
  8
1
 62
     2
100
AcDbLine
 10
-41.4432882366984
 20
-55.5885189125479
 30
0.0
 11
-41.1057882366984
 21
-56.8385189125479
 31
0.0
  0
LINE
  5
181
330
179
100
AcDbEntity
  8
1
 62
     2
100
AcDbLine
 10
-41.4432882366984
 20
-55.5885189125479
 30
0.0
 11
-41.7807882366984
 21
-56.8385189125479
 31
0.0
  0
LINE
  5
182
330
179
100
AcDbEntity
  8
1
 62
     2
100
AcDbLine
 10
-41.4432882366984
 20
-54.08851891254791
 30
0.0
 11
-41.7807882366984
 21
-52.83851891254791
 31
0.0
  0
LINE
  5
183
330
179
100
AcDbEntity
  8
1
 62
     2
100
AcDbLine
 10
-41.4432882366984
 20
-54.08851891254791
 30
0.0
 11
-41.1057882366984
 21
-52.83851891254791
 31
0.0
  0
TEXT
  5
184
330
179
100
AcDbEntity
  8
1
 62
     3
100
AcDbText
 10
-41.9432882366984
 20
-50.8129791471453
 30
0.0
 40
1.75
  1
0.3
 50
90.0
 41
0.63
  7
SIMPLEX
100
AcDbText
  0
ENDBLK
  5
185
330
179
100
AcDbEntity
  8
0
100
AcDbBlockEnd
  0
BLOCK
  5
187
330
186
100
AcDbEntity
  8
1
100
AcDbBlockBegin
  2
*D7
 70
     1
 10
0.0
 20
0.0
 30
0.0
  3
*D7
  1

  0
LINE
  5
188
330
186
100
AcDbEntity
  8
1
 62
     2
100
AcDbLine
 10
-28.0558049822672
 20
-49.0574088480828
 30
0.0
 11
-25.5558049822672
 21
-49.0574088480828
 31
0.0
  0
LINE
  5
189
330
186
100
AcDbEntity
  8
1
 62
     2
100
AcDbLine
 10
-31.0558049822672
 20
-49.0574088480828
 30
0.0
 11
-33.55580498226721
 21
-49.0574088480828
 31
0.0
  0
LINE
  5
18A
330
186
100
AcDbEntity
  8
1
 62
     2
100
AcDbLine
 10
-31.0558049822672
 20
-49.0574088480828
 30
0.0
 11
-28.0558049822672
 21
-49.0574088480828
 31
0.0
  0
LINE
  5
18B
330
186
100
AcDbEntity
  8
1
 62
     2
100
AcDbLine
 10
-28.0558049822672
 20
-53.5885189125479
 30
0.0
 11
-28.0558049822672
 21
-48.5574088480828
 31
0.0
  0
LINE
  5
18C
330
186
100
AcDbEntity
  8
1
 62
     2
100
AcDbLine
 10
-31.0558049822672
 20
-53.5885189125479
 30
0.0
 11
-31.0558049822672
 21
-48.5574088480828
 31
0.0
  0
LINE
  5
18D
330
186
100
AcDbEntity
  8
1
 62
     2
100
AcDbLine
 10
-31.0558049822672
 20
-49.0574088480828
 30
0.0
 11
-32.30580498226721
 21
-49.3949088480828
 31
0.0
  0
LINE
  5
18E
330
186
100
AcDbEntity
  8
1
 62
     2
100
AcDbLine
 10
-31.0558049822672
 20
-49.0574088480828
 30
0.0
 11
-32.30580498226721
 21
-48.7199088480828
 31
0.0
  0
LINE
  5
18F
330
186
100
AcDbEntity
  8
1
 62
     2
100
AcDbLine
 10
-28.0558049822672
 20
-49.0574088480828
 30
0.0
 11
-26.8058049822672
 21
-48.7199088480828
 31
0.0
  0
LINE
  5
190
330
186
100
AcDbEntity
  8
1
 62
     2
100
AcDbLine
 10
-28.0558049822672
 20
-49.0574088480828
 30
0.0
 11
-26.8058049822672
 21
-49.3949088480828
 31
0.0
  0
TEXT
  5
191
330
186
100
AcDbEntity
  8
1
 62
     3
100
AcDbText
 10
-30.6889299822672
 20
-48.5574088480828
 30
0.0
 40
1.75
  1
0.6
 41
0.63
  7
SIMPLEX
100
AcDbText
  0
ENDBLK
  5
192
330
186
100
AcDbEntity
  8
0
100
AcDbBlockEnd
  0
BLOCK
  5
194
330
193
100
AcDbEntity
  8
1
100
AcDbBlockBegin
  2
*D8
 70
     1
 10
0.0
 20
0.0
 30
0.0
  3
*D8
  1

  0
LINE
  5
195
330
193
100
AcDbEntity
  8
1
 62
     2
100
AcDbLine
 10
-28.38656387665198
 20
4.151982378854619
 30
0.0
 11
-28.38656387665198
 21
7.755320426954778
 31
0.0
  0
LINE
  5
196
330
193
100
AcDbEntity
  8
1
 62
     2
100
AcDbLine
 10
-28.38656387665198
 20
1.65198237885462
 30
0.0
 11
-28.38656387665198
 21
4.151982378854619
 31
0.0
  0
LINE
  5
197
330
193
100
AcDbEntity
  8
1
 62
     2
100
AcDbLine
 10
-28.38656387665198
 20
-0.84801762114538
 30
0.0
 11
-28.38656387665198
 21
1.65198237885462
 31
0.0
  0
LINE
  5
198
330
193
100
AcDbEntity
  8
1
 62
     2
100
AcDbLine
 10
-12.52196414357969
 20
4.151982378854619
 30
0.0
 11
-28.88656387665198
 21
4.151982378854619
 31
0.0
  0
LINE
  5
199
330
193
100
AcDbEntity
  8
1
 62
     2
100
AcDbLine
 10
-17.58656387665198
 20
1.65198237885462
 30
0.0
 11
-28.88656387665198
 21
1.65198237885462
 31
0.0
  0
LINE
  5
19A
330
193
100
AcDbEntity
  8
1
 62
     2
100
AcDbLine
 10
-28.38656387665198
 20
1.65198237885462
 30
0.0
 11
-28.04906387665198
 21
0.4019823788546197
 31
0.0
  0
LINE
  5
19B
330
193
100
AcDbEntity
  8
1
 62
     2
100
AcDbLine
 10
-28.38656387665198
 20
1.65198237885462
 30
0.0
 11
-28.72406387665198
 21
0.4019823788546201
 31
0.0
  0
LINE
  5
19C
330
193
100
AcDbEntity
  8
1
 62
     2
100
AcDbLine
 10
-28.38656387665198
 20
4.151982378854619
 30
0.0
 11
-28.72406387665198
 21
5.401982378854619
 31
0.0
  0
LINE
  5
19D
330
193
100
AcDbEntity
  8
1
 62
     2
100
AcDbLine
 10
-28.38656387665198
 20
4.151982378854619
 30
0.0
 11
-28.04906387665198
 21
5.401982378854619
 31
0.0
  0
TEXT
  5
19E
330
193
100
AcDbEntity
  8
1
 62
     3
100
AcDbText
 10
-28.88656387665198
 20
5.48907042695478
 30
0.0
 40
1.75
  1
2.5
 50
90.0
 41
0.63
  7
SIMPLEX
100
AcDbText
  0
ENDBLK
  5
19F
330
193
100
AcDbEntity
  8
0
100
AcDbBlockEnd
  0
BLOCK
  5
1A1
330
1A0
100
AcDbEntity
  8
1
100
AcDbBlockBegin
  2
*D9
 70
     1
 10
0.0
 20
0.0
 30
0.0
  3
*D9
  1

  0
LINE
  5
1A2
330
1A0
100
AcDbEntity
  8
1
 62
     2
100
AcDbLine
 10
-28.38656387665198
 20
-5.34801762114538
 30
0.0
 11
-28.38656387665198
 21
1.65198237885462
 31
0.0
  0
LINE
  5
1A3
330
1A0
100
AcDbEntity
  8
1
 62
     2
100
AcDbLine
 10
-16.61708318946835
 20
1.65198237885462
 30
0.0
 11
-28.88656387665198
 21
1.65198237885462
 31
0.0
  0
LINE
  5
1A4
330
1A0
100
AcDbEntity
  8
1
 62
     2
100
AcDbLine
 10
-12.18656387665198
 20
-5.34801762114538
 30
0.0
 11
-28.88656387665198
 21
-5.34801762114538
 31
0.0
  0
LINE
  5
1A5
330
1A0
100
AcDbEntity
  8
1
 62
     2
100
AcDbLine
 10
-28.38656387665198
 20
-5.34801762114538
 30
0.0
 11
-28.72406387665198
 21
-4.09801762114538
 31
0.0
  0
LINE
  5
1A6
330
1A0
100
AcDbEntity
  8
1
 62
     2
100
AcDbLine
 10
-28.38656387665198
 20
-5.34801762114538
 30
0.0
 11
-28.04906387665198
 21
-4.09801762114538
 31
0.0
  0
LINE
  5
1A7
330
1A0
100
AcDbEntity
  8
1
 62
     2
100
AcDbLine
 10
-28.38656387665198
 20
1.65198237885462
 30
0.0
 11
-28.04906387665198
 21
0.4019823788546197
 31
0.0
  0
LINE
  5
1A8
330
1A0
100
AcDbEntity
  8
1
 62
     2
100
AcDbLine
 10
-28.38656387665198
 20
1.65198237885462
 30
0.0
 11
-28.72406387665198
 21
0.4019823788546201
 31
0.0
  0
TEXT
  5
1A9
330
1A0
100
AcDbEntity
  8
1
 62
     3
100
AcDbText
 10
-28.88656387665198
 20
-2.215517621145379
 30
0.0
 40
1.75
  1
7
 50
90.0
 41
0.63
  7
SIMPLEX
100
AcDbText
  0
ENDBLK
  5
1AA
330
1A0
100
AcDbEntity
  8
0
100
AcDbBlockEnd
  0
BLOCK
  5
1AC
330
1AB
100
AcDbEntity
  8
1
100
AcDbBlockBegin
  2
*D10
 70
     1
 10
0.0
 20
0.0
 30
0.0
  3
*D10
  1

  0
LINE
  5
1AD
330
1AB
100
AcDbEntity
  8
1
 62
     2
100
AcDbLine
 10
26.61343612334802
 20
-5.34801762114538
 30
0.0
 11
26.61343612334802
 21
4.151982378854619
 31
0.0
  0
LINE
  5
1AE
330
1AB
100
AcDbEntity
  8
1
 62
     2
100
AcDbLine
 10
5.74883639027573
 20
4.151982378854619
 30
0.0
 11
27.11343612334802
 21
4.151982378854619
 31
0.0
  0
LINE
  5
1AF
330
1AB
100
AcDbEntity
  8
1
 62
     2
100
AcDbLine
 10
5.413436123348021
 20
-5.34801762114538
 30
0.0
 11
27.11343612334802
 21
-5.34801762114538
 31
0.0
  0
LINE
  5
1B0
330
1AB
100
AcDbEntity
  8
1
 62
     2
100
AcDbLine
 10
26.61343612334802
 20
-5.34801762114538
 30
0.0
 11
26.27593612334802
 21
-4.09801762114538
 31
0.0
  0
LINE
  5
1B1
330
1AB
100
AcDbEntity
  8
1
 62
     2
100
AcDbLine
 10
26.61343612334802
 20
-5.34801762114538
 30
0.0
 11
26.95093612334802
 21
-4.09801762114538
 31
0.0
  0
LINE
  5
1B2
330
1AB
100
AcDbEntity
  8
1
 62
     2
100
AcDbLine
 10
26.61343612334802
 20
4.151982378854619
 30
0.0
 11
26.95093612334802
 21
2.901982378854619
 31
0.0
  0
LINE
  5
1B3
330
1AB
100
AcDbEntity
  8
1
 62
     2
100
AcDbLine
 10
26.61343612334802
 20
4.151982378854619
 30
0.0
 11
26.27593612334802
 21
2.901982378854619
 31
0.0
  0
TEXT
  5
1B4
330
1AB
100
AcDbEntity
  8
1
 62
     3
100
AcDbText
 10
26.11343612334802
 20
-1.731142621145379
 30
0.0
 40
1.75
  1
9.5
 50
90.0
 41
0.63
  7
SIMPLEX
100
AcDbText
  0
TEXT
  5
1B5
330
1AB
100
AcDbEntity
  8
1
 62
     3
100
AcDbText
 10
26.11343612334802
 20
-2.78989262114538
 30
0.0
 40
1.75
  1
(
 50
90.0
 41
0.63
  7
SIMPLEX
100
AcDbText
  0
TEXT
  5
1B6
330
1AB
100
AcDbEntity
  8
1
 62
     3
100
AcDbText
 10
26.11343612334802
 20
1.410107378854619
 30
0.0
 40
1.75
  1
)
 50
90.0
 41
0.63
  7
SIMPLEX
100
AcDbText
  0
ENDBLK
  5
1B7
330
1AB
100
AcDbEntity
  8
0
100
AcDbBlockEnd
  0
BLOCK
  5
1B9
330
1B8
100
AcDbEntity
  8
1
100
AcDbBlockBegin
  2
*D11
 70
     1
 10
0.0
 20
0.0
 30
0.0
  3
*D11
  1

  0
LINE
  5
1BA
330
1B8
100
AcDbEntity
  8
1
 62
     2
100
AcDbLine
 10
21.61343612334802
 20
-5.348017621145379
 30
0.0
 11
21.61343612334802
 21
-9.70003520712917
 31
0.0
  0
LINE
  5
1BB
330
1B8
100
AcDbEntity
  8
1
 62
     2
100
AcDbLine
 10
21.61343612334802
 20
-5.348017621145379
 30
0.0
 11
21.61343612334802
 21
-4.148017621145379
 31
0.0
  0
LINE
  5
1BC
330
1B8
100
AcDbEntity
  8
1
 62
     2
100
AcDbLine
 10
21.61343612334802
 20
-1.648017621145379
 30
0.0
 11
21.61343612334802
 21
-4.148017621145379
 31
0.0
  0
LINE
  5
1BD
330
1B8
100
AcDbEntity
  8
1
 62
     2
100
AcDbLine
 10
5.413436123348021
 20
-4.148017621145379
 30
0.0
 11
22.11343612334802
 21
-4.148017621145379
 31
0.0
  0
LINE
  5
1BE
330
1B8
100
AcDbEntity
  8
1
 62
     2
100
AcDbLine
 10
5.413436123348021
 20
-5.348017621145379
 30
0.0
 11
22.11343612334802
 21
-5.348017621145379
 31
0.0
  0
LINE
  5
1BF
330
1B8
100
AcDbEntity
  8
1
 62
     2
100
AcDbLine
 10
21.61343612334802
 20
-4.148017621145379
 30
0.0
 11
21.27593612334802
 21
-2.89801762114538
 31
0.0
  0
LINE
  5
1C0
330
1B8
100
AcDbEntity
  8
1
 62
     2
100
AcDbLine
 10
21.61343612334802
 20
-4.148017621145379
 30
0.0
 11
21.95093612334802
 21
-2.89801762114538
 31
0.0
  0
LINE
  5
1C1
330
1B8
100
AcDbEntity
  8
1
 62
     2
100
AcDbLine
 10
21.61343612334802
 20
-5.348017621145379
 30
0.0
 11
21.95093612334802
 21
-6.598017621145378
 31
0.0
  0
LINE
  5
1C2
330
1B8
100
AcDbEntity
  8
1
 62
     2
100
AcDbLine
 10
21.61343612334802
 20
-5.348017621145379
 30
0.0
 11
21.27593612334802
 21
-6.598017621145378
 31
0.0
  0
TEXT
  5
1C3
330
1B8
100
AcDbEntity
  8
1
 62
     3
100
AcDbText
 10
21.11343612334802
 20
-9.70003520712917
 30
0.0
 40
1.75
  1
1.2
 50
90.0
 41
0.63
  7
SIMPLEX
100
AcDbText
  0
ENDBLK
  5
1C4
330
1B8
100
AcDbEntity
  8
0
100
AcDbBlockEnd
  0
BLOCK
  5
1C6
330
1C5
100
AcDbEntity
  8
1
100
AcDbBlockBegin
  2
*D12
 70
     1
 10
0.0
 20
0.0
 30
0.0
  3
*D12
  1

  0
LINE
  5
1C7
330
1C5
100
AcDbEntity
  8
1
 62
     2
100
AcDbLine
 10
21.61343612334802
 20
4.151982378854619
 30
0.0
 11
21.61343612334802
 21
7.977514251603159
 31
0.0
  0
LINE
  5
1C8
330
1C5
100
AcDbEntity
  8
1
 62
     2
100
AcDbLine
 10
21.61343612334802
 20
2.951982378854619
 30
0.0
 11
21.61343612334802
 21
4.151982378854619
 31
0.0
  0
LINE
  5
1C9
330
1C5
100
AcDbEntity
  8
1
 62
     2
100
AcDbLine
 10
21.61343612334802
 20
0.4519823788546198
 30
0.0
 11
21.61343612334802
 21
2.951982378854619
 31
0.0
  0
LINE
  5
1CA
330
1C5
100
AcDbEntity
  8
1
 62
     2
100
AcDbLine
 10
5.74883639027573
 20
4.151982378854619
 30
0.0
 11
22.11343612334802
 21
4.151982378854619
 31
0.0
  0
LINE
  5
1CB
330
1C5
100
AcDbEntity
  8
1
 62
     2
100
AcDbLine
 10
5.613436123348019
 20
2.951982378854619
 30
0.0
 11
22.11343612334802
 21
2.951982378854619
 31
0.0
  0
LINE
  5
1CC
330
1C5
100
AcDbEntity
  8
1
 62
     2
100
AcDbLine
 10
21.61343612334802
 20
2.951982378854619
 30
0.0
 11
21.95093612334802
 21
1.70198237885462
 31
0.0
  0
LINE
  5
1CD
330
1C5
100
AcDbEntity
  8
1
 62
     2
100
AcDbLine
 10
21.61343612334802
 20
2.951982378854619
 30
0.0
 11
21.27593612334802
 21
1.70198237885462
 31
0.0
  0
LINE
  5
1CE
330
1C5
100
AcDbEntity
  8
1
 62
     2
100
AcDbLine
 10
21.61343612334802
 20
4.151982378854619
 30
0.0
 11
21.27593612334802
 21
5.40198237885462
 31
0.0
  0
LINE
  5
1CF
330
1C5
100
AcDbEntity
  8
1
 62
     2
100
AcDbLine
 10
21.61343612334802
 20
4.151982378854619
 30
0.0
 11
21.95093612334802
 21
5.40198237885462
 31
0.0
  0
TEXT
  5
1D0
330
1C5
100
AcDbEntity
  8
1
 62
     3
100
AcDbText
 10
21.11343612334802
 20
6.07876425160316
 30
0.0
 40
1.75
  1
1.2
 50
90.0
 41
0.63
  7
SIMPLEX
100
AcDbText
  0
ENDBLK
  5
1D1
330
1C5
100
AcDbEntity
  8
0
100
AcDbBlockEnd
  0
BLOCK
  5
1D3
330
1D2
100
AcDbEntity
  8
1
100
AcDbBlockBegin
  2
*D13
 70
     1
 10
0.0
 20
0.0
 30
0.0
  3
*D13
  1

  0
LINE
  5
1D4
330
1D2
100
AcDbEntity
  8
1
 62
     2
100
AcDbLine
 10
21.61343612334802
 20
-4.148017621145379
 30
0.0
 11
21.61343612334802
 21
2.951982378854619
 31
0.0
  0
LINE
  5
1D5
330
1D2
100
AcDbEntity
  8
1
 62
     2
100
AcDbLine
 10
5.613436123348019
 20
2.951982378854619
 30
0.0
 11
22.11343612334802
 21
2.951982378854619
 31
0.0
  0
LINE
  5
1D6
330
1D2
100
AcDbEntity
  8
1
 62
     2
100
AcDbLine
 10
5.413436123348021
 20
-4.148017621145379
 30
0.0
 11
22.11343612334802
 21
-4.148017621145379
 31
0.0
  0
LINE
  5
1D7
330
1D2
100
AcDbEntity
  8
1
 62
     2
100
AcDbLine
 10
21.61343612334802
 20
-4.148017621145379
 30
0.0
 11
21.27593612334802
 21
-2.89801762114538
 31
0.0
  0
LINE
  5
1D8
330
1D2
100
AcDbEntity
  8
1
 62
     2
100
AcDbLine
 10
21.61343612334802
 20
-4.148017621145379
 30
0.0
 11
21.95093612334802
 21
-2.89801762114538
 31
0.0
  0
LINE
  5
1D9
330
1D2
100
AcDbEntity
  8
1
 62
     2
100
AcDbLine
 10
21.61343612334802
 20
2.951982378854619
 30
0.0
 11
21.95093612334802
 21
1.70198237885462
 31
0.0
  0
LINE
  5
1DA
330
1D2
100
AcDbEntity
  8
1
 62
     2
100
AcDbLine
 10
21.61343612334802
 20
2.951982378854619
 30
0.0
 11
21.27593612334802
 21
1.70198237885462
 31
0.0
  0
TEXT
  5
1DB
330
1D2
100
AcDbEntity
  8
1
 62
     3
100
AcDbText
 10
20.67593612334802
 20
-2.95876762114538
 30
0.0
 40
1.75
  1
7.1
 50
90.0
 41
0.63
  7
SIMPLEX
100
AcDbText
  0
TEXT
  5
1DC
330
1D2
100
AcDbEntity
  8
1
 62
     3
100
AcDbText
 10
19.53843612334802
 20
-0.1115176211453802
 30
0.0
 40
1.05
  1
+0.5
 50
90.0
 41
0.63
  7
SIMPLEX
100
AcDbText
  0
TEXT
  5
1DD
330
1D2
100
AcDbEntity
  8
1
 62
     3
100
AcDbText
 10
21.11343612334802
 20
-0.1850176211453802
 30
0.0
 40
1.05
  1
 0
 50
90.0
 41
0.63
  7
SIMPLEX
100
AcDbText
  0
ENDBLK
  5
1DE
330
1D2
100
AcDbEntity
  8
0
100
AcDbBlockEnd
  0
BLOCK
  5
1E0
330
1DF
100
AcDbEntity
  8
1
100
AcDbBlockBegin
  2
*D14
 70
     1
 10
0.0
 20
0.0
 30
0.0
  3
*D14
  1

  0
LINE
  5
1E1
330
1DF
100
AcDbEntity
  8
1
 62
     2
100
AcDbLine
 10
-13.38656387665198
 20
-20.34801762114538
 30
0.0
 11
6.613436123348019
 21
-20.34801762114538
 31
0.0
  0
LINE
  5
1E2
330
1DF
100
AcDbEntity
  8
1
 62
     2
100
AcDbLine
 10
6.613436123348019
 20
-4.148017621145381
 30
0.0
 11
6.613436123348019
 21
-20.84801762114538
 31
0.0
  0
LINE
  5
1E3
330
1DF
100
AcDbEntity
  8
1
 62
     2
100
AcDbLine
 10
-13.38656387665198
 20
-4.148017621145381
 30
0.0
 11
-13.38656387665198
 21
-20.84801762114538
 31
0.0
  0
LINE
  5
1E4
330
1DF
100
AcDbEntity
  8
1
 62
     2
100
AcDbLine
 10
-13.38656387665198
 20
-20.34801762114538
 30
0.0
 11
-12.13656387665198
 21
-20.01051762114538
 31
0.0
  0
LINE
  5
1E5
330
1DF
100
AcDbEntity
  8
1
 62
     2
100
AcDbLine
 10
-13.38656387665198
 20
-20.34801762114538
 30
0.0
 11
-12.13656387665198
 21
-20.68551762114538
 31
0.0
  0
LINE
  5
1E6
330
1DF
100
AcDbEntity
  8
1
 62
     2
100
AcDbLine
 10
6.613436123348019
 20
-20.34801762114538
 30
0.0
 11
5.363436123348019
 21
-20.68551762114538
 31
0.0
  0
LINE
  5
1E7
330
1DF
100
AcDbEntity
  8
1
 62
     2
100
AcDbLine
 10
6.613436123348019
 20
-20.34801762114538
 30
0.0
 11
5.363436123348019
 21
-20.01051762114538
 31
0.0
  0
TEXT
  5
1E8
330
1DF
100
AcDbEntity
  8
1
 62
     3
100
AcDbText
 10
-5.71668887665198
 20
-19.41051762114538
 30
0.0
 40
1.75
  1
20
 41
0.63
  7
SIMPLEX
100
AcDbText
  0
TEXT
  5
1E9
330
1DF
100
AcDbEntity
  8
1
 62
     3
100
AcDbText
 10
-2.930688876651979
 20
-18.27301762114538
 30
0.0
 40
1.05
  1
+0.5
 41
0.63
  7
SIMPLEX
100
AcDbText
  0
TEXT
  5
1EA
330
1DF
100
AcDbEntity
  8
1
 62
     3
100
AcDbText
 10
-3.004188876651979
 20
-19.84801762114538
 30
0.0
 40
1.05
  1
 0
 41
0.63
  7
SIMPLEX
100
AcDbText
  0
ENDBLK
  5
1EB
330
1DF
100
AcDbEntity
  8
0
100
AcDbBlockEnd
  0
BLOCK
  5
1ED
330
1EC
100
AcDbEntity
  8
1
100
AcDbBlockBegin
  2
*D15
 70
     1
 10
0.0
 20
0.0
 30
0.0
  3
*D15
  1

  0
LINE
  5
1EE
330
1EC
100
AcDbEntity
  8
1
 62
     2
100
AcDbLine
 10
6.613436123348019
 20
-15.34801762114538
 30
0.0
 11
10.76836600867317
 21
-15.34801762114538
 31
0.0
  0
LINE
  5
1EF
330
1EC
100
AcDbEntity
  8
1
 62
     2
100
AcDbLine
 10
5.413436123348021
 20
-15.34801762114538
 30
0.0
 11
6.613436123348019
 21
-15.34801762114538
 31
0.0
  0
LINE
  5
1F0
330
1EC
100
AcDbEntity
  8
1
 62
     2
100
AcDbLine
 10
2.913436123348022
 20
-15.34801762114538
 30
0.0
 11
5.413436123348021
 21
-15.34801762114538
 31
0.0
  0
LINE
  5
1F1
330
1EC
100
AcDbEntity
  8
1
 62
     2
100
AcDbLine
 10
6.613436123348019
 20
-4.148017621145378
 30
0.0
 11
6.613436123348019
 21
-15.84801762114538
 31
0.0
  0
LINE
  5
1F2
330
1EC
100
AcDbEntity
  8
1
 62
     2
100
AcDbLine
 10
5.413436123348021
 20
-4.148017621145378
 30
0.0
 11
5.413436123348021
 21
-15.84801762114538
 31
0.0
  0
LINE
  5
1F3
330
1EC
100
AcDbEntity
  8
1
 62
     2
100
AcDbLine
 10
5.413436123348021
 20
-15.34801762114538
 30
0.0
 11
4.163436123348022
 21
-15.68551762114538
 31
0.0
  0
LINE
  5
1F4
330
1EC
100
AcDbEntity
  8
1
 62
     2
100
AcDbLine
 10
5.413436123348021
 20
-15.34801762114538
 30
0.0
 11
4.163436123348022
 21
-15.01051762114538
 31
0.0
  0
LINE
  5
1F5
330
1EC
100
AcDbEntity
  8
1
 62
     2
100
AcDbLine
 10
6.613436123348019
 20
-15.34801762114538
 30
0.0
 11
7.863436123348019
 21
-15.01051762114538
 31
0.0
  0
LINE
  5
1F6
330
1EC
100
AcDbEntity
  8
1
 62
     2
100
AcDbLine
 10
6.613436123348019
 20
-15.34801762114538
 30
0.0
 11
7.863436123348019
 21
-15.68551762114538
 31
0.0
  0
TEXT
  5
1F7
330
1EC
100
AcDbEntity
  8
1
 62
     3
100
AcDbText
 10
8.869616008673169
 20
-14.84801762114538
 30
0.0
 40
1.75
  1
1.2
 41
0.63
  7
SIMPLEX
100
AcDbText
  0
ENDBLK
  5
1F8
330
1EC
100
AcDbEntity
  8
0
100
AcDbBlockEnd
  0
BLOCK
  5
1FA
330
1F9
100
AcDbEntity
  8
1
100
AcDbBlockBegin
  2
*D16
 70
     1
 10
0.0
 20
0.0
 30
0.0
  3
*D16
  1

  0
LINE
  5
1FB
330
1F9
100
AcDbEntity
  8
1
 62
     2
100
AcDbLine
 10
-13.38656387665198
 20
-15.34801762114538
 30
0.0
 11
-17.632696067777
 21
-15.34801762114538
 31
0.0
  0
LINE
  5
1FC
330
1F9
100
AcDbEntity
  8
1
 62
     2
100
AcDbLine
 10
-13.38656387665198
 20
-15.34801762114538
 30
0.0
 11
-12.18656387665198
 21
-15.34801762114538
 31
0.0
  0
LINE
  5
1FD
330
1F9
100
AcDbEntity
  8
1
 62
     2
100
AcDbLine
 10
-9.68656387665198
 20
-15.34801762114538
 30
0.0
 11
-12.18656387665198
 21
-15.34801762114538
 31
0.0
  0
LINE
  5
1FE
330
1F9
100
AcDbEntity
  8
1
 62
     2
100
AcDbLine
 10
-12.18656387665198
 20
-4.148017621145378
 30
0.0
 11
-12.18656387665198
 21
-15.84801762114538
 31
0.0
  0
LINE
  5
1FF
330
1F9
100
AcDbEntity
  8
1
 62
     2
100
AcDbLine
 10
-13.38656387665198
 20
-4.148017621145378
 30
0.0
 11
-13.38656387665198
 21
-15.84801762114538
 31
0.0
  0
LINE
  5
200
330
1F9
100
AcDbEntity
  8
1
 62
     2
100
AcDbLine
 10
-12.18656387665198
 20
-15.34801762114538
 30
0.0
 11
-10.93656387665198
 21
-15.01051762114538
 31
0.0
  0
LINE
  5
201
330
1F9
100
AcDbEntity
  8
1
 62
     2
100
AcDbLine
 10
-12.18656387665198
 20
-15.34801762114538
 30
0.0
 11
-10.93656387665198
 21
-15.68551762114538
 31
0.0
  0
LINE
  5
202
330
1F9
100
AcDbEntity
  8
1
 62
     2
100
AcDbLine
 10
-13.38656387665198
 20
-15.34801762114538
 30
0.0
 11
-14.63656387665198
 21
-15.68551762114538
 31
0.0
  0
LINE
  5
203
330
1F9
100
AcDbEntity
  8
1
 62
     2
100
AcDbLine
 10
-13.38656387665198
 20
-15.34801762114538
 30
0.0
 11
-14.63656387665198
 21
-15.01051762114538
 31
0.0
  0
TEXT
  5
204
330
1F9
100
AcDbEntity
  8
1
 62
     3
100
AcDbText
 10
-17.632696067777
 20
-14.84801762114538
 30
0.0
 40
1.75
  1
1.2
 41
0.63
  7
SIMPLEX
100
AcDbText
  0
ENDBLK
  5
205
330
1F9
100
AcDbEntity
  8
0
100
AcDbBlockEnd
  0
BLOCK
  5
207
330
206
100
AcDbEntity
  8
1
100
AcDbBlockBegin
  2
*D17
 70
     1
 10
0.0
 20
0.0
 30
0.0
  3
*D17
  1

  0
LINE
  5
208
330
206
100
AcDbEntity
  8
1
 62
     2
100
AcDbLine
 10
-12.18656387665198
 20
-15.34801762114538
 30
0.0
 11
5.413436123348021
 21
-15.34801762114538
 31
0.0
  0
LINE
  5
209
330
206
100
AcDbEntity
  8
1
 62
     2
100
AcDbLine
 10
5.413436123348021
 20
-4.148017621145378
 30
0.0
 11
5.413436123348021
 21
-15.84801762114538
 31
0.0
  0
LINE
  5
20A
330
206
100
AcDbEntity
  8
1
 62
     2
100
AcDbLine
 10
-12.18656387665198
 20
-4.148017621145378
 30
0.0
 11
-12.18656387665198
 21
-15.84801762114538
 31
0.0
  0
LINE
  5
20B
330
206
100
AcDbEntity
  8
1
 62
     2
100
AcDbLine
 10
-12.18656387665198
 20
-15.34801762114538
 30
0.0
 11
-10.93656387665198
 21
-15.01051762114538
 31
0.0
  0
LINE
  5
20C
330
206
100
AcDbEntity
  8
1
 62
     2
100
AcDbLine
 10
-12.18656387665198
 20
-15.34801762114538
 30
0.0
 11
-10.93656387665198
 21
-15.68551762114538
 31
0.0
  0
LINE
  5
20D
330
206
100
AcDbEntity
  8
1
 62
     2
100
AcDbLine
 10
5.413436123348021
 20
-15.34801762114538
 30
0.0
 11
4.163436123348021
 21
-15.68551762114538
 31
0.0
  0
LINE
  5
20E
330
206
100
AcDbEntity
  8
1
 62
     2
100
AcDbLine
 10
5.413436123348021
 20
-15.34801762114538
 30
0.0
 11
4.163436123348021
 21
-15.01051762114538
 31
0.0
  0
TEXT
  5
20F
330
206
100
AcDbEntity
  8
1
 62
     3
100
AcDbText
 10
-6.29856387665198
 20
-14.41051762114538
 30
0.0
 40
1.75
  1
17.6
 41
0.63
  7
SIMPLEX
100
AcDbText
  0
TEXT
  5
210
330
206
100
AcDbEntity
  8
1
 62
     3
100
AcDbText
 10
-2.34881387665198
 20
-13.27301762114538
 30
0.0
 40
1.05
  1
+0.5
 41
0.63
  7
SIMPLEX
100
AcDbText
  0
TEXT
  5
211
330
206
100
AcDbEntity
  8
1
 62
     3
100
AcDbText
 10
-2.422313876651979
 20
-14.84801762114538
 30
0.0
 40
1.05
  1
 0
 41
0.63
  7
SIMPLEX
100
AcDbText
  0
ENDBLK
  5
212
330
206
100
AcDbEntity
  8
0
100
AcDbBlockEnd
  0
BLOCK
  5
214
330
213
100
AcDbEntity
  8
1
100
AcDbBlockBegin
  2
*D18
 70
     1
 10
0.0
 20
0.0
 30
0.0
  3
*D18
  1

  0
LINE
  5
215
330
213
100
AcDbEntity
  8
1
 62
     2
100
AcDbLine
 10
-17.38656387665198
 20
17.15198237885462
 30
0.0
 11
10.61343612334802
 21
17.15198237885462
 31
0.0
  0
LINE
  5
216
330
213
100
AcDbEntity
  8
1
 62
     2
100
AcDbLine
 10
10.61343612334802
 20
2.45198237885462
 30
0.0
 11
10.61343612334802
 21
17.65198237885462
 31
0.0
  0
LINE
  5
217
330
213
100
AcDbEntity
  8
1
 62
     2
100
AcDbLine
 10
-17.38656387665198
 20
2.45198237885462
 30
0.0
 11
-17.38656387665198
 21
17.65198237885462
 31
0.0
  0
LINE
  5
218
330
213
100
AcDbEntity
  8
1
 62
     2
100
AcDbLine
 10
-17.38656387665198
 20
17.15198237885462
 30
0.0
 11
-16.13656387665198
 21
17.48948237885462
 31
0.0
  0
LINE
  5
219
330
213
100
AcDbEntity
  8
1
 62
     2
100
AcDbLine
 10
-17.38656387665198
 20
17.15198237885462
 30
0.0
 11
-16.13656387665198
 21
16.81448237885462
 31
0.0
  0
LINE
  5
21A
330
213
100
AcDbEntity
  8
1
 62
     2
100
AcDbLine
 10
10.61343612334802
 20
17.15198237885462
 30
0.0
 11
9.363436123348019
 21
16.81448237885462
 31
0.0
  0
LINE
  5
21B
330
213
100
AcDbEntity
  8
1
 62
     2
100
AcDbLine
 10
10.61343612334802
 20
17.15198237885462
 30
0.0
 11
9.363436123348019
 21
17.48948237885462
 31
0.0
  0
TEXT
  5
21C
330
213
100
AcDbEntity
  8
1
 62
     3
100
AcDbText
 10
-5.71668887665198
 20
18.08948237885462
 30
0.0
 40
1.75
  1
28
 41
0.63
  7
SIMPLEX
100
AcDbText
  0
TEXT
  5
21D
330
213
100
AcDbEntity
  8
1
 62
     3
100
AcDbText
 10
-2.930688876651981
 20
19.22698237885462
 30
0.0
 40
1.05
  1
+0.5
 41
0.63
  7
SIMPLEX
100
AcDbText
  0
TEXT
  5
21E
330
213
100
AcDbEntity
  8
1
 62
     3
100
AcDbText
 10
-3.004188876651981
 20
17.65198237885462
 30
0.0
 40
1.05
  1
 0
 41
0.63
  7
SIMPLEX
100
AcDbText
  0
ENDBLK
  5
21F
330
213
100
AcDbEntity
  8
0
100
AcDbBlockEnd
  0
BLOCK
  5
221
330
220
100
AcDbEntity
  8
1
100
AcDbBlockBegin
  2
*D19
 70
     1
 10
0.0
 20
0.0
 30
0.0
  3
*D19
  1

  0
LINE
  5
222
330
220
100
AcDbEntity
  8
1
 62
     2
100
AcDbLine
 10
2.113436123348022
 20
12.15198237885461
 30
0.0
 11
10.61343612334802
 21
12.15198237885461
 31
0.0
  0
LINE
  5
223
330
220
100
AcDbEntity
  8
1
 62
     2
100
AcDbLine
 10
10.61343612334802
 20
2.451982378854622
 30
0.0
 11
10.61343612334802
 21
12.65198237885462
 31
0.0
  0
LINE
  5
224
330
220
100
AcDbEntity
  8
1
 62
     2
100
AcDbLine
 10
2.113436123348022
 20
4.051982378854621
 30
0.0
 11
2.113436123348022
 21
12.65198237885462
 31
0.0
  0
LINE
  5
225
330
220
100
AcDbEntity
  8
1
 62
     2
100
AcDbLine
 10
2.113436123348022
 20
12.15198237885461
 30
0.0
 11
3.363436123348022
 21
12.48948237885462
 31
0.0
  0
LINE
  5
226
330
220
100
AcDbEntity
  8
1
 62
     2
100
AcDbLine
 10
2.113436123348022
 20
12.15198237885461
 30
0.0
 11
3.363436123348022
 21
11.81448237885462
 31
0.0
  0
LINE
  5
227
330
220
100
AcDbEntity
  8
1
 62
     2
100
AcDbLine
 10
10.61343612334802
 20
12.15198237885461
 30
0.0
 11
9.363436123348019
 21
11.81448237885462
 31
0.0
  0
LINE
  5
228
330
220
100
AcDbEntity
  8
1
 62
     2
100
AcDbLine
 10
10.61343612334802
 20
12.15198237885461
 30
0.0
 11
9.363436123348019
 21
12.48948237885462
 31
0.0
  0
TEXT
  5
229
330
220
100
AcDbEntity
  8
1
 62
     3
100
AcDbText
 10
5.169061123348021
 20
12.65198237885462
 30
0.0
 40
1.75
  1
8.5
 41
0.63
  7
SIMPLEX
100
AcDbText
  0
TEXT
  5
22A
330
220
100
AcDbEntity
  8
1
 62
     3
100
AcDbText
 10
4.110311123348021
 20
12.65198237885462
 30
0.0
 40
1.75
  1
(
 41
0.63
  7
SIMPLEX
100
AcDbText
  0
TEXT
  5
22B
330
220
100
AcDbEntity
  8
1
 62
     3
100
AcDbText
 10
8.43281112334802
 20
12.65198237885462
 30
0.0
 40
1.75
  1
)
 41
0.63
  7
SIMPLEX
100
AcDbText
  0
ENDBLK
  5
22C
330
220
100
AcDbEntity
  8
0
100
AcDbBlockEnd
  0
BLOCK
  5
22E
330
22D
100
AcDbEntity
  8
1
100
AcDbBlockBegin
  2
*D20
 70
     1
 10
0.0
 20
0.0
 30
0.0
  3
*D20
  1

  0
LINE
  5
22F
330
22D
100
AcDbEntity
  8
1
 62
     2
100
AcDbLine
 10
-17.38656387665198
 20
12.15198237885461
 30
0.0
 11
-8.88656387665198
 21
12.15198237885461
 31
0.0
  0
LINE
  5
230
330
22D
100
AcDbEntity
  8
1
 62
     2
100
AcDbLine
 10
-8.88656387665198
 20
4.051982378854621
 30
0.0
 11
-8.88656387665198
 21
12.65198237885462
 31
0.0
  0
LINE
  5
231
330
22D
100
AcDbEntity
  8
1
 62
     2
100
AcDbLine
 10
-17.38656387665198
 20
2.451982378854622
 30
0.0
 11
-17.38656387665198
 21
12.65198237885462
 31
0.0
  0
LINE
  5
232
330
22D
100
AcDbEntity
  8
1
 62
     2
100
AcDbLine
 10
-8.88656387665198
 20
12.15198237885461
 30
0.0
 11
-10.13656387665198
 21
11.81448237885462
 31
0.0
  0
LINE
  5
233
330
22D
100
AcDbEntity
  8
1
 62
     2
100
AcDbLine
 10
-8.88656387665198
 20
12.15198237885461
 30
0.0
 11
-10.13656387665198
 21
12.48948237885462
 31
0.0
  0
LINE
  5
234
330
22D
100
AcDbEntity
  8
1
 62
     2
100
AcDbLine
 10
-17.38656387665198
 20
12.15198237885461
 30
0.0
 11
-16.13656387665198
 21
12.48948237885462
 31
0.0
  0
LINE
  5
235
330
22D
100
AcDbEntity
  8
1
 62
     2
100
AcDbLine
 10
-17.38656387665198
 20
12.15198237885461
 30
0.0
 11
-16.13656387665198
 21
11.81448237885462
 31
0.0
  0
TEXT
  5
236
330
22D
100
AcDbEntity
  8
1
 62
     3
100
AcDbText
 10
-14.33093887665198
 20
12.65198237885462
 30
0.0
 40
1.75
  1
8.5
 41
0.63
  7
SIMPLEX
100
AcDbText
  0
TEXT
  5
237
330
22D
100
AcDbEntity
  8
1
 62
     3
100
AcDbText
 10
-15.38968887665198
 20
12.65198237885462
 30
0.0
 40
1.75
  1
(
 41
0.63
  7
SIMPLEX
100
AcDbText
  0
TEXT
  5
238
330
22D
100
AcDbEntity
  8
1
 62
     3
100
AcDbText
 10
-11.06718887665198
 20
12.65198237885462
 30
0.0
 40
1.75
  1
)
 41
0.63
  7
SIMPLEX
100
AcDbText
  0
ENDBLK
  5
239
330
22D
100
AcDbEntity
  8
0
100
AcDbBlockEnd
  0
BLOCK
  5
23B
330
23A
100
AcDbEntity
  8
1
100
AcDbBlockBegin
  2
*D21
 70
     1
 10
0.0
 20
0.0
 30
0.0
  3
*D21
  1

  0
LINE
  5
23C
330
23A
100
AcDbEntity
  8
1
 62
     2
100
AcDbLine
 10
-8.88656387665198
 20
12.15198237885461
 30
0.0
 11
2.113436123348022
 21
12.15198237885461
 31
0.0
  0
LINE
  5
23D
330
23A
100
AcDbEntity
  8
1
 62
     2
100
AcDbLine
 10
2.113436123348022
 20
4.051982378854621
 30
0.0
 11
2.113436123348022
 21
12.65198237885462
 31
0.0
  0
LINE
  5
23E
330
23A
100
AcDbEntity
  8
1
 62
     2
100
AcDbLine
 10
-8.88656387665198
 20
4.051982378854621
 30
0.0
 11
-8.88656387665198
 21
12.65198237885462
 31
0.0
  0
LINE
  5
23F
330
23A
100
AcDbEntity
  8
1
 62
     2
100
AcDbLine
 10
-8.88656387665198
 20
12.15198237885461
 30
0.0
 11
-7.63656387665198
 21
12.48948237885462
 31
0.0
  0
LINE
  5
240
330
23A
100
AcDbEntity
  8
1
 62
     2
100
AcDbLine
 10
-8.88656387665198
 20
12.15198237885461
 30
0.0
 11
-7.63656387665198
 21
11.81448237885462
 31
0.0
  0
LINE
  5
241
330
23A
100
AcDbEntity
  8
1
 62
     2
100
AcDbLine
 10
2.113436123348022
 20
12.15198237885461
 30
0.0
 11
0.8634361233480216
 21
11.81448237885462
 31
0.0
  0
LINE
  5
242
330
23A
100
AcDbEntity
  8
1
 62
     2
100
AcDbLine
 10
2.113436123348022
 20
12.15198237885461
 30
0.0
 11
0.8634361233480216
 21
12.48948237885462
 31
0.0
  0
TEXT
  5
243
330
23A
100
AcDbEntity
  8
1
 62
     3
100
AcDbText
 10
-5.349188876651978
 20
13.08948237885461
 30
0.0
 40
1.75
  1
11
 41
0.63
  7
SIMPLEX
100
AcDbText
  0
TEXT
  5
244
330
23A
100
AcDbEntity
  8
1
 62
     3
100
AcDbText
 10
-3.298188876651979
 20
14.22698237885462
 30
0.0
 40
1.05
  1
+0.5
 41
0.63
  7
SIMPLEX
100
AcDbText
  0
TEXT
  5
245
330
23A
100
AcDbEntity
  8
1
 62
     3
100
AcDbText
 10
-3.371688876651978
 20
12.65198237885462
 30
0.0
 40
1.05
  1
 0
 41
0.63
  7
SIMPLEX
100
AcDbText
  0
ENDBLK
  5
246
330
23A
100
AcDbEntity
  8
0
100
AcDbBlockEnd
  0
BLOCK
  5
248
330
247
100
AcDbEntity
  8
1
100
AcDbBlockBegin
  2
*D22
 70
     1
 10
0.0
 20
0.0
 30
0.0
  3
*D22
  1

  0
LINE
  5
249
330
247
100
AcDbEntity
  8
1
 62
     2
100
AcDbLine
 10
-21.13718887665198
 20
-1.4711050269705
 30
0.0
 11
-27.38593887665198
 21
-1.4711050269705
 31
0.0
  0
LINE
  5
24A
330
247
100
AcDbEntity
  8
1
 62
     2
100
AcDbLine
 10
-17.31570146134098
 20
1.758343624254997
 30
0.0
 11
-21.13718887665198
 21
-1.4711050269705
 31
0.0
  0
LINE
  5
24B
330
247
100
AcDbEntity
  8
1
 62
     2
100
AcDbLine
 10
-17.31570146134098
 20
1.758343624254997
 30
0.0
 11
-18.05259779862055
 21
0.693735697314782
 31
0.0
  0
LINE
  5
24C
330
247
100
AcDbEntity
  8
1
 62
     2
100
AcDbLine
 10
-17.31570146134098
 20
1.758343624254997
 30
0.0
 11
-18.4882849964697
 21
1.209295262865024
 31
0.0
  0
TEXT
  5
24D
330
247
100
AcDbEntity
  8
1
 62
     3
100
AcDbText
 10
-25.65343887665198
 20
-0.9711050269704999
 30
0.0
 40
1.75
  1
0.3
 41
0.63
  7
SIMPLEX
100
AcDbText
  0
TEXT
  5
24E
330
247
100
AcDbEntity
  8
1
 62
     3
100
AcDbText
 10
-27.38593887665198
 20
-0.9711050269704999
 30
0.0
 40
1.75
  1
R
 41
0.63
  7
SIMPLEX
100
AcDbText
  0
ENDBLK
  5
24F
330
247
100
AcDbEntity
  8
0
100
AcDbBlockEnd
  0
BLOCK
  5
251
330
250
100
AcDbEntity
  8
1
100
AcDbBlockBegin
  2
*D23
 70
     1
 10
0.0
 20
0.0
 30
0.0
  3
*D23
  1

  0
LINE
  5
252
330
250
100
AcDbEntity
  8
1
 62
     2
100
AcDbLine
 10
-20.47561146464093
 20
9.184885654027199
 30
0.0
 11
-26.72436146464093
 21
9.184885654027199
 31
0.0
  0
LINE
  5
253
330
250
100
AcDbEntity
  8
1
 62
     2
100
AcDbLine
 10
-15.96224401259944
 20
1.695029407852999
 30
0.0
 11
-20.47561146464093
 21
9.184885654027199
 31
0.0
  0
LINE
  5
254
330
250
100
AcDbEntity
  8
1
 62
     2
100
AcDbLine
 10
-15.96224401259944
 20
1.695029407852999
 30
0.0
 11
-16.89647934193005
 21
2.591472713048891
 31
0.0
  0
LINE
  5
255
330
250
100
AcDbEntity
  8
1
 62
     2
100
AcDbLine
 10
-15.96224401259944
 20
1.695029407852999
 30
0.0
 11
-16.3183351571764
 21
2.939860861003935
 31
0.0
  0
TEXT
  5
256
330
250
100
AcDbEntity
  8
1
 62
     3
100
AcDbText
 10
-24.99186146464093
 20
9.684885654027199
 30
0.0
 40
1.75
  1
0.3
 41
0.63
  7
SIMPLEX
100
AcDbText
  0
TEXT
  5
257
330
250
100
AcDbEntity
  8
1
 62
     3
100
AcDbText
 10
-26.72436146464093
 20
9.684885654027199
 30
0.0
 40
1.75
  1
R
 41
0.63
  7
SIMPLEX
100
AcDbText
  0
ENDBLK
  5
258
330
250
100
AcDbEntity
  8
0
100
AcDbBlockEnd
  0
BLOCK
  5
25A
330
259
100
AcDbEntity
  8
1
100
AcDbBlockBegin
  2
*D24
 70
     1
 10
0.0
 20
0.0
 30
0.0
  3
*D24
  1

  0
LINE
  5
25B
330
259
100
AcDbEntity
  8
1
 62
     2
100
AcDbLine
 10
-20.7039343357512
 20
12.15198237885461
 30
0.0
 11
-26.9526843357512
 21
12.15198237885461
 31
0.0
  0
LINE
  5
25C
330
259
100
AcDbEntity
  8
1
 62
     2
100
AcDbLine
 10
-15.26510850009148
 20
2.12877204244709
 30
0.0
 11
-20.7039343357512
 21
12.15198237885461
 31
0.0
  0
LINE
  5
25D
330
259
100
AcDbEntity
  8
1
 62
     2
100
AcDbLine
 10
-15.26510850009148
 20
2.12877204244709
 30
0.0
 11
-16.15791687613592
 21
3.066481727618833
 31
0.0
  0
LINE
  5
25E
330
259
100
AcDbEntity
  8
1
 62
     2
100
AcDbLine
 10
-15.26510850009148
 20
2.12877204244709
 30
0.0
 11
-15.56463260805873
 21
3.388411498301989
 31
0.0
  0
TEXT
  5
25F
330
259
100
AcDbEntity
  8
1
 62
     3
100
AcDbText
 10
-25.2201843357512
 20
12.65198237885462
 30
0.0
 40
1.75
  1
6.8
 41
0.63
  7
SIMPLEX
100
AcDbText
  0
TEXT
  5
260
330
259
100
AcDbEntity
  8
1
 62
     3
100
AcDbText
 10
-26.9526843357512
 20
12.65198237885462
 30
0.0
 40
1.75
  1
R
 41
0.63
  7
SIMPLEX
100
AcDbText
  0
ENDBLK
  5
261
330
259
100
AcDbEntity
  8
0
100
AcDbBlockEnd
  0
BLOCK
  5
263
330
262
100
AcDbEntity
  8
1
100
AcDbBlockBegin
  2
*D25
 70
     1
 10
0.0
 20
0.0
 30
0.0
  3
*D25
  1

  0
LINE
  5
264
330
262
100
AcDbEntity
  8
1
 62
     2
100
AcDbLine
 10
-20.0970113055533
 20
17.15198237885462
 30
0.0
 11
-24.8145113055533
 21
17.15198237885462
 31
0.0
  0
LINE
  5
265
330
262
100
AcDbEntity
  8
1
 62
     2
100
AcDbLine
 10
-14.89321570491792
 20
3.618970692191718
 30
0.0
 11
-20.0970113055533
 21
17.15198237885462
 31
0.0
  0
LINE
  5
266
330
262
100
AcDbEntity
  8
1
 62
     2
100
AcDbLine
 10
-14.89321570491792
 20
3.618970692191718
 30
0.0
 11
-15.65686233084593
 21
4.664556690906681
 31
0.0
  0
LINE
  5
267
330
262
100
AcDbEntity
  8
1
 62
     2
100
AcDbLine
 10
-14.89321570491792
 20
3.618970692191718
 30
0.0
 11
-15.02683519190811
 21
4.906818541394597
 31
0.0
  0
TEXT
  5
268
330
262
100
AcDbEntity
  8
1
 62
     3
100
AcDbText
 10
-23.0820113055533
 20
17.65198237885462
 30
0.0
 40
1.75
  1
8
 41
0.63
  7
SIMPLEX
100
AcDbText
  0
TEXT
  5
269
330
262
100
AcDbEntity
  8
1
 62
     3
100
AcDbText
 10
-24.8145113055533
 20
17.65198237885462
 30
0.0
 40
1.75
  1
R
 41
0.63
  7
SIMPLEX
100
AcDbText
  0
ENDBLK
  5
26A
330
262
100
AcDbEntity
  8
0
100
AcDbBlockEnd
  0
BLOCK
  5
26C
330
26B
100
AcDbEntity
  8
1
100
AcDbBlockBegin
  2
*D26
 70
     1
 10
0.0
 20
0.0
 30
0.0
  3
*D26
  1

  0
LINE
  5
26D
330
26B
100
AcDbEntity
  8
1
 62
     2
100
AcDbLine
 10
-17.1069119117844
 20
-4.40551805704867
 30
0.0
 11
-23.3556619117844
 21
-4.40551805704867
 31
0.0
  0
LINE
  5
26E
330
26B
100
AcDbEntity
  8
1
 62
     2
100
AcDbLine
 10
-13.6666401142889
 20
2.618764688096422
 30
0.0
 11
-17.1069119117844
 21
-4.40551805704867
 31
0.0
  0
LINE
  5
26F
330
26B
100
AcDbEntity
  8
1
 62
     2
100
AcDbLine
 10
-13.6666401142889
 20
2.618764688096422
 30
0.0
 11
-13.91335006277036
 21
1.347725565441153
 31
0.0
  0
LINE
  5
270
330
26B
100
AcDbEntity
  8
1
 62
     2
100
AcDbLine
 10
-13.6666401142889
 20
2.618764688096422
 30
0.0
 11
-14.51954897762286
 21
1.644622644631316
 31
0.0
  0
TEXT
  5
271
330
26B
100
AcDbEntity
  8
1
 62
     3
100
AcDbText
 10
-21.6231619117844
 20
-3.90551805704867
 30
0.0
 40
1.75
  1
0.5
 41
0.63
  7
SIMPLEX
100
AcDbText
  0
TEXT
  5
272
330
26B
100
AcDbEntity
  8
1
 62
     3
100
AcDbText
 10
-23.3556619117844
 20
-3.90551805704867
 30
0.0
 40
1.75
  1
R
 41
0.63
  7
SIMPLEX
100
AcDbText
  0
ENDBLK
  5
273
330
26B
100
AcDbEntity
  8
0
100
AcDbBlockEnd
  0
BLOCK
  5
275
330
274
100
AcDbEntity
  8
1
100
AcDbBlockBegin
  2
*D27
 70
     1
 10
0.0
 20
0.0
 30
0.0
  3
*D27
  1

  0
LINE
  5
276
330
274
100
AcDbEntity
  8
1
 62
     2
100
AcDbLine
 10
-16.107430851269
 20
-10.2270148747844
 30
0.0
 11
-21.988680851269
 21
-10.2270148747844
 31
0.0
  0
LINE
  5
277
330
274
100
AcDbEntity
  8
1
 62
     2
100
AcDbLine
 10
-12.63472528542319
 20
-5.059042051450183
 30
0.0
 11
-16.107430851269
 21
-10.2270148747844
 31
0.0
  0
LINE
  5
278
330
274
100
AcDbEntity
  8
1
 62
     2
100
AcDbLine
 10
-12.63472528542319
 20
-5.059042051450183
 30
0.0
 11
-13.05177294173857
 21
-6.28479794165094
 31
0.0
  0
LINE
  5
279
330
274
100
AcDbEntity
  8
1
 62
     2
100
AcDbLine
 10
-12.63472528542319
 20
-5.059042051450183
 30
0.0
 11
-13.61203264200665
 21
-5.908322088168252
 31
0.0
  0
TEXT
  5
27A
330
274
100
AcDbEntity
  8
1
 62
     3
100
AcDbText
 10
-20.256180851269
 20
-9.7270148747844
 30
0.0
 40
1.75
  1
1.7
 41
0.63
  7
SIMPLEX
100
AcDbText
  0
TEXT
  5
27B
330
274
100
AcDbEntity
  8
1
 62
     3
100
AcDbText
 10
-21.988680851269
 20
-9.7270148747844
 30
0.0
 40
1.75
  1
R
 41
0.63
  7
SIMPLEX
100
AcDbText
  0
ENDBLK
  5
27C
330
274
100
AcDbEntity
  8
0
100
AcDbBlockEnd
  0
BLOCK
  5
27E
330
27D
100
AcDbEntity
  8
1
100
AcDbBlockBegin
  2
*D28
 70
     1
 10
0.0
 20
0.0
 30
0.0
  3
*D28
  1

  0
LINE
  5
27F
330
27D
100
AcDbEntity
  8
1
 62
     2
100
AcDbLine
 10
-10.25205567053667
 20
-2.77739211777949
 30
0.0
 11
-4.003305670536671
 21
-2.77739211777949
 31
0.0
  0
LINE
  5
280
330
27D
100
AcDbEntity
  8
1
 62
     2
100
AcDbLine
 10
-12.11400070785544
 20
-3.907435730248703
 30
0.0
 11
-10.25205567053667
 21
-2.77739211777949
 31
0.0
  0
LINE
  5
281
330
27D
100
AcDbEntity
  8
1
 62
     2
100
AcDbLine
 10
-12.11400070785544
 20
-3.907435730248703
 30
0.0
 11
-11.22051585349153
 21
-2.970370596428058
 31
0.0
  0
LINE
  5
282
330
27D
100
AcDbEntity
  8
1
 62
     2
100
AcDbLine
 10
-12.11400070785544
 20
-3.907435730248703
 30
0.0
 11
-10.87030140620205
 21
-3.547410318552731
 31
0.0
  0
TEXT
  5
283
330
27D
100
AcDbEntity
  8
1
 62
     3
100
AcDbText
 10
-6.269555670536669
 20
-2.27739211777949
 30
0.0
 40
1.75
  1
0.5
 41
0.63
  7
SIMPLEX
100
AcDbText
  0
TEXT
  5
284
330
27D
100
AcDbEntity
  8
1
 62
     3
100
AcDbText
 10
-8.00205567053667
 20
-2.27739211777949
 30
0.0
 40
1.75
  1
R
 41
0.63
  7
SIMPLEX
100
AcDbText
  0
ENDBLK
  5
285
330
27D
100
AcDbEntity
  8
0
100
AcDbBlockEnd
  0
BLOCK
  5
287
330
286
100
AcDbEntity
  8
1
100
AcDbBlockBegin
  2
*D29
 70
     1
 10
0.0
 20
0.0
 30
0.0
  3
*D29
  1

  0
LINE
  5
288
330
286
100
AcDbEntity
  8
1
 62
     2
100
AcDbLine
 10
-10.08167039782245
 20
-0.278408117970983
 30
0.0
 11
-3.83292039782245
 21
-0.278408117970983
 31
0.0
  0
LINE
  5
289
330
286
100
AcDbEntity
  8
1
 62
     2
100
AcDbLine
 10
-12.04389275052325
 20
2.907418526348273
 30
0.0
 11
-10.08167039782245
 21
-0.278408117970983
 31
0.0
  0
LINE
  5
28A
330
286
100
AcDbEntity
  8
1
 62
     2
100
AcDbLine
 10
-12.04389275052325
 20
2.907418526348273
 30
0.0
 11
-11.10099011012928
 21
2.020096228229894
 31
0.0
  0
LINE
  5
28B
330
286
100
AcDbEntity
  8
1
 62
     2
100
AcDbLine
 10
-12.04389275052325
 20
2.907418526348273
 30
0.0
 11
-11.67572144199
 21
1.666106262019544
 31
0.0
  0
TEXT
  5
28C
330
286
100
AcDbEntity
  8
1
 62
     3
100
AcDbText
 10
-6.09917039782245
 20
0.221591882029017
 30
0.0
 40
1.75
  1
0.3
 41
0.63
  7
SIMPLEX
100
AcDbText
  0
TEXT
  5
28D
330
286
100
AcDbEntity
  8
1
 62
     3
100
AcDbText
 10
-7.83167039782245
 20
0.221591882029017
 30
0.0
 40
1.75
  1
R
 41
0.63
  7
SIMPLEX
100
AcDbText
  0
ENDBLK
  5
28E
330
286
100
AcDbEntity
  8
0
100
AcDbBlockEnd
  0
BLOCK
  5
290
330
28F
100
AcDbEntity
  8
1
100
AcDbBlockBegin
  2
*D30
 70
     1
 10
0.0
 20
0.0
 30
0.0
  3
*D30
  1

  0
LINE
  5
291
330
28F
100
AcDbEntity
  8
1
 62
     2
100
AcDbLine
 10
-5.9421201803847
 20
7.822077057274468
 30
0.0
 11
0.3066298196152999
 21
7.822077057274468
 31
0.0
  0
LINE
  5
292
330
28F
100
AcDbEntity
  8
1
 62
     2
100
AcDbLine
 10
-9.103345251214813
 20
4.013657031741312
 30
0.0
 11
-5.9421201803847
 21
7.822077057274468
 31
0.0
  0
LINE
  5
293
330
28F
100
AcDbEntity
  8
1
 62
     2
100
AcDbLine
 10
-9.103345251214813
 20
4.013657031741312
 30
0.0
 11
-8.564665107136141
 21
5.191039702063661
 31
0.0
  0
LINE
  5
294
330
28F
100
AcDbEntity
  8
1
 62
     2
100
AcDbLine
 10
-9.103345251214813
 20
4.013657031741312
 30
0.0
 11
-8.045281122638611
 21
4.759918748446846
 31
0.0
  0
TEXT
  5
295
330
28F
100
AcDbEntity
  8
1
 62
     3
100
AcDbText
 10
-1.9596201803847
 20
8.322077057274469
 30
0.0
 40
1.75
  1
0.6
 41
0.63
  7
SIMPLEX
100
AcDbText
  0
TEXT
  5
296
330
28F
100
AcDbEntity
  8
1
 62
     3
100
AcDbText
 10
-3.6921201803847
 20
8.322077057274469
 30
0.0
 40
1.75
  1
R
 41
0.63
  7
SIMPLEX
100
AcDbText
  0
ENDBLK
  5
297
330
28F
100
AcDbEntity
  8
0
100
AcDbBlockEnd
  0
BLOCK
  5
299
330
298
100
AcDbEntity
  8
0
100
AcDbBlockBegin
  2
TOP__4
 70
     0
 10
-57.21084426624829
 20
-82.30590204817749
 30
0.0
  3
TOP__4
  1

  0
LINE
  5
29A
330
298
100
AcDbEntity
  8
1
 62
     4
100
AcDbLine
 10
85.9873982978512
 20
-30.4030446285157
 30
0.0
 11
97.07831850911228
 21
-30.4030446285157
 31
0.0
  0
LINE
  5
29B
330
298
100
AcDbEntity
  8
1
 62
     7
100
AcDbLine
 10
91.3842830599029
 20
-41.0209363282951
 30
0.0
 11
91.53428305990287
 21
-40.87093632829509
 31
0.0
  0
LINE
  5
29C
330
298
100
AcDbEntity
  8
1
 62
     7
100
AcDbLine
 10
91.53428305990287
 20
-40.87093632829509
 30
0.0
 11
95.63428305990289
 21
-40.87093632829509
 31
0.0
  0
LINE
  5
29D
330
298
100
AcDbEntity
  8
1
 62
     7
100
AcDbLine
 10
97.74955071367958
 20
-37.9709363282951
 30
0.0
 11
98.23428305990288
 21
-37.9709363282951
 31
0.0
  0
LINE
  5
29E
330
298
100
AcDbEntity
  8
1
 62
     7
100
AcDbLine
 10
96.38428305990288
 20
-37.9709363282951
 30
0.0
 11
96.38428305990288
 21
-37.71206081231178
 31
0.0
  0
LINE
  5
29F
330
298
100
AcDbEntity
  8
1
 62
     7
100
AcDbLine
 10
93.93428305990289
 20
-36.72097552572436
 30
0.0
 11
95.68428305990289
 21
-36.72097552572436
 31
0.0
  0
LINE
  5
2A0
330
298
100
AcDbEntity
  8
1
 62
     7
100
AcDbLine
 10
93.93428305990289
 20
-37.3209363282951
 30
0.0
 11
95.63428305990289
 21
-37.3209363282951
 31
0.0
  0
LINE
  5
2A1
330
298
100
AcDbEntity
  8
1
 62
     7
100
AcDbLine
 10
95.78428305990287
 20
-40.7209363282951
 30
0.0
 11
95.78428305990287
 21
-37.47093632829511
 31
0.0
  0
LINE
  5
2A2
330
298
100
AcDbEntity
  8
1
 62
     7
100
AcDbLine
 10
96.38428305990288
 20
-40.7209363282951
 30
0.0
 11
96.38428305990288
 21
-37.9709363282951
 31
0.0
  0
LINE
  5
2A3
330
298
100
AcDbEntity
  8
1
 62
     7
100
AcDbLine
 10
91.3842830599029
 20
-41.4709363282951
 30
0.0
 11
95.63428305990289
 21
-41.4709363282951
 31
0.0
  0
LINE
  5
2A4
330
298
100
AcDbEntity
  8
1
  6
CENTER
 62
     2
100
AcDbLine
 10
91.3842830599029
 20
-36.22097552572436
 30
0.0
 11
91.3842830599029
 21
-41.9709363282951
 31
0.0
  0
LINE
  5
2A5
330
298
100
AcDbEntity
  8
1
 62
     7
100
AcDbLine
 10
91.23428305990287
 20
-40.87093632829509
 30
0.0
 11
91.3842830599029
 21
-41.0209363282951
 31
0.0
  0
LINE
  5
2A6
330
298
100
AcDbEntity
  8
1
 62
     7
100
AcDbLine
 10
87.13428305990289
 20
-40.87093632829509
 30
0.0
 11
91.23428305990287
 21
-40.87093632829509
 31
0.0
  0
LINE
  5
2A7
330
298
100
AcDbEntity
  8
1
 62
     7
100
AcDbLine
 10
84.53428305990291
 20
-37.9709363282951
 30
0.0
 11
85.01901540612619
 21
-37.9709363282951
 31
0.0
  0
LINE
  5
2A8
330
298
100
AcDbEntity
  8
1
 62
     7
100
AcDbLine
 10
86.3842830599029
 20
-37.71206081231178
 30
0.0
 11
86.3842830599029
 21
-37.9709363282951
 31
0.0
  0
LINE
  5
2A9
330
298
100
AcDbEntity
  8
1
 62
     7
100
AcDbLine
 10
87.0842830599029
 20
-36.72097552572436
 30
0.0
 11
88.83428305990291
 21
-36.72097552572436
 31
0.0
  0
LINE
  5
2AA
330
298
100
AcDbEntity
  8
1
 62
     7
100
AcDbLine
 10
87.13428305990289
 20
-37.3209363282951
 30
0.0
 11
88.83428305990291
 21
-37.3209363282951
 31
0.0
  0
LINE
  5
2AB
330
298
100
AcDbEntity
  8
1
 62
     7
100
AcDbLine
 10
86.98428305990288
 20
-37.47093632829511
 30
0.0
 11
86.98428305990288
 21
-40.7209363282951
 31
0.0
  0
LINE
  5
2AC
330
298
100
AcDbEntity
  8
1
 62
     7
100
AcDbLine
 10
86.3842830599029
 20
-37.9709363282951
 30
0.0
 11
86.3842830599029
 21
-40.7209363282951
 31
0.0
  0
LINE
  5
2AD
330
298
100
AcDbEntity
  8
1
 62
     7
100
AcDbLine
 10
87.13428305990289
 20
-41.4709363282951
 30
0.0
 11
91.3842830599029
 21
-41.4709363282951
 31
0.0
  0
LINE
  5
2AE
330
298
100
AcDbEntity
  8
1
 62
     4
100
AcDbLine
 10
-45.5503323081179
 20
-44.1344140882868
 30
0.0
 11
-22.0035158933565
 21
-44.1344140882868
 31
0.0
  0
LINE
  5
2AF
330
298
100
AcDbEntity
  8
1
 62
     7
100
AcDbLine
 10
-39.55580498226721
 20
-54.08851891254791
 30
0.0
 11
-31.0558049822672
 21
-54.08851891254791
 31
0.0
  0
LINE
  5
2B0
330
298
100
AcDbEntity
  8
1
 62
     7
100
AcDbLine
 10
-39.55580498226721
 20
-60.0885189125479
 30
0.0
 11
-18.0558049822672
 21
-60.0885189125479
 31
0.0
  0
LINE
  5
2B1
330
298
100
AcDbEntity
  8
1
 62
     7
100
AcDbLine
 10
-28.0558049822672
 20
-54.08851891254791
 30
0.0
 11
-18.0558049822672
 21
-54.08851891254791
 31
0.0
  0
LINE
  5
2B2
330
298
100
AcDbEntity
  8
1
 62
     7
100
AcDbLine
 10
-29.5558049822672
 20
-55.5885189125479
 30
0.0
 11
-28.0558049822672
 21
-54.08851891254791
 31
0.0
  0
LINE
  5
2B3
330
298
100
AcDbEntity
  8
1
 62
     7
100
AcDbLine
 10
-31.0558049822672
 20
-54.08851891254791
 30
0.0
 11
-29.5558049822672
 21
-55.5885189125479
 31
0.0
  0
LINE
  5
2B4
330
298
100
AcDbEntity
  8
1
 62
     4
100
AcDbLine
 10
-10.1400887997454
 20
-33.9286733640484
 30
0.0
 11
3.532579719560939
 21
-33.9286733640484
 31
0.0
  0
LINE
  5
2B5
330
298
100
AcDbEntity
  8
1
 62
     7
100
AcDbLine
 10
9.343955436164385
 20
1.65198237885462
 30
0.0
 11
10.31343612334802
 21
1.65198237885462
 31
0.0
  0
LINE
  5
2B6
330
298
100
AcDbEntity
  8
1
 62
     7
100
AcDbLine
 10
6.613436123348021
 20
-3.64801762114538
 30
0.0
 11
6.613436123348021
 21
2.169728454872347
 31
0.0
  0
LINE
  5
2B7
330
298
100
AcDbEntity
  8
1
 62
     7
100
AcDbLine
 10
2.71343612334802
 20
4.151982378854619
 30
0.0
 11
5.248836390275731
 21
4.151982378854619
 31
0.0
  0
LINE
  5
2B8
330
298
100
AcDbEntity
  8
1
 62
     7
100
AcDbLine
 10
2.71343612334802
 20
2.951982378854619
 30
0.0
 11
5.113436123348021
 21
2.951982378854619
 31
0.0
  0
LINE
  5
2B9
330
298
100
AcDbEntity
  8
1
 62
     7
100
AcDbLine
 10
5.413436123348021
 20
-3.648017621145378
 30
0.0
 11
5.413436123348021
 21
2.651982378854619
 31
0.0
  0
LINE
  5
2BA
330
298
100
AcDbEntity
  8
1
 62
     7
100
AcDbLine
 10
-3.386563876651979
 20
-4.448017621145378
 30
0.0
 11
-3.086563876651978
 21
-4.148017621145379
 31
0.0
  0
LINE
  5
2BB
330
298
100
AcDbEntity
  8
1
 62
     7
100
AcDbLine
 10
6.613436123348021
 20
2.813653908470819
 30
0.0
 11
6.613436123348021
 21
2.816393305500325
 31
0.0
  0
LINE
  5
2BC
330
298
100
AcDbEntity
  8
1
 62
     7
100
AcDbLine
 10
-3.086563876651978
 20
-4.148017621145379
 30
0.0
 11
4.913436123348021
 21
-4.148017621145379
 31
0.0
  0
LINE
  5
2BD
330
298
100
AcDbEntity
  8
1
 62
     7
100
AcDbLine
 10
-3.386563876651979
 20
-5.34801762114538
 30
0.0
 11
4.913436123348021
 21
-5.34801762114538
 31
0.0
  0
LINE
  5
2BE
330
298
100
AcDbEntity
  8
1
 62
     7
100
AcDbLine
 10
-17.08656387665198
 20
1.65198237885462
 30
0.0
 11
-16.11708318946835
 21
1.65198237885462
 31
0.0
  0
LINE
  5
2BF
330
298
100
AcDbEntity
  8
1
 62
     7
100
AcDbLine
 10
-13.38656387665198
 20
2.169728454872347
 30
0.0
 11
-13.38656387665198
 21
-3.64801762114538
 31
0.0
  0
LINE
  5
2C0
330
298
100
AcDbEntity
  8
1
 62
     7
100
AcDbLine
 10
-12.02196414357969
 20
4.151982378854619
 30
0.0
 11
-9.486563876651981
 21
4.151982378854619
 31
0.0
  0
LINE
  5
2C1
330
298
100
AcDbEntity
  8
1
 62
     7
100
AcDbLine
 10
-11.88656387665198
 20
2.951982378854619
 30
0.0
 11
-9.486563876651981
 21
2.951982378854619
 31
0.0
  0
LINE
  5
2C2
330
298
100
AcDbEntity
  8
1
 62
     7
100
AcDbLine
 10
-12.18656387665198
 20
2.651982378854619
 30
0.0
 11
-12.18656387665198
 21
-3.648017621145378
 31
0.0
  0
LINE
  5
2C3
330
298
100
AcDbEntity
  8
1
  6
CENTER
 62
     2
100
AcDbLine
 10
-3.386563876651979
 20
5.651982378854617
 30
0.0
 11
-3.386563876651979
 21
-6.348017621145378
 31
0.0
  0
LINE
  5
2C4
330
298
100
AcDbEntity
  8
1
 62
     7
100
AcDbLine
 10
-3.686563876651979
 20
-4.148017621145379
 30
0.0
 11
-3.386563876651979
 21
-4.448017621145378
 31
0.0
  0
LINE
  5
2C5
330
298
100
AcDbEntity
  8
1
 62
     7
100
AcDbLine
 10
-13.38656387665198
 20
2.816393305500325
 30
0.0
 11
-13.38656387665198
 21
2.813653908470819
 31
0.0
  0
LINE
  5
2C6
330
298
100
AcDbEntity
  8
1
 62
     7
100
AcDbLine
 10
-11.68656387665198
 20
-4.148017621145379
 30
0.0
 11
-3.686563876651979
 21
-4.148017621145379
 31
0.0
  0
LINE
  5
2C7
330
298
100
AcDbEntity
  8
1
 62
     7
100
AcDbLine
 10
-11.68656387665198
 20
-5.34801762114538
 30
0.0
 11
-3.386563876651979
 21
-5.34801762114538
 31
0.0
  0
ARC
  5
2C8
330
298
100
AcDbEntity
  8
1
 62
     7
100
AcDbCircle
 10
95.70199119073526
 20
-40.7209363282951
 30
0.0
 40
3.400000000000003
100
AcDbArc
 50
54.77580501938088
 51
72.78454763471552
  0
ARC
  5
2C9
330
298
100
AcDbEntity
  8
1
 62
     7
100
AcDbCircle
 10
98.23428305990288
 20
-37.82093632829511
 30
0.0
 40
0.149999999999995
100
AcDbArc
 50
48.98405414641695
 51
48.98405414725949
  0
ARC
  5
2CA
330
298
100
AcDbEntity
  8
1
 62
     7
100
AcDbCircle
 10
95.70199119073526
 20
-40.7209363282951
 30
0.0
 40
4.000000000000002
100
AcDbArc
 50
48.87659201971903
 51
90.25365111847978
  0
ARC
  5
2CB
330
298
100
AcDbEntity
  8
1
 62
     7
100
AcDbCircle
 10
98.23428305990288
 20
-37.82093632829511
 30
0.0
 40
0.1500000000000057
100
AcDbArc
 50
270.0
 51
48.98405414641695
  0
ARC
  5
2CC
330
298
100
AcDbEntity
  8
1
 62
     7
100
AcDbCircle
 10
93.93428305990289
 20
-37.02093632829511
 30
0.0
 40
0.3000000000000043
100
AcDbArc
 50
90.0
 51
270.0
  0
ARC
  5
2CD
330
298
100
AcDbEntity
  8
1
 62
     7
100
AcDbCircle
 10
87.06657492907053
 20
-40.7209363282951
 30
0.0
 40
3.399999999999993
100
AcDbArc
 50
107.2154523652845
 51
125.2241949806191
  0
ARC
  5
2CE
330
298
100
AcDbEntity
  8
1
 62
     7
100
AcDbCircle
 10
84.53428305990291
 20
-37.82093632829511
 30
0.0
 40
0.1499999999999975
100
AcDbArc
 50
131.0159458527405
 51
131.015945853583
  0
ARC
  5
2CF
330
298
100
AcDbEntity
  8
1
 62
     7
100
AcDbCircle
 10
87.06657492907053
 20
-40.7209363282951
 30
0.0
 40
3.999999999999991
100
AcDbArc
 50
89.74634888152019
 51
131.123407980281
  0
ARC
  5
2D0
330
298
100
AcDbEntity
  8
1
 62
     7
100
AcDbCircle
 10
84.53428305990291
 20
-37.82093632829511
 30
0.0
 40
0.149999999999995
100
AcDbArc
 50
131.015945853583
 51
270.0
  0
ARC
  5
2D1
330
298
100
AcDbEntity
  8
1
 62
     7
100
AcDbCircle
 10
88.83428305990291
 20
-37.02093632829511
 30
0.0
 40
0.2999999999999901
100
AcDbArc
 50
270.0
 51
90.0
  0
ARC
  5
2D2
330
298
100
AcDbEntity
  8
1
 62
     7
100
AcDbCircle
 10
2.71343612334802
 20
3.551982378854619
 30
0.0
 40
0.6000000000000001
100
AcDbArc
 50
90.0
 51
180.0
  0
ARC
  5
2D3
330
298
100
AcDbEntity
  8
1
 62
     7
100
AcDbCircle
 10
-9.486563876651981
 20
3.551982378854619
 30
0.0
 40
0.6000000000000001
100
AcDbArc
 50
270.0
 51
0.0
  0
ARC
  5
2D4
330
298
100
AcDbEntity
  8
1
 62
     7
100
AcDbCircle
 10
10.31343612334802
 20
1.95198237885462
 30
0.0
 40
0.3000000000000007
100
AcDbArc
 50
0.0
 51
48.37063900066105
  0
ARC
  5
2D5
330
298
100
AcDbEntity
  8
1
 62
     7
100
AcDbCircle
 10
5.248836390275731
 20
-3.84801762114538
 30
0.0
 40
6.800000000000001
100
AcDbArc
 50
54.77580501938094
 51
72.78439534670969
  0
ARC
  5
2D6
330
298
100
AcDbEntity
  8
1
 62
     7
100
AcDbCircle
 10
5.248836390275731
 20
-3.84801762114538
 30
0.0
 40
8.000000000000001
100
AcDbArc
 50
48.85350290724711
 51
90.0
  0
ARC
  5
2D7
330
298
100
AcDbEntity
  8
1
 62
     7
100
AcDbCircle
 10
10.31343612334802
 20
1.95198237885462
 30
0.0
 40
0.3
100
AcDbArc
 50
270.0
 51
0.0
  0
ARC
  5
2D8
330
298
100
AcDbEntity
  8
1
 62
     7
100
AcDbCircle
 10
2.71343612334802
 20
3.551982378854619
 30
0.0
 40
0.5999999999999979
100
AcDbArc
 50
180.0
 51
270.0
  0
ARC
  5
2D9
330
298
100
AcDbEntity
  8
1
 62
     7
100
AcDbCircle
 10
-17.08656387665198
 20
1.95198237885462
 30
0.0
 40
0.2999999999999997
100
AcDbArc
 50
131.6293609993387
 51
180.0
  0
ARC
  5
2DA
330
298
100
AcDbEntity
  8
1
 62
     7
100
AcDbCircle
 10
-12.02196414357969
 20
-3.84801762114538
 30
0.0
 40
6.800000000000002
100
AcDbArc
 50
107.2156046532903
 51
125.2241949806191
  0
ARC
  5
2DB
330
298
100
AcDbEntity
  8
1
 62
     7
100
AcDbCircle
 10
-12.02196414357969
 20
-3.84801762114538
 30
0.0
 40
8.0
100
AcDbArc
 50
90.0
 51
131.1464970927529
  0
ARC
  5
2DC
330
298
100
AcDbEntity
  8
1
 62
     7
100
AcDbCircle
 10
-17.08656387665198
 20
1.95198237885462
 30
0.0
 40
0.3000000000000007
100
AcDbArc
 50
180.0
 51
270.0
  0
ARC
  5
2DD
330
298
100
AcDbEntity
  8
1
 62
     7
100
AcDbCircle
 10
-9.486563876651981
 20
3.551982378854619
 30
0.0
 40
0.5999999999999997
100
AcDbArc
 50
0.0
 51
90.0
  0
ARC
  5
2DE
330
298
100
AcDbEntity
  8
1
 62
     7
100
AcDbCircle
 10
95.63428305990289
 20
-40.7209363282951
 30
0.0
 40
0.75
100
AcDbArc
 50
270.0
 51
0.0
  0
ARC
  5
2DF
330
298
100
AcDbEntity
  8
1
 62
     7
100
AcDbCircle
 10
95.63428305990289
 20
-40.7209363282951
 30
0.0
 40
0.1499999999999986
100
AcDbArc
 50
270.0
 51
0.0
  0
ARC
  5
2E0
330
298
100
AcDbEntity
  8
1
 62
     7
100
AcDbCircle
 10
95.63428305990289
 20
-37.47093632829511
 30
0.0
 40
0.1500000000000057
100
AcDbArc
 50
0.0
 51
90.0
  0
ARC
  5
2E1
330
298
100
AcDbEntity
  8
1
 62
     7
100
AcDbCircle
 10
97.74955071367958
 20
-37.82093632829511
 30
0.0
 40
0.150000000000001
100
AcDbArc
 50
234.7758050193837
 51
270.0
  0
ARC
  5
2E2
330
298
100
AcDbEntity
  8
1
 62
     7
100
AcDbCircle
 10
96.63428305990288
 20
-37.71206081231178
 30
0.0
 40
0.2500000000000007
100
AcDbArc
 50
72.7845476347168
 51
180.0
  0
ARC
  5
2E3
330
298
100
AcDbEntity
  8
1
 62
     7
100
AcDbCircle
 10
87.13428305990289
 20
-40.7209363282951
 30
0.0
 40
0.75
100
AcDbArc
 50
180.0
 51
270.0
  0
ARC
  5
2E4
330
298
100
AcDbEntity
  8
1
 62
     7
100
AcDbCircle
 10
87.13428305990289
 20
-40.7209363282951
 30
0.0
 40
0.1500000000000057
100
AcDbArc
 50
180.0
 51
270.0
  0
ARC
  5
2E5
330
298
100
AcDbEntity
  8
1
 62
     7
100
AcDbCircle
 10
87.13428305990289
 20
-37.47093632829511
 30
0.0
 40
0.1500000000000057
100
AcDbArc
 50
90.0
 51
180.0
  0
ARC
  5
2E6
330
298
100
AcDbEntity
  8
1
 62
     7
100
AcDbCircle
 10
85.01901540612619
 20
-37.82093632829511
 30
0.0
 40
0.1500000000000057
100
AcDbArc
 50
270.0
 51
305.2241949806164
  0
ARC
  5
2E7
330
298
100
AcDbEntity
  8
1
 62
     7
100
AcDbCircle
 10
86.13428305990289
 20
-37.71206081231178
 30
0.0
 40
0.25
100
AcDbArc
 50
0.0
 51
107.2154523652832
  0
ARC
  5
2E8
330
298
100
AcDbEntity
  8
1
 62
     7
100
AcDbCircle
 10
7.113436123348021
 20
2.169728454872347
 30
0.0
 40
0.5000000000000005
100
AcDbArc
 50
72.78439534670972
 51
180.0
  0
ARC
  5
2E9
330
298
100
AcDbEntity
  8
1
 62
     7
100
AcDbCircle
 10
9.343955436164385
 20
1.95198237885462
 30
0.0
 40
0.3000000000000007
100
AcDbArc
 50
234.775805019381
 51
270.0
  0
ARC
  5
2EA
330
298
100
AcDbEntity
  8
1
 62
     7
100
AcDbCircle
 10
5.113436123348021
 20
2.651982378854619
 30
0.0
 40
0.2999999999999998
100
AcDbArc
 50
0.0
 51
90.0
  0
ARC
  5
2EB
330
298
100
AcDbEntity
  8
1
 62
     7
100
AcDbCircle
 10
4.913436123348021
 20
-3.648017621145378
 30
0.0
 40
1.7
100
AcDbArc
 50
270.0
 51
0.0
  0
ARC
  5
2EC
330
298
100
AcDbEntity
  8
1
 62
     7
100
AcDbCircle
 10
4.913436123348021
 20
-3.648017621145378
 30
0.0
 40
0.5000000000000009
100
AcDbArc
 50
270.0
 51
0.0
  0
ARC
  5
2ED
330
298
100
AcDbEntity
  8
1
 62
     7
100
AcDbCircle
 10
-13.88656387665198
 20
2.169728454872347
 30
0.0
 40
0.5
100
AcDbArc
 50
0.0
 51
107.2156046532905
  0
ARC
  5
2EE
330
298
100
AcDbEntity
  8
1
 62
     7
100
AcDbCircle
 10
-16.11708318946835
 20
1.95198237885462
 30
0.0
 40
0.3
100
AcDbArc
 50
270.0
 51
305.2241949806195
  0
ARC
  5
2EF
330
298
100
AcDbEntity
  8
1
 62
     7
100
AcDbCircle
 10
-11.88656387665198
 20
2.651982378854619
 30
0.0
 40
0.2999999999999998
100
AcDbArc
 50
90.0
 51
180.0
  0
ARC
  5
2F0
330
298
100
AcDbEntity
  8
1
 62
     7
100
AcDbCircle
 10
-11.68656387665198
 20
-3.648017621145378
 30
0.0
 40
1.699999999999999
100
AcDbArc
 50
180.0
 51
270.0
  0
ARC
  5
2F1
330
298
100
AcDbEntity
  8
1
 62
     7
100
AcDbCircle
 10
-11.68656387665198
 20
-3.648017621145378
 30
0.0
 40
0.5
100
AcDbArc
 50
180.0
 51
270.0
  0
TEXT
  5
2F2
330
298
100
AcDbEntity
  8
1
 62
     4
100
AcDbText
 10
98.004420529123
 20
-55.81241486198049
 30
0.0
 40
2.25
  1
アンバー色　
 41
0.63
 72
     1
 11
101.311920529123
 21
-54.68741486198049
 31
0.0
100
AcDbText
 73
     2
  0
TEXT
  5
2F3
330
298
100
AcDbEntity
  8
1
 62
     4
100
AcDbText
 10
74.05960128996049
 20
-55.7857154856588
 30
0.0
 40
2.25
  1
A6033S=T5
 41
0.63
 72
     1
 11
80.0839762899605
 21
-54.6607154856588
 31
0.0
100
AcDbText
 73
     2
  0
TEXT
  5
2F4
330
298
100
AcDbEntity
  8
1
 62
     4
100
AcDbText
 10
91.28915573375193
 20
-73.1912505053123
 30
0.0
 40
4.0
  1
製 品 図
 41
0.6299999999999998
 11
91.28915573375193
 21
-71.1912505053123
 31
0.0
100
AcDbText
 73
     2
  0
TEXT
  5
2F5
330
298
100
AcDbEntity
  8
1
 62
     4
100
AcDbText
 10
77.8968579674834
 20
-71.846758387142
 30
0.0
 40
2.25
  1
96.3.26
 41
0.63
 72
     1
 11
81.6768579674834
 21
-70.721758387142
 31
0.0
100
AcDbText
 73
     2
  0
TEXT
  5
2F6
330
298
100
AcDbEntity
  8
1
 62
     4
100
AcDbText
 10
47.42077654527199
 20
-63.9649320839792
 30
0.0
 40
3.0
  1
2 : 1
 41
0.6300000000000001
 72
     1
 11
50.88577654527199
 21
-62.46493208397921
 31
0.0
100
AcDbText
 73
     2
  0
TEXT
  5
2F7
330
298
100
AcDbEntity
  8
1
 62
     4
100
AcDbText
 10
87.7617830599029
 20
-30.1805911108577
 30
0.0
 40
3.0
  1
Ｓ＝１：１
 41
0.6300000000000001
 72
     1
 11
91.3842830599029
 21
-28.6805911108577
 31
0.0
100
AcDbText
 73
     2
  0
TEXT
  5
2F8
330
298
100
AcDbEntity
  8
1
 62
     4
100
AcDbText
 10
-42.4033049822672
 20
-43.455148384421
 30
0.0
 40
3.0
  1
Ｖ溝詳細　Ｓ＝１０：１
 41
0.6300000000000001
 72
     1
 11
-34.0558049822672
 21
-41.95514838442099
 31
0.0
100
AcDbText
 73
     2
  0
TEXT
  5
2F9
330
298
100
AcDbEntity
  8
1
 62
     4
100
AcDbText
 10
-9.05656387665198
 20
-33.3738214478521
 30
0.0
 40
3.0
  1
左 右 対 称
 41
0.6300000000000001
 72
     1
 11
-3.386563876651979
 21
-31.8738214478521
 31
0.0
100
AcDbText
 73
     2
  0
TEXT
  5
2FA
330
298
100
AcDbEntity
  8
1
 62
     4
100
AcDbText
 10
91.28915573375193
 20
-65.6912505053123
 30
0.0
 40
4.0
  1
HR-110（下レール）
 41
0.6299999999999998
 11
91.28915573375193
 21
-63.6912505053123
 31
0.0
100
AcDbText
 73
     2
  0
TEXT
  5
2FB
330
298
100
AcDbEntity
  8
1
 62
     4
100
AcDbText
 10
91.28915573375193
 20
-80.6912505053123
 30
0.0
 40
4.0
  1
GDFD-HR1-A02
 41
0.6299999999999998
 11
91.28915573375193
 21
-78.6912505053123
 31
0.0
100
AcDbText
 73
     2
  0
TEXT
  5
2FC
330
298
100
AcDbEntity
  8
1
 62
     4
100
AcDbText
 10
67.8968579674834
 20
-71.846758387142
 30
0.0
 40
2.25
  1
96.3.26
 41
0.63
 72
     1
 11
71.6768579674834
 21
-70.721758387142
 31
0.0
100
AcDbText
 73
     2
  0
TEXT
  5
2FD
330
298
100
AcDbEntity
  8
1
 62
     4
100
AcDbText
 10
57.89685796748339
 20
-71.846758387142
 30
0.0
 40
2.25
  1
96.3.26
 41
0.63
 72
     1
 11
61.67685796748339
 21
-70.721758387142
 31
0.0
100
AcDbText
 73
     2
  0
DIMENSION
  5
2FE
330
298
100
AcDbEntity
  8
1
  6
Continuous
 62
     2
100
AcDbDimension
  2
*D5
 10
-44.55580498226719
 20
-54.08851891254791
 30
0.0
 11
-45.93080498226719
 21
-57.0885189125479
 31
0.0
  1
1.2
 71
     5
 42
-1.0
  3
DMST_1
100
AcDbAlignedDimension
 13
-39.55580498226721
 23
-60.0885189125479
 33
0.0
 14
-39.55580498226721
 24
-54.08851891254791
 34
0.0
 50
90.0
100
AcDbRotatedDimension
  0
DIMENSION
  5
2FF
330
298
100
AcDbEntity
  8
1
  6
Continuous
 62
     2
100
AcDbDimension
  2
*D6
 10
-41.4432882366984
 20
-54.08851891254791
 30
0.0
 11
-42.81828823669839
 21
-49.67985414714529
 31
0.0
  1
0.3
 71
     5
 42
-1.0
  3
DMST_1
100
AcDbAlignedDimension
 13
-29.5558049822672
 23
-55.5885189125479
 33
0.0
 14
-39.55580498226721
 24
-54.08851891254791
 34
0.0
 50
90.0
100
AcDbRotatedDimension
  0
DIMENSION
  5
300
330
298
100
AcDbEntity
  8
1
  6
Continuous
 62
     2
100
AcDbDimension
  2
*D7
 10
-28.0558049822672
 20
-49.0574088480828
 30
0.0
 11
-29.5558049822672
 21
-47.6824088480828
 31
0.0
  1
0.6
 71
     5
 42
-1.0
  3
DMST_2
100
AcDbAlignedDimension
 13
-31.0558049822672
 23
-54.08851891254791
 33
0.0
 14
-28.0558049822672
 24
-54.08851891254791
 34
0.0
100
AcDbRotatedDimension
  0
DIMENSION
  5
301
330
298
100
AcDbEntity
  8
1
  6
Continuous
 62
     2
100
AcDbDimension
  2
*D8
 10
-28.38656387665198
 20
4.151982378854619
 30
0.0
 11
-29.76156387665198
 21
6.62219542695478
 31
0.0
 71
     5
 42
-1.0
  3
DMST_1
100
AcDbAlignedDimension
 13
-17.08656387665198
 23
1.65198237885462
 33
0.0
 14
-12.02196414357969
 24
4.151982378854619
 34
0.0
 50
90.0
100
AcDbRotatedDimension
  0
DIMENSION
  5
302
330
298
100
AcDbEntity
  8
1
  6
Continuous
 62
     2
100
AcDbDimension
  2
*D9
 10
-28.38656387665198
 20
1.65198237885462
 30
0.0
 11
-29.76156387665198
 21
-1.848017621145379
 31
0.0
 71
     5
 42
-1.0
  3
DMST_1
100
AcDbAlignedDimension
 13
-11.68656387665198
 23
-5.34801762114538
 33
0.0
 14
-16.11708318946835
 24
1.65198237885462
 34
0.0
 50
90.0
100
AcDbRotatedDimension
  0
DIMENSION
  5
303
330
298
100
AcDbEntity
  8
1
  6
Continuous
 62
     2
100
AcDbDimension
  2
*D10
 10
26.61343612334802
 20
4.151982378854619
 30
0.0
 11
25.23843612334802
 21
-0.59801762114538
 31
0.0
  1
(<>
 71
     5
 42
-1.0
  3
DMST_3
100
AcDbAlignedDimension
 13
4.913436123348021
 23
-5.34801762114538
 33
0.0
 14
5.248836390275731
 24
4.151982378854619
 34
0.0
 50
90.0
100
AcDbRotatedDimension
  0
DIMENSION
  5
304
330
298
100
AcDbEntity
  8
1
  6
Continuous
 62
     2
100
AcDbDimension
  2
*D11
 10
21.61343612334802
 20
-5.348017621145379
 30
0.0
 11
20.23843612334802
 21
-8.75066020712917
 31
0.0
 71
     5
 42
-1.0
  3
DMST_1
100
AcDbAlignedDimension
 13
4.913436123348021
 23
-4.148017621145379
 33
0.0
 14
4.913436123348021
 24
-5.34801762114538
 34
0.0
 50
90.0
100
AcDbRotatedDimension
  0
DIMENSION
  5
305
330
298
100
AcDbEntity
  8
1
  6
Continuous
 62
     2
100
AcDbDimension
  2
*D12
 10
21.61343612334802
 20
4.151982378854619
 30
0.0
 11
20.23843612334802
 21
7.028139251603159
 31
0.0
 71
     5
 42
-1.0
  3
DMST_1
100
AcDbAlignedDimension
 13
5.113436123348021
 23
2.951982378854619
 33
0.0
 14
5.248836390275731
 24
4.151982378854619
 34
0.0
 50
90.0
100
AcDbRotatedDimension
  0
DIMENSION
  5
306
330
298
100
AcDbEntity
  8
1
  6
Continuous
 62
     2
100
AcDbDimension
  2
*D13
 10
21.61343612334802
 20
2.951982378854619
 30
0.0
 11
19.80093612334802
 21
-0.5980176211453801
 31
0.0
 71
     5
 42
-1.0
  3
DMST_4
100
AcDbAlignedDimension
 13
4.913436123348021
 23
-4.148017621145379
 33
0.0
 14
5.113436123348021
 24
2.951982378854619
 34
0.0
 50
90.0
100
AcDbRotatedDimension
  0
DIMENSION
  5
307
330
298
100
AcDbEntity
  8
1
  6
Continuous
 62
     2
100
AcDbDimension
  2
*D14
 10
6.613436123348019
 20
-20.34801762114538
 30
0.0
 11
-3.386563876651979
 21
-18.53551762114538
 31
0.0
 71
     5
 42
-1.0
  3
DMST_5
100
AcDbAlignedDimension
 13
-13.38656387665198
 23
-3.64801762114538
 33
0.0
 14
6.613436123348021
 24
-3.64801762114538
 34
0.0
100
AcDbRotatedDimension
  0
DIMENSION
  5
308
330
298
100
AcDbEntity
  8
1
  6
Continuous
 62
     2
100
AcDbDimension
  2
*D15
 10
6.613436123348019
 20
-15.34801762114538
 30
0.0
 11
9.818991008673167
 21
-13.97301762114538
 31
0.0
 71
     5
 42
-1.0
  3
DMST_2
100
AcDbAlignedDimension
 13
5.413436123348021
 23
-3.648017621145378
 33
0.0
 14
6.613436123348021
 24
-3.64801762114538
 34
0.0
100
AcDbRotatedDimension
  0
DIMENSION
  5
309
330
298
100
AcDbEntity
  8
1
  6
Continuous
 62
     2
100
AcDbDimension
  2
*D16
 10
-13.38656387665198
 20
-15.34801762114538
 30
0.0
 11
-16.683321067777
 21
-13.97301762114538
 31
0.0
 71
     5
 42
-1.0
  3
DMST_2
100
AcDbAlignedDimension
 13
-12.18656387665198
 23
-3.648017621145378
 33
0.0
 14
-13.38656387665198
 24
-3.64801762114538
 34
0.0
100
AcDbRotatedDimension
  0
DIMENSION
  5
30A
330
298
100
AcDbEntity
  8
1
  6
Continuous
 62
     2
100
AcDbDimension
  2
*D17
 10
5.413436123348021
 20
-15.34801762114538
 30
0.0
 11
-3.386563876651979
 21
-13.53551762114538
 31
0.0
 71
     5
 42
-1.0
  3
DMST_5
100
AcDbAlignedDimension
 13
-12.18656387665198
 23
-3.648017621145378
 33
0.0
 14
5.413436123348021
 24
-3.648017621145378
 34
0.0
100
AcDbRotatedDimension
  0
DIMENSION
  5
30B
330
298
100
AcDbEntity
  8
1
  6
Continuous
 62
     2
100
AcDbDimension
  2
*D18
 10
10.61343612334802
 20
17.15198237885462
 30
0.0
 11
-3.386563876651981
 21
18.96448237885462
 31
0.0
 71
     5
 42
-1.0
  3
DMST_5
100
AcDbAlignedDimension
 13
-17.38656387665198
 23
1.95198237885462
 33
0.0
 14
10.61343612334802
 24
1.95198237885462
 34
0.0
100
AcDbRotatedDimension
  0
DIMENSION
  5
30C
330
298
100
AcDbEntity
  8
1
  6
Continuous
 62
     2
100
AcDbDimension
  2
*D19
 10
10.61343612334802
 20
12.15198237885461
 30
0.0
 11
6.363436123348021
 21
13.52698237885461
 31
0.0
  1
(<>
 71
     5
 42
-1.0
  3
DMST_6
100
AcDbAlignedDimension
 13
2.113436123348022
 23
3.551982378854619
 33
0.0
 14
10.61343612334802
 24
1.95198237885462
 34
0.0
100
AcDbRotatedDimension
  0
DIMENSION
  5
30D
330
298
100
AcDbEntity
  8
1
  6
Continuous
 62
     2
100
AcDbDimension
  2
*D20
 10
-8.88656387665198
 20
12.15198237885461
 30
0.0
 11
-13.13656387665198
 21
13.52698237885461
 31
0.0
  1
(<>
 71
     5
 42
-1.0
  3
DMST_6
100
AcDbAlignedDimension
 13
-17.38656387665198
 23
1.95198237885462
 33
0.0
 14
-8.88656387665198
 24
3.551982378854619
 34
0.0
100
AcDbRotatedDimension
  0
DIMENSION
  5
30E
330
298
100
AcDbEntity
  8
1
  6
Continuous
 62
     2
100
AcDbDimension
  2
*D21
 10
2.113436123348022
 20
12.15198237885461
 30
0.0
 11
-3.386563876651978
 21
13.96448237885462
 31
0.0
 71
     5
 42
-1.0
  3
DMST_5
100
AcDbAlignedDimension
 13
-8.88656387665198
 23
3.551982378854619
 33
0.0
 14
2.113436123348022
 24
3.551982378854619
 34
0.0
100
AcDbRotatedDimension
  0
DIMENSION
  5
30F
330
298
100
AcDbEntity
  8
1
  6
Continuous
 62
     2
100
AcDbDimension
  2
*D22
 10
-17.08656387665198
 20
1.95198237885462
 30
0.0
 11
-25.38656387665198
 21
-0.0961050269705
 31
0.0
 70
     4
 71
     5
 42
-1.0
  3
DMST_2
100
AcDbRadialDimension
 15
-17.31570146134098
 25
1.758343624254996
 35
0.0
 40
0.0
  0
DIMENSION
  5
310
330
298
100
AcDbEntity
  8
1
  6
Continuous
 62
     2
100
AcDbDimension
  2
*D23
 10
-16.11708318946835
 20
1.95198237885462
 30
0.0
 11
-24.72498646464093
 21
10.5598856540272
 31
0.0
 70
     4
 71
     5
 42
-1.0
  3
DMST_7
100
AcDbRadialDimension
 15
-15.96224401259944
 25
1.695029407852999
 35
0.0
 40
0.0
  0
DIMENSION
  5
311
330
298
100
AcDbEntity
  8
1
  6
Continuous
 62
     2
100
AcDbDimension
  2
*D24
 10
-12.02196414357969
 20
-3.84801762114538
 30
0.0
 11
-24.9533093357512
 21
13.52698237885461
 31
0.0
 70
     4
 71
     5
 42
-1.0
  3
DMST_2
100
AcDbRadialDimension
 15
-15.26510850009148
 25
2.128772042447086
 35
0.0
 40
0.0
  0
DIMENSION
  5
312
330
298
100
AcDbEntity
  8
1
  6
Continuous
 62
     2
100
AcDbDimension
  2
*D25
 10
-12.02196414357969
 20
-3.84801762114538
 30
0.0
 11
-23.5807613055533
 21
18.52698237885462
 31
0.0
 70
     4
 71
     5
 42
-1.0
  3
DMST_2
100
AcDbRadialDimension
 15
-14.89321570491792
 25
3.618970692191714
 35
0.0
 40
0.0
  0
DIMENSION
  5
313
330
298
100
AcDbEntity
  8
1
  6
Continuous
 62
     2
100
AcDbDimension
  2
*D26
 10
-13.88656387665198
 20
2.169728454872347
 30
0.0
 11
-21.3562869117844
 21
-3.03051805704867
 31
0.0
 70
     4
 71
     5
 42
-1.0
  3
DMST_7
100
AcDbRadialDimension
 15
-13.6666401142889
 25
2.618764688096422
 35
0.0
 40
0.0
  0
DIMENSION
  5
314
330
298
100
AcDbEntity
  8
1
  6
Continuous
 62
     2
100
AcDbDimension
  2
*D27
 10
-11.68656387665198
 20
-3.648017621145378
 30
0.0
 11
-20.173055851269
 21
-8.8520148747844
 31
0.0
 70
     4
 71
     5
 42
-1.0
  3
DMST_2
100
AcDbRadialDimension
 15
-12.63472528542319
 25
-5.059042051450181
 35
0.0
 40
0.0
  0
DIMENSION
  5
315
330
298
100
AcDbEntity
  8
1
  6
Continuous
 62
     2
100
AcDbDimension
  2
*D28
 10
-11.68656387665198
 20
-3.648017621145378
 30
0.0
 11
-6.002680670536669
 21
-1.40239211777949
 31
0.0
 70
     4
 71
     5
 42
-1.0
  3
DMST_7
100
AcDbRadialDimension
 15
-12.11400070785544
 25
-3.907435730248701
 35
0.0
 40
0.0
  0
DIMENSION
  5
316
330
298
100
AcDbEntity
  8
1
  6
Continuous
 62
     2
100
AcDbDimension
  2
*D29
 10
-11.88656387665198
 20
2.651982378854619
 30
0.0
 11
-5.83229539782245
 21
1.096591882029017
 31
0.0
 70
     4
 71
     5
 42
-1.0
  3
DMST_7
100
AcDbRadialDimension
 15
-12.04389275052325
 25
2.907418526348273
 35
0.0
 40
0.0
  0
DIMENSION
  5
317
330
298
100
AcDbEntity
  8
1
  6
Continuous
 62
     2
100
AcDbDimension
  2
*D30
 10
-9.486563876651981
 20
3.551982378854619
 30
0.0
 11
-1.6927451803847
 21
9.197077057274469
 31
0.0
 70
     4
 71
     5
 42
-1.0
  3
DMST_2
100
AcDbRadialDimension
 15
-9.103345251214813
 25
4.013657031741312
 35
0.0
 40
0.0
  0
INSERT
  5
318
330
298
100
AcDbEntity
  8
0
100
AcDbBlockReference
  2
TOP__1
 10
76.78915573375197
 20
-68.8059020481775
 30
0.0
 41
0.5
 42
0.5
 43
0.5
  0
INSERT
  5
319
330
298
100
AcDbEntity
  8
0
100
AcDbBlockReference
  2
FORMAT_A3
 10
-57.21084426624829
 20
-82.30590204817771
 30
0.0
 41
0.5
 42
0.5
 43
0.5
  0
INSERT
  5
31A
330
298
100
AcDbEntity
  8
0
100
AcDbBlockReference
  2
TOP__2
 10
66.78915573375197
 20
-68.8059020481775
 30
0.0
 41
0.5
 42
0.5
 43
0.5
  0
INSERT
  5
31B
330
298
100
AcDbEntity
  8
0
100
AcDbBlockReference
  2
TOP__3
 10
56.78915573375196
 20
-68.8059020481775
 30
0.0
 41
0.5
 42
0.5
 43
0.5
  0
ENDBLK
  5
31C
330
298
100
AcDbEntity
  8
0
100
AcDbBlockEnd
  0
BLOCK
  5
3A3
330
3A2
100
AcDbEntity
  8
0
100
AcDbBlockBegin
  2
*D32
 70
     1
 10
0.0
 20
0.0
 30
0.0
  3
*D32
  1

  0
LINE
  5
4CB
330
3A2
100
AcDbEntity
  8
1
  6
Continuous
 62
     2
440
 16777216
370
    -2
100
AcDbLine
 10
34.81007856796218
 20
44.43476627125919
 30
0.0
 11
24.81007856796219
 21
44.43476627125919
 31
0.0
  0
LINE
  5
4CC
330
3A2
100
AcDbEntity
  8
1
  6
Continuous
 62
     2
440
 16777216
370
    -2
100
AcDbLine
 10
34.81007856796218
 20
56.43476627125919
 30
0.0
 11
24.8100785679622
 21
56.43476627125919
 31
0.0
  0
LINE
  5
4CD
330
3A2
100
AcDbEntity
  8
1
  6
Continuous
 62
     2
440
 16777216
370
    -2
100
AcDbLine
 10
25.31007856796219
 20
45.68476627125919
 30
0.0
 11
25.31007856796219
 21
55.18476627125919
 31
0.0
  0
SOLID
  5
4CE
330
3A2
100
AcDbEntity
  8
1
  6
Continuous
 62
     2
440
 16777216
100
AcDbTrace
 10
25.10174523462886
 20
45.68476627125919
 30
0.0
 11
25.51841190129553
 21
45.68476627125919
 31
0.0
 12
25.31007856796219
 22
44.43476627125919
 32
0.0
 13
25.31007856796219
 23
44.43476627125919
 33
0.0
  0
SOLID
  5
4CF
330
3A2
100
AcDbEntity
  8
1
  6
Continuous
 62
     2
440
 16777216
100
AcDbTrace
 10
25.10174523462886
 20
55.18476627125919
 30
0.0
 11
25.51841190129553
 21
55.18476627125919
 31
0.0
 12
25.31007856796219
 22
56.43476627125919
 32
0.0
 13
25.31007856796219
 23
56.43476627125919
 33
0.0
  0
MTEXT
  5
4D0
330
3A2
100
AcDbEntity
  8
1
  6
Continuous
 62
     3
440
 16777216
100
AcDbMText
 10
24.34507856796218
 20
50.4347662712592
 30
0.0
 40
1.75
 41
0.0
 71
     5
 72
     1
  1
\A1;1.2
 11
0.0000000000000001
 21
1.0
 31
0.0
 73
     1
 44
1.0
  0
POINT
  5
4D1
330
3A2
100
AcDbEntity
  8
Defpoints
  6
Continuous
 62
     0
440
 16777216
100
AcDbPoint
 10
35.31007856796218
 20
44.43476627125919
 30
0.0
  0
POINT
  5
4D2
330
3A2
100
AcDbEntity
  8
Defpoints
  6
Continuous
 62
     0
440
 16777216
100
AcDbPoint
 10
35.31007856796218
 20
56.43476627125919
 30
0.0
  0
POINT
  5
4D3
330
3A2
100
AcDbEntity
  8
Defpoints
  6
Continuous
 62
     0
440
 16777216
100
AcDbPoint
 10
25.31007856796219
 20
56.43476627125919
 30
0.0
  0
ENDBLK
  5
3A4
330
3A2
100
AcDbEntity
  8
0
100
AcDbBlockEnd
  0
BLOCK
  5
3AF
330
3AE
100
AcDbEntity
  8
0
100
AcDbBlockBegin
  2
*D33
 70
     1
 10
0.0
 20
0.0
 30
0.0
  3
*D33
  1

  0
LINE
  5
4D4
330
3AE
100
AcDbEntity
  8
1
  6
Continuous
 62
     2
440
 16777216
370
    -2
100
AcDbLine
 10
54.81007856796219
 20
53.43476627125919
 30
0.0
 11
31.03511205909978
 21
53.43476627125919
 31
0.0
  0
LINE
  5
4D5
330
3AE
100
AcDbEntity
  8
1
  6
Continuous
 62
     2
440
 16777216
370
    -2
100
AcDbLine
 10
34.81007856796218
 20
56.43476627125919
 30
0.0
 11
31.03511205909979
 21
56.43476627125919
 31
0.0
  0
LINE
  5
4D6
330
3AE
100
AcDbEntity
  8
1
  6
Continuous
 62
     2
440
 16777216
370
    -2
100
AcDbLine
 10
31.53511205909979
 20
54.68476627125919
 30
0.0
 11
31.53511205909979
 21
55.18476627125919
 31
0.0
  0
MTEXT
  5
4D7
330
3AE
100
AcDbEntity
  8
1
  6
Continuous
 62
     3
440
 16777216
100
AcDbMText
 10
30.02511205909978
 20
54.93476627125921
 30
0.0
 40
1.75
 41
0.0
 71
     5
 72
     1
  1
\A1;0.3
 11
0.0000000000000001
 21
1.0
 31
0.0
 73
     1
 44
1.0
  0
SOLID
  5
4D8
330
3AE
100
AcDbEntity
  8
1
  6
Continuous
 62
     2
440
 16777216
100
AcDbTrace
 10
31.32677872576645
 20
54.68476627125919
 30
0.0
 11
31.74344539243312
 21
54.68476627125919
 31
0.0
 12
31.53511205909979
 22
53.43476627125919
 32
0.0
 13
31.53511205909979
 23
53.43476627125919
 33
0.0
  0
SOLID
  5
4D9
330
3AE
100
AcDbEntity
  8
1
  6
Continuous
 62
     2
440
 16777216
100
AcDbTrace
 10
31.32677872576645
 20
55.18476627125919
 30
0.0
 11
31.74344539243312
 21
55.18476627125919
 31
0.0
 12
31.53511205909979
 22
56.43476627125919
 32
0.0
 13
31.53511205909979
 23
56.43476627125919
 33
0.0
  0
POINT
  5
4DA
330
3AE
100
AcDbEntity
  8
Defpoints
  6
Continuous
 62
     0
440
 16777216
100
AcDbPoint
 10
55.31007856796219
 20
53.43476627125919
 30
0.0
  0
POINT
  5
4DB
330
3AE
100
AcDbEntity
  8
Defpoints
  6
Continuous
 62
     0
440
 16777216
100
AcDbPoint
 10
35.31007856796218
 20
56.43476627125919
 30
0.0
  0
POINT
  5
4DC
330
3AE
100
AcDbEntity
  8
Defpoints
  6
Continuous
 62
     0
440
 16777216
100
AcDbPoint
 10
31.53511205909979
 20
56.43476627125919
 30
0.0
  0
ENDBLK
  5
3B0
330
3AE
100
AcDbEntity
  8
0
100
AcDbBlockEnd
  0
BLOCK
  5
3BC
330
3BB
100
AcDbEntity
  8
0
100
AcDbBlockBegin
  2
*D34
 70
     1
 10
0.0
 20
0.0
 30
0.0
  3
*D34
  1

  0
LINE
  5
4DD
330
3BB
100
AcDbEntity
  8
1
  6
Continuous
 62
     2
440
 16777216
370
    -2
100
AcDbLine
 10
52.31007856796219
 20
56.93476627125919
 30
0.0
 11
52.31007856796219
 21
66.9969864001894
 31
0.0
  0
LINE
  5
4DE
330
3BB
100
AcDbEntity
  8
1
  6
Continuous
 62
     2
440
 16777216
370
    -2
100
AcDbLine
 10
58.31007856796219
 20
56.93476627125919
 30
0.0
 11
58.31007856796219
 21
66.9969864001894
 31
0.0
  0
LINE
  5
4DF
330
3BB
100
AcDbEntity
  8
1
  6
Continuous
 62
     2
440
 16777216
370
    -2
100
AcDbLine
 10
53.56007856796219
 20
66.49698640018939
 30
0.0
 11
57.06007856796219
 21
66.49698640018939
 31
0.0
  0
SOLID
  5
4E0
330
3BB
100
AcDbEntity
  8
1
  6
Continuous
 62
     2
440
 16777216
100
AcDbTrace
 10
53.56007856796219
 20
66.70531973352272
 30
0.0
 11
53.56007856796219
 21
66.28865306685607
 31
0.0
 12
52.31007856796219
 22
66.49698640018939
 32
0.0
 13
52.31007856796219
 23
66.49698640018939
 33
0.0
  0
SOLID
  5
4E1
330
3BB
100
AcDbEntity
  8
1
  6
Continuous
 62
     2
440
 16777216
100
AcDbTrace
 10
57.06007856796219
 20
66.70531973352272
 30
0.0
 11
57.06007856796219
 21
66.28865306685607
 31
0.0
 12
58.31007856796219
 22
66.49698640018939
 32
0.0
 13
58.31007856796219
 23
66.49698640018939
 33
0.0
  0
MTEXT
  5
4E2
330
3BB
100
AcDbEntity
  8
1
  6
Continuous
 62
     3
440
 16777216
100
AcDbMText
 10
55.31007856796219
 20
67.4619864001894
 30
0.0
 40
1.75
 41
0.0
 71
     5
 72
     1
  1
\A1;0.6
 73
     1
 44
1.0
  0
POINT
  5
4E3
330
3BB
100
AcDbEntity
  8
Defpoints
  6
Continuous
 62
     0
440
 16777216
100
AcDbPoint
 10
52.31007856796219
 20
56.43476627125919
 30
0.0
  0
POINT
  5
4E4
330
3BB
100
AcDbEntity
  8
Defpoints
  6
Continuous
 62
     0
440
 16777216
100
AcDbPoint
 10
58.31007856796219
 20
56.43476627125919
 30
0.0
  0
POINT
  5
4E5
330
3BB
100
AcDbEntity
  8
Defpoints
  6
Continuous
 62
     0
440
 16777216
100
AcDbPoint
 10
58.31007856796219
 20
66.49698640018939
 30
0.0
  0
ENDBLK
  5
3BD
330
3BB
100
AcDbEntity
  8
0
100
AcDbBlockEnd
  0
BLOCK
  5
3C8
330
3C7
100
AcDbEntity
  8
0
100
AcDbBlockBegin
  2
*D35
 70
     1
 10
0.0
 20
0.0
 30
0.0
  3
*D35
  1

  0
LINE
  5
4E6
330
3C7
100
AcDbEntity
  8
1
  6
Continuous
 62
     2
440
 16777216
370
    -2
100
AcDbLine
 10
79.74856077919262
 20
167.9157688540642
 30
0.0
 11
57.14856077919263
 21
167.9157688540643
 31
0.0
  0
LINE
  5
4E7
330
3C7
100
AcDbEntity
  8
1
  6
Continuous
 62
     2
440
 16777216
370
    -2
100
AcDbLine
 10
89.87776024533721
 20
172.9157688540642
 30
0.0
 11
57.14856077919263
 21
172.9157688540643
 31
0.0
  0
LINE
  5
4E8
330
3C7
100
AcDbEntity
  8
1
  6
Continuous
 62
     2
440
 16777216
370
    -2
100
AcDbLine
 10
57.64856077919263
 20
169.1657688540643
 30
0.0
 11
57.64856077919263
 21
171.6657688540643
 31
0.0
  0
SOLID
  5
4E9
330
3C7
100
AcDbEntity
  8
1
  6
Continuous
 62
     2
440
 16777216
100
AcDbTrace
 10
57.44022744585929
 20
169.1657688540643
 30
0.0
 11
57.85689411252596
 21
169.1657688540643
 31
0.0
 12
57.64856077919263
 22
167.9157688540643
 32
0.0
 13
57.64856077919263
 23
167.9157688540643
 33
0.0
  0
SOLID
  5
4EA
330
3C7
100
AcDbEntity
  8
1
  6
Continuous
 62
     2
440
 16777216
100
AcDbTrace
 10
57.44022744585929
 20
171.6657688540643
 30
0.0
 11
57.85689411252596
 21
171.6657688540643
 31
0.0
 12
57.64856077919263
 22
172.9157688540643
 32
0.0
 13
57.64856077919263
 23
172.9157688540643
 33
0.0
  0
MTEXT
  5
4EB
330
3C7
100
AcDbEntity
  8
1
  6
Continuous
 62
     3
440
 16777216
100
AcDbMText
 10
56.68356077919259
 20
170.4157688540643
 30
0.0
 40
1.75
 41
0.0
 71
     5
 72
     1
  1
\A1;5
 11
0.0000000000000001
 21
1.0
 31
0.0
 73
     1
 44
1.0
  0
POINT
  5
4EC
330
3C7
100
AcDbEntity
  8
Defpoints
  6
Continuous
 62
     0
440
 16777216
100
AcDbPoint
 10
80.24856077919263
 20
167.9157688540642
 30
0.0
  0
POINT
  5
4ED
330
3C7
100
AcDbEntity
  8
Defpoints
  6
Continuous
 62
     0
440
 16777216
100
AcDbPoint
 10
90.37776024533721
 20
172.9157688540642
 30
0.0
  0
POINT
  5
4EE
330
3C7
100
AcDbEntity
  8
Defpoints
  6
Continuous
 62
     0
440
 16777216
100
AcDbPoint
 10
57.64856077919263
 20
172.9157688540643
 30
0.0
  0
ENDBLK
  5
3C9
330
3C7
100
AcDbEntity
  8
0
100
AcDbBlockEnd
  0
BLOCK
  5
3D5
330
3D4
100
AcDbEntity
  8
0
100
AcDbBlockBegin
  2
*D36
 70
     1
 10
0.0
 20
0.0
 30
0.0
  3
*D36
  1

  0
LINE
  5
4EF
330
3D4
100
AcDbEntity
  8
1
  6
Continuous
 62
     2
440
 16777216
370
    -2
100
AcDbLine
 10
90.54856077919263
 20
153.9157688540642
 30
0.0
 11
57.14856077919263
 21
153.9157688540643
 31
0.0
  0
LINE
  5
4F0
330
3D4
100
AcDbEntity
  8
1
  6
Continuous
 62
     2
440
 16777216
370
    -2
100
AcDbLine
 10
81.68752215355988
 20
167.9157688540642
 30
0.0
 11
57.14856077919263
 21
167.9157688540643
 31
0.0
  0
LINE
  5
4F1
330
3D4
100
AcDbEntity
  8
1
  6
Continuous
 62
     2
440
 16777216
370
    -2
100
AcDbLine
 10
57.64856077919263
 20
155.1657688540642
 30
0.0
 11
57.64856077919263
 21
166.6657688540643
 31
0.0
  0
SOLID
  5
4F2
330
3D4
100
AcDbEntity
  8
1
  6
Continuous
 62
     2
440
 16777216
100
AcDbTrace
 10
57.44022744585929
 20
155.1657688540642
 30
0.0
 11
57.85689411252596
 21
155.1657688540642
 31
0.0
 12
57.64856077919263
 22
153.9157688540643
 32
0.0
 13
57.64856077919263
 23
153.9157688540643
 33
0.0
  0
SOLID
  5
4F3
330
3D4
100
AcDbEntity
  8
1
  6
Continuous
 62
     2
440
 16777216
100
AcDbTrace
 10
57.44022744585929
 20
166.6657688540643
 30
0.0
 11
57.85689411252596
 21
166.6657688540643
 31
0.0
 12
57.64856077919263
 22
167.9157688540643
 32
0.0
 13
57.64856077919263
 23
167.9157688540643
 33
0.0
  0
MTEXT
  5
4F4
330
3D4
100
AcDbEntity
  8
1
  6
Continuous
 62
     3
440
 16777216
100
AcDbMText
 10
56.68356077919259
 20
160.9157688540643
 30
0.0
 40
1.75
 41
0.0
 71
     5
 72
     1
  1
\A1;14
 11
0.0000000000000001
 21
1.0
 31
0.0
 73
     1
 44
1.0
  0
POINT
  5
4F5
330
3D4
100
AcDbEntity
  8
Defpoints
  6
Continuous
 62
     0
440
 16777216
100
AcDbPoint
 10
91.04856077919263
 20
153.9157688540642
 30
0.0
  0
POINT
  5
4F6
330
3D4
100
AcDbEntity
  8
Defpoints
  6
Continuous
 62
     0
440
 16777216
100
AcDbPoint
 10
82.18752215355989
 20
167.9157688540642
 30
0.0
  0
POINT
  5
4F7
330
3D4
100
AcDbEntity
  8
Defpoints
  6
Continuous
 62
     0
440
 16777216
100
AcDbPoint
 10
57.64856077919263
 20
167.9157688540643
 30
0.0
  0
ENDBLK
  5
3D6
330
3D4
100
AcDbEntity
  8
0
100
AcDbBlockEnd
  0
BLOCK
  5
3E1
330
3E0
100
AcDbEntity
  8
0
100
AcDbBlockBegin
  2
*D37
 70
     1
 10
0.0
 20
0.0
 30
0.0
  3
*D37
  1

  0
LINE
  5
4F8
330
3E0
100
AcDbEntity
  8
1
  6
Continuous
 62
     2
440
 16777216
370
    -2
100
AcDbLine
 10
124.7485607791926
 20
153.9157688540642
 30
0.0
 11
168.1485607791926
 21
153.9157688540642
 31
0.0
  0
LINE
  5
4F9
330
3E0
100
AcDbEntity
  8
1
  6
Continuous
 62
     2
440
 16777216
370
    -2
100
AcDbLine
 10
125.419361313048
 20
172.9157688540642
 30
0.0
 11
168.1485607791926
 21
172.9157688540642
 31
0.0
  0
LINE
  5
4FA
330
3E0
100
AcDbEntity
  8
1
  6
Continuous
 62
     2
440
 16777216
370
    -2
100
AcDbLine
 10
167.6485607791926
 20
155.1657688540642
 30
0.0
 11
167.6485607791926
 21
171.6657688540642
 31
0.0
  0
SOLID
  5
4FB
330
3E0
100
AcDbEntity
  8
1
  6
Continuous
 62
     2
440
 16777216
100
AcDbTrace
 10
167.4402274458593
 20
155.1657688540642
 30
0.0
 11
167.8568941125259
 21
155.1657688540642
 31
0.0
 12
167.6485607791926
 22
153.9157688540642
 32
0.0
 13
167.6485607791926
 23
153.9157688540642
 33
0.0
  0
SOLID
  5
4FC
330
3E0
100
AcDbEntity
  8
1
  6
Continuous
 62
     2
440
 16777216
100
AcDbTrace
 10
167.4402274458593
 20
171.6657688540642
 30
0.0
 11
167.8568941125259
 21
171.6657688540642
 31
0.0
 12
167.6485607791926
 22
172.9157688540642
 32
0.0
 13
167.6485607791926
 23
172.9157688540642
 33
0.0
  0
MTEXT
  5
4FD
330
3E0
100
AcDbEntity
  8
1
  6
Continuous
 62
     3
440
 16777216
100
AcDbMText
 10
166.6835607791926
 20
163.4157688540643
 30
0.0
 40
1.75
 41
0.0
 71
     5
 72
     1
  1
\A1;(19
 11
0.0000000000000001
 21
1.0
 31
0.0
 73
     1
 44
1.0
  0
POINT
  5
4FE
330
3E0
100
AcDbEntity
  8
Defpoints
  6
Continuous
 62
     0
440
 16777216
100
AcDbPoint
 10
124.2485607791926
 20
153.9157688540642
 30
0.0
  0
POINT
  5
4FF
330
3E0
100
AcDbEntity
  8
Defpoints
  6
Continuous
 62
     0
440
 16777216
100
AcDbPoint
 10
124.919361313048
 20
172.9157688540642
 30
0.0
  0
POINT
  5
500
330
3E0
100
AcDbEntity
  8
Defpoints
  6
Continuous
 62
     0
440
 16777216
100
AcDbPoint
 10
167.6485607791926
 20
172.9157688540642
 30
0.0
  0
ENDBLK
  5
3E2
330
3E0
100
AcDbEntity
  8
0
100
AcDbBlockEnd
  0
BLOCK
  5
3ED
330
3EC
100
AcDbEntity
  8
0
100
AcDbBlockBegin
  2
*D38
 70
     1
 10
0.0
 20
0.0
 30
0.0
  3
*D38
  1

  0
LINE
  5
501
330
3EC
100
AcDbEntity
  8
1
  6
Continuous
 62
     2
440
 16777216
370
    -2
100
AcDbLine
 10
124.7485607791926
 20
156.3157688540642
 30
0.0
 11
158.1485607791926
 21
156.3157688540642
 31
0.0
  0
LINE
  5
502
330
3EC
100
AcDbEntity
  8
1
  6
Continuous
 62
     2
440
 16777216
370
    -2
100
AcDbLine
 10
124.7485607791926
 20
153.9157688540642
 30
0.0
 11
158.1485607791926
 21
153.9157688540642
 31
0.0
  0
LINE
  5
503
330
3EC
100
AcDbEntity
  8
1
  6
Continuous
 62
     2
440
 16777216
370
    -2
100
AcDbLine
 10
157.6485607791926
 20
157.5657688540642
 30
0.0
 11
157.6485607791926
 21
158.8157688540642
 31
0.0
  0
LINE
  5
504
330
3EC
100
AcDbEntity
  8
1
  6
Continuous
 62
     2
440
 16777216
370
    -2
100
AcDbLine
 10
157.6485607791926
 20
152.6657688540642
 30
0.0
 11
157.6485607791926
 21
151.4157688540642
 31
0.0
  0
MTEXT
  5
505
330
3EC
100
AcDbEntity
  8
1
  6
Continuous
 62
     3
440
 16777216
100
AcDbMText
 10
160.9085607791925
 20
155.1157688540643
 30
0.0
 40
1.75
 41
0.0
 71
     5
 72
     1
  1
\A1;2.4
 11
0.0000000000000001
 21
1.0
 31
0.0
 73
     1
 44
1.0
  0
SOLID
  5
506
330
3EC
100
AcDbEntity
  8
1
  6
Continuous
 62
     2
440
 16777216
100
AcDbTrace
 10
157.4402274458592
 20
157.5657688540642
 30
0.0
 11
157.8568941125259
 21
157.5657688540642
 31
0.0
 12
157.6485607791926
 22
156.3157688540642
 32
0.0
 13
157.6485607791926
 23
156.3157688540642
 33
0.0
  0
SOLID
  5
507
330
3EC
100
AcDbEntity
  8
1
  6
Continuous
 62
     2
440
 16777216
100
AcDbTrace
 10
157.4402274458592
 20
152.6657688540642
 30
0.0
 11
157.8568941125259
 21
152.6657688540642
 31
0.0
 12
157.6485607791926
 22
153.9157688540642
 32
0.0
 13
157.6485607791926
 23
153.9157688540642
 33
0.0
  0
POINT
  5
508
330
3EC
100
AcDbEntity
  8
Defpoints
  6
Continuous
 62
     0
440
 16777216
100
AcDbPoint
 10
124.2485607791926
 20
156.3157688540642
 30
0.0
  0
POINT
  5
509
330
3EC
100
AcDbEntity
  8
Defpoints
  6
Continuous
 62
     0
440
 16777216
100
AcDbPoint
 10
124.2485607791926
 20
153.9157688540642
 30
0.0
  0
POINT
  5
50A
330
3EC
100
AcDbEntity
  8
Defpoints
  6
Continuous
 62
     0
440
 16777216
100
AcDbPoint
 10
157.6485607791926
 20
153.9157688540642
 30
0.0
  0
ENDBLK
  5
3EE
330
3EC
100
AcDbEntity
  8
0
100
AcDbBlockEnd
  0
BLOCK
  5
3FA
330
3F9
100
AcDbEntity
  8
0
100
AcDbBlockBegin
  2
*D39
 70
     1
 10
0.0
 20
0.0
 30
0.0
  3
*D39
  1

  0
LINE
  5
50B
330
3F9
100
AcDbEntity
  8
1
  6
Continuous
 62
     2
440
 16777216
370
    -2
100
AcDbLine
 10
125.1485607791926
 20
170.5157688540642
 30
0.0
 11
158.1485607791926
 21
170.5157688540642
 31
0.0
  0
LINE
  5
50C
330
3F9
100
AcDbEntity
  8
1
  6
Continuous
 62
     2
440
 16777216
370
    -2
100
AcDbLine
 10
125.419361313048
 20
172.9157688540642
 30
0.0
 11
158.1485607791926
 21
172.9157688540642
 31
0.0
  0
LINE
  5
50D
330
3F9
100
AcDbEntity
  8
1
  6
Continuous
 62
     2
440
 16777216
370
    -2
100
AcDbLine
 10
157.6485607791926
 20
169.2657688540642
 30
0.0
 11
157.6485607791926
 21
168.0157688540642
 31
0.0
  0
LINE
  5
50E
330
3F9
100
AcDbEntity
  8
1
  6
Continuous
 62
     2
440
 16777216
370
    -2
100
AcDbLine
 10
157.6485607791926
 20
174.1657688540642
 30
0.0
 11
157.6485607791926
 21
175.4157688540642
 31
0.0
  0
MTEXT
  5
50F
330
3F9
100
AcDbEntity
  8
1
  6
Continuous
 62
     3
440
 16777216
100
AcDbMText
 10
160.9085607791925
 20
171.7157688540642
 30
0.0
 40
1.75
 41
0.0
 71
     5
 72
     1
  1
\A1;2.4
 11
0.0000000000000001
 21
1.0
 31
0.0
 73
     1
 44
1.0
  0
SOLID
  5
510
330
3F9
100
AcDbEntity
  8
1
  6
Continuous
 62
     2
440
 16777216
100
AcDbTrace
 10
157.4402274458592
 20
169.2657688540642
 30
0.0
 11
157.8568941125259
 21
169.2657688540642
 31
0.0
 12
157.6485607791926
 22
170.5157688540642
 32
0.0
 13
157.6485607791926
 23
170.5157688540642
 33
0.0
  0
SOLID
  5
511
330
3F9
100
AcDbEntity
  8
1
  6
Continuous
 62
     2
440
 16777216
100
AcDbTrace
 10
157.4402274458592
 20
174.1657688540642
 30
0.0
 11
157.8568941125259
 21
174.1657688540642
 31
0.0
 12
157.6485607791926
 22
172.9157688540642
 32
0.0
 13
157.6485607791926
 23
172.9157688540642
 33
0.0
  0
POINT
  5
512
330
3F9
100
AcDbEntity
  8
Defpoints
  6
Continuous
 62
     0
440
 16777216
100
AcDbPoint
 10
124.6485607791926
 20
170.5157688540642
 30
0.0
  0
POINT
  5
513
330
3F9
100
AcDbEntity
  8
Defpoints
  6
Continuous
 62
     0
440
 16777216
100
AcDbPoint
 10
124.919361313048
 20
172.9157688540642
 30
0.0
  0
POINT
  5
514
330
3F9
100
AcDbEntity
  8
Defpoints
  6
Continuous
 62
     0
440
 16777216
100
AcDbPoint
 10
157.6485607791926
 20
172.9157688540642
 30
0.0
  0
ENDBLK
  5
3FB
330
3F9
100
AcDbEntity
  8
0
100
AcDbBlockEnd
  0
BLOCK
  5
407
330
406
100
AcDbEntity
  8
0
100
AcDbBlockBegin
  2
*D40
 70
     1
 10
0.0
 20
0.0
 30
0.0
  3
*D40
  1

  0
LINE
  5
515
330
406
100
AcDbEntity
  8
1
  6
Continuous
 62
     2
440
 16777216
370
    -2
100
AcDbLine
 10
124.7485607791926
 20
156.3157688540642
 30
0.0
 11
158.1485607791926
 21
156.3157688540642
 31
0.0
  0
LINE
  5
516
330
406
100
AcDbEntity
  8
1
  6
Continuous
 62
     2
440
 16777216
370
    -2
100
AcDbLine
 10
125.1485607791926
 20
170.5157688540642
 30
0.0
 11
158.1485607791926
 21
170.5157688540642
 31
0.0
  0
LINE
  5
517
330
406
100
AcDbEntity
  8
1
  6
Continuous
 62
     2
440
 16777216
370
    -2
100
AcDbLine
 10
157.6485607791926
 20
157.5657688540642
 30
0.0
 11
157.6485607791926
 21
169.2657688540642
 31
0.0
  0
SOLID
  5
518
330
406
100
AcDbEntity
  8
1
  6
Continuous
 62
     2
440
 16777216
100
AcDbTrace
 10
157.4402274458592
 20
157.5657688540642
 30
0.0
 11
157.8568941125259
 21
157.5657688540642
 31
0.0
 12
157.6485607791926
 22
156.3157688540642
 32
0.0
 13
157.6485607791926
 23
156.3157688540642
 33
0.0
  0
SOLID
  5
519
330
406
100
AcDbEntity
  8
1
  6
Continuous
 62
     2
440
 16777216
100
AcDbTrace
 10
157.4402274458592
 20
169.2657688540642
 30
0.0
 11
157.8568941125259
 21
169.2657688540642
 31
0.0
 12
157.6485607791926
 22
170.5157688540642
 32
0.0
 13
157.6485607791926
 23
170.5157688540642
 33
0.0
  0
MTEXT
  5
51A
330
406
100
AcDbEntity
  8
1
  6
Continuous
 62
     3
440
 16777216
100
AcDbMText
 10
156.3335607791926
 20
163.4157688540642
 30
0.0
 40
1.75
 41
0.0
 71
     5
 72
     1
  1
\A1;14.2{\H1.050000;\S+0.5000^ -0.0000;}
 11
0.0000000000000001
 21
1.0
 31
0.0
 73
     1
 44
1.0
  0
POINT
  5
51B
330
406
100
AcDbEntity
  8
Defpoints
  6
Continuous
 62
     0
440
 16777216
100
AcDbPoint
 10
124.2485607791926
 20
156.3157688540642
 30
0.0
  0
POINT
  5
51C
330
406
100
AcDbEntity
  8
Defpoints
  6
Continuous
 62
     0
440
 16777216
100
AcDbPoint
 10
124.6485607791926
 20
170.5157688540642
 30
0.0
  0
POINT
  5
51D
330
406
100
AcDbEntity
  8
Defpoints
  6
Continuous
 62
     0
440
 16777216
100
AcDbPoint
 10
157.6485607791926
 20
170.5157688540642
 30
0.0
  0
ENDBLK
  5
408
330
406
100
AcDbEntity
  8
0
100
AcDbBlockEnd
  0
BLOCK
  5
413
330
412
100
AcDbEntity
  8
0
100
AcDbBlockBegin
  2
*D41
 70
     1
 10
0.0
 20
0.0
 30
0.0
  3
*D41
  1

  0
LINE
  5
51E
330
412
100
AcDbEntity
  8
1
  6
Continuous
 62
     2
440
 16777216
370
    -2
100
AcDbLine
 10
87.64856077919262
 20
156.8157688540642
 30
0.0
 11
87.64856077919262
 21
123.4157688540642
 31
0.0
  0
LINE
  5
51F
330
412
100
AcDbEntity
  8
1
  6
Continuous
 62
     2
440
 16777216
370
    -2
100
AcDbLine
 10
127.6485607791926
 20
156.8157688540642
 30
0.0
 11
127.6485607791926
 21
123.4157688540642
 31
0.0
  0
LINE
  5
520
330
412
100
AcDbEntity
  8
1
  6
Continuous
 62
     2
440
 16777216
370
    -2
100
AcDbLine
 10
88.89856077919262
 20
123.9157688540642
 30
0.0
 11
126.3985607791926
 21
123.9157688540642
 31
0.0
  0
SOLID
  5
521
330
412
100
AcDbEntity
  8
1
  6
Continuous
 62
     2
440
 16777216
100
AcDbTrace
 10
88.89856077919262
 20
124.1241021873976
 30
0.0
 11
88.89856077919262
 21
123.7074355207309
 31
0.0
 12
87.64856077919262
 22
123.9157688540642
 32
0.0
 13
87.64856077919262
 23
123.9157688540642
 33
0.0
  0
SOLID
  5
522
330
412
100
AcDbEntity
  8
1
  6
Continuous
 62
     2
440
 16777216
100
AcDbTrace
 10
126.3985607791926
 20
124.1241021873976
 30
0.0
 11
126.3985607791926
 21
123.7074355207309
 31
0.0
 12
127.6485607791926
 22
123.9157688540642
 32
0.0
 13
127.6485607791926
 23
123.9157688540642
 33
0.0
  0
MTEXT
  5
523
330
412
100
AcDbEntity
  8
1
  6
Continuous
 62
     3
440
 16777216
100
AcDbMText
 10
107.6485607791926
 20
125.2307688540642
 30
0.0
 40
1.75
 41
0.0
 71
     5
 72
     1
  1
\A1;40{\H1.050000;\S+0.5000^ -0.0000;}
 73
     1
 44
1.0
  0
POINT
  5
524
330
412
100
AcDbEntity
  8
Defpoints
  6
Continuous
 62
     0
440
 16777216
100
AcDbPoint
 10
87.64856077919262
 20
157.3157688540642
 30
0.0
  0
POINT
  5
525
330
412
100
AcDbEntity
  8
Defpoints
  6
Continuous
 62
     0
440
 16777216
100
AcDbPoint
 10
127.6485607791926
 20
157.3157688540642
 30
0.0
  0
POINT
  5
526
330
412
100
AcDbEntity
  8
Defpoints
  6
Continuous
 62
     0
440
 16777216
100
AcDbPoint
 10
127.6485607791926
 20
123.9157688540642
 30
0.0
  0
ENDBLK
  5
414
330
412
100
AcDbEntity
  8
0
100
AcDbBlockEnd
  0
BLOCK
  5
41F
330
41E
100
AcDbEntity
  8
0
100
AcDbBlockBegin
  2
*D42
 70
     1
 10
0.0
 20
0.0
 30
0.0
  3
*D42
  1

  0
LINE
  5
527
330
41E
100
AcDbEntity
  8
1
  6
Continuous
 62
     2
440
 16777216
370
    -2
100
AcDbLine
 10
125.2485607791926
 20
156.8157688540642
 30
0.0
 11
125.2485607791926
 21
133.4157688540642
 31
0.0
  0
LINE
  5
528
330
41E
100
AcDbEntity
  8
1
  6
Continuous
 62
     2
440
 16777216
370
    -2
100
AcDbLine
 10
127.6485607791926
 20
156.8157688540642
 30
0.0
 11
127.6485607791926
 21
133.4157688540642
 31
0.0
  0
LINE
  5
529
330
41E
100
AcDbEntity
  8
1
  6
Continuous
 62
     2
440
 16777216
370
    -2
100
AcDbLine
 10
123.9985607791926
 20
133.9157688540642
 30
0.0
 11
122.7485607791926
 21
133.9157688540642
 31
0.0
  0
LINE
  5
52A
330
41E
100
AcDbEntity
  8
1
  6
Continuous
 62
     2
440
 16777216
370
    -2
100
AcDbLine
 10
128.8985607791926
 20
133.9157688540642
 30
0.0
 11
130.1485607791926
 21
133.9157688540642
 31
0.0
  0
MTEXT
  5
52B
330
41E
100
AcDbEntity
  8
1
  6
Continuous
 62
     3
440
 16777216
100
AcDbMText
 10
126.4485607791926
 20
129.8707688540642
 30
0.0
 40
1.75
 41
0.0
 71
     5
 72
     1
  1
\A1;2.4
 73
     1
 44
1.0
  0
SOLID
  5
52C
330
41E
100
AcDbEntity
  8
1
  6
Continuous
 62
     2
440
 16777216
100
AcDbTrace
 10
123.9985607791926
 20
134.1241021873975
 30
0.0
 11
123.9985607791926
 21
133.7074355207308
 31
0.0
 12
125.2485607791926
 22
133.9157688540642
 32
0.0
 13
125.2485607791926
 23
133.9157688540642
 33
0.0
  0
SOLID
  5
52D
330
41E
100
AcDbEntity
  8
1
  6
Continuous
 62
     2
440
 16777216
100
AcDbTrace
 10
128.8985607791926
 20
134.1241021873975
 30
0.0
 11
128.8985607791926
 21
133.7074355207308
 31
0.0
 12
127.6485607791926
 22
133.9157688540642
 32
0.0
 13
127.6485607791926
 23
133.9157688540642
 33
0.0
  0
POINT
  5
52E
330
41E
100
AcDbEntity
  8
Defpoints
  6
Continuous
 62
     0
440
 16777216
100
AcDbPoint
 10
125.2485607791926
 20
157.3157688540642
 30
0.0
  0
POINT
  5
52F
330
41E
100
AcDbEntity
  8
Defpoints
  6
Continuous
 62
     0
440
 16777216
100
AcDbPoint
 10
127.6485607791926
 20
157.3157688540642
 30
0.0
  0
POINT
  5
530
330
41E
100
AcDbEntity
  8
Defpoints
  6
Continuous
 62
     0
440
 16777216
100
AcDbPoint
 10
127.6485607791926
 20
133.9157688540642
 30
0.0
  0
ENDBLK
  5
420
330
41E
100
AcDbEntity
  8
0
100
AcDbBlockEnd
  0
BLOCK
  5
42C
330
42B
100
AcDbEntity
  8
0
100
AcDbBlockBegin
  2
*D43
 70
     1
 10
0.0
 20
0.0
 30
0.0
  3
*D43
  1

  0
LINE
  5
531
330
42B
100
AcDbEntity
  8
1
  6
Continuous
 62
     2
440
 16777216
370
    -2
100
AcDbLine
 10
90.04856077919262
 20
156.8157688540642
 30
0.0
 11
90.04856077919262
 21
133.4157688540642
 31
0.0
  0
LINE
  5
532
330
42B
100
AcDbEntity
  8
1
  6
Continuous
 62
     2
440
 16777216
370
    -2
100
AcDbLine
 10
87.64856077919262
 20
156.8157688540642
 30
0.0
 11
87.64856077919262
 21
133.4157688540642
 31
0.0
  0
LINE
  5
533
330
42B
100
AcDbEntity
  8
1
  6
Continuous
 62
     2
440
 16777216
370
    -2
100
AcDbLine
 10
91.29856077919262
 20
133.9157688540642
 30
0.0
 11
92.54856077919262
 21
133.9157688540642
 31
0.0
  0
LINE
  5
534
330
42B
100
AcDbEntity
  8
1
  6
Continuous
 62
     2
440
 16777216
370
    -2
100
AcDbLine
 10
86.39856077919262
 20
133.9157688540642
 30
0.0
 11
85.14856077919262
 21
133.9157688540642
 31
0.0
  0
MTEXT
  5
535
330
42B
100
AcDbEntity
  8
1
  6
Continuous
 62
     3
440
 16777216
100
AcDbMText
 10
88.84856077919263
 20
129.8707688540642
 30
0.0
 40
1.75
 41
0.0
 71
     5
 72
     1
  1
\A1;2.4
 73
     1
 44
1.0
  0
SOLID
  5
536
330
42B
100
AcDbEntity
  8
1
  6
Continuous
 62
     2
440
 16777216
100
AcDbTrace
 10
91.29856077919262
 20
134.1241021873975
 30
0.0
 11
91.29856077919262
 21
133.7074355207308
 31
0.0
 12
90.04856077919262
 22
133.9157688540642
 32
0.0
 13
90.04856077919262
 23
133.9157688540642
 33
0.0
  0
SOLID
  5
537
330
42B
100
AcDbEntity
  8
1
  6
Continuous
 62
     2
440
 16777216
100
AcDbTrace
 10
86.39856077919262
 20
134.1241021873975
 30
0.0
 11
86.39856077919262
 21
133.7074355207308
 31
0.0
 12
87.64856077919262
 22
133.9157688540642
 32
0.0
 13
87.64856077919262
 23
133.9157688540642
 33
0.0
  0
POINT
  5
538
330
42B
100
AcDbEntity
  8
Defpoints
  6
Continuous
 62
     0
440
 16777216
100
AcDbPoint
 10
90.04856077919262
 20
157.3157688540642
 30
0.0
  0
POINT
  5
539
330
42B
100
AcDbEntity
  8
Defpoints
  6
Continuous
 62
     0
440
 16777216
100
AcDbPoint
 10
87.64856077919262
 20
157.3157688540642
 30
0.0
  0
POINT
  5
53A
330
42B
100
AcDbEntity
  8
Defpoints
  6
Continuous
 62
     0
440
 16777216
100
AcDbPoint
 10
87.64856077919262
 20
133.9157688540642
 30
0.0
  0
ENDBLK
  5
42D
330
42B
100
AcDbEntity
  8
0
100
AcDbBlockEnd
  0
BLOCK
  5
439
330
438
100
AcDbEntity
  8
0
100
AcDbBlockBegin
  2
*D44
 70
     1
 10
0.0
 20
0.0
 30
0.0
  3
*D44
  1

  0
LINE
  5
53B
330
438
100
AcDbEntity
  8
1
  6
Continuous
 62
     2
440
 16777216
370
    -2
100
AcDbLine
 10
90.04856077919262
 20
156.8157688540642
 30
0.0
 11
90.04856077919262
 21
133.4157688540642
 31
0.0
  0
LINE
  5
53C
330
438
100
AcDbEntity
  8
1
  6
Continuous
 62
     2
440
 16777216
370
    -2
100
AcDbLine
 10
125.2485607791926
 20
156.8157688540642
 30
0.0
 11
125.2485607791926
 21
133.4157688540642
 31
0.0
  0
LINE
  5
53D
330
438
100
AcDbEntity
  8
1
  6
Continuous
 62
     2
440
 16777216
370
    -2
100
AcDbLine
 10
91.29856077919262
 20
133.9157688540642
 30
0.0
 11
123.9985607791926
 21
133.9157688540642
 31
0.0
  0
SOLID
  5
53E
330
438
100
AcDbEntity
  8
1
  6
Continuous
 62
     2
440
 16777216
100
AcDbTrace
 10
91.29856077919262
 20
134.1241021873975
 30
0.0
 11
91.29856077919262
 21
133.7074355207308
 31
0.0
 12
90.04856077919262
 22
133.9157688540642
 32
0.0
 13
90.04856077919262
 23
133.9157688540642
 33
0.0
  0
SOLID
  5
53F
330
438
100
AcDbEntity
  8
1
  6
Continuous
 62
     2
440
 16777216
100
AcDbTrace
 10
123.9985607791926
 20
134.1241021873975
 30
0.0
 11
123.9985607791926
 21
133.7074355207308
 31
0.0
 12
125.2485607791926
 22
133.9157688540642
 32
0.0
 13
125.2485607791926
 23
133.9157688540642
 33
0.0
  0
MTEXT
  5
540
330
438
100
AcDbEntity
  8
1
  6
Continuous
 62
     3
440
 16777216
100
AcDbMText
 10
107.6485607791926
 20
135.2307688540642
 30
0.0
 40
1.75
 41
0.0
 71
     5
 72
     1
  1
\A1;35.2{\H1.050000;\S+0.5000^ -0.0000;}
 73
     1
 44
1.0
  0
POINT
  5
541
330
438
100
AcDbEntity
  8
Defpoints
  6
Continuous
 62
     0
440
 16777216
100
AcDbPoint
 10
90.04856077919262
 20
157.3157688540642
 30
0.0
  0
POINT
  5
542
330
438
100
AcDbEntity
  8
Defpoints
  6
Continuous
 62
     0
440
 16777216
100
AcDbPoint
 10
125.2485607791926
 20
157.3157688540642
 30
0.0
  0
POINT
  5
543
330
438
100
AcDbEntity
  8
Defpoints
  6
Continuous
 62
     0
440
 16777216
100
AcDbPoint
 10
125.2485607791926
 20
133.9157688540642
 30
0.0
  0
ENDBLK
  5
43A
330
438
100
AcDbEntity
  8
0
100
AcDbBlockEnd
  0
BLOCK
  5
445
330
444
100
AcDbEntity
  8
0
100
AcDbBlockBegin
  2
*D45
 70
     1
 10
0.0
 20
0.0
 30
0.0
  3
*D45
  1

  0
LINE
  5
544
330
444
100
AcDbEntity
  8
1
  6
Continuous
 62
     2
440
 16777216
370
    -2
100
AcDbLine
 10
79.64856077919262
 20
169.0157688540642
 30
0.0
 11
79.64856077919262
 21
199.4157688540642
 31
0.0
  0
LINE
  5
545
330
444
100
AcDbEntity
  8
1
  6
Continuous
 62
     2
440
 16777216
370
    -2
100
AcDbLine
 10
135.6485607791926
 20
169.0157688540642
 30
0.0
 11
135.6485607791926
 21
199.4157688540642
 31
0.0
  0
LINE
  5
546
330
444
100
AcDbEntity
  8
1
  6
Continuous
 62
     2
440
 16777216
370
    -2
100
AcDbLine
 10
80.89856077919263
 20
198.9157688540642
 30
0.0
 11
134.3985607791926
 21
198.9157688540642
 31
0.0
  0
SOLID
  5
547
330
444
100
AcDbEntity
  8
1
  6
Continuous
 62
     2
440
 16777216
100
AcDbTrace
 10
80.89856077919263
 20
199.1241021873976
 30
0.0
 11
80.89856077919263
 21
198.7074355207309
 31
0.0
 12
79.64856077919262
 22
198.9157688540642
 32
0.0
 13
79.64856077919262
 23
198.9157688540642
 33
0.0
  0
SOLID
  5
548
330
444
100
AcDbEntity
  8
1
  6
Continuous
 62
     2
440
 16777216
100
AcDbTrace
 10
134.3985607791926
 20
199.1241021873976
 30
0.0
 11
134.3985607791926
 21
198.7074355207309
 31
0.0
 12
135.6485607791926
 22
198.9157688540642
 32
0.0
 13
135.6485607791926
 23
198.9157688540642
 33
0.0
  0
MTEXT
  5
549
330
444
100
AcDbEntity
  8
1
  6
Continuous
 62
     3
440
 16777216
100
AcDbMText
 10
107.6485607791926
 20
200.2307688540642
 30
0.0
 40
1.75
 41
0.0
 71
     5
 72
     1
  1
\A1;56{\H1.050000;\S+0.5000^ -0.0000;}
 73
     1
 44
1.0
  0
POINT
  5
54A
330
444
100
AcDbEntity
  8
Defpoints
  6
Continuous
 62
     0
440
 16777216
100
AcDbPoint
 10
79.64856077919262
 20
168.5157688540642
 30
0.0
  0
POINT
  5
54B
330
444
100
AcDbEntity
  8
Defpoints
  6
Continuous
 62
     0
440
 16777216
100
AcDbPoint
 10
135.6485607791926
 20
168.5157688540642
 30
0.0
  0
POINT
  5
54C
330
444
100
AcDbEntity
  8
Defpoints
  6
Continuous
 62
     0
440
 16777216
100
AcDbPoint
 10
135.6485607791926
 20
198.9157688540642
 30
0.0
  0
ENDBLK
  5
446
330
444
100
AcDbEntity
  8
0
100
AcDbBlockEnd
  0
BLOCK
  5
451
330
450
100
AcDbEntity
  8
0
100
AcDbBlockBegin
  2
*D46
 70
     1
 10
0.0
 20
0.0
 30
0.0
  3
*D46
  1

  0
LINE
  5
54D
330
450
100
AcDbEntity
  8
1
  6
Continuous
 62
     2
440
 16777216
370
    -2
100
AcDbLine
 10
118.6485607791926
 20
172.2157688540642
 30
0.0
 11
118.6485607791926
 21
189.4157688540642
 31
0.0
  0
LINE
  5
54E
330
450
100
AcDbEntity
  8
1
  6
Continuous
 62
     2
440
 16777216
370
    -2
100
AcDbLine
 10
135.6485607791926
 20
169.0157688540642
 30
0.0
 11
135.6485607791926
 21
189.4157688540642
 31
0.0
  0
LINE
  5
54F
330
450
100
AcDbEntity
  8
1
  6
Continuous
 62
     2
440
 16777216
370
    -2
100
AcDbLine
 10
119.8985607791926
 20
188.9157688540642
 30
0.0
 11
134.3985607791926
 21
188.9157688540642
 31
0.0
  0
SOLID
  5
550
330
450
100
AcDbEntity
  8
1
  6
Continuous
 62
     2
440
 16777216
100
AcDbTrace
 10
119.8985607791926
 20
189.1241021873975
 30
0.0
 11
119.8985607791926
 21
188.7074355207309
 31
0.0
 12
118.6485607791926
 22
188.9157688540642
 32
0.0
 13
118.6485607791926
 23
188.9157688540642
 33
0.0
  0
SOLID
  5
551
330
450
100
AcDbEntity
  8
1
  6
Continuous
 62
     2
440
 16777216
100
AcDbTrace
 10
134.3985607791926
 20
189.1241021873975
 30
0.0
 11
134.3985607791926
 21
188.7074355207309
 31
0.0
 12
135.6485607791926
 22
188.9157688540642
 32
0.0
 13
135.6485607791926
 23
188.9157688540642
 33
0.0
  0
MTEXT
  5
552
330
450
100
AcDbEntity
  8
1
  6
Continuous
 62
     3
440
 16777216
100
AcDbMText
 10
127.1485607791926
 20
189.8807688540642
 30
0.0
 40
1.75
 41
0.0
 71
     5
 72
     1
  1
\A1;(17
 73
     1
 44
1.0
  0
POINT
  5
553
330
450
100
AcDbEntity
  8
Defpoints
  6
Continuous
 62
     0
440
 16777216
100
AcDbPoint
 10
118.6485607791926
 20
171.7157688540642
 30
0.0
  0
POINT
  5
554
330
450
100
AcDbEntity
  8
Defpoints
  6
Continuous
 62
     0
440
 16777216
100
AcDbPoint
 10
135.6485607791926
 20
168.5157688540642
 30
0.0
  0
POINT
  5
555
330
450
100
AcDbEntity
  8
Defpoints
  6
Continuous
 62
     0
440
 16777216
100
AcDbPoint
 10
135.6485607791926
 20
188.9157688540642
 30
0.0
  0
ENDBLK
  5
452
330
450
100
AcDbEntity
  8
0
100
AcDbBlockEnd
  0
BLOCK
  5
45D
330
45C
100
AcDbEntity
  8
0
100
AcDbBlockBegin
  2
*D47
 70
     1
 10
0.0
 20
0.0
 30
0.0
  3
*D47
  1

  0
LINE
  5
556
330
45C
100
AcDbEntity
  8
1
  6
Continuous
 62
     2
440
 16777216
370
    -2
100
AcDbLine
 10
79.64856077919262
 20
169.0157688540642
 30
0.0
 11
79.64856077919262
 21
189.4157688540642
 31
0.0
  0
LINE
  5
557
330
45C
100
AcDbEntity
  8
1
  6
Continuous
 62
     2
440
 16777216
370
    -2
100
AcDbLine
 10
96.64856077919262
 20
172.2157688540642
 30
0.0
 11
96.64856077919262
 21
189.4157688540642
 31
0.0
  0
LINE
  5
558
330
45C
100
AcDbEntity
  8
1
  6
Continuous
 62
     2
440
 16777216
370
    -2
100
AcDbLine
 10
80.89856077919263
 20
188.9157688540642
 30
0.0
 11
95.39856077919262
 21
188.9157688540642
 31
0.0
  0
SOLID
  5
559
330
45C
100
AcDbEntity
  8
1
  6
Continuous
 62
     2
440
 16777216
100
AcDbTrace
 10
80.89856077919263
 20
189.1241021873975
 30
0.0
 11
80.89856077919263
 21
188.7074355207309
 31
0.0
 12
79.64856077919262
 22
188.9157688540642
 32
0.0
 13
79.64856077919262
 23
188.9157688540642
 33
0.0
  0
SOLID
  5
55A
330
45C
100
AcDbEntity
  8
1
  6
Continuous
 62
     2
440
 16777216
100
AcDbTrace
 10
95.39856077919262
 20
189.1241021873975
 30
0.0
 11
95.39856077919262
 21
188.7074355207309
 31
0.0
 12
96.64856077919262
 22
188.9157688540642
 32
0.0
 13
96.64856077919262
 23
188.9157688540642
 33
0.0
  0
MTEXT
  5
55B
330
45C
100
AcDbEntity
  8
1
  6
Continuous
 62
     3
440
 16777216
100
AcDbMText
 10
88.14856077919262
 20
189.8807688540642
 30
0.0
 40
1.75
 41
0.0
 71
     5
 72
     1
  1
\A1;(17
 73
     1
 44
1.0
  0
POINT
  5
55C
330
45C
100
AcDbEntity
  8
Defpoints
  6
Continuous
 62
     0
440
 16777216
100
AcDbPoint
 10
79.64856077919262
 20
168.5157688540642
 30
0.0
  0
POINT
  5
55D
330
45C
100
AcDbEntity
  8
Defpoints
  6
Continuous
 62
     0
440
 16777216
100
AcDbPoint
 10
96.64856077919262
 20
171.7157688540642
 30
0.0
  0
POINT
  5
55E
330
45C
100
AcDbEntity
  8
Defpoints
  6
Continuous
 62
     0
440
 16777216
100
AcDbPoint
 10
96.64856077919262
 20
188.9157688540642
 30
0.0
  0
ENDBLK
  5
45E
330
45C
100
AcDbEntity
  8
0
100
AcDbBlockEnd
  0
BLOCK
  5
469
330
468
100
AcDbEntity
  8
0
100
AcDbBlockBegin
  2
*D48
 70
     1
 10
0.0
 20
0.0
 30
0.0
  3
*D48
  1

  0
LINE
  5
55F
330
468
100
AcDbEntity
  8
1
  6
Continuous
 62
     2
440
 16777216
370
    -2
100
AcDbLine
 10
96.64856077919262
 20
172.2157688540642
 30
0.0
 11
96.64856077919262
 21
189.4157688540642
 31
0.0
  0
LINE
  5
560
330
468
100
AcDbEntity
  8
1
  6
Continuous
 62
     2
440
 16777216
370
    -2
100
AcDbLine
 10
118.6485607791926
 20
172.2157688540642
 30
0.0
 11
118.6485607791926
 21
189.4157688540642
 31
0.0
  0
LINE
  5
561
330
468
100
AcDbEntity
  8
1
  6
Continuous
 62
     2
440
 16777216
370
    -2
100
AcDbLine
 10
97.89856077919262
 20
188.9157688540642
 30
0.0
 11
117.3985607791926
 21
188.9157688540642
 31
0.0
  0
SOLID
  5
562
330
468
100
AcDbEntity
  8
1
  6
Continuous
 62
     2
440
 16777216
100
AcDbTrace
 10
97.89856077919262
 20
189.1241021873975
 30
0.0
 11
97.89856077919262
 21
188.7074355207309
 31
0.0
 12
96.64856077919262
 22
188.9157688540642
 32
0.0
 13
96.64856077919262
 23
188.9157688540642
 33
0.0
  0
SOLID
  5
563
330
468
100
AcDbEntity
  8
1
  6
Continuous
 62
     2
440
 16777216
100
AcDbTrace
 10
117.3985607791926
 20
189.1241021873975
 30
0.0
 11
117.3985607791926
 21
188.7074355207309
 31
0.0
 12
118.6485607791926
 22
188.9157688540642
 32
0.0
 13
118.6485607791926
 23
188.9157688540642
 33
0.0
  0
MTEXT
  5
564
330
468
100
AcDbEntity
  8
1
  6
Continuous
 62
     3
440
 16777216
100
AcDbMText
 10
107.6485607791926
 20
190.2307688540642
 30
0.0
 40
1.75
 41
0.0
 71
     5
 72
     1
  1
\A1;22{\H1.050000;\S+0.5000^ -0.0000;}
 73
     1
 44
1.0
  0
POINT
  5
565
330
468
100
AcDbEntity
  8
Defpoints
  6
Continuous
 62
     0
440
 16777216
100
AcDbPoint
 10
96.64856077919262
 20
171.7157688540642
 30
0.0
  0
POINT
  5
566
330
468
100
AcDbEntity
  8
Defpoints
  6
Continuous
 62
     0
440
 16777216
100
AcDbPoint
 10
118.6485607791926
 20
171.7157688540642
 30
0.0
  0
POINT
  5
567
330
468
100
AcDbEntity
  8
Defpoints
  6
Continuous
 62
     0
440
 16777216
100
AcDbPoint
 10
118.6485607791926
 20
188.9157688540642
 30
0.0
  0
ENDBLK
  5
46A
330
468
100
AcDbEntity
  8
0
100
AcDbBlockEnd
  0
BLOCK
  5
475
330
474
100
AcDbEntity
  8
0
100
AcDbBlockBegin
  2
*D49
 70
     1
 10
0.0
 20
0.0
 30
0.0
  3
*D49
  1

  0
LINE
  5
568
330
474
100
AcDbEntity
  8
1
  6
Continuous
 62
     2
440
 16777216
370
    -2
100
AcDbLine
 10
71.49583649338715
 20
165.3852756547036
 30
0.0
 11
76.5441698267205
 21
165.3852756547036
 31
0.0
  0
LINE
  5
569
330
474
100
AcDbEntity
  8
1
  6
Continuous
 62
     2
440
 16777216
370
    -2
100
AcDbLine
 10
76.5441698267205
 20
165.3852756547036
 30
0.0
 11
78.83554567361047
 21
167.3216632006998
 31
0.0
  0
MTEXT
  5
56A
330
474
100
AcDbEntity
  8
1
  6
Continuous
 62
     3
440
 16777216
100
AcDbMText
 10
73.97500316005383
 20
166.3502756547036
 30
0.0
 40
1.75
 41
0.0
 71
     5
 72
     1
  1
\A1;R0.6
 73
     1
 44
1.0
  0
SOLID
  5
56B
330
474
100
AcDbEntity
  8
1
  6
Continuous
 62
     2
440
 16777216
100
AcDbTrace
 10
78.70107431624962
 20
167.4807865234005
 30
0.0
 11
78.97001703097132
 21
167.1625398779991
 31
0.0
 12
79.7902856098146
 22
168.1284913448649
 32
0.0
 13
79.7902856098146
 23
168.1284913448649
 33
0.0
  0
POINT
  5
56C
330
474
100
AcDbEntity
  8
Defpoints
  6
Continuous
 62
     0
440
 16777216
100
AcDbPoint
 10
79.7902856098146
 20
168.1284913448649
 30
0.0
  0
POINT
  5
56D
330
474
100
AcDbEntity
  8
Defpoints
  6
Continuous
 62
     0
440
 16777216
100
AcDbPoint
 10
80.24856077919261
 20
168.5157688540642
 30
0.0
  0
ENDBLK
  5
476
330
474
100
AcDbEntity
  8
0
100
AcDbBlockEnd
  0
BLOCK
  5
47E
330
47D
100
AcDbEntity
  8
0
100
AcDbBlockBegin
  2
*D50
 70
     1
 10
0.0
 20
0.0
 30
0.0
  3
*D50
  1

  0
LINE
  5
56E
330
47D
100
AcDbEntity
  8
1
  6
Continuous
 62
     2
440
 16777216
370
    -2
100
AcDbLine
 10
89.73908884627389
 20
164.3616958228713
 30
0.0
 11
84.69075551294057
 21
164.3616958228713
 31
0.0
  0
LINE
  5
56F
330
47D
100
AcDbEntity
  8
1
  6
Continuous
 62
     2
440
 16777216
370
    -2
100
AcDbLine
 10
84.69075551294057
 20
164.3616958228713
 30
0.0
 11
83.14236374425147
 21
166.9312255328875
 31
0.0
  0
MTEXT
  5
570
330
47D
100
AcDbEntity
  8
1
  6
Continuous
 62
     3
440
 16777216
100
AcDbMText
 10
87.25992217960726
 20
165.3266958228714
 30
0.0
 40
1.75
 41
0.0
 71
     5
 72
     1
  1
\A1;R0.6
 73
     1
 44
1.0
  0
LINE
  5
571
330
47D
100
AcDbEntity
  8
1
  6
Continuous
 62
     2
440
 16777216
370
    -2
100
AcDbLine
 10
82.18752215355987
 20
168.5157688540642
 30
0.0
 11
82.49720050729768
 21
168.001862912061
 31
0.0
  0
SOLID
  5
572
330
47D
100
AcDbEntity
  8
1
  6
Continuous
 62
     2
440
 16777216
100
AcDbTrace
 10
83.32080330744707
 20
167.0387527390465
 30
0.0
 11
82.9639241810559
 21
166.8236983267286
 31
0.0
 12
82.49720050729768
 22
168.001862912061
 32
0.0
 13
82.49720050729768
 23
168.001862912061
 33
0.0
  0
POINT
  5
573
330
47D
100
AcDbEntity
  8
Defpoints
  6
Continuous
 62
     0
440
 16777216
100
AcDbPoint
 10
82.49720050729768
 20
168.001862912061
 30
0.0
  0
POINT
  5
574
330
47D
100
AcDbEntity
  8
Defpoints
  6
Continuous
 62
     0
440
 16777216
100
AcDbPoint
 10
82.18752215355987
 20
168.5157688540642
 30
0.0
  0
ENDBLK
  5
47F
330
47D
100
AcDbEntity
  8
0
100
AcDbBlockEnd
  0
BLOCK
  5
488
330
487
100
AcDbEntity
  8
0
100
AcDbBlockBegin
  2
*D51
 70
     1
 10
0.0
 20
0.0
 30
0.0
  3
*D51
  1

  0
LINE
  5
575
330
487
100
AcDbEntity
  8
1
  6
Continuous
 62
     2
440
 16777216
370
    -2
100
AcDbLine
 10
76.1924723816353
 20
171.0666973222758
 30
0.0
 11
82.69913904830195
 21
171.0666973222758
 31
0.0
  0
LINE
  5
576
330
487
100
AcDbEntity
  8
1
  6
Continuous
 62
     2
440
 16777216
370
    -2
100
AcDbLine
 10
82.69913904830195
 20
171.0666973222758
 30
0.0
 11
83.2953052903078
 21
169.9680227517625
 31
0.0
  0
MTEXT
  5
577
330
487
100
AcDbEntity
  8
1
  6
Continuous
 62
     3
440
 16777216
100
AcDbMText
 10
79.4008057149686
 20
172.0316973222758
 30
0.0
 40
1.75
 41
0.0
 71
     5
 72
     1
  1
\A1;R13.6
 73
     1
 44
1.0
  0
SOLID
  5
578
330
487
100
AcDbEntity
  8
1
  6
Continuous
 62
     2
440
 16777216
100
AcDbTrace
 10
83.47841771872669
 20
170.0673837920968
 30
0.0
 11
83.1121928618889
 21
169.8686617114281
 31
0.0
 12
83.89147153231364
 22
168.8693481812491
 32
0.0
 13
83.89147153231364
 23
168.8693481812491
 33
0.0
  0
POINT
  5
579
330
487
100
AcDbEntity
  8
Defpoints
  6
Continuous
 62
     0
440
 16777216
100
AcDbPoint
 10
83.89147153231364
 20
168.8693481812491
 30
0.0
  0
POINT
  5
57A
330
487
100
AcDbEntity
  8
Defpoints
  6
Continuous
 62
     0
440
 16777216
100
AcDbPoint
 10
90.37776024533721
 20
156.9157688540642
 30
0.0
  0
ENDBLK
  5
489
330
487
100
AcDbEntity
  8
0
100
AcDbBlockEnd
  0
BLOCK
  5
491
330
490
100
AcDbEntity
  8
0
100
AcDbBlockBegin
  2
*D52
 70
     1
 10
0.0
 20
0.0
 30
0.0
  3
*D52
  1

  0
LINE
  5
57B
330
490
100
AcDbEntity
  8
1
  6
Continuous
 62
     2
440
 16777216
370
    -2
100
AcDbLine
 10
79.56465767640921
 20
174.1831793286562
 30
0.0
 11
83.73799100974254
 21
174.1831793286562
 31
0.0
  0
LINE
  5
57C
330
490
100
AcDbEntity
  8
1
  6
Continuous
 62
     2
440
 16777216
370
    -2
100
AcDbLine
 10
83.73799100974254
 20
174.1831793286562
 30
0.0
 11
84.18662406620164
 21
173.0164624046973
 31
0.0
  0
MTEXT
  5
57D
330
490
100
AcDbEntity
  8
1
  6
Continuous
 62
     3
440
 16777216
100
AcDbMText
 10
81.60632434307586
 20
175.1481793286563
 30
0.0
 40
1.75
 41
0.0
 71
     5
 72
     1
  1
\A1;R16
 73
     1
 44
1.0
  0
SOLID
  5
57E
330
490
100
AcDbEntity
  8
1
  6
Continuous
 62
     2
440
 16777216
100
AcDbTrace
 10
84.3810768868615
 20
173.0912345807738
 30
0.0
 11
83.99217124554182
 21
172.9416902286208
 31
0.0
 12
84.63525712266074
 22
171.8497454807384
 32
0.0
 13
84.63525712266074
 23
171.8497454807384
 33
0.0
  0
POINT
  5
57F
330
490
100
AcDbEntity
  8
Defpoints
  6
Continuous
 62
     0
440
 16777216
100
AcDbPoint
 10
84.63525712266074
 20
171.8497454807384
 30
0.0
  0
POINT
  5
580
330
490
100
AcDbEntity
  8
Defpoints
  6
Continuous
 62
     0
440
 16777216
100
AcDbPoint
 10
90.37776024533721
 20
156.9157688540642
 30
0.0
  0
ENDBLK
  5
492
330
490
100
AcDbEntity
  8
0
100
AcDbBlockEnd
  0
BLOCK
  5
49A
330
499
100
AcDbEntity
  8
0
100
AcDbBlockBegin
  2
*D53
 70
     1
 10
0.0
 20
0.0
 30
0.0
  3
*D53
  1

  0
LINE
  5
581
330
499
100
AcDbEntity
  8
1
  6
Continuous
 62
     2
440
 16777216
370
    -2
100
AcDbLine
 10
90.61136044906751
 20
172.0945146386682
 30
0.0
 11
88.18802711573416
 21
172.0945146386682
 31
0.0
  0
LINE
  5
582
330
499
100
AcDbEntity
  8
1
  6
Continuous
 62
     2
440
 16777216
370
    -2
100
AcDbLine
 10
88.18802711573416
 20
172.0945146386682
 30
0.0
 11
87.63821770982648
 21
170.971924055608
 31
0.0
  0
MTEXT
  5
583
330
499
100
AcDbEntity
  8
1
  6
Continuous
 62
     3
440
 16777216
100
AcDbMText
 10
89.44469378240087
 20
173.0595146386682
 30
0.0
 40
1.75
 41
0.0
 71
     5
 72
     1
  1
\A1;R1
 73
     1
 44
1.0
  0
LINE
  5
584
330
499
100
AcDbEntity
  8
1
  6
Continuous
 62
     2
440
 16777216
370
    -2
100
AcDbLine
 10
86.64856077919262
 20
168.9512610060996
 30
0.0
 11
87.08840830391878
 21
169.8493334725478
 31
0.0
  0
SOLID
  5
585
330
499
100
AcDbEntity
  8
1
  6
Continuous
 62
     2
440
 16777216
100
AcDbTrace
 10
87.45111927931644
 20
171.0635589565926
 30
0.0
 11
87.82531614033651
 21
170.8802891546234
 31
0.0
 12
87.08840830391878
 22
169.8493334725478
 32
0.0
 13
87.08840830391878
 23
169.8493334725478
 33
0.0
  0
POINT
  5
586
330
499
100
AcDbEntity
  8
Defpoints
  6
Continuous
 62
     0
440
 16777216
100
AcDbPoint
 10
87.08840830391878
 20
169.8493334725478
 30
0.0
  0
POINT
  5
587
330
499
100
AcDbEntity
  8
Defpoints
  6
Continuous
 62
     0
440
 16777216
100
AcDbPoint
 10
86.64856077919262
 20
168.9512610060996
 30
0.0
  0
ENDBLK
  5
49B
330
499
100
AcDbEntity
  8
0
100
AcDbBlockEnd
  0
BLOCK
  5
4A4
330
4A3
100
AcDbEntity
  8
0
100
AcDbBlockBegin
  2
*D54
 70
     1
 10
0.0
 20
0.0
 30
0.0
  3
*D54
  1

  0
LINE
  5
588
330
4A3
100
AcDbEntity
  8
1
  6
Continuous
 62
     2
440
 16777216
370
    -2
100
AcDbLine
 10
81.44183443972215
 20
150.9661589176926
 30
0.0
 11
86.78183443972216
 21
150.9661589176926
 31
0.0
  0
LINE
  5
589
330
4A3
100
AcDbEntity
  8
1
  6
Continuous
 62
     2
440
 16777216
370
    -2
100
AcDbLine
 10
86.78183443972216
 20
150.9661589176926
 30
0.0
 11
88.45506045520078
 21
153.4562020299952
 31
0.0
  0
MTEXT
  5
58A
330
4A3
100
AcDbEntity
  8
1
  6
Continuous
 62
     3
440
 16777216
100
AcDbMText
 10
84.06683443972216
 20
151.9311589176926
 30
0.0
 40
1.75
 41
0.0
 71
     5
 72
     1
  1
\A1;R3.4
 73
     1
 44
1.0
  0
SOLID
  5
58B
330
4A3
100
AcDbEntity
  8
1
  6
Continuous
 62
     2
440
 16777216
100
AcDbTrace
 10
88.28214079462421
 20
153.5723982810701
 30
0.0
 11
88.62798011577735
 21
153.3400057789203
 31
0.0
 12
89.15223796165021
 22
154.4937199934546
 32
0.0
 13
89.15223796165021
 23
154.4937199934546
 33
0.0
  0
POINT
  5
58C
330
4A3
100
AcDbEntity
  8
Defpoints
  6
Continuous
 62
     0
440
 16777216
100
AcDbPoint
 10
89.15223796165021
 20
154.4937199934546
 30
0.0
  0
POINT
  5
58D
330
4A3
100
AcDbEntity
  8
Defpoints
  6
Continuous
 62
     0
440
 16777216
100
AcDbPoint
 10
91.04856077919261
 20
157.3157688540642
 30
0.0
  0
ENDBLK
  5
4A5
330
4A3
100
AcDbEntity
  8
0
100
AcDbBlockEnd
  0
BLOCK
  5
4AD
330
4AC
100
AcDbEntity
  8
0
100
AcDbBlockBegin
  2
*D55
 70
     1
 10
0.0
 20
0.0
 30
0.0
  3
*D55
  1

  0
LINE
  5
58E
330
4AC
100
AcDbEntity
  8
1
  6
Continuous
 62
     2
440
 16777216
370
    -2
100
AcDbLine
 10
84.13714071822292
 20
154.5918787084793
 30
0.0
 11
86.56047405155627
 21
154.5918787084793
 31
0.0
  0
LINE
  5
58F
330
4AC
100
AcDbEntity
  8
1
  6
Continuous
 62
     2
440
 16777216
370
    -2
100
AcDbLine
 10
86.56047405155627
 20
154.5918787084793
 30
0.0
 11
89.12509503877704
 21
156.1483873630993
 31
0.0
  0
MTEXT
  5
590
330
4AC
100
AcDbEntity
  8
1
  6
Continuous
 62
     3
440
 16777216
100
AcDbMText
 10
85.30380738488961
 20
155.5568787084793
 30
0.0
 40
1.75
 41
0.0
 71
     5
 72
     1
  1
\A1;R1
 73
     1
 44
1.0
  0
LINE
  5
591
330
4AC
100
AcDbEntity
  8
1
  6
Continuous
 62
     2
440
 16777216
370
    -2
100
AcDbLine
 10
91.04856077919263
 20
157.3157688540642
 30
0.0
 11
90.1936871167857
 21
156.7969326358576
 31
0.0
  0
SOLID
  5
592
330
4AC
100
AcDbEntity
  8
1
  6
Continuous
 62
     2
440
 16777216
100
AcDbTrace
 10
89.017004159984
 20
156.3264860427674
 30
0.0
 11
89.23318591757009
 21
155.9702886834311
 31
0.0
 12
90.1936871167857
 22
156.7969326358576
 32
0.0
 13
90.1936871167857
 23
156.7969326358576
 33
0.0
  0
POINT
  5
593
330
4AC
100
AcDbEntity
  8
Defpoints
  6
Continuous
 62
     0
440
 16777216
100
AcDbPoint
 10
90.1936871167857
 20
156.7969326358576
 30
0.0
  0
POINT
  5
594
330
4AC
100
AcDbEntity
  8
Defpoints
  6
Continuous
 62
     0
440
 16777216
100
AcDbPoint
 10
91.04856077919263
 20
157.3157688540642
 30
0.0
  0
ENDBLK
  5
4AE
330
4AC
100
AcDbEntity
  8
0
100
AcDbBlockEnd
  0
BLOCK
  5
4B7
330
4B6
100
AcDbEntity
  8
0
100
AcDbBlockBegin
  2
*D56
 70
     1
 10
0.0
 20
0.0
 30
0.0
  3
*D56
  1

  0
LINE
  5
595
330
4B6
100
AcDbEntity
  8
1
  6
Continuous
 62
     2
440
 16777216
370
    -2
100
AcDbLine
 10
83.97449574918951
 20
172.5552757114986
 30
0.0
 11
89.02282908252287
 21
172.5552757114986
 31
0.0
  0
LINE
  5
596
330
4B6
100
AcDbEntity
  8
1
  6
Continuous
 62
     2
440
 16777216
370
    -2
100
AcDbLine
 10
89.02282908252287
 20
172.5552757114986
 30
0.0
 11
89.67836605698648
 21
171.4909584302751
 31
0.0
  0
MTEXT
  5
597
330
4B6
100
AcDbEntity
  8
1
  6
Continuous
 62
     3
440
 16777216
100
AcDbMText
 10
86.45366241585618
 20
173.5202757114986
 30
0.0
 40
1.75
 41
0.0
 71
     5
 72
     1
  1
\A1;R0.6
 73
     1
 44
1.0
  0
LINE
  5
598
330
4B6
100
AcDbEntity
  8
1
  6
Continuous
 62
     2
440
 16777216
370
    -2
100
AcDbLine
 10
90.64856077919264
 20
169.9157688540643
 30
0.0
 11
90.33390303145012
 21
170.4266411490516
 31
0.0
  0
SOLID
  5
599
330
4B6
100
AcDbEntity
  8
1
  6
Continuous
 62
     2
440
 16777216
100
AcDbTrace
 10
89.85575227052375
 20
171.6002145926857
 30
0.0
 11
89.50097984344923
 21
171.3817022678645
 31
0.0
 12
90.33390303145012
 22
170.4266411490516
 32
0.0
 13
90.33390303145012
 23
170.4266411490516
 33
0.0
  0
POINT
  5
59A
330
4B6
100
AcDbEntity
  8
Defpoints
  6
Continuous
 62
     0
440
 16777216
100
AcDbPoint
 10
90.33390303145012
 20
170.4266411490516
 30
0.0
  0
POINT
  5
59B
330
4B6
100
AcDbEntity
  8
Defpoints
  6
Continuous
 62
     0
440
 16777216
100
AcDbPoint
 10
90.64856077919264
 20
169.9157688540643
 30
0.0
  0
ENDBLK
  5
4B8
330
4B6
100
AcDbEntity
  8
0
100
AcDbBlockEnd
  0
BLOCK
  5
4C1
330
4C0
100
AcDbEntity
  8
0
100
AcDbBlockBegin
  2
*D57
 70
     1
 10
0.0
 20
0.0
 30
0.0
  3
*D57
  1

  0
LINE
  5
59C
330
4C0
100
AcDbEntity
  8
1
  6
Continuous
 62
     2
440
 16777216
370
    -2
100
AcDbLine
 10
102.5684089693885
 20
174.5627625468655
 30
0.0
 11
97.81174230272185
 21
174.5627625468655
 31
0.0
  0
LINE
  5
59D
330
4C0
100
AcDbEntity
  8
1
  6
Continuous
 62
     2
440
 16777216
370
    -2
100
AcDbLine
 10
97.81174230272185
 20
174.5627625468655
 30
0.0
 11
97.01337016639442
 21
173.6009403533516
 31
0.0
  0
MTEXT
  5
59E
330
4C0
100
AcDbEntity
  8
1
  6
Continuous
 62
     3
440
 16777216
100
AcDbMText
 10
100.2350756360551
 20
175.5277625468655
 30
0.0
 40
1.75
 41
0.0
 71
     5
 72
     1
  1
\A1;R1.2
 73
     1
 44
1.0
  0
SOLID
  5
59F
330
4C0
100
AcDbEntity
  8
1
  6
Continuous
 62
     2
440
 16777216
100
AcDbTrace
 10
96.85306646747543
 20
173.7340023760728
 30
0.0
 11
97.17367386531343
 21
173.4678783306303
 31
0.0
 12
96.21499803006697
 22
172.6391181598376
 32
0.0
 13
96.21499803006697
 23
172.6391181598376
 33
0.0
  0
POINT
  5
5A0
330
4C0
100
AcDbEntity
  8
Defpoints
  6
Continuous
 62
     0
440
 16777216
100
AcDbPoint
 10
96.21499803006697
 20
172.6391181598376
 30
0.0
  0
POINT
  5
5A1
330
4C0
100
AcDbEntity
  8
Defpoints
  6
Continuous
 62
     0
440
 16777216
100
AcDbPoint
 10
95.44856077919261
 20
171.7157688540642
 30
0.0
  0
ENDBLK
  5
4C2
330
4C0
100
AcDbEntity
  8
0
100
AcDbBlockEnd
  0
ENDSEC
  0
SECTION
  2
ENTITIES
  0
LINE
  5
33A
330
6B
100
AcDbEntity
  8
1
 62
     7
100
AcDbLine
 10
133.1095994048253
 20
167.9157688540642
 30
0.0
 11
135.0485607791926
 21
167.9157688540642
 31
0.0
  0
LINE
  5
33B
330
6B
100
AcDbEntity
  8
1
 62
     7
100
AcDbLine
 10
127.6485607791926
 20
157.3157688540642
 30
0.0
 11
127.6485607791926
 21
168.9512610060997
 31
0.0
  0
LINE
  5
33C
330
6B
100
AcDbEntity
  8
1
 62
     7
100
AcDbLine
 10
119.8485607791926
 20
172.9157688540642
 30
0.0
 11
124.919361313048
 21
172.9157688540642
 31
0.0
  0
LINE
  5
33D
330
6B
100
AcDbEntity
  8
1
 62
     7
100
AcDbLine
 10
119.8485607791926
 20
170.5157688540642
 30
0.0
 11
124.6485607791926
 21
170.5157688540642
 31
0.0
  0
LINE
  5
33E
330
6B
100
AcDbEntity
  8
1
 62
     7
100
AcDbLine
 10
125.2485607791926
 20
157.3157688540642
 30
0.0
 11
125.2485607791926
 21
169.9157688540642
 31
0.0
  0
LINE
  5
33F
330
6B
100
AcDbEntity
  8
1
 62
     7
100
AcDbLine
 10
107.6485607791926
 20
155.7157688540642
 30
0.0
 11
108.2485607791926
 21
156.3157688540642
 31
0.0
  0
LINE
  5
341
330
6B
100
AcDbEntity
  8
1
 62
     7
100
AcDbLine
 10
108.2485607791926
 20
156.3157688540642
 30
0.0
 11
124.2485607791926
 21
156.3157688540642
 31
0.0
  0
LINE
  5
342
330
6B
100
AcDbEntity
  8
1
 62
     7
100
AcDbLine
 10
107.6485607791926
 20
153.9157688540642
 30
0.0
 11
124.2485607791926
 21
153.9157688540642
 31
0.0
  0
LINE
  5
343
330
6B
100
AcDbEntity
  8
1
 62
     7
100
AcDbLine
 10
80.24856077919263
 20
167.9157688540642
 30
0.0
 11
82.18752215355989
 21
167.9157688540642
 31
0.0
  0
LINE
  5
344
330
6B
100
AcDbEntity
  8
1
 62
     7
100
AcDbLine
 10
87.64856077919262
 20
168.9512610060997
 30
0.0
 11
87.64856077919262
 21
157.3157688540642
 31
0.0
  0
LINE
  5
345
330
6B
100
AcDbEntity
  8
1
 62
     7
100
AcDbLine
 10
90.37776024533721
 20
172.9157688540642
 30
0.0
 11
95.44856077919263
 21
172.9157688540642
 31
0.0
  0
LINE
  5
346
330
6B
100
AcDbEntity
  8
1
 62
     7
100
AcDbLine
 10
90.64856077919262
 20
170.5157688540642
 30
0.0
 11
95.44856077919263
 21
170.5157688540642
 31
0.0
  0
LINE
  5
347
330
6B
100
AcDbEntity
  8
1
 62
     7
100
AcDbLine
 10
90.04856077919262
 20
169.9157688540642
 30
0.0
 11
90.04856077919262
 21
157.3157688540642
 31
0.0
  0
LINE
  5
348
330
6B
100
AcDbEntity
  8
1
  6
CENTER
 62
     2
100
AcDbLine
 10
107.6485607791926
 20
175.9157688540642
 30
0.0
 11
107.6485607791926
 21
151.9157688540642
 31
0.0
  0
LINE
  5
349
330
6B
100
AcDbEntity
  8
1
 62
     7
100
AcDbLine
 10
107.0485607791926
 20
156.3157688540642
 30
0.0
 11
107.6485607791926
 21
155.7157688540642
 31
0.0
  0
LINE
  5
34B
330
6B
100
AcDbEntity
  8
1
 62
     7
100
AcDbLine
 10
91.04856077919263
 20
156.3157688540642
 30
0.0
 11
107.0485607791926
 21
156.3157688540642
 31
0.0
  0
LINE
  5
34C
330
6B
100
AcDbEntity
  8
1
 62
     7
100
AcDbLine
 10
91.04856077919263
 20
153.9157688540642
 30
0.0
 11
107.6485607791926
 21
153.9157688540642
 31
0.0
  0
ARC
  5
357
330
6B
100
AcDbEntity
  8
1
 62
     7
100
AcDbCircle
 10
119.8485607791926
 20
171.7157688540642
 30
0.0
 40
1.2
100
AcDbArc
 50
90.0
 51
180.0
  0
ARC
  5
358
330
6B
100
AcDbEntity
  8
1
 62
     7
100
AcDbCircle
 10
95.44856077919263
 20
171.7157688540642
 30
0.0
 40
1.2
100
AcDbArc
 50
270.0
 51
0.0
  0
ARC
  5
359
330
6B
100
AcDbEntity
  8
1
 62
     7
100
AcDbCircle
 10
135.0485607791926
 20
168.5157688540642
 30
0.0
 40
0.6000000000000015
100
AcDbArc
 50
0.0
 51
48.37063900066103
  0
ARC
  5
35A
330
6B
100
AcDbEntity
  8
1
 62
     7
100
AcDbCircle
 10
124.919361313048
 20
156.9157688540642
 30
0.0
 40
13.6
100
AcDbArc
 50
54.77580501938078
 51
72.7843953467096
  0
ARC
  5
35B
330
6B
100
AcDbEntity
  8
1
 62
     7
100
AcDbCircle
 10
124.919361313048
 20
156.9157688540642
 30
0.0
 40
16.0
100
AcDbArc
 50
48.85350290724699
 51
90.0
  0
ARC
  5
35C
330
6B
100
AcDbEntity
  8
1
 62
     7
100
AcDbCircle
 10
135.0485607791926
 20
168.5157688540642
 30
0.0
 40
0.6
100
AcDbArc
 50
270.0
 51
0.0
  0
ARC
  5
35D
330
6B
100
AcDbEntity
  8
1
 62
     7
100
AcDbCircle
 10
119.8485607791926
 20
171.7157688540642
 30
0.0
 40
1.199999999999995
100
AcDbArc
 50
180.0
 51
270.0
  0
ARC
  5
35E
330
6B
100
AcDbEntity
  8
1
 62
     7
100
AcDbCircle
 10
80.24856077919263
 20
168.5157688540642
 30
0.0
 40
0.5999999999999995
100
AcDbArc
 50
131.6293609993387
 51
180.0
  0
ARC
  5
35F
330
6B
100
AcDbEntity
  8
1
 62
     7
100
AcDbCircle
 10
90.37776024533721
 20
156.9157688540642
 30
0.0
 40
13.6
100
AcDbArc
 50
107.2156046532904
 51
125.2241949806192
  0
ARC
  5
360
330
6B
100
AcDbEntity
  8
1
 62
     7
100
AcDbCircle
 10
90.37776024533721
 20
156.9157688540642
 30
0.0
 40
16.0
100
AcDbArc
 50
90.0
 51
131.146497092753
  0
ARC
  5
361
330
6B
100
AcDbEntity
  8
1
 62
     7
100
AcDbCircle
 10
80.24856077919263
 20
168.5157688540642
 30
0.0
 40
0.6000000000000015
100
AcDbArc
 50
180.0
 51
270.0
  0
ARC
  5
362
330
6B
100
AcDbEntity
  8
1
 62
     7
100
AcDbCircle
 10
95.44856077919263
 20
171.7157688540642
 30
0.0
 40
1.199999999999999
100
AcDbArc
 50
0.0
 51
90.0
  0
ARC
  5
36D
330
6B
100
AcDbEntity
  8
1
 62
     7
100
AcDbCircle
 10
128.6485607791926
 20
168.9512610060997
 30
0.0
 40
1.0
100
AcDbArc
 50
72.7843953467096
 51
180.0
  0
ARC
  5
36E
330
6B
100
AcDbEntity
  8
1
 62
     7
100
AcDbCircle
 10
133.1095994048253
 20
168.5157688540642
 30
0.0
 40
0.6000000000000015
100
AcDbArc
 50
234.7758050193811
 51
270.0
  0
ARC
  5
36F
330
6B
100
AcDbEntity
  8
1
 62
     7
100
AcDbCircle
 10
124.6485607791926
 20
169.9157688540642
 30
0.0
 40
0.5999999999999997
100
AcDbArc
 50
0.0
 51
90.0
  0
ARC
  5
370
330
6B
100
AcDbEntity
  8
1
 62
     7
100
AcDbCircle
 10
124.2485607791926
 20
157.3157688540642
 30
0.0
 40
3.400000000000001
100
AcDbArc
 50
270.0
 51
0.0
  0
ARC
  5
371
330
6B
100
AcDbEntity
  8
1
 62
     7
100
AcDbCircle
 10
124.2485607791926
 20
157.3157688540642
 30
0.0
 40
1.000000000000001
100
AcDbArc
 50
270.0
 51
0.0
  0
ARC
  5
372
330
6B
100
AcDbEntity
  8
1
 62
     7
100
AcDbCircle
 10
86.64856077919262
 20
168.9512610060997
 30
0.0
 40
1.0
100
AcDbArc
 50
0.0
 51
107.2156046532904
  0
ARC
  5
373
330
6B
100
AcDbEntity
  8
1
 62
     7
100
AcDbCircle
 10
82.18752215355989
 20
168.5157688540642
 30
0.0
 40
0.6
100
AcDbArc
 50
270.0
 51
305.2241949806195
  0
ARC
  5
374
330
6B
100
AcDbEntity
  8
1
 62
     7
100
AcDbCircle
 10
90.64856077919262
 20
169.9157688540642
 30
0.0
 40
0.5999999999999997
100
AcDbArc
 50
90.0
 51
180.0
  0
ARC
  5
375
330
6B
100
AcDbEntity
  8
1
 62
     7
100
AcDbCircle
 10
91.04856077919263
 20
157.3157688540642
 30
0.0
 40
3.399999999999998
100
AcDbArc
 50
180.0
 51
270.0
  0
ARC
  5
376
330
6B
100
AcDbEntity
  8
1
 62
     7
100
AcDbCircle
 10
91.04856077919263
 20
157.3157688540642
 30
0.0
 40
1.0
100
AcDbArc
 50
180.0
 51
270.0
  0
ENDSEC
  0
SECTION
  2
OBJECTS
  0
DICTIONARY
  5
C
330
0
100
AcDbDictionary
281
     1
  3
ACAD_CIP_PREVIOUS_PRODUCT_INFO
350
31E
  3
ACAD_COLOR
350
62
  3
ACAD_GROUP
350
D
  3
ACAD_LAYOUT
350
61
  3
ACAD_MATERIAL
350
10
  3
ACAD_MLEADERSTYLE
350
65
  3
ACAD_MLINESTYLE
350
5E
  3
ACAD_PLOTSETTINGS
350
60
  3
ACAD_PLOTSTYLENAME
350
E
  3
ACAD_SCALELIST
350
42
  3
ACAD_TABLESTYLE
350
63
  3
ACAD_VISUALSTYLE
350
29
  3
ACDB_RECOMPOSE_DATA
350
5B2
  3
AcDbVariableDictionary
350
5AA
  3
ASE_INDEX_DICTIONARY
350
5A7
  0
DICTIONARY
  5
5A2
330
54
100
AcDbDictionary
280
     1
281
     1
  3
ADSK_XREC_LAYER_RECONCILED
360
5A3
  0
DICTIONARY
  5
5A4
330
7E
100
AcDbDictionary
280
     1
281
     1
  3
ADSK_XREC_LAYER_RECONCILED
360
5A5
  0
DICTIONARY
  5
4C9
330
6B
100
AcDbDictionary
280
     1
281
     1
  3
ACAD_SORTENTS
360
4CA
  0
XRECORD
  5
31E
102
{ACAD_REACTORS
330
C
102
}
330
C
100
AcDbXrecord
280
     1
300
ACD
300
2012
300
ACD_F_S
  0
DICTIONARY
  5
62
102
{ACAD_REACTORS
330
C
102
}
330
C
100
AcDbDictionary
281
     1
  0
DICTIONARY
  5
D
102
{ACAD_REACTORS
330
C
102
}
330
C
100
AcDbDictionary
281
     1
  0
DICTIONARY
  5
61
102
{ACAD_REACTORS
330
C
102
}
330
C
100
AcDbDictionary
281
     1
  3
Model
350
6E
  3
レイアウト1
350
6A
  0
DICTIONARY
  5
10
102
{ACAD_REACTORS
330
C
102
}
330
C
100
AcDbDictionary
281
     1
  3
ByBlock
350
19
  3
ByLayer
350
11
  3
Global
350
21
  0
DICTIONARY
  5
65
102
{ACAD_REACTORS
330
C
102
}
330
C
100
AcDbDictionary
281
     1
  3
Standard
350
66
  0
DICTIONARY
  5
5E
102
{ACAD_REACTORS
330
C
102
}
330
C
100
AcDbDictionary
281
     1
  3
Standard
350
5F
  0
DICTIONARY
  5
60
102
{ACAD_REACTORS
330
C
102
}
330
C
100
AcDbDictionary
281
     1
  0
ACDBDICTIONARYWDFLT
  5
E
102
{ACAD_REACTORS
330
C
102
}
330
C
100
AcDbDictionary
281
     1
  3
Normal
350
F
100
AcDbDictionaryWithDefault
340
F
  0
DICTIONARY
  5
42
102
{ACAD_REACTORS
330
C
102
}
330
C
100
AcDbDictionary
281
     1
  3
A0
350
43
  3
A1
350
44
  3
A2
350
45
  3
A3
350
46
  3
A4
350
47
  3
A5
350
48
  3
A6
350
49
  3
A7
350
4A
  3
A8
350
4B
  3
A9
350
4C
  3
B0
350
4D
  3
B1
350
4E
  3
B2
350
4F
  3
B3
350
50
  3
B4
350
51
  3
B5
350
52
  3
B6
350
53
  0
DICTIONARY
  5
63
102
{ACAD_REACTORS
330
C
102
}
330
C
100
AcDbDictionary
281
     1
  3
Standard
350
64
  0
DICTIONARY
  5
29
102
{ACAD_REACTORS
330
C
102
}
330
C
100
AcDbDictionary
281
     1
  3
2dWireframe
350
2F
  3
Basic
350
2E
  3
Brighten
350
35
  3
ColorChange
350
39
  3
Conceptual
350
32
  3
Dim
350
34
  3
EdgeColorOff
350
41
  3
Facepattern
350
38
  3
Flat
350
2A
  3
FlatWithEdges
350
2B
  3
Gouraud
350
2C
  3
GouraudWithEdges
350
2D
  3
Hidden
350
31
  3
JitterOff
350
3F
  3
Linepattern
350
37
  3
OverhangOff
350
40
  3
Realistic
350
33
  3
Shaded
350
3E
  3
Shaded with edges
350
3D
  3
Shades of Gray
350
3A
  3
Sketchy
350
3B
  3
Thicken
350
36
  3
Wireframe
350
30
  3
X-Ray
350
3C
  0
XRECORD
  5
5B2
102
{ACAD_REACTORS
330
C
102
}
330
C
100
AcDbXrecord
280
     1
 90
        1
330
64
  0
DICTIONARY
  5
5AA
102
{ACAD_REACTORS
330
C
102
}
330
C
100
AcDbDictionary
281
     1
  3
CANNOSCALE
350
5AD
  3
CMLEADERSTYLE
350
5AC
  3
CTABLESTYLE
350
5AB
  3
XCLIPFRAME
350
5AE
  0
DICTIONARY
  5
5A7
102
{ACAD_REACTORS
330
C
102
}
330
C
100
AcDbDictionary
281
     1
  3
ASEBlockHierarchyIndexRecord
350
5A9
1001
DCO15
1040
1881917370.499
  0
XRECORD
  5
5A3
102
{ACAD_REACTORS
330
5A2
102
}
330
5A2
100
AcDbXrecord
280
     1
290
     1
  0
XRECORD
  5
5A5
102
{ACAD_REACTORS
330
5A4
102
}
330
5A4
100
AcDbXrecord
280
     1
290
     1
  0
SORTENTSTABLE
  5
4CA
102
{ACAD_REACTORS
330
4C9
102
}
330
4C9
100
AcDbSortentsTable
330
6B
331
374
  5
374
331
372
  5
372
331
361
  5
361
331
347
  5
347
331
370
  5
370
331
35F
  5
35F
331
345
  5
345
331
36E
  5
36E
331
34C
  5
34C
331
35D
  5
35D
331
343
  5
343
331
35B
  5
35B
331
341
  5
341
331
348
  5
348
331
359
  5
359
331
33F
  5
33F
331
357
  5
357
331
33D
  5
33D
331
33B
  5
33B
331
375
  5
375
331
373
  5
373
331
362
  5
362
331
371
  5
371
331
360
  5
360
331
346
  5
346
331
36F
  5
36F
331
35E
  5
35E
331
344
  5
344
331
36D
  5
36D
331
34B
  5
34B
331
35C
  5
35C
331
342
  5
342
331
349
  5
349
331
35A
  5
35A
331
358
  5
358
331
33E
  5
33E
331
33C
  5
33C
331
376
  5
376
331
33A
  5
33A
  0
LAYOUT
  5
6E
102
{ACAD_REACTORS
330
61
102
}
330
61
100
AcDbPlotSettings
  1

  2
\\asrv0030\DocuCentre 230 - 本社９階　開発部
  4

  6

 40
0.0
 41
0.0
 42
0.0
 43
0.0
 44
0.0
 45
0.0
 46
0.0
 47
0.0
 48
0.0
 49
0.0
140
0.0
141
0.0
142
1.0
143
1.0
 70
  1712
 72
     0
 73
     0
 74
     0
  7

 75
     0
147
1.0
 76
     0
 77
     2
 78
   300
148
0.0
149
0.0
100
AcDbLayout
  1
Model
 70
     1
 71
     0
 10
0.0
 20
0.0
 11
12.0
 21
9.0
 12
0.0
 22
0.0
 32
0.0
 14
0.0
 24
0.0
 34
0.0
 15
0.0
 25
0.0
 35
0.0
146
0.0
 13
0.0
 23
0.0
 33
0.0
 16
1.0
 26
0.0
 36
0.0
 17
0.0
 27
1.0
 37
0.0
 76
     0
330
6B
331
86
  0
LAYOUT
  5
6A
102
{ACAD_REACTORS
330
61
102
}
330
61
100
AcDbPlotSettings
  1

  2
\\asrv0030\DocuCentre 230 - 本社９階　開発部
  4

  6

 40
0.0
 41
0.0
 42
0.0
 43
0.0
 44
0.0
 45
0.0
 46
0.0
 47
0.0
 48
0.0
 49
0.0
140
0.0
141
0.0
142
1.0
143
1.0
 70
   688
 72
     0
 73
     0
 74
     5
  7

 75
    16
147
1.0
 76
     0
 77
     2
 78
   300
148
0.0
149
0.0
100
AcDbLayout
  1
レイアウト1
 70
     1
 71
     1
 10
0.0
 20
0.0
 11
12.0
 21
9.0
 12
0.0
 22
0.0
 32
0.0
 14
1.000000000000000E+20
 24
1.000000000000000E+20
 34
1.000000000000000E+20
 15
-1.000000000000000E+20
 25
-1.000000000000000E+20
 35
-1.000000000000000E+20
146
0.0
 13
0.0
 23
0.0
 33
0.0
 16
1.0
 26
0.0
 36
0.0
 17
0.0
 27
1.0
 37
0.0
 76
     0
330
67
  0
MATERIAL
  5
19
102
{ACAD_XDICTIONARY
360
1A
102
}
102
{ACAD_REACTORS
330
10
102
}
330
10
100
AcDbMaterial
  1
ByBlock
 72
     0
 43
0.0208333333333333
 43
0.0
 43
0.0
 43
0.0
 43
0.0
 43
0.0208333333333333
 43
0.0
 43
0.0
 43
0.0
 43
0.0
 43
1.0
 43
0.0
 43
0.0
 43
0.0
 43
0.0
 43
1.0
 77
     0
 47
0.0208333333333333
 47
0.0
 47
0.0
 47
0.0
 47
0.0
 47
0.0208333333333333
 47
0.0
 47
0.0
 47
0.0
 47
0.0
 47
1.0
 47
0.0
 47
0.0
 47
0.0
 47
0.0
 47
1.0
171
     0
 49
0.0208333333333333
 49
0.0
 49
0.0
 49
0.0
 49
0.0
 49
0.0208333333333333
 49
0.0
 49
0.0
 49
0.0
 49
0.0
 49
1.0
 49
0.0
 49
0.0
 49
0.0
 49
0.0
 49
1.0
175
     0
142
0.0208333333333333
142
0.0
142
0.0
142
0.0
142
0.0
142
0.0208333333333333
142
0.0
142
0.0
142
0.0
142
0.0
142
1.0
142
0.0
142
0.0
142
0.0
142
0.0
142
1.0
179
     0
144
0.0208333333333333
144
0.0
144
0.0
144
0.0
144
0.0
144
0.0208333333333333
144
0.0
144
0.0
144
0.0
144
0.0
144
1.0
144
0.0
144
0.0
144
0.0
144
0.0
144
1.0
147
0.0208333333333333
147
0.0
147
0.0
147
0.0
147
0.0
147
0.0208333333333333
147
0.0
147
0.0
147
0.0
147
0.0
147
1.0
147
0.0
147
0.0
147
0.0
147
0.0
147
1.0
  0
MATERIAL
  5
11
102
{ACAD_XDICTIONARY
360
12
102
}
102
{ACAD_REACTORS
330
10
102
}
330
10
100
AcDbMaterial
  1
ByLayer
 72
     0
 43
0.0208333333333333
 43
0.0
 43
0.0
 43
0.0
 43
0.0
 43
0.0208333333333333
 43
0.0
 43
0.0
 43
0.0
 43
0.0
 43
1.0
 43
0.0
 43
0.0
 43
0.0
 43
0.0
 43
1.0
 77
     0
 47
0.0208333333333333
 47
0.0
 47
0.0
 47
0.0
 47
0.0
 47
0.0208333333333333
 47
0.0
 47
0.0
 47
0.0
 47
0.0
 47
1.0
 47
0.0
 47
0.0
 47
0.0
 47
0.0
 47
1.0
171
     0
 49
0.0208333333333333
 49
0.0
 49
0.0
 49
0.0
 49
0.0
 49
0.0208333333333333
 49
0.0
 49
0.0
 49
0.0
 49
0.0
 49
1.0
 49
0.0
 49
0.0
 49
0.0
 49
0.0
 49
1.0
175
     0
142
0.0208333333333333
142
0.0
142
0.0
142
0.0
142
0.0
142
0.0208333333333333
142
0.0
142
0.0
142
0.0
142
0.0
142
1.0
142
0.0
142
0.0
142
0.0
142
0.0
142
1.0
179
     0
144
0.0208333333333333
144
0.0
144
0.0
144
0.0
144
0.0
144
0.0208333333333333
144
0.0
144
0.0
144
0.0
144
0.0
144
1.0
144
0.0
144
0.0
144
0.0
144
0.0
144
1.0
147
0.0208333333333333
147
0.0
147
0.0
147
0.0
147
0.0
147
0.0208333333333333
147
0.0
147
0.0
147
0.0
147
0.0
147
1.0
147
0.0
147
0.0
147
0.0
147
0.0
147
1.0
  0
MATERIAL
  5
21
102
{ACAD_XDICTIONARY
360
22
102
}
102
{ACAD_REACTORS
330
10
102
}
330
10
100
AcDbMaterial
  1
Global
 72
     0
 43
0.0208333333333333
 43
0.0
 43
0.0
 43
0.0
 43
0.0
 43
0.0208333333333333
 43
0.0
 43
0.0
 43
0.0
 43
0.0
 43
1.0
 43
0.0
 43
0.0
 43
0.0
 43
0.0
 43
1.0
 77
     0
 47
0.0208333333333333
 47
0.0
 47
0.0
 47
0.0
 47
0.0
 47
0.0208333333333333
 47
0.0
 47
0.0
 47
0.0
 47
0.0
 47
1.0
 47
0.0
 47
0.0
 47
0.0
 47
0.0
 47
1.0
171
     0
 49
0.0208333333333333
 49
0.0
 49
0.0
 49
0.0
 49
0.0
 49
0.0208333333333333
 49
0.0
 49
0.0
 49
0.0
 49
0.0
 49
1.0
 49
0.0
 49
0.0
 49
0.0
 49
0.0
 49
1.0
175
     0
142
0.0208333333333333
142
0.0
142
0.0
142
0.0
142
0.0
142
0.0208333333333333
142
0.0
142
0.0
142
0.0
142
0.0
142
1.0
142
0.0
142
0.0
142
0.0
142
0.0
142
1.0
179
     0
144
0.0208333333333333
144
0.0
144
0.0
144
0.0
144
0.0
144
0.0208333333333333
144
0.0
144
0.0
144
0.0
144
0.0
144
1.0
144
0.0
144
0.0
144
0.0
144
0.0
144
1.0
147
0.0208333333333333
147
0.0
147
0.0
147
0.0
147
0.0
147
0.0208333333333333
147
0.0
147
0.0
147
0.0
147
0.0
147
1.0
147
0.0
147
0.0
147
0.0
147
0.0
147
1.0
  0
MLEADERSTYLE
  5
66
102
{ACAD_REACTORS
330
65
102
}
330
65
100
AcDbMLeaderStyle
170
     2
171
     1
172
     0
 90
        2
 40
0.0
 41
0.0
173
     1
 91
-1056964608
340
5A
 92
       -2
290
     1
 42
0.09
291
     1
 43
0.36
  3
Standard
 44
0.18
300

342
55
174
     1
178
     6
175
     1
176
     0
 93
-1056964608
 45
0.18
292
     0
297
     0
 46
0.18
 94
-1056964608
 47
1.0
 49
1.0
140
1.0
293
     1
141
0.0
294
     1
177
     0
142
1.0
295
     0
296
     0
143
0.125
1001
ACAD_MLEADERVER
1070
     2
  0
MLINESTYLE
  5
5F
102
{ACAD_REACTORS
330
5E
102
}
330
5E
100
AcDbMlineStyle
  2
STANDARD
 70
     0
  3

 62
   256
 51
90.0
 52
90.0
 71
     2
 49
0.5
 62
   256
  6
BYLAYER
 49
-0.5
 62
   256
  6
BYLAYER
  0
ACDBPLACEHOLDER
  5
F
102
{ACAD_REACTORS
330
E
102
}
330
E
  0
SCALE
  5
43
102
{ACAD_REACTORS
330
42
102
}
330
42
100
AcDbScale
 70
     0
300
1:1
140
1.0
141
1.0
290
     1
  0
SCALE
  5
44
102
{ACAD_REACTORS
330
42
102
}
330
42
100
AcDbScale
 70
     0
300
1/128" = 1'-0"
140
0.0078125
141
12.0
290
     0
  0
SCALE
  5
45
102
{ACAD_REACTORS
330
42
102
}
330
42
100
AcDbScale
 70
     0
300
1/64" = 1'-0"
140
0.015625
141
12.0
290
     0
  0
SCALE
  5
46
102
{ACAD_REACTORS
330
42
102
}
330
42
100
AcDbScale
 70
     0
300
1/32" = 1'-0"
140
0.03125
141
12.0
290
     0
  0
SCALE
  5
47
102
{ACAD_REACTORS
330
42
102
}
330
42
100
AcDbScale
 70
     0
300
1/16" = 1'-0"
140
0.0625
141
12.0
290
     0
  0
SCALE
  5
48
102
{ACAD_REACTORS
330
42
102
}
330
42
100
AcDbScale
 70
     0
300
3/32" = 1'-0"
140
0.09375
141
12.0
290
     0
  0
SCALE
  5
49
102
{ACAD_REACTORS
330
42
102
}
330
42
100
AcDbScale
 70
     0
300
1/8" = 1'-0"
140
0.125
141
12.0
290
     0
  0
SCALE
  5
4A
102
{ACAD_REACTORS
330
42
102
}
330
42
100
AcDbScale
 70
     0
300
3/16" = 1'-0"
140
0.1875
141
12.0
290
     0
  0
SCALE
  5
4B
102
{ACAD_REACTORS
330
42
102
}
330
42
100
AcDbScale
 70
     0
300
1/4" = 1'-0"
140
0.25
141
12.0
290
     0
  0
SCALE
  5
4C
102
{ACAD_REACTORS
330
42
102
}
330
42
100
AcDbScale
 70
     0
300
3/8" = 1'-0"
140
0.375
141
12.0
290
     0
  0
SCALE
  5
4D
102
{ACAD_REACTORS
330
42
102
}
330
42
100
AcDbScale
 70
     0
300
1/2" = 1'-0"
140
0.5
141
12.0
290
     0
  0
SCALE
  5
4E
102
{ACAD_REACTORS
330
42
102
}
330
42
100
AcDbScale
 70
     0
300
3/4" = 1'-0"
140
0.75
141
12.0
290
     0
  0
SCALE
  5
4F
102
{ACAD_REACTORS
330
42
102
}
330
42
100
AcDbScale
 70
     0
300
1" = 1'-0"
140
1.0
141
12.0
290
     0
  0
SCALE
  5
50
102
{ACAD_REACTORS
330
42
102
}
330
42
100
AcDbScale
 70
     0
300
1-1/2" = 1'-0"
140
1.5
141
12.0
290
     0
  0
SCALE
  5
51
102
{ACAD_REACTORS
330
42
102
}
330
42
100
AcDbScale
 70
     0
300
3" = 1'-0"
140
3.0
141
12.0
290
     0
  0
SCALE
  5
52
102
{ACAD_REACTORS
330
42
102
}
330
42
100
AcDbScale
 70
     0
300
6" = 1'-0"
140
6.0
141
12.0
290
     0
  0
SCALE
  5
53
102
{ACAD_REACTORS
330
42
102
}
330
42
100
AcDbScale
 70
     0
300
1'-0" = 1'-0"
140
12.0
141
12.0
290
     0
  0
TABLESTYLE
  5
64
102
{ACAD_XDICTIONARY
360
5B0
102
}
102
{ACAD_REACTORS
330
63
102
}
330
63
100
AcDbTableStyle
  3
Standard
 70
     0
 71
     0
 40
0.06
 41
0.06
280
     0
281
     0
  7
STANDARD
140
0.18
170
     2
 62
     0
 63
     7
283
     0
274
    -2
284
     1
 64
     0
275
    -2
285
     1
 65
     0
276
    -2
286
     1
 66
     0
277
    -2
287
     1
 67
     0
278
    -2
288
     1
 68
     0
279
    -2
289
     1
 69
     0
  7
STANDARD
140
0.25
170
     5
 62
     0
 63
     7
283
     0
274
    -2
284
     1
 64
     0
275
    -2
285
     1
 65
     0
276
    -2
286
     1
 66
     0
277
    -2
287
     1
 67
     0
278
    -2
288
     1
 68
     0
279
    -2
289
     1
 69
     0
  7
STANDARD
140
0.18
170
     5
 62
     0
 63
     7
283
     0
274
    -2
284
     1
 64
     0
275
    -2
285
     1
 65
     0
276
    -2
286
     1
 66
     0
277
    -2
287
     1
 67
     0
278
    -2
288
     1
 68
     0
279
    -2
289
     1
 69
     0
  0
VISUALSTYLE
  5
2F
102
{ACAD_XDICTIONARY
360
5C0
102
}
102
{ACAD_REACTORS
330
29
102
}
330
29
100
AcDbVisualStyle
  2
2dWireframe
 70
     4
 71
     0
 72
     2
 73
     0
 90
        0
 40
-0.6
 41
-30.0
 62
     5
 63
     7
421
 16777215
 74
     1
 91
        4
 64
     7
 65
   257
 75
     1
175
     1
 42
1.0
 92
        0
 66
   257
 43
1.0
 76
     1
 77
     6
 78
     2
 67
     7
 79
     5
170
     0
171
     0
290
     0
174
     0
 93
        1
 44
0.0
173
     0
291
     0
 45
0.0
1001
ACAD
1000
AcDbSavedByObjectVersion
1070
     0
  0
VISUALSTYLE
  5
2E
102
{ACAD_XDICTIONARY
360
5BE
102
}
102
{ACAD_REACTORS
330
29
102
}
330
29
100
AcDbVisualStyle
  2
Basic
 70
     7
 71
     1
 72
     0
 73
     1
 90
        0
 40
-0.6
 41
-30.0
 62
     5
 63
     7
421
 16777215
 74
     0
 91
        4
 64
     7
 65
   257
 75
     1
175
     1
 42
1.0
 92
        8
 66
     7
 43
1.0
 76
     1
 77
     6
 78
     2
 67
     7
 79
     5
170
     0
171
     0
290
     0
174
     0
 93
        1
 44
0.0
173
     0
291
     1
 45
0.0
1001
ACAD
1000
AcDbSavedByObjectVersion
1070
     0
  0
VISUALSTYLE
  5
35
102
{ACAD_XDICTIONARY
360
5CC
102
}
102
{ACAD_REACTORS
330
29
102
}
330
29
100
AcDbVisualStyle
  2
Brighten
 70
    12
 71
     2
 72
     2
 73
     0
 90
        0
 40
-0.6
 41
-30.0
 62
     5
 63
     7
421
 16777215
 74
     1
 91
        4
 64
     7
 65
   257
 75
     1
175
     1
 42
1.0
 92
        8
 66
     7
 43
1.0
 76
     1
 77
     6
 78
     2
 67
     7
 79
     5
170
     0
171
     0
290
     0
174
     0
 93
        1
 44
50.0
173
     0
291
     1
 45
0.0
1001
ACAD
1000
AcDbSavedByObjectVersion
1070
     0
  0
VISUALSTYLE
  5
39
102
{ACAD_XDICTIONARY
360
5D4
102
}
102
{ACAD_REACTORS
330
29
102
}
330
29
100
AcDbVisualStyle
  2
ColorChange
 70
    16
 71
     2
 72
     2
 73
     3
 90
        0
 40
-0.6
 41
-30.0
 62
     5
 63
     8
421
  8421504
 74
     1
 91
        4
 64
     7
 65
   257
 75
     1
175
     1
 42
1.0
 92
        8
 66
     8
424
  8421504
 43
1.0
 76
     1
 77
     6
 78
     2
 67
     7
 79
     5
170
     0
171
     0
290
     0
174
     0
 93
        1
 44
0.0
173
     0
291
     1
 45
0.0
1001
ACAD
1000
AcDbSavedByObjectVersion
1070
     0
  0
VISUALSTYLE
  5
32
102
{ACAD_XDICTIONARY
360
5C6
102
}
102
{ACAD_REACTORS
330
29
102
}
330
29
100
AcDbVisualStyle
  2
Conceptual
 70
     9
 71
     3
 72
     2
 73
     0
 90
        0
 40
-0.6
 41
-30.0
 62
     5
 63
     7
421
 16777215
 74
     2
 91
        2
 64
     7
 65
   257
 75
     1
175
     1
 42
179.0
 92
        8
 66
     7
 43
1.0
 76
     1
 77
     6
 78
     2
 67
     7
 79
     3
170
     0
171
     0
290
     0
174
     0
 93
        1
 44
0.0
173
     0
291
     0
 45
0.0
1001
ACAD
1000
AcDbSavedByObjectVersion
1070
     0
  0
VISUALSTYLE
  5
34
102
{ACAD_XDICTIONARY
360
5CA
102
}
102
{ACAD_REACTORS
330
29
102
}
330
29
100
AcDbVisualStyle
  2
Dim
 70
    11
 71
     2
 72
     2
 73
     0
 90
        0
 40
-0.6
 41
-30.0
 62
     5
 63
     7
421
 16777215
 74
     1
 91
        4
 64
     7
 65
   257
 75
     1
175
     1
 42
1.0
 92
        8
 66
     7
 43
1.0
 76
     1
 77
     6
 78
     2
 67
     7
 79
     5
170
     0
171
     0
290
     0
174
     0
 93
        1
 44
-50.0
173
     0
291
     1
 45
0.0
1001
ACAD
1000
AcDbSavedByObjectVersion
1070
     0
  0
VISUALSTYLE
  5
41
102
{ACAD_XDICTIONARY
360
5E4
102
}
102
{ACAD_REACTORS
330
29
102
}
330
29
100
AcDbVisualStyle
  2
EdgeColorOff
 70
    22
 71
     2
 72
     2
 73
     0
 90
        0
 40
-0.6
 41
-30.0
 62
     5
 63
     7
421
 16777215
 74
     1
 91
        4
 64
     7
 65
   257
 75
     1
175
     1
 42
1.0
 92
        8
 66
     7
 43
1.0
 76
     1
 77
     6
 78
     2
 67
     7
 79
     5
170
     0
171
     0
290
     0
174
     0
 93
        1
 44
0.0
173
     0
291
     1
 45
0.0
1001
ACAD
1000
AcDbSavedByObjectVersion
1070
     0
  0
VISUALSTYLE
  5
38
102
{ACAD_XDICTIONARY
360
5D2
102
}
102
{ACAD_REACTORS
330
29
102
}
330
29
100
AcDbVisualStyle
  2
Facepattern
 70
    15
 71
     2
 72
     2
 73
     0
 90
        0
 40
-0.6
 41
-30.0
 62
     5
 63
     7
421
 16777215
 74
     1
 91
        4
 64
     7
 65
   257
 75
     1
175
     1
 42
1.0
 92
        8
 66
     7
 43
1.0
 76
     1
 77
     6
 78
     2
 67
     7
 79
     5
170
     0
171
     0
290
     0
174
     0
 93
        1
 44
0.0
173
     0
291
     1
 45
0.0
1001
ACAD
1000
AcDbSavedByObjectVersion
1070
     0
  0
VISUALSTYLE
  5
2A
102
{ACAD_XDICTIONARY
360
5B6
102
}
102
{ACAD_REACTORS
330
29
102
}
330
29
100
AcDbVisualStyle
  2
Flat
 70
     0
 71
     2
 72
     1
 73
     1
 90
        2
 40
-0.6
 41
30.0
 62
     5
 63
     7
421
 16777215
 74
     0
 91
        0
 64
     7
 65
   257
 75
     1
175
     1
 42
1.0
 92
        8
 66
     7
 43
1.0
 76
     1
 77
     6
 78
     2
 67
     7
 79
     5
170
     0
171
     0
290
     0
174
     0
 93
       13
 44
0.0
173
     0
291
     1
 45
0.0
1001
ACAD
1000
AcDbSavedByObjectVersion
1070
     0
  0
VISUALSTYLE
  5
2B
102
{ACAD_XDICTIONARY
360
5B8
102
}
102
{ACAD_REACTORS
330
29
102
}
330
29
100
AcDbVisualStyle
  2
FlatWithEdges
 70
     1
 71
     2
 72
     1
 73
     1
 90
        2
 40
-0.6
 41
30.0
 62
     5
 63
     7
421
 16777215
 74
     1
 91
        0
 64
     7
 65
   257
 75
     1
175
     1
 42
1.0
 92
        0
 66
   257
 43
1.0
 76
     1
 77
     6
 78
     2
 67
     7
 79
     5
170
     0
171
     0
290
     0
174
     0
 93
       13
 44
0.0
173
     0
291
     1
 45
0.0
1001
ACAD
1000
AcDbSavedByObjectVersion
1070
     0
  0
VISUALSTYLE
  5
2C
102
{ACAD_XDICTIONARY
360
5BA
102
}
102
{ACAD_REACTORS
330
29
102
}
330
29
100
AcDbVisualStyle
  2
Gouraud
 70
     2
 71
     2
 72
     2
 73
     1
 90
        2
 40
-0.6
 41
30.0
 62
     5
 63
     7
421
 16777215
 74
     0
 91
        0
 64
     7
 65
   257
 75
     1
175
     1
 42
1.0
 92
        0
 66
     7
 43
1.0
 76
     1
 77
     6
 78
     2
 67
     7
 79
     5
170
     0
171
     0
290
     0
174
     0
 93
       13
 44
0.0
173
     0
291
     1
 45
0.0
1001
ACAD
1000
AcDbSavedByObjectVersion
1070
     0
  0
VISUALSTYLE
  5
2D
102
{ACAD_XDICTIONARY
360
5BC
102
}
102
{ACAD_REACTORS
330
29
102
}
330
29
100
AcDbVisualStyle
  2
GouraudWithEdges
 70
     3
 71
     2
 72
     2
 73
     1
 90
        2
 40
-0.6
 41
30.0
 62
     5
 63
     7
421
 16777215
 74
     1
 91
        0
 64
     7
 65
   257
 75
     1
175
     1
 42
1.0
 92
        0
 66
   257
 43
1.0
 76
     1
 77
     6
 78
     2
 67
     7
 79
     5
170
     0
171
     0
290
     0
174
     0
 93
       13
 44
0.0
173
     0
291
     1
 45
0.0
1001
ACAD
1000
AcDbSavedByObjectVersion
1070
     0
  0
VISUALSTYLE
  5
31
102
{ACAD_XDICTIONARY
360
5C4
102
}
102
{ACAD_REACTORS
330
29
102
}
330
29
100
AcDbVisualStyle
  2
Hidden
 70
     6
 71
     1
 72
     2
 73
     2
 90
        0
 40
-0.6
 41
-30.0
 62
     5
 63
     7
421
 16777215
 74
     2
 91
        2
 64
     7
 65
   257
 75
     2
175
     1
 42
40.0
 92
        0
 66
   257
 43
1.0
 76
     1
 77
     6
 78
     2
 67
     7
 79
     3
170
     0
171
     0
290
     0
174
     0
 93
        1
 44
0.0
173
     0
291
     0
 45
0.0
1001
ACAD
1000
AcDbSavedByObjectVersion
1070
     0
  0
VISUALSTYLE
  5
3F
102
{ACAD_XDICTIONARY
360
5E0
102
}
102
{ACAD_REACTORS
330
29
102
}
330
29
100
AcDbVisualStyle
  2
JitterOff
 70
    20
 71
     2
 72
     2
 73
     0
 90
        0
 40
-0.6
 41
-30.0
 62
     5
 63
     7
421
 16777215
 74
     1
 91
        4
 64
     7
 65
   257
 75
     1
175
     1
 42
1.0
 92
       10
 66
     7
 43
1.0
 76
     1
 77
     6
 78
     2
 67
     7
 79
     5
170
     0
171
     0
290
     0
174
     0
 93
        1
 44
0.0
173
     0
291
     1
 45
0.0
1001
ACAD
1000
AcDbSavedByObjectVersion
1070
     0
  0
VISUALSTYLE
  5
37
102
{ACAD_XDICTIONARY
360
5D0
102
}
102
{ACAD_REACTORS
330
29
102
}
330
29
100
AcDbVisualStyle
  2
Linepattern
 70
    14
 71
     2
 72
     2
 73
     0
 90
        0
 40
-0.6
 41
-30.0
 62
     5
 63
     7
421
 16777215
 74
     1
 91
        4
 64
     7
 65
   257
 75
     7
175
     7
 42
1.0
 92
        8
 66
     7
 43
1.0
 76
     1
 77
     6
 78
     2
 67
     7
 79
     5
170
     0
171
     0
290
     0
174
     0
 93
        1
 44
0.0
173
     0
291
     1
 45
0.0
1001
ACAD
1000
AcDbSavedByObjectVersion
1070
     0
  0
VISUALSTYLE
  5
40
102
{ACAD_XDICTIONARY
360
5E2
102
}
102
{ACAD_REACTORS
330
29
102
}
330
29
100
AcDbVisualStyle
  2
OverhangOff
 70
    21
 71
     2
 72
     2
 73
     0
 90
        0
 40
-0.6
 41
-30.0
 62
     5
 63
     7
421
 16777215
 74
     1
 91
        4
 64
     7
 65
   257
 75
     1
175
     1
 42
1.0
 92
        9
 66
     7
 43
1.0
 76
     1
 77
     6
 78
     2
 67
     7
 79
     5
170
     0
171
     0
290
     0
174
     0
 93
        1
 44
0.0
173
     0
291
     1
 45
0.0
1001
ACAD
1000
AcDbSavedByObjectVersion
1070
     0
  0
VISUALSTYLE
  5
33
102
{ACAD_XDICTIONARY
360
5C8
102
}
102
{ACAD_REACTORS
330
29
102
}
330
29
100
AcDbVisualStyle
  2
Realistic
 70
     8
 71
     2
 72
     3
 73
     0
 90
        2
 40
-0.6
 41
30.0
 62
     5
 63
     7
421
 16777215
 74
     0
 91
        0
 64
     7
 65
   257
 75
     1
175
     1
 42
1.0
 92
        8
 66
   257
 43
1.0
 76
     1
 77
     6
 78
     2
 67
     7
 79
     3
170
     0
171
     0
290
     0
174
     0
 93
       13
 44
0.0
173
     0
291
     0
 45
0.0
1001
ACAD
1000
AcDbSavedByObjectVersion
1070
     0
  0
VISUALSTYLE
  5
3E
102
{ACAD_XDICTIONARY
360
5DE
102
}
102
{ACAD_REACTORS
330
29
102
}
330
29
100
AcDbVisualStyle
  2
Shaded
 70
    27
 71
     2
 72
     2
 73
     1
 90
        2
 40
-0.6
 41
30.0
 62
     5
 63
     7
421
 16777215
 74
     0
 91
        4
 64
     7
 65
   257
 75
     1
175
     1
 42
1.0
 92
        8
 66
   257
 43
1.0
 76
     1
 77
     6
 78
     2
 67
     8
425
  7895160
 79
     3
170
     0
171
     0
290
     0
174
     0
 93
        5
 44
0.0
173
     0
291
     0
 45
0.0
1001
ACAD
1000
AcDbSavedByObjectVersion
1070
     0
  0
VISUALSTYLE
  5
3D
102
{ACAD_XDICTIONARY
360
5DC
102
}
102
{ACAD_REACTORS
330
29
102
}
330
29
100
AcDbVisualStyle
  2
Shaded with edges
 70
    26
 71
     2
 72
     2
 73
     1
 90
        2
 40
-0.6
 41
30.0
 62
     5
 63
     7
421
 16777215
 74
     1
 91
       10
 64
     7
 65
   257
 75
     2
175
     1
 42
1.0
 92
        8
 66
   257
 43
1.0
 76
     1
 77
     6
 78
     2
 67
     7
 79
     3
170
     0
171
     0
290
     0
174
     0
 93
        5
 44
0.0
173
     0
291
     0
 45
0.0
1001
ACAD
1000
AcDbSavedByObjectVersion
1070
     0
  0
VISUALSTYLE
  5
3A
102
{ACAD_XDICTIONARY
360
5D6
102
}
102
{ACAD_REACTORS
330
29
102
}
330
29
100
AcDbVisualStyle
  2
Shades of Gray
 70
    23
 71
     2
 72
     2
 73
     3
 90
        0
 40
-0.6
 41
-30.0
 62
     5
 63
     7
421
 16777215
 74
     2
 91
        2
 64
     7
 65
     7
 75
     1
175
     1
 42
40.0
 92
        8
 66
     7
 43
1.0
 76
     1
 77
     6
 78
     2
 67
     7
 79
     3
170
     0
171
     0
290
     0
174
     0
 93
        1
 44
0.0
173
     0
291
     0
 45
0.0
1001
ACAD
1000
AcDbSavedByObjectVersion
1070
     0
  0
VISUALSTYLE
  5
3B
102
{ACAD_XDICTIONARY
360
5D8
102
}
102
{ACAD_REACTORS
330
29
102
}
330
29
100
AcDbVisualStyle
  2
Sketchy
 70
    24
 71
     1
 72
     2
 73
     2
 90
        0
 40
-0.6
 41
-30.0
 62
     5
 63
     7
421
 16777215
 74
     2
 91
        2
 64
     7
 65
     7
 75
     1
175
     1
 42
40.0
 92
       11
 66
     7
 43
1.0
 76
     1
 77
     6
 78
     2
 67
     7
 79
     6
170
     0
171
     0
290
     0
174
     0
 93
        1
 44
0.0
173
     0
291
     0
 45
0.0
1001
ACAD
1000
AcDbSavedByObjectVersion
1070
     0
  0
VISUALSTYLE
  5
36
102
{ACAD_XDICTIONARY
360
5CE
102
}
102
{ACAD_REACTORS
330
29
102
}
330
29
100
AcDbVisualStyle
  2
Thicken
 70
    13
 71
     2
 72
     2
 73
     0
 90
        0
 40
-0.6
 41
-30.0
 62
     5
 63
     7
421
 16777215
 74
     1
 91
        4
 64
     7
 65
   257
 75
     1
175
     1
 42
1.0
 92
       12
 66
     7
 43
1.0
 76
     1
 77
     6
 78
     2
 67
     7
 79
     5
170
     0
171
     0
290
     0
174
     0
 93
        1
 44
0.0
173
     0
291
     1
 45
0.0
1001
ACAD
1000
AcDbSavedByObjectVersion
1070
     0
  0
VISUALSTYLE
  5
30
102
{ACAD_XDICTIONARY
360
5C2
102
}
102
{ACAD_REACTORS
330
29
102
}
330
29
100
AcDbVisualStyle
  2
Wireframe
 70
     5
 71
     0
 72
     2
 73
     0
 90
        0
 40
-0.6
 41
-30.0
 62
     5
 63
     7
421
 16777215
 74
     1
 91
        4
 64
     7
 65
   257
 75
     1
175
     1
 42
1.0
 92
        0
 66
   257
 43
1.0
 76
     1
 77
     6
 78
     2
 67
     7
 79
     3
170
     0
171
     0
290
     0
174
     0
 93
        1
 44
0.0
173
     0
291
     0
 45
0.0
1001
ACAD
1000
AcDbSavedByObjectVersion
1070
     0
  0
VISUALSTYLE
  5
3C
102
{ACAD_XDICTIONARY
360
5DA
102
}
102
{ACAD_REACTORS
330
29
102
}
330
29
100
AcDbVisualStyle
  2
X-Ray
 70
    25
 71
     2
 72
     2
 73
     1
 90
        1
 40
0.5
 41
-30.0
 62
     5
 63
     7
421
 16777215
 74
     1
 91
        0
 64
     7
 65
   257
 75
     1
175
     1
 42
1.0
 92
        8
 66
     7
 43
1.0
 76
     1
 77
     6
 78
     2
 67
     7
 79
     3
170
     0
171
     0
290
     0
174
     0
 93
       13
 44
0.0
173
     0
291
     0
 45
0.0
1001
ACAD
1000
AcDbSavedByObjectVersion
1070
     0
  0
DICTIONARYVAR
  5
5AD
102
{ACAD_REACTORS
330
5AA
102
}
330
5AA
100
DictionaryVariables
280
     0
  1
1:1
  0
DICTIONARYVAR
  5
5AC
102
{ACAD_REACTORS
330
5AA
102
}
330
5AA
100
DictionaryVariables
280
     0
  1
STANDARD
  0
DICTIONARYVAR
  5
5AB
102
{ACAD_REACTORS
330
5AA
102
}
330
5AA
100
DictionaryVariables
280
     0
  1
STANDARD
  0
DICTIONARYVAR
  5
5AE
102
{ACAD_REACTORS
330
5AA
102
}
330
5AA
100
DictionaryVariables
280
     0
  1
2
  0
XRECORD
  5
5A9
102
{ACAD_REACTORS
330
5A7
102
}
330
5A7
100
AcDbXrecord
280
     1
330
164
330
318
330
319
330
31A
330
31B
  0
DICTIONARY
  5
1A
330
19
100
AcDbDictionary
280
     1
281
     1
  3
ACAD_XREC_ROUNDTRIP
360
5B4
  3
BUMPTILE
360
1C
  3
DIFFUSETILE
360
1B
  3
OPACITYTILE
360
1F
  3
REFLECTIONTILE
360
1E
  3
REFRACTIONTILE
360
20
  3
SPECULARTILE
360
1D
  0
DICTIONARY
  5
12
330
11
100
AcDbDictionary
280
     1
281
     1
  3
ACAD_XREC_ROUNDTRIP
360
5B3
  3
BUMPTILE
360
14
  3
DIFFUSETILE
360
13
  3
OPACITYTILE
360
17
  3
REFLECTIONTILE
360
16
  3
REFRACTIONTILE
360
18
  3
SPECULARTILE
360
15
  0
DICTIONARY
  5
22
330
21
100
AcDbDictionary
280
     1
281
     1
  3
ACAD_XREC_ROUNDTRIP
360
5B5
  3
BUMPTILE
360
24
  3
DIFFUSETILE
360
23
  3
OPACITYTILE
360
27
  3
REFLECTIONTILE
360
26
  3
REFRACTIONTILE
360
28
  3
SPECULARTILE
360
25
  0
DICTIONARY
  5
5B0
330
64
100
AcDbDictionary
280
     1
281
     1
  3
ACAD_ROUNDTRIP_2008_TABLESTYLE_CELLSTYLEMAP
360
5B1
  3
ACAD_XREC_ROUNDTRIP
360
5E6
  0
DICTIONARY
  5
5C0
330
2F
100
AcDbDictionary
280
     1
281
     1
  3
ACAD_XREC_ROUNDTRIP
360
5C1
  0
DICTIONARY
  5
5BE
330
2E
100
AcDbDictionary
280
     1
281
     1
  3
ACAD_XREC_ROUNDTRIP
360
5BF
  0
DICTIONARY
  5
5CC
330
35
100
AcDbDictionary
280
     1
281
     1
  3
ACAD_XREC_ROUNDTRIP
360
5CD
  0
DICTIONARY
  5
5D4
330
39
100
AcDbDictionary
280
     1
281
     1
  3
ACAD_XREC_ROUNDTRIP
360
5D5
  0
DICTIONARY
  5
5C6
330
32
100
AcDbDictionary
280
     1
281
     1
  3
ACAD_XREC_ROUNDTRIP
360
5C7
  0
DICTIONARY
  5
5CA
330
34
100
AcDbDictionary
280
     1
281
     1
  3
ACAD_XREC_ROUNDTRIP
360
5CB
  0
DICTIONARY
  5
5E4
330
41
100
AcDbDictionary
280
     1
281
     1
  3
ACAD_XREC_ROUNDTRIP
360
5E5
  0
DICTIONARY
  5
5D2
330
38
100
AcDbDictionary
280
     1
281
     1
  3
ACAD_XREC_ROUNDTRIP
360
5D3
  0
DICTIONARY
  5
5B6
330
2A
100
AcDbDictionary
280
     1
281
     1
  3
ACAD_XREC_ROUNDTRIP
360
5B7
  0
DICTIONARY
  5
5B8
330
2B
100
AcDbDictionary
280
     1
281
     1
  3
ACAD_XREC_ROUNDTRIP
360
5B9
  0
DICTIONARY
  5
5BA
330
2C
100
AcDbDictionary
280
     1
281
     1
  3
ACAD_XREC_ROUNDTRIP
360
5BB
  0
DICTIONARY
  5
5BC
330
2D
100
AcDbDictionary
280
     1
281
     1
  3
ACAD_XREC_ROUNDTRIP
360
5BD
  0
DICTIONARY
  5
5C4
330
31
100
AcDbDictionary
280
     1
281
     1
  3
ACAD_XREC_ROUNDTRIP
360
5C5
  0
DICTIONARY
  5
5E0
330
3F
100
AcDbDictionary
280
     1
281
     1
  3
ACAD_XREC_ROUNDTRIP
360
5E1
  0
DICTIONARY
  5
5D0
330
37
100
AcDbDictionary
280
     1
281
     1
  3
ACAD_XREC_ROUNDTRIP
360
5D1
  0
DICTIONARY
  5
5E2
330
40
100
AcDbDictionary
280
     1
281
     1
  3
ACAD_XREC_ROUNDTRIP
360
5E3
  0
DICTIONARY
  5
5C8
330
33
100
AcDbDictionary
280
     1
281
     1
  3
ACAD_XREC_ROUNDTRIP
360
5C9
  0
DICTIONARY
  5
5DE
330
3E
100
AcDbDictionary
280
     1
281
     1
  3
ACAD_XREC_ROUNDTRIP
360
5DF
  0
DICTIONARY
  5
5DC
330
3D
100
AcDbDictionary
280
     1
281
     1
  3
ACAD_XREC_ROUNDTRIP
360
5DD
  0
DICTIONARY
  5
5D6
330
3A
100
AcDbDictionary
280
     1
281
     1
  3
ACAD_XREC_ROUNDTRIP
360
5D7
  0
DICTIONARY
  5
5D8
330
3B
100
AcDbDictionary
280
     1
281
     1
  3
ACAD_XREC_ROUNDTRIP
360
5D9
  0
DICTIONARY
  5
5CE
330
36
100
AcDbDictionary
280
     1
281
     1
  3
ACAD_XREC_ROUNDTRIP
360
5CF
  0
DICTIONARY
  5
5C2
330
30
100
AcDbDictionary
280
     1
281
     1
  3
ACAD_XREC_ROUNDTRIP
360
5C3
  0
DICTIONARY
  5
5DA
330
3C
100
AcDbDictionary
280
     1
281
     1
  3
ACAD_XREC_ROUNDTRIP
360
5DB
  0
XRECORD
  5
5B4
102
{ACAD_REACTORS
330
1A
102
}
330
1A
100
AcDbXrecord
280
     1
102
MATERIAL
148
0.0
149
0.0
149
0.0
 93
        0
 94
      127
282
     0
 72
     0
 77
     0
171
     0
175
     0
179
     0
273
     0
  0
XRECORD
  5
1C
102
{ACAD_REACTORS
330
1A
102
}
330
1A
100
AcDbXrecord
280
     1
270
     1
271
     1
  0
XRECORD
  5
1B
102
{ACAD_REACTORS
330
1A
102
}
330
1A
100
AcDbXrecord
280
     1
270
     1
271
     1
  0
XRECORD
  5
1F
102
{ACAD_REACTORS
330
1A
102
}
330
1A
100
AcDbXrecord
280
     1
270
     1
271
     1
  0
XRECORD
  5
1E
102
{ACAD_REACTORS
330
1A
102
}
330
1A
100
AcDbXrecord
280
     1
270
     1
271
     1
  0
XRECORD
  5
20
102
{ACAD_REACTORS
330
1A
102
}
330
1A
100
AcDbXrecord
280
     1
270
     1
271
     1
  0
XRECORD
  5
1D
102
{ACAD_REACTORS
330
1A
102
}
330
1A
100
AcDbXrecord
280
     1
270
     1
271
     1
  0
XRECORD
  5
5B3
102
{ACAD_REACTORS
330
12
102
}
330
12
100
AcDbXrecord
280
     1
102
MATERIAL
148
0.0
149
0.0
149
0.0
 93
        0
 94
      127
282
     0
 72
     0
 77
     0
171
     0
175
     0
179
     0
273
     0
  0
XRECORD
  5
14
102
{ACAD_REACTORS
330
12
102
}
330
12
100
AcDbXrecord
280
     1
270
     1
271
     1
  0
XRECORD
  5
13
102
{ACAD_REACTORS
330
12
102
}
330
12
100
AcDbXrecord
280
     1
270
     1
271
     1
  0
XRECORD
  5
17
102
{ACAD_REACTORS
330
12
102
}
330
12
100
AcDbXrecord
280
     1
270
     1
271
     1
  0
XRECORD
  5
16
102
{ACAD_REACTORS
330
12
102
}
330
12
100
AcDbXrecord
280
     1
270
     1
271
     1
  0
XRECORD
  5
18
102
{ACAD_REACTORS
330
12
102
}
330
12
100
AcDbXrecord
280
     1
270
     1
271
     1
  0
XRECORD
  5
15
102
{ACAD_REACTORS
330
12
102
}
330
12
100
AcDbXrecord
280
     1
270
     1
271
     1
  0
XRECORD
  5
5B5
102
{ACAD_REACTORS
330
22
102
}
330
22
100
AcDbXrecord
280
     1
102
MATERIAL
148
0.0
149
0.0
149
0.0
 93
        0
 94
      127
282
     0
 72
     0
 77
     0
171
     0
175
     0
179
     0
273
     0
  0
XRECORD
  5
24
102
{ACAD_REACTORS
330
22
102
}
330
22
100
AcDbXrecord
280
     1
270
     1
271
     1
  0
XRECORD
  5
23
102
{ACAD_REACTORS
330
22
102
}
330
22
100
AcDbXrecord
280
     1
270
     1
271
     1
  0
XRECORD
  5
27
102
{ACAD_REACTORS
330
22
102
}
330
22
100
AcDbXrecord
280
     1
270
     1
271
     1
  0
XRECORD
  5
26
102
{ACAD_REACTORS
330
22
102
}
330
22
100
AcDbXrecord
280
     1
270
     1
271
     1
  0
XRECORD
  5
28
102
{ACAD_REACTORS
330
22
102
}
330
22
100
AcDbXrecord
280
     1
270
     1
271
     1
  0
XRECORD
  5
25
102
{ACAD_REACTORS
330
22
102
}
330
22
100
AcDbXrecord
280
     1
270
     1
271
     1
  0
CELLSTYLEMAP
  5
5B1
102
{ACAD_REACTORS
330
5B0
102
}
330
5B0
100
AcDbCellStyleMap
 90
        3
300
CELLSTYLE
  1
TABLEFORMAT_BEGIN
 90
        5
170
     1
 91
        0
 92
    32768
 62
   257
 93
        1
300
CONTENTFORMAT
  1
CONTENTFORMAT_BEGIN
 90
        0
 91
        0
 92
      512
 93
        0
300

 40
0.0
140
1.0
 94
        5
 62
     0
340
55
144
0.25
309
CONTENTFORMAT_END
171
     0
 94
        0
309
TABLEFORMAT_END
  1
CELLSTYLE_BEGIN
 90
        1
 91
        1
300
_TITLE
309
CELLSTYLE_END
300
CELLSTYLE
  1
TABLEFORMAT_BEGIN
 90
        5
170
     1
 91
        0
 92
        0
 62
   257
 93
        1
300
CONTENTFORMAT
  1
CONTENTFORMAT_BEGIN
 90
        0
 91
        0
 92
      512
 93
        0
300

 40
0.0
140
1.0
 94
        5
 62
     0
340
55
144
0.18
309
CONTENTFORMAT_END
171
     0
 94
        0
309
TABLEFORMAT_END
  1
CELLSTYLE_BEGIN
 90
        2
 91
        1
300
_HEADER
309
CELLSTYLE_END
300
CELLSTYLE
  1
TABLEFORMAT_BEGIN
 90
        5
170
     1
 91
        0
 92
        0
 62
   257
 93
        1
300
CONTENTFORMAT
  1
CONTENTFORMAT_BEGIN
 90
        0
 91
        0
 92
      512
 93
        0
300

 40
0.0
140
1.0
 94
        2
 62
     0
340
55
144
0.18
309
CONTENTFORMAT_END
171
     0
 94
        0
309
TABLEFORMAT_END
  1
CELLSTYLE_BEGIN
 90
        3
 91
        2
300
_DATA
309
CELLSTYLE_END
  0
XRECORD
  5
5E6
102
{ACAD_REACTORS
330
5B0
102
}
330
5B0
100
AcDbXrecord
280
     1
102
ACAD_ROUNDTRIP_PRE2007_TABLESTYLE
 90
      512
 91
        0
  1

 92
      512
 93
        0
  2

 94
      512
 95
        0
  3

  0
XRECORD
  5
5C1
102
{ACAD_REACTORS
330
5C0
102
}
330
5C0
100
AcDbXrecord
280
     1
102
RTVSPropertyOp0
 70
     1
102
RTVSPropertyOp1
 70
     1
102
RTVSPropertyOp2
 70
     1
102
RTVSPropertyOp3
 70
     1
102
RTVSPropertyOp4
 70
     1
102
RTVSPropertyOp5
 70
     1
102
RTVSPropertyOp6
 70
     1
102
RTVSPropertyOp7
 70
     1
102
RTVSPropertyOp8
 70
     1
102
RTVSPropertyOp9
 70
     1
102
RTVSPropertyOp10
 70
     1
102
RTVSPropertyOp11
 70
     1
102
RTVSPropertyOp12
 70
     1
102
RTVSPropertyOp13
 70
     1
102
RTVSPropertyOp14
 70
     1
102
RTVSPropertyOp15
 70
     1
102
RTVSPropertyOp16
 70
     1
102
RTVSPropertyOp17
 70
     1
102
RTVSPropertyOp18
 70
     1
102
RTVSPropertyOp19
 70
     1
102
RTVSPropertyOp20
 70
     1
102
RTVSPropertyOp21
 70
     1
102
RTVSPropertyOp22
 70
     1
102
RTVSPropertyOp23
 70
     1
102
RTVSPropertyOp24
 70
     1
102
RTVSPropertyOp25
 70
     1
102
RTVSPropertyOp26
 70
     1
102
RTVSPropertyOp27
 70
     1
102
RTVSPropertyOp28
 70
     1
102
RTVSPropertyOp29
 70
     1
102
RTVSPropertyOp30
 70
     1
102
RTVSPropertyOp31
 70
     1
102
RTVSPropertyOp32
 70
     1
  0
XRECORD
  5
5BF
102
{ACAD_REACTORS
330
5BE
102
}
330
5BE
100
AcDbXrecord
280
     1
102
RTVSPropertyOp0
 70
     1
102
RTVSPropertyOp1
 70
     1
102
RTVSPropertyOp2
 70
     1
102
RTVSPropertyOp3
 70
     1
102
RTVSPropertyOp4
 70
     1
102
RTVSPropertyOp5
 70
     1
102
RTVSPropertyOp6
 70
     1
102
RTVSPropertyOp7
 70
     1
102
RTVSPropertyOp8
 70
     1
102
RTVSPropertyOp9
 70
     1
102
RTVSPropertyOp10
 70
     1
102
RTVSPropertyOp11
 70
     1
102
RTVSPropertyOp12
 70
     1
102
RTVSPropertyOp13
 70
     1
102
RTVSPropertyOp14
 70
     1
102
RTVSPropertyOp15
 70
     1
102
RTVSPropertyOp16
 70
     1
102
RTVSPropertyOp17
 70
     1
102
RTVSPropertyOp18
 70
     1
102
RTVSPropertyOp19
 70
     1
102
RTVSPropertyOp20
 70
     1
102
RTVSPropertyOp21
 70
     1
102
RTVSPropertyOp22
 70
     1
102
RTVSPropertyOp23
 70
     1
102
RTVSPropertyOp24
 70
     1
102
RTVSPropertyOp25
 70
     1
102
RTVSPropertyOp26
 70
     1
102
RTVSPropertyOp27
 70
     1
102
RTVSPropertyOp28
 70
     1
102
RTVSPropertyOp29
 70
     1
102
RTVSPropertyOp30
 70
     1
102
RTVSPropertyOp31
 70
     1
102
RTVSPropertyOp32
 70
     1
  0
XRECORD
  5
5CD
102
{ACAD_REACTORS
330
5CC
102
}
330
5CC
100
AcDbXrecord
280
     1
102
RTVSPropertyOp0
 70
     1
102
RTVSPropertyOp1
 70
     1
102
RTVSPropertyOp2
 70
     1
102
RTVSPropertyOp3
 70
     1
102
RTVSPropertyOp4
 70
     1
102
RTVSPropertyOp5
 70
     1
102
RTVSPropertyOp6
 70
     1
102
RTVSPropertyOp7
 70
     1
102
RTVSPropertyOp8
 70
     1
102
RTVSPropertyOp9
 70
     1
102
RTVSPropertyOp10
 70
     1
102
RTVSPropertyOp11
 70
     1
102
RTVSPropertyOp12
 70
     1
102
RTVSPropertyOp13
 70
     1
102
RTVSPropertyOp14
 70
     1
102
RTVSPropertyOp15
 70
     1
102
RTVSPropertyOp16
 70
     1
102
RTVSPropertyOp17
 70
     1
102
RTVSPropertyOp18
 70
     1
102
RTVSPropertyOp19
 70
     1
102
RTVSPropertyOp20
 70
     1
102
RTVSPropertyOp21
 70
     1
102
RTVSPropertyOp22
 70
     1
102
RTVSPropertyOp23
 70
     1
102
RTVSPropertyOp24
 70
     1
102
RTVSPropertyOp25
 70
     1
102
RTVSPropertyOp26
 70
     1
102
RTVSPropertyOp27
 70
     1
102
RTVSPropertyOp28
 70
     1
102
RTVSPropertyOp29
 70
     1
102
RTVSPropertyOp30
 70
     1
102
RTVSPropertyOp31
 70
     1
102
RTVSPropertyOp32
 70
     1
  0
XRECORD
  5
5D5
102
{ACAD_REACTORS
330
5D4
102
}
330
5D4
100
AcDbXrecord
280
     1
102
RTVSPropertyOp0
 70
     1
102
RTVSPropertyOp1
 70
     1
102
RTVSPropertyOp2
 70
     1
102
RTVSPropertyOp3
 70
     1
102
RTVSPropertyOp4
 70
     1
102
RTVSPropertyOp5
 70
     1
102
RTVSPropertyOp6
 70
     1
102
RTVSPropertyOp7
 70
     1
102
RTVSPropertyOp8
 70
     1
102
RTVSPropertyOp9
 70
     1
102
RTVSPropertyOp10
 70
     1
102
RTVSPropertyOp11
 70
     1
102
RTVSPropertyOp12
 70
     1
102
RTVSPropertyOp13
 70
     1
102
RTVSPropertyOp14
 70
     1
102
RTVSPropertyOp15
 70
     1
102
RTVSPropertyOp16
 70
     1
102
RTVSPropertyOp17
 70
     1
102
RTVSPropertyOp18
 70
     1
102
RTVSPropertyOp19
 70
     1
102
RTVSPropertyOp20
 70
     1
102
RTVSPropertyOp21
 70
     1
102
RTVSPropertyOp22
 70
     1
102
RTVSPropertyOp23
 70
     1
102
RTVSPropertyOp24
 70
     1
102
RTVSPropertyOp25
 70
     1
102
RTVSPropertyOp26
 70
     1
102
RTVSPropertyOp27
 70
     1
102
RTVSPropertyOp28
 70
     1
102
RTVSPropertyOp29
 70
     1
102
RTVSPropertyOp30
 70
     1
102
RTVSPropertyOp31
 70
     1
102
RTVSPropertyOp32
 70
     1
  0
XRECORD
  5
5C7
102
{ACAD_REACTORS
330
5C6
102
}
330
5C6
100
AcDbXrecord
280
     1
102
RTVSPropertyOp0
 70
     1
102
RTVSPropertyOp1
 70
     1
102
RTVSPropertyOp2
 70
     1
102
RTVSPropertyOp3
 70
     1
102
RTVSPropertyOp4
 70
     1
102
RTVSPropertyOp5
 70
     1
102
RTVSPropertyOp6
 70
     1
102
RTVSPropertyOp7
 70
     1
102
RTVSPropertyOp8
 70
     1
102
RTVSPropertyOp9
 70
     1
102
RTVSPropertyOp10
 70
     1
102
RTVSPropertyOp11
 70
     1
102
RTVSPropertyOp12
 70
     1
102
RTVSPropertyOp13
 70
     1
102
RTVSPropertyOp14
 70
     1
102
RTVSPropertyOp15
 70
     1
102
RTVSPropertyOp16
 70
     1
102
RTVSPropertyOp17
 70
     1
102
RTVSPropertyOp18
 70
     1
102
RTVSPropertyOp19
 70
     1
102
RTVSPropertyOp20
 70
     1
102
RTVSPropertyOp21
 70
     1
102
RTVSPropertyOp22
 70
     1
102
RTVSPropertyOp23
 70
     1
102
RTVSPropertyOp24
 70
     1
102
RTVSPropertyOp25
 70
     1
102
RTVSPropertyOp26
 70
     1
102
RTVSPropertyOp27
 70
     1
102
RTVSPropertyOp28
 70
     1
102
RTVSPropertyOp29
 70
     1
102
RTVSPropertyOp30
 70
     1
102
RTVSPropertyOp31
 70
     1
102
RTVSPropertyOp32
 70
     1
  0
XRECORD
  5
5CB
102
{ACAD_REACTORS
330
5CA
102
}
330
5CA
100
AcDbXrecord
280
     1
102
RTVSPropertyOp0
 70
     1
102
RTVSPropertyOp1
 70
     1
102
RTVSPropertyOp2
 70
     1
102
RTVSPropertyOp3
 70
     1
102
RTVSPropertyOp4
 70
     1
102
RTVSPropertyOp5
 70
     1
102
RTVSPropertyOp6
 70
     1
102
RTVSPropertyOp7
 70
     1
102
RTVSPropertyOp8
 70
     1
102
RTVSPropertyOp9
 70
     1
102
RTVSPropertyOp10
 70
     1
102
RTVSPropertyOp11
 70
     1
102
RTVSPropertyOp12
 70
     1
102
RTVSPropertyOp13
 70
     1
102
RTVSPropertyOp14
 70
     1
102
RTVSPropertyOp15
 70
     1
102
RTVSPropertyOp16
 70
     1
102
RTVSPropertyOp17
 70
     1
102
RTVSPropertyOp18
 70
     1
102
RTVSPropertyOp19
 70
     1
102
RTVSPropertyOp20
 70
     1
102
RTVSPropertyOp21
 70
     1
102
RTVSPropertyOp22
 70
     1
102
RTVSPropertyOp23
 70
     1
102
RTVSPropertyOp24
 70
     1
102
RTVSPropertyOp25
 70
     1
102
RTVSPropertyOp26
 70
     1
102
RTVSPropertyOp27
 70
     1
102
RTVSPropertyOp28
 70
     1
102
RTVSPropertyOp29
 70
     1
102
RTVSPropertyOp30
 70
     1
102
RTVSPropertyOp31
 70
     1
102
RTVSPropertyOp32
 70
     1
  0
XRECORD
  5
5E5
102
{ACAD_REACTORS
330
5E4
102
}
330
5E4
100
AcDbXrecord
280
     1
102
RTVSPropertyOp0
 70
     0
102
RTVSPropertyOp1
 70
     0
102
RTVSPropertyOp2
 70
     0
102
RTVSPropertyOp3
 70
     0
102
RTVSPropertyOp4
 70
     0
102
RTVSPropertyOp5
 70
     0
102
RTVSPropertyOp6
 70
     0
102
RTVSPropertyOp7
 70
     0
102
RTVSPropertyOp8
 70
     0
102
RTVSPropertyOp9
 70
     0
102
RTVSPropertyOp10
 70
     0
102
RTVSPropertyOp11
 70
     0
102
RTVSPropertyOp12
 70
     0
102
RTVSPropertyOp13
 70
     0
102
RTVSPropertyOp14
 70
     2
102
RTVSPropertyOp15
 70
     0
102
RTVSPropertyOp16
 70
     0
102
RTVSPropertyOp17
 70
     0
102
RTVSPropertyOp18
 70
     0
102
RTVSPropertyOp19
 70
     0
102
RTVSPropertyOp20
 70
     0
102
RTVSPropertyOp21
 70
     0
102
RTVSPropertyOp22
 70
     0
102
RTVSPropertyOp23
 70
     0
102
RTVSPropertyOp24
 70
     0
102
RTVSPropertyOp25
 70
     0
102
RTVSPropertyOp26
 70
     0
102
RTVSPropertyOp27
 70
     0
102
RTVSPropertyOp28
 70
     0
102
RTVSPropertyOp29
 70
     0
102
RTVSPropertyOp30
 70
     0
102
RTVSPropertyOp31
 70
     0
102
RTVSPropertyOp32
 70
     0
  0
XRECORD
  5
5D3
102
{ACAD_REACTORS
330
5D2
102
}
330
5D2
100
AcDbXrecord
280
     1
102
RTVSPropertyOp0
 70
     1
102
RTVSPropertyOp1
 70
     1
102
RTVSPropertyOp2
 70
     1
102
RTVSPropertyOp3
 70
     1
102
RTVSPropertyOp4
 70
     1
102
RTVSPropertyOp5
 70
     1
102
RTVSPropertyOp6
 70
     1
102
RTVSPropertyOp7
 70
     1
102
RTVSPropertyOp8
 70
     1
102
RTVSPropertyOp9
 70
     1
102
RTVSPropertyOp10
 70
     1
102
RTVSPropertyOp11
 70
     1
102
RTVSPropertyOp12
 70
     1
102
RTVSPropertyOp13
 70
     1
102
RTVSPropertyOp14
 70
     1
102
RTVSPropertyOp15
 70
     1
102
RTVSPropertyOp16
 70
     1
102
RTVSPropertyOp17
 70
     1
102
RTVSPropertyOp18
 70
     1
102
RTVSPropertyOp19
 70
     1
102
RTVSPropertyOp20
 70
     1
102
RTVSPropertyOp21
 70
     1
102
RTVSPropertyOp22
 70
     1
102
RTVSPropertyOp23
 70
     1
102
RTVSPropertyOp24
 70
     1
102
RTVSPropertyOp25
 70
     1
102
RTVSPropertyOp26
 70
     1
102
RTVSPropertyOp27
 70
     1
102
RTVSPropertyOp28
 70
     1
102
RTVSPropertyOp29
 70
     1
102
RTVSPropertyOp30
 70
     1
102
RTVSPropertyOp31
 70
     1
102
RTVSPropertyOp32
 70
     1
  0
XRECORD
  5
5B7
102
{ACAD_REACTORS
330
5B6
102
}
330
5B6
100
AcDbXrecord
280
     1
102
RTVSPropertyOp0
 70
     1
102
RTVSPropertyOp1
 70
     1
102
RTVSPropertyOp2
 70
     1
102
RTVSPropertyOp3
 70
     1
102
RTVSPropertyOp4
 70
     1
102
RTVSPropertyOp5
 70
     1
102
RTVSPropertyOp6
 70
     1
102
RTVSPropertyOp7
 70
     1
102
RTVSPropertyOp8
 70
     1
102
RTVSPropertyOp9
 70
     1
102
RTVSPropertyOp10
 70
     1
102
RTVSPropertyOp11
 70
     1
102
RTVSPropertyOp12
 70
     1
102
RTVSPropertyOp13
 70
     1
102
RTVSPropertyOp14
 70
     1
102
RTVSPropertyOp15
 70
     1
102
RTVSPropertyOp16
 70
     1
102
RTVSPropertyOp17
 70
     1
102
RTVSPropertyOp18
 70
     1
102
RTVSPropertyOp19
 70
     1
102
RTVSPropertyOp20
 70
     1
102
RTVSPropertyOp21
 70
     1
102
RTVSPropertyOp22
 70
     1
102
RTVSPropertyOp23
 70
     1
102
RTVSPropertyOp24
 70
     1
102
RTVSPropertyOp25
 70
     1
102
RTVSPropertyOp26
 70
     1
102
RTVSPropertyOp27
 70
     1
102
RTVSPropertyOp28
 70
     1
102
RTVSPropertyOp29
 70
     1
102
RTVSPropertyOp30
 70
     1
102
RTVSPropertyOp31
 70
     1
102
RTVSPropertyOp32
 70
     1
  0
XRECORD
  5
5B9
102
{ACAD_REACTORS
330
5B8
102
}
330
5B8
100
AcDbXrecord
280
     1
102
RTVSPropertyOp0
 70
     1
102
RTVSPropertyOp1
 70
     1
102
RTVSPropertyOp2
 70
     1
102
RTVSPropertyOp3
 70
     1
102
RTVSPropertyOp4
 70
     1
102
RTVSPropertyOp5
 70
     1
102
RTVSPropertyOp6
 70
     1
102
RTVSPropertyOp7
 70
     1
102
RTVSPropertyOp8
 70
     1
102
RTVSPropertyOp9
 70
     1
102
RTVSPropertyOp10
 70
     1
102
RTVSPropertyOp11
 70
     1
102
RTVSPropertyOp12
 70
     1
102
RTVSPropertyOp13
 70
     1
102
RTVSPropertyOp14
 70
     1
102
RTVSPropertyOp15
 70
     1
102
RTVSPropertyOp16
 70
     1
102
RTVSPropertyOp17
 70
     1
102
RTVSPropertyOp18
 70
     1
102
RTVSPropertyOp19
 70
     1
102
RTVSPropertyOp20
 70
     1
102
RTVSPropertyOp21
 70
     1
102
RTVSPropertyOp22
 70
     1
102
RTVSPropertyOp23
 70
     1
102
RTVSPropertyOp24
 70
     1
102
RTVSPropertyOp25
 70
     1
102
RTVSPropertyOp26
 70
     1
102
RTVSPropertyOp27
 70
     1
102
RTVSPropertyOp28
 70
     1
102
RTVSPropertyOp29
 70
     1
102
RTVSPropertyOp30
 70
     1
102
RTVSPropertyOp31
 70
     1
102
RTVSPropertyOp32
 70
     1
  0
XRECORD
  5
5BB
102
{ACAD_REACTORS
330
5BA
102
}
330
5BA
100
AcDbXrecord
280
     1
102
RTVSPropertyOp0
 70
     1
102
RTVSPropertyOp1
 70
     1
102
RTVSPropertyOp2
 70
     1
102
RTVSPropertyOp3
 70
     1
102
RTVSPropertyOp4
 70
     1
102
RTVSPropertyOp5
 70
     1
102
RTVSPropertyOp6
 70
     1
102
RTVSPropertyOp7
 70
     1
102
RTVSPropertyOp8
 70
     1
102
RTVSPropertyOp9
 70
     1
102
RTVSPropertyOp10
 70
     1
102
RTVSPropertyOp11
 70
     1
102
RTVSPropertyOp12
 70
     1
102
RTVSPropertyOp13
 70
     1
102
RTVSPropertyOp14
 70
     1
102
RTVSPropertyOp15
 70
     1
102
RTVSPropertyOp16
 70
     1
102
RTVSPropertyOp17
 70
     1
102
RTVSPropertyOp18
 70
     1
102
RTVSPropertyOp19
 70
     1
102
RTVSPropertyOp20
 70
     1
102
RTVSPropertyOp21
 70
     1
102
RTVSPropertyOp22
 70
     1
102
RTVSPropertyOp23
 70
     1
102
RTVSPropertyOp24
 70
     1
102
RTVSPropertyOp25
 70
     1
102
RTVSPropertyOp26
 70
     1
102
RTVSPropertyOp27
 70
     1
102
RTVSPropertyOp28
 70
     1
102
RTVSPropertyOp29
 70
     1
102
RTVSPropertyOp30
 70
     1
102
RTVSPropertyOp31
 70
     1
102
RTVSPropertyOp32
 70
     1
  0
XRECORD
  5
5BD
102
{ACAD_REACTORS
330
5BC
102
}
330
5BC
100
AcDbXrecord
280
     1
102
RTVSPropertyOp0
 70
     1
102
RTVSPropertyOp1
 70
     1
102
RTVSPropertyOp2
 70
     1
102
RTVSPropertyOp3
 70
     1
102
RTVSPropertyOp4
 70
     1
102
RTVSPropertyOp5
 70
     1
102
RTVSPropertyOp6
 70
     1
102
RTVSPropertyOp7
 70
     1
102
RTVSPropertyOp8
 70
     1
102
RTVSPropertyOp9
 70
     1
102
RTVSPropertyOp10
 70
     1
102
RTVSPropertyOp11
 70
     1
102
RTVSPropertyOp12
 70
     1
102
RTVSPropertyOp13
 70
     1
102
RTVSPropertyOp14
 70
     1
102
RTVSPropertyOp15
 70
     1
102
RTVSPropertyOp16
 70
     1
102
RTVSPropertyOp17
 70
     1
102
RTVSPropertyOp18
 70
     1
102
RTVSPropertyOp19
 70
     1
102
RTVSPropertyOp20
 70
     1
102
RTVSPropertyOp21
 70
     1
102
RTVSPropertyOp22
 70
     1
102
RTVSPropertyOp23
 70
     1
102
RTVSPropertyOp24
 70
     1
102
RTVSPropertyOp25
 70
     1
102
RTVSPropertyOp26
 70
     1
102
RTVSPropertyOp27
 70
     1
102
RTVSPropertyOp28
 70
     1
102
RTVSPropertyOp29
 70
     1
102
RTVSPropertyOp30
 70
     1
102
RTVSPropertyOp31
 70
     1
102
RTVSPropertyOp32
 70
     1
  0
XRECORD
  5
5C5
102
{ACAD_REACTORS
330
5C4
102
}
330
5C4
100
AcDbXrecord
280
     1
102
RTVSPropertyOp0
 70
     1
102
RTVSPropertyOp1
 70
     1
102
RTVSPropertyOp2
 70
     1
102
RTVSPropertyOp3
 70
     1
102
RTVSPropertyOp4
 70
     1
102
RTVSPropertyOp5
 70
     1
102
RTVSPropertyOp6
 70
     1
102
RTVSPropertyOp7
 70
     1
102
RTVSPropertyOp8
 70
     1
102
RTVSPropertyOp9
 70
     1
102
RTVSPropertyOp10
 70
     1
102
RTVSPropertyOp11
 70
     1
102
RTVSPropertyOp12
 70
     1
102
RTVSPropertyOp13
 70
     1
102
RTVSPropertyOp14
 70
     1
102
RTVSPropertyOp15
 70
     1
102
RTVSPropertyOp16
 70
     1
102
RTVSPropertyOp17
 70
     1
102
RTVSPropertyOp18
 70
     1
102
RTVSPropertyOp19
 70
     1
102
RTVSPropertyOp20
 70
     1
102
RTVSPropertyOp21
 70
     1
102
RTVSPropertyOp22
 70
     1
102
RTVSPropertyOp23
 70
     1
102
RTVSPropertyOp24
 70
     1
102
RTVSPropertyOp25
 70
     1
102
RTVSPropertyOp26
 70
     1
102
RTVSPropertyOp27
 70
     1
102
RTVSPropertyOp28
 70
     1
102
RTVSPropertyOp29
 70
     1
102
RTVSPropertyOp30
 70
     1
102
RTVSPropertyOp31
 70
     1
102
RTVSPropertyOp32
 70
     1
  0
XRECORD
  5
5E1
102
{ACAD_REACTORS
330
5E0
102
}
330
5E0
100
AcDbXrecord
280
     1
102
RTVSPropertyOp0
 70
     0
102
RTVSPropertyOp1
 70
     0
102
RTVSPropertyOp2
 70
     0
102
RTVSPropertyOp3
 70
     0
102
RTVSPropertyOp4
 70
     0
102
RTVSPropertyOp5
 70
     0
102
RTVSPropertyOp6
 70
     0
102
RTVSPropertyOp7
 70
     0
102
RTVSPropertyOp8
 70
     0
102
RTVSPropertyOp9
 70
     0
102
RTVSPropertyOp10
 70
     0
102
RTVSPropertyOp11
 70
     0
102
RTVSPropertyOp12
 70
     0
102
RTVSPropertyOp13
 70
     0
102
RTVSPropertyOp14
 70
     2
102
RTVSPropertyOp15
 70
     0
102
RTVSPropertyOp16
 70
     0
102
RTVSPropertyOp17
 70
     0
102
RTVSPropertyOp18
 70
     0
102
RTVSPropertyOp19
 70
     0
102
RTVSPropertyOp20
 70
     0
102
RTVSPropertyOp21
 70
     0
102
RTVSPropertyOp22
 70
     0
102
RTVSPropertyOp23
 70
     0
102
RTVSPropertyOp24
 70
     0
102
RTVSPropertyOp25
 70
     0
102
RTVSPropertyOp26
 70
     0
102
RTVSPropertyOp27
 70
     0
102
RTVSPropertyOp28
 70
     0
102
RTVSPropertyOp29
 70
     0
102
RTVSPropertyOp30
 70
     0
102
RTVSPropertyOp31
 70
     0
102
RTVSPropertyOp32
 70
     0
  0
XRECORD
  5
5D1
102
{ACAD_REACTORS
330
5D0
102
}
330
5D0
100
AcDbXrecord
280
     1
102
RTVSPropertyOp0
 70
     1
102
RTVSPropertyOp1
 70
     1
102
RTVSPropertyOp2
 70
     1
102
RTVSPropertyOp3
 70
     1
102
RTVSPropertyOp4
 70
     1
102
RTVSPropertyOp5
 70
     1
102
RTVSPropertyOp6
 70
     1
102
RTVSPropertyOp7
 70
     1
102
RTVSPropertyOp8
 70
     1
102
RTVSPropertyOp9
 70
     1
102
RTVSPropertyOp10
 70
     1
102
RTVSPropertyOp11
 70
     1
102
RTVSPropertyOp12
 70
     1
102
RTVSPropertyOp13
 70
     1
102
RTVSPropertyOp14
 70
     1
102
RTVSPropertyOp15
 70
     1
102
RTVSPropertyOp16
 70
     1
102
RTVSPropertyOp17
 70
     1
102
RTVSPropertyOp18
 70
     1
102
RTVSPropertyOp19
 70
     1
102
RTVSPropertyOp20
 70
     1
102
RTVSPropertyOp21
 70
     1
102
RTVSPropertyOp22
 70
     1
102
RTVSPropertyOp23
 70
     1
102
RTVSPropertyOp24
 70
     1
102
RTVSPropertyOp25
 70
     1
102
RTVSPropertyOp26
 70
     1
102
RTVSPropertyOp27
 70
     1
102
RTVSPropertyOp28
 70
     1
102
RTVSPropertyOp29
 70
     1
102
RTVSPropertyOp30
 70
     1
102
RTVSPropertyOp31
 70
     1
102
RTVSPropertyOp32
 70
     1
  0
XRECORD
  5
5E3
102
{ACAD_REACTORS
330
5E2
102
}
330
5E2
100
AcDbXrecord
280
     1
102
RTVSPropertyOp0
 70
     0
102
RTVSPropertyOp1
 70
     0
102
RTVSPropertyOp2
 70
     0
102
RTVSPropertyOp3
 70
     0
102
RTVSPropertyOp4
 70
     0
102
RTVSPropertyOp5
 70
     0
102
RTVSPropertyOp6
 70
     0
102
RTVSPropertyOp7
 70
     0
102
RTVSPropertyOp8
 70
     0
102
RTVSPropertyOp9
 70
     0
102
RTVSPropertyOp10
 70
     0
102
RTVSPropertyOp11
 70
     0
102
RTVSPropertyOp12
 70
     0
102
RTVSPropertyOp13
 70
     0
102
RTVSPropertyOp14
 70
     2
102
RTVSPropertyOp15
 70
     0
102
RTVSPropertyOp16
 70
     0
102
RTVSPropertyOp17
 70
     0
102
RTVSPropertyOp18
 70
     0
102
RTVSPropertyOp19
 70
     0
102
RTVSPropertyOp20
 70
     0
102
RTVSPropertyOp21
 70
     0
102
RTVSPropertyOp22
 70
     0
102
RTVSPropertyOp23
 70
     0
102
RTVSPropertyOp24
 70
     0
102
RTVSPropertyOp25
 70
     0
102
RTVSPropertyOp26
 70
     0
102
RTVSPropertyOp27
 70
     0
102
RTVSPropertyOp28
 70
     0
102
RTVSPropertyOp29
 70
     0
102
RTVSPropertyOp30
 70
     0
102
RTVSPropertyOp31
 70
     0
102
RTVSPropertyOp32
 70
     0
  0
XRECORD
  5
5C9
102
{ACAD_REACTORS
330
5C8
102
}
330
5C8
100
AcDbXrecord
280
     1
102
RTVSPropertyOp0
 70
     1
102
RTVSPropertyOp1
 70
     1
102
RTVSPropertyOp2
 70
     1
102
RTVSPropertyOp3
 70
     1
102
RTVSPropertyOp4
 70
     1
102
RTVSPropertyOp5
 70
     1
102
RTVSPropertyOp6
 70
     1
102
RTVSPropertyOp7
 70
     1
102
RTVSPropertyOp8
 70
     1
102
RTVSPropertyOp9
 70
     1
102
RTVSPropertyOp10
 70
     1
102
RTVSPropertyOp11
 70
     1
102
RTVSPropertyOp12
 70
     1
102
RTVSPropertyOp13
 70
     1
102
RTVSPropertyOp14
 70
     1
102
RTVSPropertyOp15
 70
     1
102
RTVSPropertyOp16
 70
     1
102
RTVSPropertyOp17
 70
     1
102
RTVSPropertyOp18
 70
     1
102
RTVSPropertyOp19
 70
     1
102
RTVSPropertyOp20
 70
     1
102
RTVSPropertyOp21
 70
     1
102
RTVSPropertyOp22
 70
     1
102
RTVSPropertyOp23
 70
     1
102
RTVSPropertyOp24
 70
     1
102
RTVSPropertyOp25
 70
     1
102
RTVSPropertyOp26
 70
     1
102
RTVSPropertyOp27
 70
     1
102
RTVSPropertyOp28
 70
     1
102
RTVSPropertyOp29
 70
     1
102
RTVSPropertyOp30
 70
     1
102
RTVSPropertyOp31
 70
     1
102
RTVSPropertyOp32
 70
     1
  0
XRECORD
  5
5DF
102
{ACAD_REACTORS
330
5DE
102
}
330
5DE
100
AcDbXrecord
280
     1
102
RTVSPropertyOp0
 70
     1
102
RTVSPropertyOp1
 70
     1
102
RTVSPropertyOp2
 70
     1
102
RTVSPropertyOp3
 70
     1
102
RTVSPropertyOp4
 70
     1
102
RTVSPropertyOp5
 70
     1
102
RTVSPropertyOp6
 70
     1
102
RTVSPropertyOp7
 70
     1
102
RTVSPropertyOp8
 70
     1
102
RTVSPropertyOp9
 70
     1
102
RTVSPropertyOp10
 70
     1
102
RTVSPropertyOp11
 70
     1
102
RTVSPropertyOp12
 70
     1
102
RTVSPropertyOp13
 70
     1
102
RTVSPropertyOp14
 70
     1
102
RTVSPropertyOp15
 70
     1
102
RTVSPropertyOp16
 70
     1
102
RTVSPropertyOp17
 70
     1
102
RTVSPropertyOp18
 70
     1
102
RTVSPropertyOp19
 70
     1
102
RTVSPropertyOp20
 70
     1
102
RTVSPropertyOp21
 70
     1
102
RTVSPropertyOp22
 70
     1
102
RTVSPropertyOp23
 70
     1
102
RTVSPropertyOp24
 70
     1
102
RTVSPropertyOp25
 70
     1
102
RTVSPropertyOp26
 70
     1
102
RTVSPropertyOp27
 70
     1
102
RTVSPropertyOp28
 70
     1
102
RTVSPropertyOp29
 70
     1
102
RTVSPropertyOp30
 70
     1
102
RTVSPropertyOp31
 70
     1
102
RTVSPropertyOp32
 70
     1
  0
XRECORD
  5
5DD
102
{ACAD_REACTORS
330
5DC
102
}
330
5DC
100
AcDbXrecord
280
     1
102
RTVSPropertyOp0
 70
     1
102
RTVSPropertyOp1
 70
     1
102
RTVSPropertyOp2
 70
     1
102
RTVSPropertyOp3
 70
     1
102
RTVSPropertyOp4
 70
     1
102
RTVSPropertyOp5
 70
     1
102
RTVSPropertyOp6
 70
     1
102
RTVSPropertyOp7
 70
     1
102
RTVSPropertyOp8
 70
     1
102
RTVSPropertyOp9
 70
     1
102
RTVSPropertyOp10
 70
     1
102
RTVSPropertyOp11
 70
     1
102
RTVSPropertyOp12
 70
     1
102
RTVSPropertyOp13
 70
     1
102
RTVSPropertyOp14
 70
     1
102
RTVSPropertyOp15
 70
     1
102
RTVSPropertyOp16
 70
     1
102
RTVSPropertyOp17
 70
     1
102
RTVSPropertyOp18
 70
     1
102
RTVSPropertyOp19
 70
     1
102
RTVSPropertyOp20
 70
     1
102
RTVSPropertyOp21
 70
     1
102
RTVSPropertyOp22
 70
     1
102
RTVSPropertyOp23
 70
     1
102
RTVSPropertyOp24
 70
     1
102
RTVSPropertyOp25
 70
     1
102
RTVSPropertyOp26
 70
     1
102
RTVSPropertyOp27
 70
     1
102
RTVSPropertyOp28
 70
     1
102
RTVSPropertyOp29
 70
     1
102
RTVSPropertyOp30
 70
     1
102
RTVSPropertyOp31
 70
     1
102
RTVSPropertyOp32
 70
     1
  0
XRECORD
  5
5D7
102
{ACAD_REACTORS
330
5D6
102
}
330
5D6
100
AcDbXrecord
280
     1
102
RTVSPropertyOp0
 70
     1
102
RTVSPropertyOp1
 70
     1
102
RTVSPropertyOp2
 70
     1
102
RTVSPropertyOp3
 70
     1
102
RTVSPropertyOp4
 70
     1
102
RTVSPropertyOp5
 70
     1
102
RTVSPropertyOp6
 70
     1
102
RTVSPropertyOp7
 70
     1
102
RTVSPropertyOp8
 70
     1
102
RTVSPropertyOp9
 70
     1
102
RTVSPropertyOp10
 70
     1
102
RTVSPropertyOp11
 70
     1
102
RTVSPropertyOp12
 70
     1
102
RTVSPropertyOp13
 70
     1
102
RTVSPropertyOp14
 70
     1
102
RTVSPropertyOp15
 70
     1
102
RTVSPropertyOp16
 70
     1
102
RTVSPropertyOp17
 70
     1
102
RTVSPropertyOp18
 70
     1
102
RTVSPropertyOp19
 70
     1
102
RTVSPropertyOp20
 70
     1
102
RTVSPropertyOp21
 70
     1
102
RTVSPropertyOp22
 70
     1
102
RTVSPropertyOp23
 70
     1
102
RTVSPropertyOp24
 70
     1
102
RTVSPropertyOp25
 70
     1
102
RTVSPropertyOp26
 70
     1
102
RTVSPropertyOp27
 70
     1
102
RTVSPropertyOp28
 70
     1
102
RTVSPropertyOp29
 70
     1
102
RTVSPropertyOp30
 70
     1
102
RTVSPropertyOp31
 70
     1
102
RTVSPropertyOp32
 70
     1
  0
XRECORD
  5
5D9
102
{ACAD_REACTORS
330
5D8
102
}
330
5D8
100
AcDbXrecord
280
     1
102
RTVSPropertyOp0
 70
     1
102
RTVSPropertyOp1
 70
     1
102
RTVSPropertyOp2
 70
     1
102
RTVSPropertyOp3
 70
     1
102
RTVSPropertyOp4
 70
     1
102
RTVSPropertyOp5
 70
     1
102
RTVSPropertyOp6
 70
     1
102
RTVSPropertyOp7
 70
     1
102
RTVSPropertyOp8
 70
     1
102
RTVSPropertyOp9
 70
     1
102
RTVSPropertyOp10
 70
     1
102
RTVSPropertyOp11
 70
     1
102
RTVSPropertyOp12
 70
     1
102
RTVSPropertyOp13
 70
     1
102
RTVSPropertyOp14
 70
     1
102
RTVSPropertyOp15
 70
     1
102
RTVSPropertyOp16
 70
     1
102
RTVSPropertyOp17
 70
     1
102
RTVSPropertyOp18
 70
     1
102
RTVSPropertyOp19
 70
     1
102
RTVSPropertyOp20
 70
     1
102
RTVSPropertyOp21
 70
     1
102
RTVSPropertyOp22
 70
     1
102
RTVSPropertyOp23
 70
     1
102
RTVSPropertyOp24
 70
     1
102
RTVSPropertyOp25
 70
     1
102
RTVSPropertyOp26
 70
     1
102
RTVSPropertyOp27
 70
     1
102
RTVSPropertyOp28
 70
     1
102
RTVSPropertyOp29
 70
     1
102
RTVSPropertyOp30
 70
     1
102
RTVSPropertyOp31
 70
     1
102
RTVSPropertyOp32
 70
     1
  0
XRECORD
  5
5CF
102
{ACAD_REACTORS
330
5CE
102
}
330
5CE
100
AcDbXrecord
280
     1
102
RTVSPropertyOp0
 70
     1
102
RTVSPropertyOp1
 70
     1
102
RTVSPropertyOp2
 70
     1
102
RTVSPropertyOp3
 70
     1
102
RTVSPropertyOp4
 70
     1
102
RTVSPropertyOp5
 70
     1
102
RTVSPropertyOp6
 70
     1
102
RTVSPropertyOp7
 70
     1
102
RTVSPropertyOp8
 70
     1
102
RTVSPropertyOp9
 70
     1
102
RTVSPropertyOp10
 70
     1
102
RTVSPropertyOp11
 70
     1
102
RTVSPropertyOp12
 70
     1
102
RTVSPropertyOp13
 70
     1
102
RTVSPropertyOp14
 70
     1
102
RTVSPropertyOp15
 70
     1
102
RTVSPropertyOp16
 70
     1
102
RTVSPropertyOp17
 70
     1
102
RTVSPropertyOp18
 70
     1
102
RTVSPropertyOp19
 70
     1
102
RTVSPropertyOp20
 70
     1
102
RTVSPropertyOp21
 70
     1
102
RTVSPropertyOp22
 70
     1
102
RTVSPropertyOp23
 70
     1
102
RTVSPropertyOp24
 70
     1
102
RTVSPropertyOp25
 70
     1
102
RTVSPropertyOp26
 70
     1
102
RTVSPropertyOp27
 70
     1
102
RTVSPropertyOp28
 70
     1
102
RTVSPropertyOp29
 70
     1
102
RTVSPropertyOp30
 70
     1
102
RTVSPropertyOp31
 70
     1
102
RTVSPropertyOp32
 70
     1
  0
XRECORD
  5
5C3
102
{ACAD_REACTORS
330
5C2
102
}
330
5C2
100
AcDbXrecord
280
     1
102
RTVSPropertyOp0
 70
     1
102
RTVSPropertyOp1
 70
     1
102
RTVSPropertyOp2
 70
     1
102
RTVSPropertyOp3
 70
     1
102
RTVSPropertyOp4
 70
     1
102
RTVSPropertyOp5
 70
     1
102
RTVSPropertyOp6
 70
     1
102
RTVSPropertyOp7
 70
     1
102
RTVSPropertyOp8
 70
     1
102
RTVSPropertyOp9
 70
     1
102
RTVSPropertyOp10
 70
     1
102
RTVSPropertyOp11
 70
     1
102
RTVSPropertyOp12
 70
     1
102
RTVSPropertyOp13
 70
     1
102
RTVSPropertyOp14
 70
     1
102
RTVSPropertyOp15
 70
     1
102
RTVSPropertyOp16
 70
     1
102
RTVSPropertyOp17
 70
     1
102
RTVSPropertyOp18
 70
     1
102
RTVSPropertyOp19
 70
     1
102
RTVSPropertyOp20
 70
     1
102
RTVSPropertyOp21
 70
     1
102
RTVSPropertyOp22
 70
     1
102
RTVSPropertyOp23
 70
     1
102
RTVSPropertyOp24
 70
     1
102
RTVSPropertyOp25
 70
     1
102
RTVSPropertyOp26
 70
     1
102
RTVSPropertyOp27
 70
     1
102
RTVSPropertyOp28
 70
     1
102
RTVSPropertyOp29
 70
     1
102
RTVSPropertyOp30
 70
     1
102
RTVSPropertyOp31
 70
     1
102
RTVSPropertyOp32
 70
     1
  0
XRECORD
  5
5DB
102
{ACAD_REACTORS
330
5DA
102
}
330
5DA
100
AcDbXrecord
280
     1
102
RTVSPropertyOp0
 70
     1
102
RTVSPropertyOp1
 70
     1
102
RTVSPropertyOp2
 70
     1
102
RTVSPropertyOp3
 70
     1
102
RTVSPropertyOp4
 70
     1
102
RTVSPropertyOp5
 70
     1
102
RTVSPropertyOp6
 70
     1
102
RTVSPropertyOp7
 70
     1
102
RTVSPropertyOp8
 70
     1
102
RTVSPropertyOp9
 70
     1
102
RTVSPropertyOp10
 70
     1
102
RTVSPropertyOp11
 70
     1
102
RTVSPropertyOp12
 70
     1
102
RTVSPropertyOp13
 70
     1
102
RTVSPropertyOp14
 70
     1
102
RTVSPropertyOp15
 70
     1
102
RTVSPropertyOp16
 70
     1
102
RTVSPropertyOp17
 70
     1
102
RTVSPropertyOp18
 70
     1
102
RTVSPropertyOp19
 70
     1
102
RTVSPropertyOp20
 70
     1
102
RTVSPropertyOp21
 70
     1
102
RTVSPropertyOp22
 70
     1
102
RTVSPropertyOp23
 70
     1
102
RTVSPropertyOp24
 70
     1
102
RTVSPropertyOp25
 70
     1
102
RTVSPropertyOp26
 70
     1
102
RTVSPropertyOp27
 70
     1
102
RTVSPropertyOp28
 70
     1
102
RTVSPropertyOp29
 70
     1
102
RTVSPropertyOp30
 70
     1
102
RTVSPropertyOp31
 70
     1
102
RTVSPropertyOp32
 70
     1
  0
ENDSEC
  0
EOF
