  0
SECTION
  2
HEADER
  9
$ACADVER
  1
AC1015
  9
$ACADMAINTVER
 70
    20
  9
$DWGCODEPAGE
  3
ANSI_932
  9
$INSBASE
 10
0.0
 20
0.0
 30
0.0
  9
$EXTMIN
 10
172.2067245571258
 20
-563.4815907756364
 30
0.0
  9
$EXTMAX
 10
550.0265881314784
 20
-293.4815907756365
 30
0.0
  9
$LIMMIN
 10
0.0
 20
0.0
  9
$LIMMAX
 10
0.0
 20
0.0
  9
$ORTHOMODE
 70
     0
  9
$REGENMODE
 70
     1
  9
$FILLMODE
 70
     1
  9
$QTEXTMODE
 70
     0
  9
$MIRRTEXT
 70
     1
  9
$LTSCALE
 40
1.0
  9
$ATTMODE
 70
     1
  9
$TEXTSIZE
 40
0.0
  9
$TRACEWID
 40
0.05
  9
$TEXTSTYLE
  7
STANDARD
  9
$CLAYER
  8
0
  9
$CELTYPE
  6
CONTINUOUS
  9
$CECOLOR
 62
   256
  9
$CELTSCALE
 40
1.0
  9
$DISPSILH
 70
     0
  9
$DIMSCALE
 40
1.0
  9
$DIMASZ
 40
0.18
  9
$DIMEXO
 40
0.0625
  9
$DIMDLI
 40
0.38
  9
$DIMRND
 40
0.0
  9
$DIMDLE
 40
0.0
  9
$DIMEXE
 40
0.18
  9
$DIMTP
 40
0.0
  9
$DIMTM
 40
0.0
  9
$DIMTXT
 40
0.18
  9
$DIMCEN
 40
0.09
  9
$DIMTSZ
 40
0.0
  9
$DIMTOL
 70
     0
  9
$DIMLIM
 70
     0
  9
$DIMTIH
 70
     1
  9
$DIMTOH
 70
     1
  9
$DIMSE1
 70
     0
  9
$DIMSE2
 70
     0
  9
$DIMTAD
 70
     0
  9
$DIMZIN
 70
     0
  9
$DIMBLK
  1

  9
$DIMASO
 70
     1
  9
$DIMSHO
 70
     1
  9
$DIMPOST
  1

  9
$DIMAPOST
  1

  9
$DIMALT
 70
     0
  9
$DIMALTD
 70
     2
  9
$DIMALTF
 40
25.4
  9
$DIMLFAC
 40
1.0
  9
$DIMTOFL
 70
     0
  9
$DIMTVP
 40
0.0
  9
$DIMTIX
 70
     0
  9
$DIMSOXD
 70
     0
  9
$DIMSAH
 70
     0
  9
$DIMBLK1
  1

  9
$DIMBLK2
  1

  9
$DIMSTYLE
  2
STANDARD
  9
$DIMCLRD
 70
     0
  9
$DIMCLRE
 70
     0
  9
$DIMCLRT
 70
     0
  9
$DIMTFAC
 40
1.0
  9
$DIMGAP
 40
0.09
  9
$DIMJUST
 70
     0
  9
$DIMSD1
 70
     0
  9
$DIMSD2
 70
     0
  9
$DIMTOLJ
 70
     1
  9
$DIMTZIN
 70
     0
  9
$DIMALTZ
 70
     0
  9
$DIMALTTZ
 70
     0
  9
$DIMUPT
 70
     0
  9
$DIMDEC
 70
     4
  9
$DIMTDEC
 70
     4
  9
$DIMALTU
 70
     2
  9
$DIMALTTD
 70
     2
  9
$DIMTXSTY
  7
STANDARD
  9
$DIMAUNIT
 70
     0
  9
$DIMADEC
 70
     0
  9
$DIMALTRND
 40
0.0
  9
$DIMAZIN
 70
     0
  9
$DIMDSEP
 70
    46
  9
$DIMATFIT
 70
     3
  9
$DIMFRAC
 70
     0
  9
$DIMLDRBLK
  1

  9
$DIMLUNIT
 70
     2
  9
$DIMLWD
 70
    -2
  9
$DIMLWE
 70
    -2
  9
$DIMTMOVE
 70
     0
  9
$LUNITS
 70
     2
  9
$LUPREC
 70
     4
  9
$SKETCHINC
 40
0.1
  9
$FILLETRAD
 40
0.0
  9
$AUNITS
 70
     0
  9
$AUPREC
 70
     0
  9
$MENU
  1
acad
  9
$ELEVATION
 40
0.0
  9
$PELEVATION
 40
0.0
  9
$THICKNESS
 40
0.0
  9
$LIMCHECK
 70
     0
  9
$CHAMFERA
 40
0.0
  9
$CHAMFERB
 40
0.0
  9
$CHAMFERC
 40
0.0
  9
$CHAMFERD
 40
0.0
  9
$SKPOLY
 70
     0
  9
$TDCREATE
 40
12367012.42918381
  9
$TDUCREATE
 40
6.0000000000
  9
$TDUPDATE
 40
2457592.447688912
  9
$TDUUPDATE
 40
2457592.072688912
  9
$TDINDWG
 40
0.0012036111
  9
$TDUSRTIMER
 40
0.0012036111
  9
$USRTIMER
 70
     1
  9
$ANGBASE
 50
0.0
  9
$ANGDIR
 70
     0
  9
$PDMODE
 70
     0
  9
$PDSIZE
 40
0.0
  9
$PLINEWID
 40
0.0
  9
$SPLFRAME
 70
     0
  9
$SPLINETYPE
 70
     6
  9
$SPLINESEGS
 70
     8
  9
$HANDSEED
  5
670
  9
$SURFTAB1
 70
     6
  9
$SURFTAB2
 70
     6
  9
$SURFTYPE
 70
     6
  9
$SURFU
 70
     6
  9
$SURFV
 70
     6
  9
$UCSBASE
  2

  9
$UCSNAME
  2

  9
$UCSORG
 10
0.0
 20
0.0
 30
0.0
  9
$UCSXDIR
 10
1.0
 20
0.0
 30
0.0
  9
$UCSYDIR
 10
0.0
 20
1.0
 30
0.0
  9
$UCSORTHOREF
  2

  9
$UCSORTHOVIEW
 70
     0
  9
$UCSORGTOP
 10
0.0
 20
0.0
 30
0.0
  9
$UCSORGBOTTOM
 10
0.0
 20
0.0
 30
0.0
  9
$UCSORGLEFT
 10
0.0
 20
0.0
 30
0.0
  9
$UCSORGRIGHT
 10
0.0
 20
0.0
 30
0.0
  9
$UCSORGFRONT
 10
0.0
 20
0.0
 30
0.0
  9
$UCSORGBACK
 10
0.0
 20
0.0
 30
0.0
  9
$PUCSBASE
  2

  9
$PUCSNAME
  2

  9
$PUCSORG
 10
0.0
 20
0.0
 30
0.0
  9
$PUCSXDIR
 10
1.0
 20
0.0
 30
0.0
  9
$PUCSYDIR
 10
0.0
 20
1.0
 30
0.0
  9
$PUCSORTHOREF
  2

  9
$PUCSORTHOVIEW
 70
     0
  9
$PUCSORGTOP
 10
0.0
 20
0.0
 30
0.0
  9
$PUCSORGBOTTOM
 10
0.0
 20
0.0
 30
0.0
  9
$PUCSORGLEFT
 10
0.0
 20
0.0
 30
0.0
  9
$PUCSORGRIGHT
 10
0.0
 20
0.0
 30
0.0
  9
$PUCSORGFRONT
 10
0.0
 20
0.0
 30
0.0
  9
$PUCSORGBACK
 10
0.0
 20
0.0
 30
0.0
  9
$USERI1
 70
     0
  9
$USERI2
 70
     0
  9
$USERI3
 70
     0
  9
$USERI4
 70
     0
  9
$USERI5
 70
     0
  9
$USERR1
 40
12.01
  9
$USERR2
 40
0.0
  9
$USERR3
 40
0.0
  9
$USERR4
 40
0.0
  9
$USERR5
 40
0.0
  9
$WORLDVIEW
 70
     1
  9
$SHADEDGE
 70
     3
  9
$SHADEDIF
 70
    70
  9
$TILEMODE
 70
     1
  9
$MAXACTVP
 70
    16
  9
$PINSBASE
 10
0.0
 20
0.0
 30
0.0
  9
$PLIMCHECK
 70
     0
  9
$PEXTMIN
 10
1.000000000000000E+20
 20
1.000000000000000E+20
 30
1.000000000000000E+20
  9
$PEXTMAX
 10
-1.000000000000000E+20
 20
-1.000000000000000E+20
 30
-1.000000000000000E+20
  9
$PLIMMIN
 10
0.0
 20
0.0
  9
$PLIMMAX
 10
12.0
 20
9.0
  9
$UNITMODE
 70
     0
  9
$VISRETAIN
 70
     0
  9
$PLINEGEN
 70
     1
  9
$PSLTSCALE
 70
     0
  9
$TREEDEPTH
 70
  3020
  9
$CMLSTYLE
  2
STANDARD
  9
$CMLJUST
 70
     0
  9
$CMLSCALE
 40
1.0
  9
$PROXYGRAPHICS
 70
     0
  9
$MEASUREMENT
 70
     1
  9
$CELWEIGHT
370
    -1
  9
$ENDCAPS
280
     0
  9
$JOINSTYLE
280
     0
  9
$LWDISPLAY
290
     0
  9
$INSUNITS
 70
     0
  9
$HYPERLINKBASE
  1

  9
$STYLESHEET
  1

  9
$XEDIT
290
     1
  9
$CEPSNTYPE
380
     0
  9
$PSTYLEMODE
290
     1
  9
$FINGERPRINTGUID
  2
{7E4B65A5-E345-493E-99FC-384B7F728006}
  9
$VERSIONGUID
  2
{01214CF2-3E32-4924-9ADD-AB83E384243F}
  9
$EXTNAMES
290
     1
  9
$PSVPSCALE
 40
0.0
  9
$OLESTARTUP
290
     0
  0
ENDSEC
  0
SECTION
  2
CLASSES
  0
CLASS
  1
IMAGE
  2
AcDbRasterImage
  3
ISM
 90
    34943
280
     0
281
     1
  0
CLASS
  1
DICTIONARYVAR
  2
AcDbDictionaryVar
  3
ObjectDBX Classes
 90
        0
280
     0
281
     0
  0
CLASS
  1
RASTERVARIABLES
  2
AcDbRasterVariables
  3
ISM
 90
    32768
280
     0
281
     0
  0
CLASS
  1
IMAGEDEF
  2
AcDbRasterImageDef
  3
ISM
 90
    32768
280
     0
281
     0
  0
CLASS
  1
IMAGEDEF_REACTOR
  2
AcDbRasterImageDefReactor
  3
ISM
 90
    32769
280
     0
281
     0
  0
CLASS
  1
IDBUFFER
  2
AcDbIdBuffer
  3
ObjectDBX Classes
 90
    32768
280
     0
281
     0
  0
CLASS
  1
SPATIAL_FILTER
  2
AcDbSpatialFilter
  3
ObjectDBX Classes
 90
    32768
280
     0
281
     0
  0
CLASS
  1
SORTENTSTABLE
  2
AcDbSortentsTable
  3
ObjectDBX Classes
 90
        0
280
     0
281
     0
  0
CLASS
  1
LAYER_INDEX
  2
AcDbLayerIndex
  3
ObjectDBX Classes
 90
    32768
280
     0
281
     0
  0
CLASS
  1
SPATIAL_INDEX
  2
AcDbSpatialIndex
  3
ObjectDBX Classes
 90
    32768
280
     0
281
     0
  0
CLASS
  1
OBJECT_PTR
  2
CAseDLPNTableRecord
  3
ASE-LPNTableRecord
 90
    32769
280
     0
281
     0
  0
CLASS
  1
LAYOUT
  2
AcDbLayout
  3
ObjectDBX Classes
 90
        0
280
     0
281
     0
  0
CLASS
  1
PLOTSETTINGS
  2
AcDbPlotSettings
  3
ObjectDBX Classes
 90
    32768
280
     0
281
     0
  0
CLASS
  1
ACDBDICTIONARYWDFLT
  2
AcDbDictionaryWithDefault
  3
ObjectDBX Classes
 90
        0
280
     0
281
     0
  0
CLASS
  1
ACDBPLACEHOLDER
  2
AcDbPlaceHolder
  3
ObjectDBX Classes
 90
        0
280
     0
281
     0
  0
CLASS
  1
MATERIAL
  2
AcDbMaterial
  3
ObjectDBX Classes
 90
     1153
280
     0
281
     0
  0
CLASS
  1
VISUALSTYLE
  2
AcDbVisualStyle
  3
ObjectDBX Classes
 90
     4095
280
     0
281
     0
  0
CLASS
  1
TABLESTYLE
  2
AcDbTableStyle
  3
ObjectDBX Classes
 90
     4095
280
     0
281
     0
  0
CLASS
  1
SCALE
  2
AcDbScale
  3
ObjectDBX Classes
 90
     1153
280
     0
281
     0
  0
CLASS
  1
MLEADERSTYLE
  2
AcDbMLeaderStyle
  3
ACDB_MLEADERSTYLE_CLASS
 90
     4095
280
     0
281
     0
  0
CLASS
  1
CELLSTYLEMAP
  2
AcDbCellStyleMap
  3
ObjectDBX Classes
 90
     1152
280
     0
281
     0
  0
ENDSEC
  0
SECTION
  2
TABLES
  0
TABLE
  2
VPORT
  5
7
330
0
100
AcDbSymbolTable
 70
     1
  0
VPORT
  5
15
330
7
100
AcDbSymbolTableRecord
100
AcDbViewportTableRecord
  2
*ACTIVE
 70
     0
 10
0.0
 20
0.0
 11
1.0
 21
1.0
 12
297.3400698876295
 22
-383.9257130534754
 13
0.0
 23
0.0
 14
1.0
 24
1.0
 15
0.0
 25
0.0
 16
0.0
 26
0.0
 36
1.0
 17
0.0
 27
0.0
 37
0.0
 40
242.554021339464
 41
2.026347305389221
 42
50.0
 43
0.0
 44
0.0
 50
0.0
 51
0.0
 71
     0
 72
   100
 73
     1
 74
     1
 75
     0
 76
     0
 77
     0
 78
     0
281
     0
 65
     1
110
0.0
120
0.0
130
0.0
111
1.0
121
0.0
131
0.0
112
0.0
122
1.0
132
0.0
 79
     0
146
0.0
1001
ACAD_NAV_VCDISPLAY
1070
     3
  0
ENDTAB
  0
TABLE
  2
LTYPE
  5
4
330
0
100
AcDbSymbolTable
 70
     8
  0
LTYPE
  5
11
330
4
100
AcDbSymbolTableRecord
100
AcDbLinetypeTableRecord
  2
BYBLOCK
 70
     0
  3

 72
    65
 73
     0
 40
0.0
  0
LTYPE
  5
12
330
4
100
AcDbSymbolTableRecord
100
AcDbLinetypeTableRecord
  2
BYLAYER
 70
     0
  3

 72
    65
 73
     0
 40
0.0
  0
LTYPE
  5
13
330
4
100
AcDbSymbolTableRecord
100
AcDbLinetypeTableRecord
  2
CONTINUOUS
 70
     0
  3
Solid line
 72
    65
 73
     0
 40
0.0
  0
LTYPE
  5
1D
330
4
100
AcDbSymbolTableRecord
100
AcDbLinetypeTableRecord
  2
DASHED
 70
     0
  3
Dashed
 72
    65
 73
     2
 40
15.0
 49
7.0
 74
     0
 49
-8.0
 74
     0
  0
LTYPE
  5
1E
330
4
100
AcDbSymbolTableRecord
100
AcDbLinetypeTableRecord
  2
DOTTED
 70
     0
  3
Dotted
 72
    65
 73
     2
 40
1.0
 49
0.0
 74
     0
 49
-1.0
 74
     0
  0
LTYPE
  5
1F
330
4
100
AcDbSymbolTableRecord
100
AcDbLinetypeTableRecord
  2
DOT_CENTER
 70
     0
  3
Dot_Center
 72
    65
 73
     4
 40
14.0
 49
12.0
 74
     0
 49
-1.0
 74
     0
 49
0.0
 74
     0
 49
-1.0
 74
     0
  0
LTYPE
  5
20
330
4
100
AcDbSymbolTableRecord
100
AcDbLinetypeTableRecord
  2
LONG_DASHED
 70
     0
  3
Long_Dashed
 72
    65
 73
     2
 40
15.0
 49
10.0
 74
     0
 49
-5.0
 74
     0
  0
LTYPE
  5
21
330
4
100
AcDbSymbolTableRecord
100
AcDbLinetypeTableRecord
  2
DASH_CENTER
 70
     0
  3
Dash_Center
 72
    65
 73
     4
 40
14.0
 49
11.0
 74
     0
 49
-1.0
 74
     0
 49
1.0
 74
     0
 49
-1.0
 74
     0
  0
LTYPE
  5
22
330
4
100
AcDbSymbolTableRecord
100
AcDbLinetypeTableRecord
  2
PHANTOM
 70
     0
  3
Phantom
 72
    65
 73
     6
 40
13.0
 49
10.0
 74
     0
 49
-1.0
 74
     0
 49
0.0
 74
     0
 49
-1.0
 74
     0
 49
0.0
 74
     0
 49
-1.0
 74
     0
  0
LTYPE
  5
23
330
4
100
AcDbSymbolTableRecord
100
AcDbLinetypeTableRecord
  2
CENTER_DASH_DASH
 70
     0
  3
Center_Dash_Dash
 72
    65
 73
     6
 40
14.0
 49
9.0
 74
     0
 49
-1.0
 74
     0
 49
1.0
 74
     0
 49
-1.0
 74
     0
 49
1.0
 74
     0
 49
-1.0
 74
     0
  0
ENDTAB
  0
TABLE
  2
LAYER
  5
2
330
0
100
AcDbSymbolTable
 70
     3
  0
LAYER
  5
14
102
{ACAD_XDICTIONARY
360
5C4
102
}
330
2
100
AcDbSymbolTableRecord
100
AcDbLayerTableRecord
  2
0
 70
     0
 62
     7
  6
CONTINUOUS
370
    -3
390
304
  0
LAYER
  5
24
102
{ACAD_XDICTIONARY
360
5C6
102
}
330
2
100
AcDbSymbolTableRecord
100
AcDbLayerTableRecord
  2
1
 70
     0
 62
     7
  6
CONTINUOUS
370
    -3
390
304
  0
LAYER
  5
38E
330
2
100
AcDbSymbolTableRecord
100
AcDbLayerTableRecord
  2
Defpoints
 70
     0
 62
     7
  6
CONTINUOUS
290
     0
370
    -3
390
304
  0
ENDTAB
  0
TABLE
  2
STYLE
  5
3
330
0
100
AcDbSymbolTable
 70
     6
  0
STYLE
  5
17
330
3
100
AcDbSymbolTableRecord
100
AcDbTextStyleTableRecord
  2
STANDARD
 70
     0
 40
0.0
 41
1.0
 50
0.0
 71
     0
 42
0.0
  3
txt
  4

  0
STYLE
  5
59
330
3
100
AcDbSymbolTableRecord
100
AcDbTextStyleTableRecord
  2
CONVERTER_1
 70
     0
 40
0.0
 41
0.63
 50
0.0
 71
     0
 42
0.0
  3
txt.shx
  4

  0
STYLE
  5
180
330
3
100
AcDbSymbolTableRecord
100
AcDbTextStyleTableRecord
  2
CONVERTER_2
 70
     0
 40
0.0
 41
0.9
 50
0.0
 71
     0
 42
0.0
  3
txt.shx
  4

  0
STYLE
  5
182
330
3
100
AcDbSymbolTableRecord
100
AcDbTextStyleTableRecord
  2
CONVERTER_3
 70
     0
 40
0.0
 41
0.76
 50
0.0
 71
     0
 42
0.0
  3
complex.shx
  4

  0
STYLE
  5
1AB
330
3
100
AcDbSymbolTableRecord
100
AcDbTextStyleTableRecord
  2
CONVERTER_4
 70
     0
 40
0.0
 41
0.603
 50
0.0
 71
     0
 42
0.0
  3
txt.shx
  4

  0
STYLE
  5
22B
330
3
100
AcDbSymbolTableRecord
100
AcDbTextStyleTableRecord
  2
CONVERTER_5
 70
     0
 40
0.0
 41
0.6650000000000001
 50
0.0
 71
     0
 42
0.0
  3
simplex.shx
  4

  0
ENDTAB
  0
TABLE
  2
VIEW
  5
5
330
0
100
AcDbSymbolTable
 70
     0
  0
ENDTAB
  0
TABLE
  2
UCS
  5
6
330
0
100
AcDbSymbolTable
 70
     0
  0
ENDTAB
  0
TABLE
  2
APPID
  5
8
330
0
100
AcDbSymbolTable
 70
     4
  0
APPID
  5
16
330
8
100
AcDbSymbolTableRecord
100
AcDbRegAppTableRecord
  2
ACAD
 70
     0
  0
APPID
  5
5CA
330
8
100
AcDbSymbolTableRecord
100
AcDbRegAppTableRecord
  2
DCO15
 70
     0
  0
APPID
  5
5D4
330
8
100
AcDbSymbolTableRecord
100
AcDbRegAppTableRecord
  2
ACAD_NAV_VCDISPLAY
 70
     0
  0
APPID
  5
669
330
8
100
AcDbSymbolTableRecord
100
AcDbRegAppTableRecord
  2
ACAD_MLEADERVER
 70
     0
  0
ENDTAB
  0
TABLE
  2
DIMSTYLE
  5
9
330
0
100
AcDbSymbolTable
 70
    16
100
AcDbDimStyleTable
 71
     0
  0
DIMSTYLE
105
18
330
9
100
AcDbSymbolTableRecord
100
AcDbDimStyleTableRecord
  2
STANDARD
 70
     0
340
17
  0
DIMSTYLE
105
234
102
{ACAD_REACTORS
330
235
102
}
330
9
100
AcDbSymbolTableRecord
100
AcDbDimStyleTableRecord
  2
ME10_DIM_0
 70
     0
 41
2.45
 42
1.0
 44
1.0
 73
     0
 74
     0
 77
     1
 78
     8
140
3.5
147
0.625
172
     1
173
     1
176
     2
177
     2
178
     3
271
     2
340
22B
341
22E
343
22E
344
22E
  0
DIMSTYLE
105
241
102
{ACAD_REACTORS
330
242
102
}
330
9
100
AcDbSymbolTableRecord
100
AcDbDimStyleTableRecord
  2
ME10_DIM_1
 70
     0
 41
2.45
 42
1.0
 44
1.0
 73
     0
 74
     0
 77
     1
 78
     8
140
3.5
147
0.625
172
     1
173
     1
176
     2
177
     2
178
     3
271
     2
340
22B
341
22E
343
22E
344
22E
  0
DIMSTYLE
105
24F
102
{ACAD_REACTORS
330
250
102
}
330
9
100
AcDbSymbolTableRecord
100
AcDbDimStyleTableRecord
  2
ME10_DIM_2
 70
     0
 41
2.45
 42
1.0
 44
1.0
 73
     0
 74
     0
 77
     1
 78
     8
140
3.5
147
0.625
172
     1
173
     1
176
     2
177
     2
178
     3
271
     2
340
22B
341
22E
343
22E
344
22E
  0
DIMSTYLE
105
25C
102
{ACAD_REACTORS
330
25D
102
}
330
9
100
AcDbSymbolTableRecord
100
AcDbDimStyleTableRecord
  2
ME10_DIM_3
 70
     0
 41
2.45
 42
1.0
 44
1.0
 73
     0
 74
     0
 77
     1
 78
     8
140
3.5
147
0.625
172
     1
173
     1
176
     2
177
     2
178
     3
271
     2
340
22B
341
22E
343
22E
344
22E
  0
DIMSTYLE
105
269
102
{ACAD_REACTORS
330
26A
102
}
330
9
100
AcDbSymbolTableRecord
100
AcDbDimStyleTableRecord
  2
ME10_DIM_4
 70
     0
 41
2.45
 42
1.0
 44
1.0
 73
     0
 74
     0
 77
     1
 78
     8
140
3.5
147
0.625
172
     1
173
     1
176
     2
177
     2
178
     3
271
     2
340
22B
341
22E
343
22E
344
22E
  0
DIMSTYLE
105
276
102
{ACAD_REACTORS
330
277
102
}
330
9
100
AcDbSymbolTableRecord
100
AcDbDimStyleTableRecord
  2
ME10_DIM_5
 70
     0
 41
2.45
 42
1.0
 44
1.0
 73
     0
 74
     0
 77
     1
 78
     8
140
3.5
147
0.625
172
     1
173
     1
176
     2
177
     2
178
     3
271
     2
340
22B
341
22E
343
22E
344
22E
  0
DIMSTYLE
105
283
102
{ACAD_REACTORS
330
284
102
}
330
9
100
AcDbSymbolTableRecord
100
AcDbDimStyleTableRecord
  2
ME10_DIM_6
 70
     0
 41
2.45
 42
1.0
 44
1.0
 73
     0
 74
     0
 77
     1
 78
     8
140
3.5
147
0.625
172
     1
173
     1
176
     2
177
     2
178
     3
271
     2
340
22B
341
22E
343
22E
344
22E
  0
DIMSTYLE
105
293
102
{ACAD_REACTORS
330
294
102
}
330
9
100
AcDbSymbolTableRecord
100
AcDbDimStyleTableRecord
  2
ME10_DIM_7
 70
     0
 41
2.45
 42
1.0
 44
1.0
 73
     0
 74
     0
 77
     1
 78
     8
140
3.5
147
0.625
172
     1
173
     1
176
     2
177
     2
178
     3
271
     2
340
22B
341
290
343
290
344
22E
  0
DIMSTYLE
105
2A9
102
{ACAD_REACTORS
330
2AA
102
}
330
9
100
AcDbSymbolTableRecord
100
AcDbDimStyleTableRecord
  2
ME10_DIM_8
 70
     0
 41
1.0
 42
1.0
 44
1.0
 73
     0
 74
     0
 77
     1
 78
     8
140
3.5
147
0.625
172
     1
173
     1
176
     2
177
     2
178
     3
271
     2
340
22B
341
22E
343
22E
344
2A1
  0
DIMSTYLE
105
2B6
102
{ACAD_REACTORS
330
2B7
102
}
330
9
100
AcDbSymbolTableRecord
100
AcDbDimStyleTableRecord
  2
ME10_DIM_9
 70
     0
 41
2.45
 42
1.0
 44
1.0
 73
     0
 74
     0
 77
     1
 78
     8
140
3.5
147
0.625
172
     1
173
     1
176
     2
177
     2
178
     3
271
     2
340
22B
341
22E
343
22E
344
22E
  0
DIMSTYLE
105
2C3
102
{ACAD_REACTORS
330
2C4
102
}
330
9
100
AcDbSymbolTableRecord
100
AcDbDimStyleTableRecord
  2
ME10_DIM_10
 70
     0
 41
2.45
 42
1.0
 44
1.0
 73
     0
 74
     0
 77
     1
 78
     8
140
3.5
147
0.625
172
     1
173
     1
176
     2
177
     2
178
     3
271
     2
340
22B
341
22E
343
22E
344
22E
  0
DIMSTYLE
105
2D0
102
{ACAD_REACTORS
330
2D1
102
}
330
9
100
AcDbSymbolTableRecord
100
AcDbDimStyleTableRecord
  2
ME10_DIM_11
 70
     0
 41
2.45
 42
1.0
 44
1.0
 73
     0
 74
     0
 77
     1
 78
     8
140
3.5
147
0.625
172
     1
173
     1
176
     2
177
     2
178
     3
271
     2
340
22B
341
22E
343
22E
344
22E
  0
DIMSTYLE
105
2DD
102
{ACAD_REACTORS
330
2DE
102
}
330
9
100
AcDbSymbolTableRecord
100
AcDbDimStyleTableRecord
  2
ME10_DIM_12
 70
     0
  3
{\Fgdt;n}<>
 41
2.45
 42
1.0
 44
1.0
 73
     0
 74
     0
 77
     1
 78
     8
140
3.5
147
0.625
172
     1
173
     1
176
     2
177
     2
178
     3
271
     2
340
22B
341
22E
343
22E
344
22E
  0
DIMSTYLE
105
2EA
102
{ACAD_REACTORS
330
2EB
102
}
330
9
100
AcDbSymbolTableRecord
100
AcDbDimStyleTableRecord
  2
ME10_DIM_13
 70
     0
 41
2.45
 42
1.0
 44
1.0
 73
     0
 74
     0
 77
     1
 78
     8
140
3.5
147
0.625
172
     1
173
     1
176
     2
177
     2
178
     3
271
     2
340
22B
341
22E
343
22E
344
22E
  0
DIMSTYLE
105
2F9
102
{ACAD_REACTORS
330
2FA
102
}
330
9
100
AcDbSymbolTableRecord
100
AcDbDimStyleTableRecord
  2
ME10_DIM_14
 70
     0
  3
{\Fgdt;n}<>
 41
2.45
 42
1.0
 44
1.0
 73
     0
 74
     0
 77
     1
 78
     8
140
3.5
147
0.625
172
     1
173
     1
176
     2
177
     2
178
     3
271
     2
340
22B
341
22E
343
22E
344
22E
  0
ENDTAB
  0
TABLE
  2
BLOCK_RECORD
  5
1
330
0
100
AcDbSymbolTable
 70
    44
  0
BLOCK_RECORD
  5
A
102
{ACAD_XDICTIONARY
360
454
102
}
330
1
100
AcDbSymbolTableRecord
100
AcDbBlockTableRecord
  2
*MODEL_SPACE
340
350
  0
BLOCK_RECORD
  5
B
330
1
100
AcDbSymbolTableRecord
100
AcDbBlockTableRecord
  2
*PAPER_SPACE
340
351
  0
BLOCK_RECORD
  5
25
330
1
100
AcDbSymbolTableRecord
100
AcDbBlockTableRecord
  2
_______T________________M4
340
0
102
{BLKREFS
331
3D
102
}
  0
BLOCK_RECORD
  5
27
330
1
100
AcDbSymbolTableRecord
100
AcDbBlockTableRecord
  2
_7
340
0
102
{BLKREFS
331
3E
102
}
  0
BLOCK_RECORD
  5
29
330
1
100
AcDbSymbolTableRecord
100
AcDbBlockTableRecord
  2
______
340
0
102
{BLKREFS
331
2D
102
}
  0
BLOCK_RECORD
  5
2B
330
1
100
AcDbSymbolTableRecord
100
AcDbBlockTableRecord
  2
FORMAT_A3
340
0
102
{BLKREFS
331
30
102
}
  0
BLOCK_RECORD
  5
2E
330
1
100
AcDbSymbolTableRecord
100
AcDbBlockTableRecord
  2
_6
340
0
102
{BLKREFS
331
3F
102
}
  0
BLOCK_RECORD
  5
31
330
1
100
AcDbSymbolTableRecord
100
AcDbBlockTableRecord
  2
_1
340
0
102
{BLKREFS
331
40
102
}
  0
BLOCK_RECORD
  5
33
330
1
100
AcDbSymbolTableRecord
100
AcDbBlockTableRecord
  2
_2
340
0
102
{BLKREFS
331
41
102
}
  0
BLOCK_RECORD
  5
35
330
1
100
AcDbSymbolTableRecord
100
AcDbBlockTableRecord
  2
_3
340
0
102
{BLKREFS
331
42
102
}
  0
BLOCK_RECORD
  5
37
330
1
100
AcDbSymbolTableRecord
100
AcDbBlockTableRecord
  2
_4
340
0
102
{BLKREFS
331
43
102
}
  0
BLOCK_RECORD
  5
39
330
1
100
AcDbSymbolTableRecord
100
AcDbBlockTableRecord
  2
_5
340
0
102
{BLKREFS
331
44
102
}
  0
BLOCK_RECORD
  5
3B
330
1
100
AcDbSymbolTableRecord
100
AcDbBlockTableRecord
  2
TOP__1
340
0
  0
BLOCK_RECORD
  5
222
330
1
100
AcDbSymbolTableRecord
100
AcDbBlockTableRecord
  2
*D11
340
0
  0
BLOCK_RECORD
  5
22E
330
1
100
AcDbSymbolTableRecord
100
AcDbBlockTableRecord
  2
_OPEN30
340
0
102
{BLKREFS
331
4AD
331
4AE
331
4B7
331
4B8
331
4C1
331
4C2
331
4CB
331
4CC
331
4D5
331
4D6
331
4DF
331
4E0
331
4E9
331
45C
331
466
331
467
331
470
331
471
331
47A
331
47B
331
484
331
485
331
48E
331
48F
331
499
331
49A
331
4A3
331
4A4
102
}
  0
BLOCK_RECORD
  5
236
330
1
100
AcDbSymbolTableRecord
100
AcDbBlockTableRecord
  2
*D13
340
0
  0
BLOCK_RECORD
  5
243
330
1
100
AcDbSymbolTableRecord
100
AcDbBlockTableRecord
  2
*D14
340
0
  0
BLOCK_RECORD
  5
251
330
1
100
AcDbSymbolTableRecord
100
AcDbBlockTableRecord
  2
*D15
340
0
  0
BLOCK_RECORD
  5
25E
330
1
100
AcDbSymbolTableRecord
100
AcDbBlockTableRecord
  2
*D16
340
0
  0
BLOCK_RECORD
  5
26B
330
1
100
AcDbSymbolTableRecord
100
AcDbBlockTableRecord
  2
*D17
340
0
  0
BLOCK_RECORD
  5
278
330
1
100
AcDbSymbolTableRecord
100
AcDbBlockTableRecord
  2
*D18
340
0
  0
BLOCK_RECORD
  5
285
330
1
100
AcDbSymbolTableRecord
100
AcDbBlockTableRecord
  2
*D19
340
0
  0
BLOCK_RECORD
  5
290
330
1
100
AcDbSymbolTableRecord
100
AcDbBlockTableRecord
  2
_NONE
340
0
  0
BLOCK_RECORD
  5
295
330
1
100
AcDbSymbolTableRecord
100
AcDbBlockTableRecord
  2
*D21
340
0
  0
BLOCK_RECORD
  5
2A1
330
1
100
AcDbSymbolTableRecord
100
AcDbBlockTableRecord
  2
_DOT
340
0
102
{BLKREFS
331
45D
102
}
  0
BLOCK_RECORD
  5
2AB
330
1
100
AcDbSymbolTableRecord
100
AcDbBlockTableRecord
  2
*D23
340
0
  0
BLOCK_RECORD
  5
2B8
330
1
100
AcDbSymbolTableRecord
100
AcDbBlockTableRecord
  2
*D24
340
0
  0
BLOCK_RECORD
  5
2C5
330
1
100
AcDbSymbolTableRecord
100
AcDbBlockTableRecord
  2
*D25
340
0
  0
BLOCK_RECORD
  5
2D2
330
1
100
AcDbSymbolTableRecord
100
AcDbBlockTableRecord
  2
*D26
340
0
  0
BLOCK_RECORD
  5
2DF
330
1
100
AcDbSymbolTableRecord
100
AcDbBlockTableRecord
  2
*D27
340
0
  0
BLOCK_RECORD
  5
2EC
330
1
100
AcDbSymbolTableRecord
100
AcDbBlockTableRecord
  2
*D28
340
0
  0
BLOCK_RECORD
  5
38F
330
1
100
AcDbSymbolTableRecord
100
AcDbBlockTableRecord
  2
*D29
340
0
  0
BLOCK_RECORD
  5
39E
330
1
100
AcDbSymbolTableRecord
100
AcDbBlockTableRecord
  2
*D30
340
0
  0
BLOCK_RECORD
  5
3AB
330
1
100
AcDbSymbolTableRecord
100
AcDbBlockTableRecord
  2
*D31
340
0
  0
BLOCK_RECORD
  5
3B8
330
1
100
AcDbSymbolTableRecord
100
AcDbBlockTableRecord
  2
*D32
340
0
  0
BLOCK_RECORD
  5
3C5
330
1
100
AcDbSymbolTableRecord
100
AcDbBlockTableRecord
  2
*D33
340
0
  0
BLOCK_RECORD
  5
3D2
330
1
100
AcDbSymbolTableRecord
100
AcDbBlockTableRecord
  2
*D34
340
0
  0
BLOCK_RECORD
  5
3DF
330
1
100
AcDbSymbolTableRecord
100
AcDbBlockTableRecord
  2
*D35
340
0
  0
BLOCK_RECORD
  5
3ED
330
1
100
AcDbSymbolTableRecord
100
AcDbBlockTableRecord
  2
*D36
340
0
  0
BLOCK_RECORD
  5
3FA
330
1
100
AcDbSymbolTableRecord
100
AcDbBlockTableRecord
  2
*D37
340
0
  0
BLOCK_RECORD
  5
407
330
1
100
AcDbSymbolTableRecord
100
AcDbBlockTableRecord
  2
*D38
340
0
  0
BLOCK_RECORD
  5
414
330
1
100
AcDbSymbolTableRecord
100
AcDbBlockTableRecord
  2
*D39
340
0
  0
BLOCK_RECORD
  5
421
330
1
100
AcDbSymbolTableRecord
100
AcDbBlockTableRecord
  2
*D40
340
0
  0
BLOCK_RECORD
  5
42E
330
1
100
AcDbSymbolTableRecord
100
AcDbBlockTableRecord
  2
*D41
340
0
  0
BLOCK_RECORD
  5
43B
330
1
100
AcDbSymbolTableRecord
100
AcDbBlockTableRecord
  2
*D42
340
0
  0
BLOCK_RECORD
  5
448
330
1
100
AcDbSymbolTableRecord
100
AcDbBlockTableRecord
  2
*D43
340
0
  0
ENDTAB
  0
ENDSEC
  0
SECTION
  2
BLOCKS
  0
BLOCK
  5
D
330
A
100
AcDbEntity
  8
0
100
AcDbBlockBegin
  2
*MODEL_SPACE
 70
     0
 10
0.0
 20
0.0
 30
0.0
  3
*MODEL_SPACE
  1

  0
ENDBLK
  5
E
330
A
100
AcDbEntity
  8
0
100
AcDbBlockEnd
  0
BLOCK
  5
F
330
B
100
AcDbEntity
 67
     1
  8
0
100
AcDbBlockBegin
  2
*PAPER_SPACE
 70
     0
 10
0.0
 20
0.0
 30
0.0
  3
*PAPER_SPACE
  1

  0
ENDBLK
  5
10
330
B
100
AcDbEntity
 67
     1
  8
0
100
AcDbBlockEnd
  0
BLOCK
  5
26
330
25
100
AcDbEntity
  8
0
100
AcDbBlockBegin
  2
_______T________________M4
 70
     0
 10
228.246883391972
 20
-667.6810726716619
 30
0.0
  3
_______T________________M4
  1

  0
MTEXT
  5
5A
330
25
100
AcDbEntity
  8
1
 62
     3
100
AcDbMText
 10
233.146883391972
 20
-364.4847059627492
 30
0.0
 40
7.0
 41
0.0
 71
     5
 72
     1
  1
6
  7
CONVERTER_1
 73
     1
 44
1.0
1001
ACAD
1000
MTEXTBEGIN
1070
    73
1070
     1
1070
    44
1040
1.0
1070
    74
1070
     0
1000
MTEXTEND
  0
LEADER
  5
58
330
25
100
AcDbEntity
  8
1
  6
Continuous
 62
     2
100
AcDbLeader
  3
STANDARD
 71
     0
 76
     2
 10
263.17870364971
 20
-363.2381021029932
 30
0.0
 10
238.0426674082857
 20
-364.2814847394304
 30
0.0
  0
CIRCLE
  5
55
330
25
100
AcDbEntity
  8
1
  6
Continuous
 62
     7
100
AcDbCircle
 10
265.7780903980947
 20
-361.6567851612467
 30
0.0
 40
4.0
  0
CIRCLE
  5
54
330
25
100
AcDbEntity
  8
1
  6
Continuous
 62
     2
100
AcDbCircle
 10
233.146883391972
 20
-364.4847059627492
 30
0.0
 40
4.899999999999969
  0
LINE
  5
53
330
25
100
AcDbEntity
  8
1
  6
Continuous
 62
     7
100
AcDbLine
 10
265.3180903980947
 20
-359.3567851612468
 30
0.0
 11
266.2380903980947
 21
-359.3567851612468
 31
0.0
  0
LINE
  5
52
330
25
100
AcDbEntity
  8
1
  6
Continuous
 62
     7
100
AcDbLine
 10
266.2380903980947
 20
-359.3567851612468
 30
0.0
 11
266.5447570647614
 21
-360.8901184945801
 31
0.0
  0
LINE
  5
51
330
25
100
AcDbEntity
  8
1
  6
Continuous
 62
     7
100
AcDbLine
 10
266.5447570647614
 20
-360.8901184945801
 30
0.0
 11
268.0780903980947
 21
-361.1967851612466
 31
0.0
  0
LINE
  5
50
330
25
100
AcDbEntity
  8
1
  6
Continuous
 62
     7
100
AcDbLine
 10
268.0780903980947
 20
-361.1967851612466
 30
0.0
 11
268.0780903980947
 21
-362.1167851612468
 31
0.0
  0
LINE
  5
4F
330
25
100
AcDbEntity
  8
1
  6
Continuous
 62
     7
100
AcDbLine
 10
268.0780903980947
 20
-362.1167851612468
 30
0.0
 11
266.5447570647614
 21
-362.4234518279134
 31
0.0
  0
LINE
  5
4E
330
25
100
AcDbEntity
  8
1
  6
Continuous
 62
     7
100
AcDbLine
 10
266.5447570647614
 20
-362.4234518279134
 30
0.0
 11
266.2380903980947
 21
-363.9567851612467
 31
0.0
  0
LINE
  5
4D
330
25
100
AcDbEntity
  8
1
  6
Continuous
 62
     7
100
AcDbLine
 10
266.2380903980947
 20
-363.9567851612467
 30
0.0
 11
265.3180903980947
 21
-363.9567851612467
 31
0.0
  0
LINE
  5
4C
330
25
100
AcDbEntity
  8
1
  6
Continuous
 62
     7
100
AcDbLine
 10
265.3180903980947
 20
-363.9567851612467
 30
0.0
 11
265.0114237314281
 21
-362.4234518279134
 31
0.0
  0
LINE
  5
4B
330
25
100
AcDbEntity
  8
1
  6
Continuous
 62
     7
100
AcDbLine
 10
265.0114237314281
 20
-362.4234518279134
 30
0.0
 11
263.4780903980947
 21
-362.1167851612468
 31
0.0
  0
LINE
  5
4A
330
25
100
AcDbEntity
  8
1
  6
Continuous
 62
     7
100
AcDbLine
 10
263.4780903980947
 20
-362.1167851612468
 30
0.0
 11
263.4780903980947
 21
-361.1967851612466
 31
0.0
  0
LINE
  5
49
330
25
100
AcDbEntity
  8
1
  6
Continuous
 62
     7
100
AcDbLine
 10
263.4780903980947
 20
-361.1967851612466
 30
0.0
 11
265.0114237314281
 21
-360.8901184945801
 31
0.0
  0
LINE
  5
48
330
25
100
AcDbEntity
  8
1
  6
Continuous
 62
     7
100
AcDbLine
 10
265.0114237314281
 20
-360.8901184945801
 30
0.0
 11
265.3180903980947
 21
-359.3567851612468
 31
0.0
  0
LINE
  5
56
330
25
100
AcDbEntity
  8
1
 62
     2
100
AcDbLine
 10
263.17870364971
 20
-363.2381021029932
 30
0.0
 11
259.7206100399667
 21
-364.320275386427
 31
0.0
  0
LINE
  5
57
330
25
100
AcDbEntity
  8
1
 62
     2
100
AcDbLine
 10
263.17870364971
 20
-363.2381021029932
 30
0.0
 11
259.6428200932908
 21
-362.446244852872
 31
0.0
  0
ENDBLK
  5
5B
330
25
100
AcDbEntity
  8
0
100
AcDbBlockEnd
  0
BLOCK
  5
28
330
27
100
AcDbEntity
  8
0
100
AcDbBlockBegin
  2
_7
 70
     0
 10
-206.8501175299398
 20
-718.0048224122304
 30
0.0
  3
_7
  1

  0
ARC
  5
68
330
27
100
AcDbEntity
  8
1
  6
Continuous
 62
     7
100
AcDbCircle
 10
265.7780903980947
 20
-361.6567851612467
 30
0.0
 40
7.89999999999998
100
AcDbArc
 50
0.0
 51
180.0
  0
LINE
  5
67
330
27
100
AcDbEntity
  8
1
  6
Continuous
 62
     7
100
AcDbLine
 10
273.6780903980947
 20
-398.2567851612466
 30
0.0
 11
273.6780903980947
 21
-361.6567851612467
 31
0.0
  0
LINE
  5
66
330
27
100
AcDbEntity
  8
1
  6
Continuous
 62
     7
100
AcDbLine
 10
257.8780903980947
 20
-361.6567851612467
 30
0.0
 11
257.8780903980947
 21
-398.2567851612466
 31
0.0
  0
LINE
  5
65
330
27
100
AcDbEntity
  8
1
  6
Continuous
 62
     7
100
AcDbLine
 10
257.8780903980947
 20
-398.2567851612466
 30
0.0
 11
273.6780903980947
 21
-398.2567851612466
 31
0.0
  0
LINE
  5
64
330
27
100
AcDbEntity
  8
1
  6
DOT_CENTER
 62
     2
100
AcDbLine
 10
265.7780903980947
 20
-348.2567851612468
 30
0.0
 11
265.7780903980947
 21
-419.7084557033177
 31
0.0
  0
LINE
  5
63
330
27
100
AcDbEntity
  8
1
  6
Continuous
 62
     7
100
AcDbLine
 10
358.7996557213393
 20
-398.2567851612466
 30
0.0
 11
359.2996557213393
 21
-398.2567851612466
 31
0.0
  0
LINE
  5
62
330
27
100
AcDbEntity
  8
1
  6
Continuous
 62
     7
100
AcDbLine
 10
342.2996557213394
 20
-353.7567851612466
 30
0.0
 11
342.2996557213394
 21
-398.2567851612466
 31
0.0
  0
LINE
  5
61
330
27
100
AcDbEntity
  8
1
  6
Continuous
 62
     7
100
AcDbLine
 10
358.7996557213393
 20
-353.7567851612466
 30
0.0
 11
342.2996557213394
 21
-353.7567851612466
 31
0.0
  0
LINE
  5
60
330
27
100
AcDbEntity
  8
1
  6
Continuous
 62
     7
100
AcDbLine
 10
359.2996557213393
 20
-398.2567851612466
 30
0.0
 11
359.2996557213393
 21
-354.2567851612466
 31
0.0
  0
LINE
  5
5F
330
27
100
AcDbEntity
  8
1
  6
Continuous
 62
     7
100
AcDbLine
 10
358.7996557213393
 20
-353.7567851612466
 30
0.0
 11
359.2996557213393
 21
-354.2567851612466
 31
0.0
  0
LINE
  5
5E
330
27
100
AcDbEntity
  8
1
  6
Continuous
 62
     7
100
AcDbLine
 10
358.7996557213393
 20
-398.2567851612466
 30
0.0
 11
358.7996557213393
 21
-353.7567851612466
 31
0.0
  0
LINE
  5
5D
330
27
100
AcDbEntity
  8
1
  6
Continuous
 62
     7
100
AcDbLine
 10
342.2996557213394
 20
-398.2567851612466
 30
0.0
 11
358.7996557213393
 21
-398.2567851612466
 31
0.0
  0
LINE
  5
5C
330
27
100
AcDbEntity
  8
1
  6
DOT_CENTER
 62
     2
100
AcDbLine
 10
361.2996557213393
 20
-386.2567851612466
 30
0.0
 11
340.2996557213394
 21
-386.2567851612466
 31
0.0
  0
ENDBLK
  5
69
330
27
100
AcDbEntity
  8
0
100
AcDbBlockEnd
  0
BLOCK
  5
2A
330
29
100
AcDbEntity
  8
0
100
AcDbBlockBegin
  2
______
 70
     0
 10
892.9388153301088
 20
-1025.987275808004
 30
0.0
  3
______
  1

  0
MTEXT
  5
1C0
102
{ACAD_XDICTIONARY
360
631
102
}
330
29
100
AcDbEntity
  8
1
 62
     3
100
AcDbMText
 10
1192.518851621052
 20
-416.3193645326156
 30
0.0
 40
3.5
 41
0.0
 71
     4
 72
     1
  1
\U+0192`\U+0192\U+2021\U+0192R\U+0090F
  7
CONVERTER_1
 73
     1
 44
1.0
1001
ACAD
1000
MTEXTBEGIN
1070
    73
1070
     1
1070
    44
1040
1.0
1070
    74
1070
     0
1000
MTEXTEND
  0
MTEXT
  5
1BF
102
{ACAD_XDICTIONARY
360
62F
102
}
330
29
100
AcDbEntity
  8
1
 62
     3
100
AcDbMText
 10
1232.518851621052
 20
-395.3193645326157
 30
0.0
 40
3.5
 41
0.0
 71
     4
 72
     1
  1
\U+201A\U+00E0\U+201A\U+00E6\U+0192\U+0152b\U+0192s\U+0192\U+201C3.5\U+0081~30
  7
CONVERTER_1
 73
     1
 44
1.0
1001
ACAD
1000
MTEXTBEGIN
1070
    73
1070
     1
1070
    44
1040
1.0
1070
    74
1070
     0
1000
MTEXTEND
  0
MTEXT
  5
1BE
102
{ACAD_XDICTIONARY
360
62D
102
}
330
29
100
AcDbEntity
  8
1
 62
     3
100
AcDbMText
 10
1232.518851621052
 20
-409.3193645326159
 30
0.0
 40
3.5
 41
0.0
 71
     4
 72
     1
  1
\U+017DM\U+0081{M4\U+0081~40
  7
CONVERTER_1
 73
     1
 44
1.0
1001
ACAD
1000
MTEXTBEGIN
1070
    73
1070
     1
1070
    44
1040
1.0
1070
    74
1070
     0
1000
MTEXTEND
  0
MTEXT
  5
1BD
102
{ACAD_XDICTIONARY
360
62B
102
}
330
29
100
AcDbEntity
  8
1
 62
     3
100
AcDbMText
 10
1192.518851621052
 20
-395.3193645326157
 30
0.0
 40
3.5
 41
0.0
 71
     4
 72
     1
  1
\U+0192N\U+0192\U+008D\U+0192\U+0081\U+0081[\U+0192g
  7
CONVERTER_1
 73
     1
 44
1.0
1001
ACAD
1000
MTEXTBEGIN
1070
    73
1070
     1
1070
    44
1040
1.0
1070
    74
1070
     0
1000
MTEXTEND
  0
MTEXT
  5
1BC
102
{ACAD_XDICTIONARY
360
629
102
}
330
29
100
AcDbEntity
  8
1
 62
     3
100
AcDbMText
 10
1192.518851621052
 20
-409.3193645326159
 30
0.0
 40
3.5
 41
0.0
 71
     4
 72
     1
  1
GB\U+0192\U+0081\U+0192b\U+0192L
  7
CONVERTER_1
 73
     1
 44
1.0
1001
ACAD
1000
MTEXTBEGIN
1070
    73
1070
     1
1070
    44
1040
1.0
1070
    74
1070
     0
1000
MTEXTEND
  0
MTEXT
  5
1BB
330
29
100
AcDbEntity
  8
1
 62
     3
100
AcDbMText
 10
1183.018851621052
 20
-395.3193645326157
 30
0.0
 40
3.5
 41
0.0
 71
     5
 72
     1
  1
3
  7
CONVERTER_1
 73
     1
 44
1.0
1001
ACAD
1000
MTEXTBEGIN
1070
    73
1070
     1
1070
    44
1040
1.0
1070
    74
1070
     0
1000
MTEXTEND
  0
MTEXT
  5
1BA
330
29
100
AcDbEntity
  8
1
 62
     3
100
AcDbMText
 10
1183.018851621052
 20
-409.3193645326159
 30
0.0
 40
3.5
 41
0.0
 71
     5
 72
     1
  1
1
  7
CONVERTER_1
 73
     1
 44
1.0
1001
ACAD
1000
MTEXTBEGIN
1070
    73
1070
     1
1070
    44
1040
1.0
1070
    74
1070
     0
1000
MTEXTEND
  0
MTEXT
  5
1B9
102
{ACAD_XDICTIONARY
360
627
102
}
330
29
100
AcDbEntity
  8
1
 62
     3
100
AcDbMText
 10
1147.518851621052
 20
-395.3193645326157
 30
0.0
 40
3.5
 41
0.0
 71
     4
 72
     1
  1
\U+017Ds\U+201D\U+00E4\U+2022i \U+02C6\U+00F5\U+017D\U+00DA
  7
CONVERTER_1
 73
     1
 44
1.0
1001
ACAD
1000
MTEXTBEGIN
1070
    73
1070
     1
1070
    44
1040
1.0
1070
    74
1070
     0
1000
MTEXTEND
  0
MTEXT
  5
1B8
102
{ACAD_XDICTIONARY
360
625
102
}
330
29
100
AcDbEntity
  8
1
 62
     3
100
AcDbMText
 10
1097.518851621052
 20
-395.3193645326157
 30
0.0
 40
3.5
 41
0.0
 71
     4
 72
     1
  1
\U+017D\U+00CC\U+2022t\U+201A\U+00A3%%dp\U+201CY\U+2022t\U+201A\U+00F9\U+201A\U+00D1
  7
CONVERTER_1
 73
     1
 44
1.0
1001
ACAD
1000
MTEXTBEGIN
1070
    73
1070
     1
1070
    44
1040
1.0
1070
    74
1070
     0
1000
MTEXTEND
  0
MTEXT
  5
1B7
102
{ACAD_XDICTIONARY
360
623
102
}
330
29
100
AcDbEntity
  8
1
 62
     3
100
AcDbMText
 10
1097.518851621052
 20
-409.3193645326159
 30
0.0
 40
3.5
 41
0.0
 71
     4
 72
     1
  1
\U+0192J\U+0192o\U+0081[\U+0081E\U+2019\U+2026\U+2019E\U+0192z\U+0192\U+2039\U+0192_\U+0081[\U+017D\U+00CC\U+2022t\U+201A\U+00F9\U+201A\U+00D1
  7
CONVERTER_1
 73
     1
 44
1.0
1001
ACAD
1000
MTEXTBEGIN
1070
    73
1070
     1
1070
    44
1040
1.0
1070
    74
1070
     0
1000
MTEXTEND
  0
MTEXT
  5
1B6
330
29
100
AcDbEntity
  8
1
 62
     3
100
AcDbMText
 10
1088.018851621051
 20
-395.3193645326157
 30
0.0
 40
3.5
 41
0.0
 71
     5
 72
     1
  1
8
  7
CONVERTER_1
 73
     1
 44
1.0
1001
ACAD
1000
MTEXTBEGIN
1070
    73
1070
     1
1070
    44
1040
1.0
1070
    74
1070
     0
1000
MTEXTEND
  0
MTEXT
  5
1B5
330
29
100
AcDbEntity
  8
1
 62
     3
100
AcDbMText
 10
1183.018851621052
 20
-416.3193645326156
 30
0.0
 40
3.5
 41
0.0
 71
     5
 72
     1
  1
1
  7
CONVERTER_1
 73
     1
 44
1.0
1001
ACAD
1000
MTEXTBEGIN
1070
    73
1070
     1
1070
    44
1040
1.0
1070
    74
1070
     0
1000
MTEXTEND
  0
MTEXT
  5
1B4
102
{ACAD_XDICTIONARY
360
621
102
}
330
29
100
AcDbEntity
  8
1
 62
     3
100
AcDbMText
 10
1147.518851621052
 20
-416.3193645326156
 30
0.0
 40
3.5
 41
0.0
 71
     4
 72
     1
  1
ABS\U+017D\U+00BC\U+017D\U+2030
  7
CONVERTER_1
 73
     1
 44
1.0
1001
ACAD
1000
MTEXTBEGIN
1070
    73
1070
     1
1070
    44
1040
1.0
1070
    74
1070
     0
1000
MTEXTEND
  0
MTEXT
  5
1B3
102
{ACAD_XDICTIONARY
360
61F
102
}
330
29
100
AcDbEntity
  8
1
 62
     3
100
AcDbMText
 10
1097.518851621052
 20
-416.3193645326156
 30
0.0
 40
3.5
 41
0.0
 71
     4
 72
     1
  1
\U+0192J\U+0192o\U+0081[
  7
CONVERTER_1
 73
     1
 44
1.0
1001
ACAD
1000
MTEXTBEGIN
1070
    73
1070
     1
1070
    44
1040
1.0
1070
    74
1070
     0
1000
MTEXTEND
  0
MTEXT
  5
1B2
330
29
100
AcDbEntity
  8
1
 62
     3
100
AcDbMText
 10
1088.018851621051
 20
-409.3193645326159
 30
0.0
 40
3.5
 41
0.0
 71
     5
 72
     1
  1
6
  7
CONVERTER_1
 73
     1
 44
1.0
1001
ACAD
1000
MTEXTBEGIN
1070
    73
1070
     1
1070
    44
1040
1.0
1070
    74
1070
     0
1000
MTEXTEND
  0
MTEXT
  5
1B1
102
{ACAD_XDICTIONARY
360
61D
102
}
330
29
100
AcDbEntity
  8
1
 62
     3
100
AcDbMText
 10
1192.518851621052
 20
-430.3193645326157
 30
0.0
 40
3.5
 41
0.0
 71
     4
 72
     1
  1
\U+0192N\U+0192\U+008D\U+0192\U+0081\U+0081[\U+0192g
  7
CONVERTER_1
 73
     1
 44
1.0
1001
ACAD
1000
MTEXTBEGIN
1070
    73
1070
     1
1070
    44
1040
1.0
1070
    74
1070
     0
1000
MTEXTEND
  0
MTEXT
  5
1B0
102
{ACAD_XDICTIONARY
360
61B
102
}
330
29
100
AcDbEntity
  8
1
 62
     3
100
AcDbMText
 10
1192.518851621052
 20
-437.3193645326154
 30
0.0
 40
3.5
 41
0.0
 71
     4
 72
     1
  1
\U+0192`\U+0192\U+2021\U+0192R\U+0090F
  7
CONVERTER_1
 73
     1
 44
1.0
1001
ACAD
1000
MTEXTBEGIN
1070
    73
1070
     1
1070
    44
1040
1.0
1070
    74
1070
     0
1000
MTEXTEND
  0
MTEXT
  5
1AF
330
29
100
AcDbEntity
  8
1
 62
     3
100
AcDbMText
 10
1183.018851621052
 20
-430.3193645326157
 30
0.0
 40
3.5
 41
0.0
 71
     5
 72
     1
  1
1
  7
CONVERTER_1
 73
     1
 44
1.0
1001
ACAD
1000
MTEXTBEGIN
1070
    73
1070
     1
1070
    44
1040
1.0
1070
    74
1070
     0
1000
MTEXTEND
  0
MTEXT
  5
1AE
330
29
100
AcDbEntity
  8
1
 62
     3
100
AcDbMText
 10
1183.018851621052
 20
-437.3193645326154
 30
0.0
 40
3.5
 41
0.0
 71
     5
 72
     1
  1
1
  7
CONVERTER_1
 73
     1
 44
1.0
1001
ACAD
1000
MTEXTBEGIN
1070
    73
1070
     1
1070
    44
1040
1.0
1070
    74
1070
     0
1000
MTEXTEND
  0
MTEXT
  5
1AD
330
29
100
AcDbEntity
  8
1
 62
     3
100
AcDbMText
 10
1147.518851621052
 20
-430.3193645326157
 30
0.0
 40
3.5
 41
0.0
 71
     4
 72
     1
  1
SWCH 10 A
  7
CONVERTER_1
 73
     1
 44
1.0
1001
ACAD
1000
MTEXTBEGIN
1070
    73
1070
     1
1070
    44
1040
1.0
1070
    74
1070
     0
1000
MTEXTEND
  0
MTEXT
  5
1AC
102
{ACAD_XDICTIONARY
360
619
102
}
330
29
100
AcDbEntity
  8
1
 62
     3
100
AcDbMText
 10
1147.518851621052
 20
-437.3193645326154
 30
0.0
 40
3.5
 41
0.0
 71
     4
 72
     1
  1
6\U+0192i\U+0192C\U+0192\U+008D\U+0192\U+201C(\U+0192t\U+0192B\U+0192\U+2030\U+0081[\U+201C*\U+201A%%c)
  7
CONVERTER_4
 73
     1
 44
1.0
1001
ACAD
1000
MTEXTBEGIN
1070
    73
1070
     1
1070
    44
1040
1.0
1070
    74
1070
     0
1000
MTEXTEND
  0
MTEXT
  5
1AA
102
{ACAD_XDICTIONARY
360
617
102
}
330
29
100
AcDbEntity
  8
1
 62
     3
100
AcDbMText
 10
1097.518851621052
 20
-437.3193645326154
 30
0.0
 40
3.5
 41
0.0
 71
     4
 72
     1
  1
\U+2019\U+2026\U+2019E\U+0192z\U+0192\U+2039\U+0192_\U+0081[
  7
CONVERTER_1
 73
     1
 44
1.0
1001
ACAD
1000
MTEXTBEGIN
1070
    73
1070
     1
1070
    44
1040
1.0
1070
    74
1070
     0
1000
MTEXTEND
  0
MTEXT
  5
1A9
330
29
100
AcDbEntity
  8
1
 62
     3
100
AcDbMText
 10
1088.018851621051
 20
-416.3193645326159
 30
0.0
 40
3.5
 41
0.0
 71
     5
 72
     1
  1
5
  7
CONVERTER_1
 73
     1
 44
1.0
1001
ACAD
1000
MTEXTBEGIN
1070
    73
1070
     1
1070
    44
1040
1.0
1070
    74
1070
     0
1000
MTEXTEND
  0
MTEXT
  5
1A8
330
29
100
AcDbEntity
  8
1
 62
     3
100
AcDbMText
 10
1088.018851621051
 20
-423.3193645326156
 30
0.0
 40
3.5
 41
0.0
 71
     5
 72
     1
  1
4
  7
CONVERTER_1
 73
     1
 44
1.0
1001
ACAD
1000
MTEXTBEGIN
1070
    73
1070
     1
1070
    44
1040
1.0
1070
    74
1070
     0
1000
MTEXTEND
  0
MTEXT
  5
1A7
330
29
100
AcDbEntity
  8
1
 62
     3
100
AcDbMText
 10
1088.018851621051
 20
-430.3193645326157
 30
0.0
 40
3.5
 41
0.0
 71
     5
 72
     1
  1
3
  7
CONVERTER_1
 73
     1
 44
1.0
1001
ACAD
1000
MTEXTBEGIN
1070
    73
1070
     1
1070
    44
1040
1.0
1070
    74
1070
     0
1000
MTEXTEND
  0
MTEXT
  5
1A6
330
29
100
AcDbEntity
  8
1
 62
     3
100
AcDbMText
 10
1088.018851621051
 20
-437.3193645326154
 30
0.0
 40
3.5
 41
0.0
 71
     5
 72
     1
  1
2
  7
CONVERTER_1
 73
     1
 44
1.0
1001
ACAD
1000
MTEXTBEGIN
1070
    73
1070
     1
1070
    44
1040
1.0
1070
    74
1070
     0
1000
MTEXTEND
  0
MTEXT
  5
1A5
102
{ACAD_XDICTIONARY
360
615
102
}
330
29
100
AcDbEntity
  8
1
 62
     3
100
AcDbMText
 10
1097.518851621052
 20
-444.3193645326153
 30
0.0
 40
3.5
 41
0.0
 71
     4
 72
     1
  1
\U+0152\U+00E9\U+2019%%c\U+0192J\U+0192b\U+0192v
  7
CONVERTER_1
 73
     1
 44
1.0
1001
ACAD
1000
MTEXTBEGIN
1070
    73
1070
     1
1070
    44
1040
1.0
1070
    74
1070
     0
1000
MTEXTEND
  0
MTEXT
  5
1A4
330
29
100
AcDbEntity
  8
1
 62
     3
100
AcDbMText
 10
1147.518851621052
 20
-444.3193645326153
 30
0.0
 40
3.5
 41
0.0
 71
     4
 72
     1
  1
ZDC 2
  7
CONVERTER_1
 73
     1
 44
1.0
1001
ACAD
1000
MTEXTBEGIN
1070
    73
1070
     1
1070
    44
1040
1.0
1070
    74
1070
     0
1000
MTEXTEND
  0
MTEXT
  5
1A3
102
{ACAD_XDICTIONARY
360
613
102
}
330
29
100
AcDbEntity
  8
1
 62
     3
100
AcDbMText
 10
1192.518851621052
 20
-444.3193645326153
 30
0.0
 40
3.5
 41
0.0
 71
     4
 72
     1
  1
\U+0192N\U+0192\U+008D\U+0192\U+0081\U+0081[\U+0192g
  7
CONVERTER_1
 73
     1
 44
1.0
1001
ACAD
1000
MTEXTBEGIN
1070
    73
1070
     1
1070
    44
1040
1.0
1070
    74
1070
     0
1000
MTEXTEND
  0
MTEXT
  5
1A2
330
29
100
AcDbEntity
  8
1
 62
     3
100
AcDbMText
 10
1182.518851621052
 20
-492.3193645326155
 30
0.0
 40
6.0
 41
0.0
 71
     4
 72
     1
  1
GDFD-AD2-A19
  7
CONVERTER_1
 73
     1
 44
1.0
1001
ACAD
1000
MTEXTBEGIN
1070
    73
1070
     1
1070
    44
1040
1.0
1070
    74
1070
     0
1000
MTEXTEND
  0
MTEXT
  5
1A1
102
{ACAD_XDICTIONARY
360
611
102
}
330
29
100
AcDbEntity
  8
1
 62
     3
100
AcDbMText
 10
1182.518851621052
 20
-477.3193645326155
 30
0.0
 40
6.0
 41
0.0
 71
     4
 72
     1
  1
\U+2018g%%d\U+00CF\U+0090}
  7
CONVERTER_1
 73
     1
 44
1.0
1001
ACAD
1000
MTEXTBEGIN
1070
    73
1070
     1
1070
    44
1040
1.0
1070
    74
1070
     0
1000
MTEXTEND
  0
MTEXT
  5
1A0
330
29
100
AcDbEntity
  8
1
 62
     3
100
AcDbMText
 10
1182.518851621052
 20
-462.3193645326154
 30
0.0
 40
6.0
 41
0.0
 71
     4
 72
     1
  1
AFD-720
  7
CONVERTER_1
 73
     1
 44
1.0
1001
ACAD
1000
MTEXTBEGIN
1070
    73
1070
     1
1070
    44
1040
1.0
1070
    74
1070
     0
1000
MTEXTEND
  0
MTEXT
  5
19F
330
29
100
AcDbEntity
  8
1
 62
     3
100
AcDbMText
 10
1163.518851621052
 20
-476.3193645326155
 30
0.0
 40
3.5
 41
0.0
 71
     5
 72
     1
  1
99.12.8
  7
CONVERTER_1
 73
     1
 44
1.0
1001
ACAD
1000
MTEXTBEGIN
1070
    73
1070
     1
1070
    44
1040
1.0
1070
    74
1070
     0
1000
MTEXTEND
  0
MTEXT
  5
19E
102
{ACAD_XDICTIONARY
360
60F
102
}
330
29
100
AcDbEntity
  8
1
 62
     3
100
AcDbMText
 10
1163.518851621052
 20
-467.3193645326155
 30
0.0
 40
6.0
 41
0.0
 71
     5
 72
     1
  1
\U+0160\U+00F8\U+008D^ 
  7
CONVERTER_1
 73
     1
 44
1.0
1001
ACAD
1000
MTEXTBEGIN
1070
    73
1070
     1
1070
    44
1040
1.0
1070
    74
1070
     0
1000
MTEXTEND
  0
MTEXT
  5
19D
102
{ACAD_XDICTIONARY
360
60D
102
}
330
29
100
AcDbEntity
  8
1
 62
     3
100
AcDbMText
 10
1143.518851621052
 20
-467.3193645326155
 30
0.0
 40
6.0
 41
0.0
 71
     5
 72
     1
  1
\U+2019\U+2020\U+201C\U+2021
  7
CONVERTER_1
 73
     1
 44
1.0
1001
ACAD
1000
MTEXTBEGIN
1070
    73
1070
     1
1070
    44
1040
1.0
1070
    74
1070
     0
1000
MTEXTEND
  0
MTEXT
  5
19C
330
29
100
AcDbEntity
  8
1
 62
     3
100
AcDbMText
 10
1143.518851621052
 20
-476.3193645326155
 30
0.0
 40
3.5
 41
0.0
 71
     5
 72
     1
  1
99.12.8
  7
CONVERTER_1
 73
     1
 44
1.0
1001
ACAD
1000
MTEXTBEGIN
1070
    73
1070
     1
1070
    44
1040
1.0
1070
    74
1070
     0
1000
MTEXTEND
  0
MTEXT
  5
19B
330
29
100
AcDbEntity
  8
1
 62
     3
100
AcDbMText
 10
1123.518851621052
 20
-476.3193645326155
 30
0.0
 40
3.5
 41
0.0
 71
     5
 72
     1
  1
99.12.8
  7
CONVERTER_1
 73
     1
 44
1.0
1001
ACAD
1000
MTEXTBEGIN
1070
    73
1070
     1
1070
    44
1040
1.0
1070
    74
1070
     0
1000
MTEXTEND
  0
MTEXT
  5
19A
102
{ACAD_XDICTIONARY
360
60B
102
}
330
29
100
AcDbEntity
  8
1
 62
     3
100
AcDbMText
 10
1123.518851621052
 20
-467.3193645326155
 30
0.0
 40
6.0
 41
0.0
 71
     5
 72
     1
  1
\U+02C6\U+00CF\U+008D\U+00E3
  7
CONVERTER_1
 73
     1
 44
1.0
1001
ACAD
1000
MTEXTBEGIN
1070
    73
1070
     1
1070
    44
1040
1.0
1070
    74
1070
     0
1000
MTEXTEND
  0
MTEXT
  5
199
330
29
100
AcDbEntity
  8
1
 62
     3
100
AcDbMText
 10
1097.018851621052
 20
-459.8193645326155
 30
0.0
 40
6.0
 41
0.0
 71
     5
 72
     1
  1
1 : 1
  7
CONVERTER_1
 73
     1
 44
1.0
1001
ACAD
1000
MTEXTBEGIN
1070
    73
1070
     1
1070
    44
1040
1.0
1070
    74
1070
     0
1000
MTEXTEND
  0
MTEXT
  5
198
330
29
100
AcDbEntity
  8
1
 62
     3
100
AcDbMText
 10
1088.018851621051
 20
-444.3193645326153
 30
0.0
 40
3.5
 41
0.0
 71
     5
 72
     1
  1
1
  7
CONVERTER_1
 73
     1
 44
1.0
1001
ACAD
1000
MTEXTBEGIN
1070
    73
1070
     1
1070
    44
1040
1.0
1070
    74
1070
     0
1000
MTEXTEND
  0
MTEXT
  5
197
330
29
100
AcDbEntity
  8
1
 62
     3
100
AcDbMText
 10
1183.018851621052
 20
-444.3193645326153
 30
0.0
 40
3.5
 41
0.0
 71
     5
 72
     1
  1
1
  7
CONVERTER_1
 73
     1
 44
1.0
1001
ACAD
1000
MTEXTBEGIN
1070
    73
1070
     1
1070
    44
1040
1.0
1070
    74
1070
     0
1000
MTEXTEND
  0
MTEXT
  5
196
102
{ACAD_XDICTIONARY
360
609
102
}
330
29
100
AcDbEntity
  8
1
 62
     4
100
AcDbMText
 10
1173.418851621052
 20
-462.3193645326154
 30
0.0
 40
4.0
 41
0.0
 71
     4
 72
     1
  1
\U+2022i\P\U+00B2\U+00A5
  7
CONVERTER_2
 73
     1
 44
1.0
1001
ACAD
1000
MTEXTBEGIN
1070
    73
1070
     1
1070
    44
1040
1.0
1070
    74
1070
     0
1000
MTEXTEND
  0
MTEXT
  5
195
102
{ACAD_XDICTIONARY
360
607
102
}
330
29
100
AcDbEntity
  8
1
 62
     4
100
AcDbMText
 10
1173.418851621052
 20
-477.3193645326155
 30
0.0
 40
4.0
 41
0.0
 71
     4
 72
     1
  1
\U+0090}\P\U+00B2\U+00A5
  7
CONVERTER_2
 73
     1
 44
1.0
1001
ACAD
1000
MTEXTBEGIN
1070
    73
1070
     1
1070
    44
1040
1.0
1070
    74
1070
     0
1000
MTEXTEND
  0
MTEXT
  5
194
102
{ACAD_XDICTIONARY
360
605
102
}
330
29
100
AcDbEntity
  8
1
 62
     4
100
AcDbMText
 10
1173.418851621052
 20
-492.3193645326155
 30
0.0
 40
4.0
 41
0.0
 71
     4
 72
     1
  1
\U+0090}\P\U+201D\U+00E5
  7
CONVERTER_2
 73
     1
 44
1.0
1001
ACAD
1000
MTEXTBEGIN
1070
    73
1070
     1
1070
    44
1040
1.0
1070
    74
1070
     0
1000
MTEXTEND
  0
MTEXT
  5
193
102
{ACAD_XDICTIONARY
360
603
102
}
330
29
100
AcDbEntity
  8
1
 62
     4
100
AcDbMText
 10
1088.018851621051
 20
-451.3193645326153
 30
0.0
 40
4.0
 41
0.0
 71
     5
 72
     1
  1
\U+2022i \U+201D\U+00E5
  7
CONVERTER_2
 73
     1
 44
1.0
1001
ACAD
1000
MTEXTBEGIN
1070
    73
1070
     1
1070
    44
1040
1.0
1070
    74
1070
     0
1000
MTEXTEND
  0
MTEXT
  5
192
102
{ACAD_XDICTIONARY
360
601
102
}
330
29
100
AcDbEntity
  8
1
 62
     4
100
AcDbMText
 10
1120.518851621052
 20
-451.3193645326153
 30
0.0
 40
4.0
 41
0.0
 71
     5
 72
     1
  1
\U+2022i        \U+00B2\U+00A5
  7
CONVERTER_2
 73
     1
 44
1.0
1001
ACAD
1000
MTEXTBEGIN
1070
    73
1070
     1
1070
    44
1040
1.0
1070
    74
1070
     0
1000
MTEXTEND
  0
MTEXT
  5
191
102
{ACAD_XDICTIONARY
360
5FF
102
}
330
29
100
AcDbEntity
  8
1
 62
     4
100
AcDbMText
 10
1160.518851621052
 20
-451.3193645326153
 30
0.0
 40
4.0
 41
0.0
 71
     5
 72
     1
  1
\U+008D\U+00DF   \U+017D\U+00A2
  7
CONVERTER_2
 73
     1
 44
1.0
1001
ACAD
1000
MTEXTBEGIN
1070
    73
1070
     1
1070
    44
1040
1.0
1070
    74
1070
     0
1000
MTEXTEND
  0
MTEXT
  5
190
102
{ACAD_XDICTIONARY
360
5FD
102
}
330
29
100
AcDbEntity
  8
1
 62
     4
100
AcDbMText
 10
1183.018851621052
 20
-451.3193645326155
 30
0.0
 40
4.0
 41
0.0
 71
     5
 72
     1
  1
\U+0090\U+201D %%d%%d
  7
CONVERTER_2
 73
     1
 44
1.0
1001
ACAD
1000
MTEXTBEGIN
1070
    73
1070
     1
1070
    44
1040
1.0
1070
    74
1070
     0
1000
MTEXTEND
  0
MTEXT
  5
18F
102
{ACAD_XDICTIONARY
360
5FB
102
}
330
29
100
AcDbEntity
  8
1
 62
     4
100
AcDbMText
 10
1210.518851621052
 20
-451.3193645326155
 30
0.0
 40
4.0
 41
0.0
 71
     5
 72
     1
  1
\U+017Dd   \U+008F\U+00D0   \U+201A\U+00AF
  7
CONVERTER_2
 73
     1
 44
1.0
1001
ACAD
1000
MTEXTBEGIN
1070
    73
1070
     1
1070
    44
1040
1.0
1070
    74
1070
     0
1000
MTEXTEND
  0
MTEXT
  5
18E
102
{ACAD_XDICTIONARY
360
5F9
102
}
330
29
100
AcDbEntity
  8
1
 62
     4
100
AcDbMText
 10
1245.518851621052
 20
-451.3193645326155
 30
0.0
 40
4.0
 41
0.0
 71
     5
 72
     1
  1
\U+2039L   \U+017D\U+00B2
  7
CONVERTER_2
 73
     1
 44
1.0
1001
ACAD
1000
MTEXTBEGIN
1070
    73
1070
     1
1070
    44
1040
1.0
1070
    74
1070
     0
1000
MTEXTEND
  0
MTEXT
  5
18D
102
{ACAD_XDICTIONARY
360
5F7
102
}
330
29
100
AcDbEntity
  8
1
 62
     4
100
AcDbMText
 10
1123.518851621052
 20
-458.3193645326154
 30
0.0
 40
4.0
 41
0.0
 71
     5
 72
     1
  1
\U+008F\U+00B0  \U+201DF
  7
CONVERTER_2
 73
     1
 44
1.0
1001
ACAD
1000
MTEXTBEGIN
1070
    73
1070
     1
1070
    44
1040
1.0
1070
    74
1070
     0
1000
MTEXTEND
  0
MTEXT
  5
18C
102
{ACAD_XDICTIONARY
360
5F5
102
}
330
29
100
AcDbEntity
  8
1
 62
     4
100
AcDbMText
 10
1143.518851621052
 20
-458.3193645326154
 30
0.0
 40
4.0
 41
0.0
 71
     5
 72
     1
  1
\U+0152\U+0081  \U+0090}
  7
CONVERTER_2
 73
     1
 44
1.0
1001
ACAD
1000
MTEXTBEGIN
1070
    73
1070
     1
1070
    44
1040
1.0
1070
    74
1070
     0
1000
MTEXTEND
  0
MTEXT
  5
18B
102
{ACAD_XDICTIONARY
360
5F3
102
}
330
29
100
AcDbEntity
  8
1
 62
     4
100
AcDbMText
 10
1163.518851621052
 20
-458.3193645326154
 30
0.0
 40
4.0
 41
0.0
 71
     5
 72
     1
  1
\U+2019S  \U+201C\U+00B2
  7
CONVERTER_2
 73
     1
 44
1.0
1001
ACAD
1000
MTEXTBEGIN
1070
    73
1070
     1
1070
    44
1040
1.0
1070
    74
1070
     0
1000
MTEXTEND
  0
MTEXT
  5
18A
102
{ACAD_XDICTIONARY
360
5F1
102
}
330
29
100
AcDbEntity
  8
1
 62
     4
100
AcDbMText
 10
1084.705923119582
 20
-457.3262205561217
 30
0.0
 40
4.0
 41
0.0
 71
     5
 72
     1
  1
\U+017D\U+00D6\U+201Cx
  7
CONVERTER_2
 73
     1
 44
1.0
1001
ACAD
1000
MTEXTBEGIN
1070
    73
1070
     1
1070
    44
1040
1.0
1070
    74
1070
     0
1000
MTEXTEND
  0
MTEXT
  5
189
102
{ACAD_XDICTIONARY
360
5EF
102
}
330
29
100
AcDbEntity
  8
1
 62
     4
100
AcDbMText
 10
1097.443766450641
 20
-495.4129942430823
 30
0.0
 40
4.0
 41
0.0
 71
     5
 72
     1
  1
\U+008D\U+201A\U+2039\U+00C7\U+2039\U+00C1\U+2022\U+00B4\U+0160\U+201D\U+017D\U+00DB\U+2030\U+00FF\U+017D\U+00C5
  7
CONVERTER_2
 73
     1
 44
1.0
1001
ACAD
1000
MTEXTBEGIN
1070
    73
1070
     1
1070
    44
1040
1.0
1070
    74
1070
     0
1000
MTEXTEND
  0
MTEXT
  5
188
102
{ACAD_XDICTIONARY
360
5ED
102
}
330
29
100
AcDbEntity
  8
1
 62
     4
100
AcDbMText
 10
1125.008563748645
 20
-485.1425689154052
 30
0.0
 40
3.0
 41
0.0
 71
     5
 72
     1
  1
\U+00B2{\U+017D\U+00C5
  7
CONVERTER_2
 73
     1
 44
1.0
1001
ACAD
1000
MTEXTBEGIN
1070
    73
1070
     1
1070
    44
1040
1.0
1070
    74
1070
     0
1000
MTEXTEND
  0
MTEXT
  5
187
102
{ACAD_XDICTIONARY
360
5EB
102
}
330
29
100
AcDbEntity
  8
1
 62
     4
100
AcDbMText
 10
1145.154708230681
 20
-489.8714753954843
 30
0.0
 40
2.5
 41
0.0
 71
     5
 72
     1
  1
\U+201C\U+0152\U+2039\U+20AC\U+201Cs\U+2018\U+00F0\U+201C\U+0152\U+2039\U+00CC\U+201C*\U+2019J
  7
CONVERTER_2
 73
     1
 44
1.0
1001
ACAD
1000
MTEXTBEGIN
1070
    73
1070
     1
1070
    44
1040
1.0
1070
    74
1070
     0
1000
MTEXTEND
  0
MTEXT
  5
186
330
29
100
AcDbEntity
  8
1
 62
     4
100
AcDbMText
 10
1161.430754548891
 20
-489.8530576850492
 30
0.0
 40
2.0
 41
0.0
 71
     5
 72
     1
  1
1-27-4
  7
CONVERTER_2
 73
     1
 44
1.0
1001
ACAD
1000
MTEXTBEGIN
1070
    73
1070
     1
1070
    44
1040
1.0
1070
    74
1070
     0
1000
MTEXTEND
  0
MTEXT
  5
185
330
29
100
AcDbEntity
  8
1
 62
     4
100
AcDbMText
 10
1142.305056307936
 20
-495.0303028015438
 30
0.0
 40
2.0
 41
0.0
 71
     5
 72
     1
  1
03 (3876) 0600
  7
CONVERTER_2
 73
     1
 44
1.0
1001
ACAD
1000
MTEXTBEGIN
1070
    73
1070
     1
1070
    44
1040
1.0
1070
    74
1070
     0
1000
MTEXTEND
  0
MTEXT
  5
184
102
{ACAD_XDICTIONARY
360
5E9
102
}
330
29
100
AcDbEntity
  8
1
 62
     4
100
AcDbMText
 10
1123.668640434039
 20
-489.9686290953102
 30
0.0
 40
2.5
 41
0.0
 71
     5
 72
     1
  1
\U+0081\U+00CF
  7
CONVERTER_2
 73
     1
 44
1.0
1001
ACAD
1000
MTEXTBEGIN
1070
    73
1070
     1
1070
    44
1040
1.0
1070
    74
1070
     0
1000
MTEXTEND
  0
MTEXT
  5
183
330
29
100
AcDbEntity
  8
1
 62
     4
100
AcDbMText
 10
1126.639663254515
 20
-495.0103647906636
 30
0.0
 40
2.0
 41
0.0
 71
     5
 72
     1
  1
TEL
  7
CONVERTER_3
 73
     1
 44
1.0
1001
ACAD
1000
MTEXTBEGIN
1070
    73
1070
     1
1070
    44
1040
1.0
1070
    74
1070
     0
1000
MTEXTEND
  0
MTEXT
  5
181
330
29
100
AcDbEntity
  8
1
 62
     4
100
AcDbMText
 10
1127.817561418404
 20
-489.9061720098528
 30
0.0
 40
2.0
 41
0.0
 71
     5
 72
     1
  1
110
  7
CONVERTER_2
 73
     1
 44
1.0
1001
ACAD
1000
MTEXTBEGIN
1070
    73
1070
     1
1070
    44
1040
1.0
1070
    74
1070
     0
1000
MTEXTEND
  0
MTEXT
  5
17F
102
{ACAD_XDICTIONARY
360
5E7
102
}
330
29
100
AcDbEntity
  8
1
 62
     3
100
AcDbMText
 10
1192.518851621052
 20
-402.3193645326164
 30
0.0
 40
3.5
 41
0.0
 71
     4
 72
     1
  1
\U+0192N\U+0192\U+008D\U+0192\U+0081\U+0081[\U+0192g
  7
CONVERTER_1
 73
     1
 44
1.0
1001
ACAD
1000
MTEXTBEGIN
1070
    73
1070
     1
1070
    44
1040
1.0
1070
    74
1070
     0
1000
MTEXTEND
  0
MTEXT
  5
17E
330
29
100
AcDbEntity
  8
1
 62
     3
100
AcDbMText
 10
1088.018851621051
 20
-402.3193645326162
 30
0.0
 40
3.5
 41
0.0
 71
     5
 72
     1
  1
7
  7
CONVERTER_1
 73
     1
 44
1.0
1001
ACAD
1000
MTEXTBEGIN
1070
    73
1070
     1
1070
    44
1040
1.0
1070
    74
1070
     0
1000
MTEXTEND
  0
MTEXT
  5
17D
102
{ACAD_XDICTIONARY
360
5E5
102
}
330
29
100
AcDbEntity
  8
1
 62
     3
100
AcDbMText
 10
1097.518851621052
 20
-402.3193645326164
 30
0.0
 40
3.5
 41
0.0
 71
     4
 72
     1
  1
\U+0192\U+008F\U+0192b\U+0192V\U+0192\U+0192\U+0081[
  7
CONVERTER_1
 73
     1
 44
1.0
1001
ACAD
1000
MTEXTBEGIN
1070
    73
1070
     1
1070
    44
1040
1.0
1070
    74
1070
     0
1000
MTEXTEND
  0
MTEXT
  5
17C
102
{ACAD_XDICTIONARY
360
5E3
102
}
330
29
100
AcDbEntity
  8
1
 62
     3
100
AcDbMText
 10
1147.518851621052
 20
-402.3193645326164
 30
0.0
 40
3.5
 41
0.0
 71
     4
 72
     1
  1
SPCC \U+201A\U+201D\U+0081\U+00810.5
  7
CONVERTER_1
 73
     1
 44
1.0
1001
ACAD
1000
MTEXTBEGIN
1070
    73
1070
     1
1070
    44
1040
1.0
1070
    74
1070
     0
1000
MTEXTEND
  0
MTEXT
  5
17B
330
29
100
AcDbEntity
  8
1
 62
     3
100
AcDbMText
 10
1183.018851621052
 20
-402.3193645326164
 30
0.0
 40
3.5
 41
0.0
 71
     5
 72
     1
  1
1
  7
CONVERTER_1
 73
     1
 44
1.0
1001
ACAD
1000
MTEXTBEGIN
1070
    73
1070
     1
1070
    44
1040
1.0
1070
    74
1070
     0
1000
MTEXTEND
  0
MTEXT
  5
17A
102
{ACAD_XDICTIONARY
360
5E1
102
}
330
29
100
AcDbEntity
  8
1
 62
     3
100
AcDbMText
 10
1232.518851621052
 20
-402.3193645326164
 30
0.0
 40
3.5
 41
0.0
 71
     4
 72
     1
  1
\U+0192\U+00C66.3\U+0081~\U+0152\U+0160\U+0192\U+00C64.4
  7
CONVERTER_1
 73
     1
 44
1.0
1001
ACAD
1000
MTEXTBEGIN
1070
    73
1070
     1
1070
    44
1040
1.0
1070
    74
1070
     0
1000
MTEXTEND
  0
MTEXT
  5
179
330
29
100
AcDbEntity
  8
1
 62
     3
100
AcDbMText
 10
1183.018851621052
 20
-423.3193645326148
 30
0.0
 40
3.5
 41
0.0
 71
     5
 72
     1
  1
1
  7
CONVERTER_1
 73
     1
 44
1.0
1001
ACAD
1000
MTEXTBEGIN
1070
    73
1070
     1
1070
    44
1040
1.0
1070
    74
1070
     0
1000
MTEXTEND
  0
MTEXT
  5
178
102
{ACAD_XDICTIONARY
360
5DF
102
}
330
29
100
AcDbEntity
  8
1
 62
     3
100
AcDbMText
 10
1147.518851621052
 20
-423.3193645326148
 30
0.0
 40
3.5
 41
0.0
 71
     4
 72
     1
  1
6\U+0192i\U+0192C\U+0192\U+008D\U+0192\U+201C
  7
CONVERTER_1
 73
     1
 44
1.0
1001
ACAD
1000
MTEXTBEGIN
1070
    73
1070
     1
1070
    44
1040
1.0
1070
    74
1070
     0
1000
MTEXTEND
  0
MTEXT
  5
177
102
{ACAD_XDICTIONARY
360
5DD
102
}
330
29
100
AcDbEntity
  8
1
 62
     3
100
AcDbMText
 10
1097.518851621052
 20
-423.3193645326148
 30
0.0
 40
3.5
 41
0.0
 71
     4
 72
     1
  1
\U+0192\U+008D\U+0081[\U+0192\U+2030\U+0081[\U+0192K\U+0192C\U+0192h
  7
CONVERTER_1
 73
     1
 44
1.0
1001
ACAD
1000
MTEXTBEGIN
1070
    73
1070
     1
1070
    44
1040
1.0
1070
    74
1070
     0
1000
MTEXTEND
  0
MTEXT
  5
176
102
{ACAD_XDICTIONARY
360
5DB
102
}
330
29
100
AcDbEntity
  8
1
 62
     3
100
AcDbMText
 10
1192.518851621052
 20
-423.3193645326146
 30
0.0
 40
3.5
 41
0.0
 71
     4
 72
     1
  1
\U+008D\U+2022\U+0090F
  7
CONVERTER_1
 73
     1
 44
1.0
1001
ACAD
1000
MTEXTBEGIN
1070
    73
1070
     1
1070
    44
1040
1.0
1070
    74
1070
     0
1000
MTEXTEND
  0
MTEXT
  5
175
102
{ACAD_XDICTIONARY
360
5D9
102
}
330
29
100
AcDbEntity
  8
1
 62
     3
100
AcDbMText
 10
1097.518851621052
 20
-430.3193645326152
 30
0.0
 40
3.5
 41
0.0
 71
     4
 72
     1
  1
\U+0192V\U+0192\U+0192\U+0192t\U+0192g
  7
CONVERTER_1
 73
     1
 44
1.0
1001
ACAD
1000
MTEXTBEGIN
1070
    73
1070
     1
1070
    44
1040
1.0
1070
    74
1070
     0
1000
MTEXTEND
  0
ARC
  5
174
330
29
100
AcDbEntity
  8
1
  6
Continuous
 62
     7
100
AcDbCircle
 10
1085.854183327139
 20
-485.5491411017363
 30
0.0
 40
0.1569133582337
100
AcDbArc
 50
17.00000000002209
 51
162.9999999999779
  0
ARC
  5
173
330
29
100
AcDbEntity
  8
1
  6
Continuous
 62
     7
100
AcDbCircle
 10
1085.14274382032
 20
-487.8761548755047
 30
0.0
 40
0.15691335823367
100
AcDbArc
 50
163.0000000000176
 51
-90.0
  0
ARC
  5
172
330
29
100
AcDbEntity
  8
1
  6
Continuous
 62
     7
100
AcDbCircle
 10
1086.565622833957
 20
-487.8761548755047
 30
0.0
 40
0.1569133582334
100
AcDbArc
 50
-90.0
 51
16.99999999998239
  0
ARC
  5
171
330
29
100
AcDbEntity
  8
1
  6
Continuous
 62
     7
100
AcDbCircle
 10
1084.886886604626
 20
-488.7130261194167
 30
0.0
 40
0.15691335823357
100
AcDbArc
 50
90.0
 51
162.9999999999978
  0
ARC
  5
170
330
29
100
AcDbEntity
  8
1
  6
Continuous
 62
     7
100
AcDbCircle
 10
1084.343190021276
 20
-490.4913775127297
 30
0.0
 40
0.15691335823367
100
AcDbArc
 50
163.0000000000176
 51
-90.0
  0
ARC
  5
16F
330
29
100
AcDbEntity
  8
1
  6
Continuous
 62
     7
100
AcDbCircle
 10
1086.782776790569
 20
-488.7653305721612
 30
0.0
 40
0.20921781097854
100
AcDbArc
 50
16.99999999998293
 51
90.0
  0
ARC
  5
16E
330
29
100
AcDbEntity
  8
1
  6
Continuous
 62
     7
100
AcDbCircle
 10
1087.294491221958
 20
-490.4390730599851
 30
0.0
 40
0.20921781097798
100
AcDbArc
 50
-90.0
 51
16.99999999993827
  0
ARC
  5
16D
330
29
100
AcDbEntity
  8
1
  6
Continuous
 62
     7
100
AcDbCircle
 10
1083.390674142113
 20
-490.3867686072406
 30
0.0
 40
0.26152226372238
100
AcDbArc
 50
-90.0
 51
-17.00000000002034
  0
ARC
  5
16C
330
29
100
AcDbEntity
  8
1
  6
Continuous
 62
     7
100
AcDbCircle
 10
1089.575662218602
 20
-490.3867686072406
 30
0.0
 40
0.26152226372249
100
AcDbArc
 50
-162.9999999999942
 51
-90.0
  0
ARC
  5
16B
330
29
100
AcDbEntity
  8
1
  6
Continuous
 62
     7
100
AcDbCircle
 10
1083.134351784425
 20
-490.7528997764523
 30
0.0
 40
0.10460890548921
100
AcDbArc
 50
90.0
 51
180.0
  0
ARC
  5
16A
330
29
100
AcDbEntity
  8
1
  6
Continuous
 62
     7
100
AcDbCircle
 10
1084.598876461271
 20
-490.7528997764523
 30
0.0
 40
0.10460890548802
100
AcDbArc
 50
0.0
 51
90.0
  0
ARC
  5
169
330
29
100
AcDbEntity
  8
1
  6
Continuous
 62
     7
100
AcDbCircle
 10
1087.004881287518
 20
-490.7528997764523
 30
0.0
 40
0.10460890548921
100
AcDbArc
 50
90.0
 51
180.0
  0
ARC
  5
168
330
29
100
AcDbEntity
  8
1
  6
Continuous
 62
     7
100
AcDbCircle
 10
1089.93393064121
 20
-490.7528997764523
 30
0.0
 40
0.10460890548893
100
AcDbArc
 50
0.0
 51
90.0
  0
ARC
  5
167
330
29
100
AcDbEntity
  8
1
  6
Continuous
 62
     7
100
AcDbCircle
 10
1091.136933054333
 20
-484.8424966163237
 30
0.0
 40
0.36613116921103
100
AcDbArc
 50
0.0
 51
90.0
  0
ARC
  5
166
330
29
100
AcDbEntity
  8
1
  6
Continuous
 62
     7
100
AcDbCircle
 10
1093.856764597048
 20
-484.8424966163237
 30
0.0
 40
0.3661311692116
100
AcDbArc
 50
90.0
 51
180.0
  0
ARC
  5
165
330
29
100
AcDbEntity
  8
1
  6
Continuous
 62
     7
100
AcDbCircle
 10
1094.007268908433
 20
-485.2086277855351
 30
0.0
 40
0.73226233842315
100
AcDbArc
 50
17.47288527029095
 51
90.0
  0
ARC
  5
164
330
29
100
AcDbEntity
  8
1
  6
Continuous
 62
     7
100
AcDbCircle
 10
1090.986428742946
 20
-485.2086277855351
 30
0.0
 40
0.7322623384231401
100
AcDbArc
 50
90.0
 51
162.5271147297091
  0
ARC
  5
163
330
29
100
AcDbEntity
  8
1
  6
Continuous
 62
     7
100
AcDbCircle
 10
1091.241541959822
 20
-490.3867686072406
 30
0.0
 40
0.26152226372238
100
AcDbArc
 50
-90.0
 51
0.0
  0
ARC
  5
162
330
29
100
AcDbEntity
  8
1
  6
Continuous
 62
     7
100
AcDbCircle
 10
1093.752155691559
 20
-490.3867686072406
 30
0.0
 40
0.26152226372392
100
AcDbArc
 50
180.0
 51
-90.0
  0
ARC
  5
161
330
29
100
AcDbEntity
  8
1
  6
Continuous
 62
     7
100
AcDbCircle
 10
1093.961373502536
 20
-490.7528997764523
 30
0.0
 40
0.10460890548916
100
AcDbArc
 50
0.0
 51
90.0
  0
ARC
  5
160
330
29
100
AcDbEntity
  8
1
  6
Continuous
 62
     7
100
AcDbCircle
 10
1091.032324148845
 20
-490.7528997764523
 30
0.0
 40
0.10460890548921
100
AcDbArc
 50
90.0
 51
180.0
  0
ARC
  5
15F
330
29
100
AcDbEntity
  8
1
  6
Continuous
 62
     7
100
AcDbCircle
 10
1103.951523976735
 20
-484.3717565416231
 30
0.0
 40
0.10460890548893
100
AcDbArc
 50
180.0
 51
-90.0
  0
ARC
  5
15E
330
29
100
AcDbEntity
  8
1
  6
Continuous
 62
     7
100
AcDbCircle
 10
1111.797191888411
 20
-484.3717565416231
 30
0.0
 40
0.10460890548887
100
AcDbArc
 50
-90.0
 51
0.0
  0
ARC
  5
15D
330
29
100
AcDbEntity
  8
1
  6
Continuous
 62
     7
100
AcDbCircle
 10
1111.797191888411
 20
-490.7528997764523
 30
0.0
 40
0.10460890548802
100
AcDbArc
 50
0.0
 51
90.0
  0
ARC
  5
15C
330
29
100
AcDbEntity
  8
1
  6
Continuous
 62
     7
100
AcDbCircle
 10
1109.077360345696
 20
-490.7528997764523
 30
0.0
 40
0.10460890548921
100
AcDbArc
 50
90.0
 51
180.0
  0
ARC
  5
15B
330
29
100
AcDbEntity
  8
1
  6
Continuous
 62
     7
100
AcDbCircle
 10
1103.951523976735
 20
-490.7528997764523
 30
0.0
 40
0.10460890548921
100
AcDbArc
 50
90.0
 51
180.0
  0
ARC
  5
15A
330
29
100
AcDbEntity
  8
1
  6
Continuous
 62
     7
100
AcDbCircle
 10
1105.206830842603
 20
-490.7528997764523
 30
0.0
 40
0.10460890548893
100
AcDbArc
 50
0.0
 51
90.0
  0
ARC
  5
159
330
29
100
AcDbEntity
  8
1
  6
Continuous
 62
     7
100
AcDbCircle
 10
1104.213046240458
 20
-484.6332788053457
 30
0.0
 40
0.15691335823294
100
AcDbArc
 50
0.0
 51
90.0
  0
ARC
  5
158
330
29
100
AcDbEntity
  8
1
  6
Continuous
 62
     7
100
AcDbCircle
 10
1104.213046240458
 20
-490.4913775127297
 30
0.0
 40
0.1569133582334
100
AcDbArc
 50
-90.0
 51
0.0
  0
ARC
  5
157
330
29
100
AcDbEntity
  8
1
  6
Continuous
 62
     7
100
AcDbCircle
 10
1105.04991748437
 20
-490.4913775127297
 30
0.0
 40
0.15691335823317
100
AcDbArc
 50
180.0
 51
-90.0
  0
ARC
  5
156
330
29
100
AcDbEntity
  8
1
  6
Continuous
 62
     7
100
AcDbCircle
 10
1105.04991748437
 20
-484.5985091079103
 30
0.0
 40
0.15691335823385
100
AcDbArc
 50
14.99999999997892
 51
180.0
  0
ARC
  5
155
330
29
100
AcDbEntity
  8
1
  6
Continuous
 62
     7
100
AcDbCircle
 10
1107.874357932573
 20
-487.0559088858239
 30
0.0
 40
0.15691335823405
100
AcDbArc
 50
-165.0000000000626
 51
-15.00000000004482
  0
ARC
  5
154
330
29
100
AcDbEntity
  8
1
  6
Continuous
 62
     7
100
AcDbCircle
 10
1109.391187062164
 20
-484.6284476988847
 30
0.0
 40
0.15691335823408
100
AcDbArc
 50
0.0
 51
164.9999999999953
  0
ARC
  5
153
330
29
100
AcDbEntity
  8
1
  6
Continuous
 62
     7
100
AcDbCircle
 10
1111.587974077432
 20
-484.7378877108346
 30
0.0
 40
0.26152226372261
100
AcDbArc
 50
90.0
 51
180.0
  0
ARC
  5
152
330
29
100
AcDbEntity
  8
1
  6
Continuous
 62
     7
100
AcDbCircle
 10
1109.286578156674
 20
-490.3867686072406
 30
0.0
 40
0.26152226372238
100
AcDbArc
 50
-90.0
 51
0.0
  0
ARC
  5
151
330
29
100
AcDbEntity
  8
1
  6
Continuous
 62
     7
100
AcDbCircle
 10
1111.587974077432
 20
-490.3867686072406
 30
0.0
 40
0.26152226372187
100
AcDbArc
 50
180.0
 51
-90.0
  0
CIRCLE
  5
150
330
29
100
AcDbEntity
  8
1
  6
Continuous
 62
     7
100
AcDbCircle
 10
1099.505645493453
 20
-487.5623281590376
 30
0.0
 40
3.81822505034802
  0
CIRCLE
  5
14F
330
29
100
AcDbEntity
  8
1
  6
Continuous
 62
     5
100
AcDbCircle
 10
1088.594298082368
 20
-472.3193645326155
 30
0.0
 40
2.0
  0
CIRCLE
  5
14E
330
29
100
AcDbEntity
  8
1
  6
Continuous
 62
     5
100
AcDbCircle
 10
1088.594298082368
 20
-472.3193645326155
 30
0.0
 40
4.0
  0
ARC
  5
14D
330
29
100
AcDbEntity
  8
1
  6
Continuous
 62
     7
100
AcDbCircle
 10
1095.16437591566
 20
-485.5747589547466
 30
0.0
 40
0.26152226372277
100
AcDbArc
 50
-162.5271147296902
 51
1.852437285320359
  0
ARC
  5
14C
330
29
100
AcDbEntity
  8
1
  6
Continuous
 62
     7
100
AcDbCircle
 10
1089.82932173572
 20
-485.5747589547466
 30
0.0
 40
0.26152226372173
100
AcDbArc
 50
178.1475627146796
 51
-17.47288527024991
  0
ARC
  5
14B
330
29
100
AcDbEntity
  8
1
  6
Continuous
 62
     7
100
AcDbCircle
 10
1101.243932654882
 20
-485.8240409976089
 30
0.0
 40
0.8368712439111
100
AcDbArc
 50
-45.00000000006054
 51
135.0000000000358
  0
ARC
  5
14A
330
29
100
AcDbEntity
  8
1
  6
Continuous
 62
     7
100
AcDbCircle
 10
1097.767358332023
 20
-489.3006153204662
 30
0.0
 40
0.8368712439118599
100
AcDbArc
 50
134.9999999999972
 51
-45.00000000002201
  0
LINE
  5
149
330
29
100
AcDbEntity
  8
1
  6
Continuous
 62
     5
100
AcDbLine
 10
1230.518851621052
 20
-391.819364532616
 30
0.0
 11
1260.518851621052
 21
-391.819364532616
 31
0.0
  0
LINE
  5
148
330
29
100
AcDbEntity
  8
1
  6
Continuous
 62
     5
100
AcDbLine
 10
1230.518851621052
 20
-391.819364532616
 30
0.0
 11
1230.518851621052
 21
-398.8193645326163
 31
0.0
  0
LINE
  5
147
330
29
100
AcDbEntity
  8
1
  6
Continuous
 62
     5
100
AcDbLine
 10
1190.518851621052
 20
-391.819364532616
 30
0.0
 11
1230.518851621052
 21
-391.819364532616
 31
0.0
  0
LINE
  5
146
330
29
100
AcDbEntity
  8
1
  6
Continuous
 62
     5
100
AcDbLine
 10
1190.518851621052
 20
-391.819364532616
 30
0.0
 11
1190.518851621052
 21
-398.8193645326163
 31
0.0
  0
LINE
  5
145
330
29
100
AcDbEntity
  8
1
  6
Continuous
 62
     5
100
AcDbLine
 10
1175.518851621052
 20
-391.819364532616
 30
0.0
 11
1190.518851621052
 21
-391.819364532616
 31
0.0
  0
LINE
  5
144
330
29
100
AcDbEntity
  8
1
  6
Continuous
 62
     5
100
AcDbLine
 10
1175.518851621052
 20
-391.819364532616
 30
0.0
 11
1175.518851621052
 21
-398.8193645326163
 31
0.0
  0
LINE
  5
143
330
29
100
AcDbEntity
  8
1
  6
Continuous
 62
     5
100
AcDbLine
 10
1145.518851621052
 20
-391.819364532616
 30
0.0
 11
1175.518851621052
 21
-391.819364532616
 31
0.0
  0
LINE
  5
142
330
29
100
AcDbEntity
  8
1
  6
Continuous
 62
     5
100
AcDbLine
 10
1145.518851621052
 20
-391.819364532616
 30
0.0
 11
1145.518851621052
 21
-398.8193645326163
 31
0.0
  0
LINE
  5
141
330
29
100
AcDbEntity
  8
1
  6
Continuous
 62
     5
100
AcDbLine
 10
1095.518851621052
 20
-391.819364532616
 30
0.0
 11
1145.518851621052
 21
-391.819364532616
 31
0.0
  0
LINE
  5
140
330
29
100
AcDbEntity
  8
1
  6
Continuous
 62
     5
100
AcDbLine
 10
1095.518851621052
 20
-391.819364532616
 30
0.0
 11
1095.518851621052
 21
-398.8193645326163
 31
0.0
  0
LINE
  5
13F
330
29
100
AcDbEntity
  8
1
  6
Continuous
 62
     5
100
AcDbLine
 10
1080.518851621051
 20
-398.8193645326163
 30
0.0
 11
1080.518851621051
 21
-391.819364532616
 31
0.0
  0
LINE
  5
13E
330
29
100
AcDbEntity
  8
1
  6
Continuous
 62
     5
100
AcDbLine
 10
1080.518851621051
 20
-391.819364532616
 30
0.0
 11
1095.518851621052
 21
-391.819364532616
 31
0.0
  0
LINE
  5
13D
330
29
100
AcDbEntity
  8
1
  6
Continuous
 62
     5
100
AcDbLine
 10
1080.518851621051
 20
-412.819364532616
 30
0.0
 11
1080.518851621051
 21
-405.8193645326161
 31
0.0
  0
LINE
  5
13C
330
29
100
AcDbEntity
  8
1
  6
Continuous
 62
     5
100
AcDbLine
 10
1080.518851621051
 20
-405.8193645326161
 30
0.0
 11
1095.518851621052
 21
-405.8193645326161
 31
0.0
  0
LINE
  5
13B
330
29
100
AcDbEntity
  8
1
  6
Continuous
 62
     5
100
AcDbLine
 10
1095.518851621052
 20
-405.8193645326161
 30
0.0
 11
1095.518851621052
 21
-412.819364532616
 31
0.0
  0
LINE
  5
13A
330
29
100
AcDbEntity
  8
1
  6
Continuous
 62
     5
100
AcDbLine
 10
1145.518851621052
 20
-405.8193645326161
 30
0.0
 11
1175.518851621052
 21
-405.8193645326161
 31
0.0
  0
LINE
  5
139
330
29
100
AcDbEntity
  8
1
  6
Continuous
 62
     5
100
AcDbLine
 10
1095.518851621052
 20
-405.8193645326161
 30
0.0
 11
1145.518851621052
 21
-405.8193645326161
 31
0.0
  0
LINE
  5
138
330
29
100
AcDbEntity
  8
1
  6
Continuous
 62
     5
100
AcDbLine
 10
1145.518851621052
 20
-405.8193645326161
 30
0.0
 11
1145.518851621052
 21
-412.819364532616
 31
0.0
  0
LINE
  5
137
330
29
100
AcDbEntity
  8
1
  6
Continuous
 62
     5
100
AcDbLine
 10
1230.518851621052
 20
-405.8193645326161
 30
0.0
 11
1260.518851621052
 21
-405.8193645326161
 31
0.0
  0
LINE
  5
136
330
29
100
AcDbEntity
  8
1
  6
Continuous
 62
     5
100
AcDbLine
 10
1230.518851621052
 20
-405.8193645326161
 30
0.0
 11
1230.518851621052
 21
-412.819364532616
 31
0.0
  0
LINE
  5
135
330
29
100
AcDbEntity
  8
1
  6
Continuous
 62
     5
100
AcDbLine
 10
1190.518851621052
 20
-405.8193645326161
 30
0.0
 11
1190.518851621052
 21
-412.819364532616
 31
0.0
  0
LINE
  5
134
330
29
100
AcDbEntity
  8
1
  6
Continuous
 62
     5
100
AcDbLine
 10
1175.518851621052
 20
-405.8193645326161
 30
0.0
 11
1175.518851621052
 21
-412.819364532616
 31
0.0
  0
LINE
  5
133
330
29
100
AcDbEntity
  8
1
  6
Continuous
 62
     5
100
AcDbLine
 10
1175.518851621052
 20
-405.8193645326161
 30
0.0
 11
1190.518851621052
 21
-405.8193645326161
 31
0.0
  0
LINE
  5
132
330
29
100
AcDbEntity
  8
1
  6
Continuous
 62
     5
100
AcDbLine
 10
1230.518851621052
 20
-412.819364532616
 30
0.0
 11
1260.518851621052
 21
-412.819364532616
 31
0.0
  0
LINE
  5
131
330
29
100
AcDbEntity
  8
1
  6
Continuous
 62
     5
100
AcDbLine
 10
1230.518851621052
 20
-419.8193645326156
 30
0.0
 11
1260.518851621052
 21
-419.8193645326156
 31
0.0
  0
LINE
  5
130
330
29
100
AcDbEntity
  8
1
  6
Continuous
 62
     5
100
AcDbLine
 10
1230.518851621052
 20
-426.8193645326157
 30
0.0
 11
1260.518851621052
 21
-426.8193645326157
 31
0.0
  0
LINE
  5
12F
330
29
100
AcDbEntity
  8
1
  6
Continuous
 62
     5
100
AcDbLine
 10
1230.518851621052
 20
-433.8193645326156
 30
0.0
 11
1260.518851621052
 21
-433.8193645326156
 31
0.0
  0
LINE
  5
12E
330
29
100
AcDbEntity
  8
1
  6
Continuous
 62
     5
100
AcDbLine
 10
1230.518851621052
 20
-412.819364532616
 30
0.0
 11
1230.518851621052
 21
-419.8193645326156
 31
0.0
  0
LINE
  5
12D
330
29
100
AcDbEntity
  8
1
  6
Continuous
 62
     5
100
AcDbLine
 10
1230.518851621052
 20
-419.8193645326156
 30
0.0
 11
1230.518851621052
 21
-426.8193645326157
 31
0.0
  0
LINE
  5
12C
330
29
100
AcDbEntity
  8
1
  6
Continuous
 62
     5
100
AcDbLine
 10
1230.518851621052
 20
-426.8193645326157
 30
0.0
 11
1230.518851621052
 21
-433.8193645326156
 31
0.0
  0
LINE
  5
12B
330
29
100
AcDbEntity
  8
1
  6
Continuous
 62
     5
100
AcDbLine
 10
1230.518851621052
 20
-433.8193645326156
 30
0.0
 11
1230.518851621052
 21
-440.8193645326154
 31
0.0
  0
LINE
  5
12A
330
29
100
AcDbEntity
  8
1
  6
Continuous
 62
     5
100
AcDbLine
 10
1190.518851621052
 20
-412.819364532616
 30
0.0
 11
1230.518851621052
 21
-412.819364532616
 31
0.0
  0
LINE
  5
129
330
29
100
AcDbEntity
  8
1
  6
Continuous
 62
     5
100
AcDbLine
 10
1190.518851621052
 20
-419.8193645326156
 30
0.0
 11
1230.518851621052
 21
-419.8193645326156
 31
0.0
  0
LINE
  5
128
330
29
100
AcDbEntity
  8
1
  6
Continuous
 62
     5
100
AcDbLine
 10
1190.518851621052
 20
-426.8193645326157
 30
0.0
 11
1230.518851621052
 21
-426.8193645326157
 31
0.0
  0
LINE
  5
127
330
29
100
AcDbEntity
  8
1
  6
Continuous
 62
     5
100
AcDbLine
 10
1190.518851621052
 20
-433.8193645326156
 30
0.0
 11
1230.518851621052
 21
-433.8193645326156
 31
0.0
  0
LINE
  5
126
330
29
100
AcDbEntity
  8
1
  6
Continuous
 62
     5
100
AcDbLine
 10
1190.518851621052
 20
-412.819364532616
 30
0.0
 11
1190.518851621052
 21
-419.8193645326156
 31
0.0
  0
LINE
  5
125
330
29
100
AcDbEntity
  8
1
  6
Continuous
 62
     5
100
AcDbLine
 10
1190.518851621052
 20
-419.8193645326156
 30
0.0
 11
1190.518851621052
 21
-426.8193645326157
 31
0.0
  0
LINE
  5
124
330
29
100
AcDbEntity
  8
1
  6
Continuous
 62
     5
100
AcDbLine
 10
1190.518851621052
 20
-426.8193645326157
 30
0.0
 11
1190.518851621052
 21
-433.8193645326156
 31
0.0
  0
LINE
  5
123
330
29
100
AcDbEntity
  8
1
  6
Continuous
 62
     5
100
AcDbLine
 10
1190.518851621052
 20
-433.8193645326156
 30
0.0
 11
1190.518851621052
 21
-440.8193645326154
 31
0.0
  0
LINE
  5
122
330
29
100
AcDbEntity
  8
1
  6
Continuous
 62
     5
100
AcDbLine
 10
1175.518851621052
 20
-412.819364532616
 30
0.0
 11
1190.518851621052
 21
-412.819364532616
 31
0.0
  0
LINE
  5
121
330
29
100
AcDbEntity
  8
1
  6
Continuous
 62
     5
100
AcDbLine
 10
1175.518851621052
 20
-419.8193645326156
 30
0.0
 11
1190.518851621052
 21
-419.8193645326156
 31
0.0
  0
LINE
  5
120
330
29
100
AcDbEntity
  8
1
  6
Continuous
 62
     5
100
AcDbLine
 10
1175.518851621052
 20
-426.8193645326157
 30
0.0
 11
1190.518851621052
 21
-426.8193645326157
 31
0.0
  0
LINE
  5
11F
330
29
100
AcDbEntity
  8
1
  6
Continuous
 62
     5
100
AcDbLine
 10
1175.518851621052
 20
-433.8193645326156
 30
0.0
 11
1190.518851621052
 21
-433.8193645326156
 31
0.0
  0
LINE
  5
11E
330
29
100
AcDbEntity
  8
1
  6
Continuous
 62
     5
100
AcDbLine
 10
1175.518851621052
 20
-412.819364532616
 30
0.0
 11
1175.518851621052
 21
-419.8193645326156
 31
0.0
  0
LINE
  5
11D
330
29
100
AcDbEntity
  8
1
  6
Continuous
 62
     5
100
AcDbLine
 10
1175.518851621052
 20
-419.8193645326156
 30
0.0
 11
1175.518851621052
 21
-426.8193645326157
 31
0.0
  0
LINE
  5
11C
330
29
100
AcDbEntity
  8
1
  6
Continuous
 62
     5
100
AcDbLine
 10
1175.518851621052
 20
-426.8193645326157
 30
0.0
 11
1175.518851621052
 21
-433.8193645326156
 31
0.0
  0
LINE
  5
11B
330
29
100
AcDbEntity
  8
1
  6
Continuous
 62
     5
100
AcDbLine
 10
1175.518851621052
 20
-433.8193645326156
 30
0.0
 11
1175.518851621052
 21
-440.8193645326154
 31
0.0
  0
LINE
  5
11A
330
29
100
AcDbEntity
  8
1
  6
Continuous
 62
     5
100
AcDbLine
 10
1145.518851621052
 20
-412.819364532616
 30
0.0
 11
1175.518851621052
 21
-412.819364532616
 31
0.0
  0
LINE
  5
119
330
29
100
AcDbEntity
  8
1
  6
Continuous
 62
     5
100
AcDbLine
 10
1145.518851621052
 20
-419.8193645326156
 30
0.0
 11
1175.518851621052
 21
-419.8193645326156
 31
0.0
  0
LINE
  5
118
330
29
100
AcDbEntity
  8
1
  6
Continuous
 62
     5
100
AcDbLine
 10
1145.518851621052
 20
-412.819364532616
 30
0.0
 11
1145.518851621052
 21
-419.8193645326156
 31
0.0
  0
LINE
  5
117
330
29
100
AcDbEntity
  8
1
  6
Continuous
 62
     5
100
AcDbLine
 10
1145.518851621052
 20
-419.8193645326156
 30
0.0
 11
1145.518851621052
 21
-426.8193645326157
 31
0.0
  0
LINE
  5
116
330
29
100
AcDbEntity
  8
1
  6
Continuous
 62
     5
100
AcDbLine
 10
1145.518851621052
 20
-426.8193645326157
 30
0.0
 11
1175.518851621052
 21
-426.8193645326157
 31
0.0
  0
LINE
  5
115
330
29
100
AcDbEntity
  8
1
  6
Continuous
 62
     5
100
AcDbLine
 10
1145.518851621052
 20
-426.8193645326157
 30
0.0
 11
1145.518851621052
 21
-433.8193645326156
 31
0.0
  0
LINE
  5
114
330
29
100
AcDbEntity
  8
1
  6
Continuous
 62
     5
100
AcDbLine
 10
1145.518851621052
 20
-433.8193645326156
 30
0.0
 11
1175.518851621052
 21
-433.8193645326156
 31
0.0
  0
LINE
  5
113
330
29
100
AcDbEntity
  8
1
  6
Continuous
 62
     5
100
AcDbLine
 10
1145.518851621052
 20
-433.8193645326156
 30
0.0
 11
1145.518851621052
 21
-440.8193645326154
 31
0.0
  0
LINE
  5
112
330
29
100
AcDbEntity
  8
1
  6
Continuous
 62
     5
100
AcDbLine
 10
1095.518851621052
 20
-412.819364532616
 30
0.0
 11
1145.518851621052
 21
-412.819364532616
 31
0.0
  0
LINE
  5
111
330
29
100
AcDbEntity
  8
1
  6
Continuous
 62
     5
100
AcDbLine
 10
1095.518851621052
 20
-419.8193645326156
 30
0.0
 11
1145.518851621052
 21
-419.8193645326156
 31
0.0
  0
LINE
  5
110
330
29
100
AcDbEntity
  8
1
  6
Continuous
 62
     5
100
AcDbLine
 10
1095.518851621052
 20
-426.8193645326157
 30
0.0
 11
1145.518851621052
 21
-426.8193645326157
 31
0.0
  0
LINE
  5
10F
330
29
100
AcDbEntity
  8
1
  6
Continuous
 62
     5
100
AcDbLine
 10
1095.518851621052
 20
-433.8193645326156
 30
0.0
 11
1145.518851621052
 21
-433.8193645326156
 31
0.0
  0
LINE
  5
10E
330
29
100
AcDbEntity
  8
1
  6
Continuous
 62
     5
100
AcDbLine
 10
1095.518851621052
 20
-412.819364532616
 30
0.0
 11
1095.518851621052
 21
-419.8193645326156
 31
0.0
  0
LINE
  5
10D
330
29
100
AcDbEntity
  8
1
  6
Continuous
 62
     5
100
AcDbLine
 10
1095.518851621052
 20
-419.8193645326156
 30
0.0
 11
1095.518851621052
 21
-426.8193645326157
 31
0.0
  0
LINE
  5
10C
330
29
100
AcDbEntity
  8
1
  6
Continuous
 62
     5
100
AcDbLine
 10
1095.518851621052
 20
-426.8193645326157
 30
0.0
 11
1095.518851621052
 21
-433.8193645326156
 31
0.0
  0
LINE
  5
10B
330
29
100
AcDbEntity
  8
1
  6
Continuous
 62
     5
100
AcDbLine
 10
1095.518851621052
 20
-433.8193645326156
 30
0.0
 11
1095.518851621052
 21
-440.8193645326154
 31
0.0
  0
LINE
  5
10A
330
29
100
AcDbEntity
  8
1
  6
Continuous
 62
     5
100
AcDbLine
 10
1080.518851621051
 20
-419.8193645326156
 30
0.0
 11
1080.518851621051
 21
-412.819364532616
 31
0.0
  0
LINE
  5
109
330
29
100
AcDbEntity
  8
1
  6
Continuous
 62
     5
100
AcDbLine
 10
1080.518851621051
 20
-426.8193645326157
 30
0.0
 11
1080.518851621051
 21
-419.8193645326156
 31
0.0
  0
LINE
  5
108
330
29
100
AcDbEntity
  8
1
  6
Continuous
 62
     5
100
AcDbLine
 10
1080.518851621051
 20
-433.8193645326156
 30
0.0
 11
1080.518851621051
 21
-426.8193645326157
 31
0.0
  0
LINE
  5
107
330
29
100
AcDbEntity
  8
1
  6
Continuous
 62
     5
100
AcDbLine
 10
1080.518851621051
 20
-440.8193645326154
 30
0.0
 11
1080.518851621051
 21
-433.8193645326156
 31
0.0
  0
LINE
  5
106
330
29
100
AcDbEntity
  8
1
  6
Continuous
 62
     5
100
AcDbLine
 10
1080.518851621051
 20
-412.819364532616
 30
0.0
 11
1095.518851621052
 21
-412.819364532616
 31
0.0
  0
LINE
  5
105
330
29
100
AcDbEntity
  8
1
  6
Continuous
 62
     5
100
AcDbLine
 10
1080.518851621051
 20
-419.8193645326156
 30
0.0
 11
1095.518851621052
 21
-419.8193645326156
 31
0.0
  0
LINE
  5
104
330
29
100
AcDbEntity
  8
1
  6
Continuous
 62
     5
100
AcDbLine
 10
1080.518851621051
 20
-426.8193645326157
 30
0.0
 11
1095.518851621052
 21
-426.8193645326157
 31
0.0
  0
LINE
  5
103
330
29
100
AcDbEntity
  8
1
  6
Continuous
 62
     5
100
AcDbLine
 10
1080.518851621051
 20
-433.8193645326156
 30
0.0
 11
1095.518851621052
 21
-433.8193645326156
 31
0.0
  0
LINE
  5
102
330
29
100
AcDbEntity
  8
1
  6
Continuous
 62
     7
100
AcDbLine
 10
1080.518851621051
 20
-499.8193645326154
 30
0.0
 11
1173.518851621052
 21
-499.8193645326154
 31
0.0
  0
LINE
  5
101
330
29
100
AcDbEntity
  8
1
  6
Continuous
 62
     7
100
AcDbLine
 10
1260.518851621052
 20
-499.8193645326154
 30
0.0
 11
1260.518851621052
 21
-484.8193645326155
 31
0.0
  0
LINE
  5
100
330
29
100
AcDbEntity
  8
1
  6
Continuous
 62
     7
100
AcDbLine
 10
1260.518851621052
 20
-447.8193645326153
 30
0.0
 11
1230.518851621052
 21
-447.8193645326153
 31
0.0
  0
LINE
  5
FF
330
29
100
AcDbEntity
  8
1
  6
Continuous
 62
     7
100
AcDbLine
 10
1080.518851621051
 20
-447.8193645326153
 30
0.0
 11
1080.518851621051
 21
-454.8193645326155
 31
0.0
  0
LINE
  5
FE
330
29
100
AcDbEntity
  8
1
  6
Continuous
 62
     7
100
AcDbLine
 10
1080.518851621051
 20
-454.8193645326155
 30
0.0
 11
1095.518851621052
 21
-454.8193645326155
 31
0.0
  0
LINE
  5
FD
330
29
100
AcDbEntity
  8
1
  6
Continuous
 62
     7
100
AcDbLine
 10
1080.518851621051
 20
-454.8193645326155
 30
0.0
 11
1080.518851621051
 21
-464.8193645326155
 31
0.0
  0
LINE
  5
FC
330
29
100
AcDbEntity
  8
1
  6
Continuous
 62
     7
100
AcDbLine
 10
1260.518851621052
 20
-454.8193645326155
 30
0.0
 11
1260.518851621052
 21
-447.8193645326153
 31
0.0
  0
LINE
  5
FB
330
29
100
AcDbEntity
  8
1
  6
Continuous
 62
     7
100
AcDbLine
 10
1173.518851621052
 20
-454.8193645326155
 30
0.0
 11
1173.518851621052
 21
-461.8193645326154
 31
0.0
  0
LINE
  5
FA
330
29
100
AcDbEntity
  8
1
  6
Continuous
 62
     7
100
AcDbLine
 10
1173.518851621052
 20
-454.8193645326155
 30
0.0
 11
1175.518851621052
 21
-454.8193645326155
 31
0.0
  0
LINE
  5
F9
330
29
100
AcDbEntity
  8
1
  6
Continuous
 62
     7
100
AcDbLine
 10
1173.518851621052
 20
-499.8193645326154
 30
0.0
 11
1180.518851621052
 21
-499.8193645326154
 31
0.0
  0
LINE
  5
F8
330
29
100
AcDbEntity
  8
1
  6
Continuous
 62
     7
100
AcDbLine
 10
1180.518851621052
 20
-454.8193645326155
 30
0.0
 11
1180.518851621052
 21
-499.8193645326154
 31
0.0
  0
LINE
  5
F7
330
29
100
AcDbEntity
  8
1
  6
Continuous
 62
     7
100
AcDbLine
 10
1180.518851621052
 20
-454.8193645326155
 30
0.0
 11
1190.518851621052
 21
-454.8193645326155
 31
0.0
  0
LINE
  5
F6
330
29
100
AcDbEntity
  8
1
  6
Continuous
 62
     7
100
AcDbLine
 10
1180.518851621052
 20
-499.8193645326154
 30
0.0
 11
1260.518851621052
 21
-499.8193645326154
 31
0.0
  0
LINE
  5
F5
330
29
100
AcDbEntity
  8
1
  6
Continuous
 62
     7
100
AcDbLine
 10
1173.518851621052
 20
-469.8193645326155
 30
0.0
 11
1260.518851621052
 21
-469.8193645326155
 31
0.0
  0
LINE
  5
F4
330
29
100
AcDbEntity
  8
1
  6
Continuous
 62
     7
100
AcDbLine
 10
1173.518851621052
 20
-469.8193645326155
 30
0.0
 11
1173.518851621052
 21
-472.8193645326155
 31
0.0
  0
LINE
  5
F3
330
29
100
AcDbEntity
  8
1
  6
Continuous
 62
     7
100
AcDbLine
 10
1260.518851621052
 20
-469.8193645326155
 30
0.0
 11
1260.518851621052
 21
-454.8193645326155
 31
0.0
  0
LINE
  5
F2
330
29
100
AcDbEntity
  8
1
  6
Continuous
 62
     7
100
AcDbLine
 10
1173.518851621052
 20
-484.8193645326155
 30
0.0
 11
1260.518851621052
 21
-484.8193645326155
 31
0.0
  0
LINE
  5
F1
330
29
100
AcDbEntity
  8
1
  6
Continuous
 62
     7
100
AcDbLine
 10
1173.518851621052
 20
-484.8193645326155
 30
0.0
 11
1173.518851621052
 21
-499.8193645326154
 31
0.0
  0
LINE
  5
F0
330
29
100
AcDbEntity
  8
1
  6
Continuous
 62
     7
100
AcDbLine
 10
1260.518851621052
 20
-484.8193645326155
 30
0.0
 11
1260.518851621052
 21
-469.8193645326155
 31
0.0
  0
LINE
  5
EF
330
29
100
AcDbEntity
  8
1
  6
Continuous
 62
     7
100
AcDbLine
 10
1113.518851621052
 20
-454.8193645326155
 30
0.0
 11
1113.518851621052
 21
-461.8193645326154
 31
0.0
  0
LINE
  5
EE
330
29
100
AcDbEntity
  8
1
  6
Continuous
 62
     7
100
AcDbLine
 10
1113.518851621052
 20
-454.8193645326155
 30
0.0
 11
1133.518851621052
 21
-454.8193645326155
 31
0.0
  0
LINE
  5
ED
330
29
100
AcDbEntity
  8
1
  6
Continuous
 62
     7
100
AcDbLine
 10
1080.518851621051
 20
-479.8193645326155
 30
0.0
 11
1133.518851621052
 21
-479.8193645326155
 31
0.0
  0
LINE
  5
EC
330
29
100
AcDbEntity
  8
1
  6
Continuous
 62
     7
100
AcDbLine
 10
1080.518851621051
 20
-479.8193645326155
 30
0.0
 11
1080.518851621051
 21
-499.8193645326154
 31
0.0
  0
LINE
  5
EB
330
29
100
AcDbEntity
  8
1
  6
Continuous
 62
     7
100
AcDbLine
 10
1173.518851621052
 20
-479.8193645326155
 30
0.0
 11
1173.518851621052
 21
-484.8193645326155
 31
0.0
  0
LINE
  5
EA
330
29
100
AcDbEntity
  8
1
  6
Continuous
 62
     7
100
AcDbLine
 10
1113.518851621052
 20
-461.8193645326154
 30
0.0
 11
1173.518851621052
 21
-461.8193645326154
 31
0.0
  0
LINE
  5
E9
330
29
100
AcDbEntity
  8
1
  6
Continuous
 62
     7
100
AcDbLine
 10
1113.518851621052
 20
-461.8193645326154
 30
0.0
 11
1113.518851621052
 21
-464.8193645326155
 31
0.0
  0
LINE
  5
E8
330
29
100
AcDbEntity
  8
1
  6
Continuous
 62
     7
100
AcDbLine
 10
1173.518851621052
 20
-461.8193645326154
 30
0.0
 11
1173.518851621052
 21
-469.8193645326155
 31
0.0
  0
LINE
  5
E7
330
29
100
AcDbEntity
  8
1
  6
Continuous
 62
     7
100
AcDbLine
 10
1133.518851621052
 20
-454.8193645326155
 30
0.0
 11
1133.518851621052
 21
-479.8193645326155
 31
0.0
  0
LINE
  5
E6
330
29
100
AcDbEntity
  8
1
  6
Continuous
 62
     7
100
AcDbLine
 10
1133.518851621052
 20
-454.8193645326155
 30
0.0
 11
1145.518851621052
 21
-454.8193645326155
 31
0.0
  0
LINE
  5
E5
330
29
100
AcDbEntity
  8
1
  6
Continuous
 62
     7
100
AcDbLine
 10
1133.518851621052
 20
-479.8193645326155
 30
0.0
 11
1153.518851621052
 21
-479.8193645326155
 31
0.0
  0
LINE
  5
E4
330
29
100
AcDbEntity
  8
1
  6
Continuous
 62
     7
100
AcDbLine
 10
1153.518851621052
 20
-454.8193645326155
 30
0.0
 11
1153.518851621052
 21
-479.8193645326155
 31
0.0
  0
LINE
  5
E3
330
29
100
AcDbEntity
  8
1
  6
Continuous
 62
     7
100
AcDbLine
 10
1153.518851621052
 20
-454.8193645326155
 30
0.0
 11
1173.518851621052
 21
-454.8193645326155
 31
0.0
  0
LINE
  5
E2
330
29
100
AcDbEntity
  8
1
  6
Continuous
 62
     7
100
AcDbLine
 10
1153.518851621052
 20
-479.8193645326155
 30
0.0
 11
1173.518851621052
 21
-479.8193645326155
 31
0.0
  0
LINE
  5
E1
330
29
100
AcDbEntity
  8
1
  6
Continuous
 62
     7
100
AcDbLine
 10
1080.518851621051
 20
-464.8193645326155
 30
0.0
 11
1113.518851621052
 21
-464.8193645326155
 31
0.0
  0
LINE
  5
E0
330
29
100
AcDbEntity
  8
1
  6
Continuous
 62
     7
100
AcDbLine
 10
1080.518851621051
 20
-464.8193645326155
 30
0.0
 11
1080.518851621051
 21
-479.8193645326155
 31
0.0
  0
LINE
  5
DF
330
29
100
AcDbEntity
  8
1
  6
Continuous
 62
     7
100
AcDbLine
 10
1113.518851621052
 20
-464.8193645326155
 30
0.0
 11
1113.518851621052
 21
-472.8193645326155
 31
0.0
  0
LINE
  5
DE
330
29
100
AcDbEntity
  8
1
  6
Continuous
 62
     7
100
AcDbLine
 10
1230.518851621052
 20
-447.8193645326153
 30
0.0
 11
1230.518851621052
 21
-454.8193645326155
 31
0.0
  0
LINE
  5
DD
330
29
100
AcDbEntity
  8
1
  6
Continuous
 62
     7
100
AcDbLine
 10
1230.518851621052
 20
-447.8193645326153
 30
0.0
 11
1190.518851621052
 21
-447.8193645326153
 31
0.0
  0
LINE
  5
DC
330
29
100
AcDbEntity
  8
1
  6
Continuous
 62
     7
100
AcDbLine
 10
1230.518851621052
 20
-454.8193645326155
 30
0.0
 11
1260.518851621052
 21
-454.8193645326155
 31
0.0
  0
LINE
  5
DB
330
29
100
AcDbEntity
  8
1
  6
Continuous
 62
     7
100
AcDbLine
 10
1190.518851621052
 20
-447.8193645326153
 30
0.0
 11
1190.518851621052
 21
-454.8193645326155
 31
0.0
  0
LINE
  5
DA
330
29
100
AcDbEntity
  8
1
  6
Continuous
 62
     7
100
AcDbLine
 10
1190.518851621052
 20
-447.8193645326153
 30
0.0
 11
1175.518851621052
 21
-447.8193645326153
 31
0.0
  0
LINE
  5
D9
330
29
100
AcDbEntity
  8
1
  6
Continuous
 62
     7
100
AcDbLine
 10
1190.518851621052
 20
-454.8193645326155
 30
0.0
 11
1230.518851621052
 21
-454.8193645326155
 31
0.0
  0
LINE
  5
D8
330
29
100
AcDbEntity
  8
1
  6
Continuous
 62
     7
100
AcDbLine
 10
1175.518851621052
 20
-447.8193645326153
 30
0.0
 11
1175.518851621052
 21
-454.8193645326155
 31
0.0
  0
LINE
  5
D7
330
29
100
AcDbEntity
  8
1
  6
Continuous
 62
     7
100
AcDbLine
 10
1175.518851621052
 20
-447.8193645326153
 30
0.0
 11
1145.518851621052
 21
-447.8193645326153
 31
0.0
  0
LINE
  5
D6
330
29
100
AcDbEntity
  8
1
  6
Continuous
 62
     7
100
AcDbLine
 10
1175.518851621052
 20
-454.8193645326155
 30
0.0
 11
1180.518851621052
 21
-454.8193645326155
 31
0.0
  0
LINE
  5
D5
330
29
100
AcDbEntity
  8
1
  6
Continuous
 62
     7
100
AcDbLine
 10
1145.518851621052
 20
-447.8193645326153
 30
0.0
 11
1145.518851621052
 21
-454.8193645326155
 31
0.0
  0
LINE
  5
D4
330
29
100
AcDbEntity
  8
1
  6
Continuous
 62
     7
100
AcDbLine
 10
1145.518851621052
 20
-447.8193645326153
 30
0.0
 11
1095.518851621052
 21
-447.8193645326153
 31
0.0
  0
LINE
  5
D3
330
29
100
AcDbEntity
  8
1
  6
Continuous
 62
     7
100
AcDbLine
 10
1145.518851621052
 20
-454.8193645326155
 30
0.0
 11
1153.518851621052
 21
-454.8193645326155
 31
0.0
  0
LINE
  5
D2
330
29
100
AcDbEntity
  8
1
  6
Continuous
 62
     7
100
AcDbLine
 10
1095.518851621052
 20
-447.8193645326153
 30
0.0
 11
1095.518851621052
 21
-454.8193645326155
 31
0.0
  0
LINE
  5
D1
330
29
100
AcDbEntity
  8
1
  6
Continuous
 62
     7
100
AcDbLine
 10
1095.518851621052
 20
-447.8193645326153
 30
0.0
 11
1080.518851621051
 21
-447.8193645326153
 31
0.0
  0
LINE
  5
D0
330
29
100
AcDbEntity
  8
1
  6
Continuous
 62
     7
100
AcDbLine
 10
1095.518851621052
 20
-454.8193645326155
 30
0.0
 11
1113.518851621052
 21
-454.8193645326155
 31
0.0
  0
LINE
  5
CF
330
29
100
AcDbEntity
  8
1
  6
Continuous
 62
     5
100
AcDbLine
 10
1080.518851621051
 20
-447.8193645326153
 30
0.0
 11
1080.518851621051
 21
-440.8193645326154
 31
0.0
  0
LINE
  5
CE
330
29
100
AcDbEntity
  8
1
  6
Continuous
 62
     5
100
AcDbLine
 10
1080.518851621051
 20
-440.8193645326154
 30
0.0
 11
1095.518851621052
 21
-440.8193645326154
 31
0.0
  0
LINE
  5
CD
330
29
100
AcDbEntity
  8
1
  6
Continuous
 62
     5
100
AcDbLine
 10
1230.518851621052
 20
-440.8193645326154
 30
0.0
 11
1230.518851621052
 21
-447.8193645326153
 31
0.0
  0
LINE
  5
CC
330
29
100
AcDbEntity
  8
1
  6
Continuous
 62
     5
100
AcDbLine
 10
1230.518851621052
 20
-440.8193645326154
 30
0.0
 11
1260.518851621052
 21
-440.8193645326154
 31
0.0
  0
LINE
  5
CB
330
29
100
AcDbEntity
  8
1
  6
Continuous
 62
     5
100
AcDbLine
 10
1190.518851621052
 20
-440.8193645326154
 30
0.0
 11
1190.518851621052
 21
-447.8193645326153
 31
0.0
  0
LINE
  5
CA
330
29
100
AcDbEntity
  8
1
  6
Continuous
 62
     5
100
AcDbLine
 10
1190.518851621052
 20
-440.8193645326154
 30
0.0
 11
1230.518851621052
 21
-440.8193645326154
 31
0.0
  0
LINE
  5
C9
330
29
100
AcDbEntity
  8
1
  6
Continuous
 62
     5
100
AcDbLine
 10
1175.518851621052
 20
-440.8193645326154
 30
0.0
 11
1175.518851621052
 21
-447.8193645326153
 31
0.0
  0
LINE
  5
C8
330
29
100
AcDbEntity
  8
1
  6
Continuous
 62
     5
100
AcDbLine
 10
1175.518851621052
 20
-440.8193645326154
 30
0.0
 11
1190.518851621052
 21
-440.8193645326154
 31
0.0
  0
LINE
  5
C7
330
29
100
AcDbEntity
  8
1
  6
Continuous
 62
     5
100
AcDbLine
 10
1145.518851621052
 20
-440.8193645326154
 30
0.0
 11
1145.518851621052
 21
-447.8193645326153
 31
0.0
  0
LINE
  5
C6
330
29
100
AcDbEntity
  8
1
  6
Continuous
 62
     5
100
AcDbLine
 10
1145.518851621052
 20
-440.8193645326154
 30
0.0
 11
1175.518851621052
 21
-440.8193645326154
 31
0.0
  0
LINE
  5
C5
330
29
100
AcDbEntity
  8
1
  6
Continuous
 62
     5
100
AcDbLine
 10
1095.518851621052
 20
-440.8193645326154
 30
0.0
 11
1095.518851621052
 21
-447.8193645326153
 31
0.0
  0
LINE
  5
C4
330
29
100
AcDbEntity
  8
1
  6
Continuous
 62
     5
100
AcDbLine
 10
1095.518851621052
 20
-440.8193645326154
 30
0.0
 11
1145.518851621052
 21
-440.8193645326154
 31
0.0
  0
LINE
  5
C3
330
29
100
AcDbEntity
  8
1
  6
Continuous
 62
     5
100
AcDbLine
 10
1113.518851621052
 20
-472.8193645326155
 30
0.0
 11
1173.518851621052
 21
-472.8193645326155
 31
0.0
  0
LINE
  5
C2
330
29
100
AcDbEntity
  8
1
  6
Continuous
 62
     7
100
AcDbLine
 10
1113.518851621052
 20
-472.8193645326155
 30
0.0
 11
1113.518851621052
 21
-479.8193645326155
 31
0.0
  0
LINE
  5
C1
330
29
100
AcDbEntity
  8
1
  6
Continuous
 62
     7
100
AcDbLine
 10
1173.518851621052
 20
-472.8193645326155
 30
0.0
 11
1173.518851621052
 21
-479.8193645326155
 31
0.0
  0
LINE
  5
C0
330
29
100
AcDbEntity
  8
1
  6
Continuous
 62
     7
100
AcDbLine
 10
1084.703485366759
 20
-491.1713353984082
 30
0.0
 11
1083.029742878936
 21
-491.1713353984082
 31
0.0
  0
LINE
  5
BF
330
29
100
AcDbEntity
  8
1
  6
Continuous
 62
     7
100
AcDbLine
 10
1083.029742878936
 20
-491.1713353984082
 30
0.0
 11
1083.029742878936
 21
-490.7528997764523
 31
0.0
  0
LINE
  5
BE
330
29
100
AcDbEntity
  8
1
  6
Continuous
 62
     7
100
AcDbLine
 10
1083.134351784425
 20
-490.6482908709631
 30
0.0
 11
1083.390674142113
 21
-490.6482908709631
 31
0.0
  0
LINE
  5
BD
330
29
100
AcDbEntity
  8
1
  6
Continuous
 62
     7
100
AcDbLine
 10
1083.6407691267
 20
-490.4632303173082
 30
0.0
 11
1085.631048163076
 21
-483.9533209196672
 31
0.0
  0
LINE
  5
BC
330
29
100
AcDbEntity
  8
1
  6
Continuous
 62
     7
100
AcDbLine
 10
1085.631048163076
 20
-483.9533209196672
 30
0.0
 11
1087.335288197639
 21
-483.9533209196672
 31
0.0
  0
LINE
  5
BB
330
29
100
AcDbEntity
  8
1
  6
Continuous
 62
     7
100
AcDbLine
 10
1087.335288197639
 20
-483.9533209196672
 30
0.0
 11
1089.325567234014
 21
-490.4632303173082
 31
0.0
  0
LINE
  5
BA
330
29
100
AcDbEntity
  8
1
  6
Continuous
 62
     7
100
AcDbLine
 10
1089.575662218602
 20
-490.6482908709631
 30
0.0
 11
1089.93393064121
 21
-490.6482908709631
 31
0.0
  0
LINE
  5
B9
330
29
100
AcDbEntity
  8
1
  6
Continuous
 62
     7
100
AcDbLine
 10
1090.038539546699
 20
-490.7528997764523
 30
0.0
 11
1090.038539546699
 21
-491.1713353984082
 31
0.0
  0
LINE
  5
B8
330
29
100
AcDbEntity
  8
1
  6
Continuous
 62
     7
100
AcDbLine
 10
1090.038539546699
 20
-491.1713353984082
 30
0.0
 11
1086.900272382029
 21
-491.1713353984082
 31
0.0
  0
LINE
  5
B7
330
29
100
AcDbEntity
  8
1
  6
Continuous
 62
     7
100
AcDbLine
 10
1086.900272382029
 20
-491.1713353984082
 30
0.0
 11
1086.900272382029
 21
-490.7528997764523
 31
0.0
  0
LINE
  5
B6
330
29
100
AcDbEntity
  8
1
  6
Continuous
 62
     7
100
AcDbLine
 10
1087.004881287518
 20
-490.6482908709631
 30
0.0
 11
1087.294491221958
 21
-490.6482908709631
 31
0.0
  0
LINE
  5
B5
330
29
100
AcDbEntity
  8
1
  6
Continuous
 62
     7
100
AcDbLine
 10
1087.494567209629
 20
-490.3779036919312
 30
0.0
 11
1086.98285277824
 21
-488.7041612041072
 31
0.0
  0
LINE
  5
B4
330
29
100
AcDbEntity
  8
1
  6
Continuous
 62
     7
100
AcDbLine
 10
1086.782776790569
 20
-488.5561127611831
 30
0.0
 11
1084.886886604626
 21
-488.5561127611831
 31
0.0
  0
LINE
  5
B3
330
29
100
AcDbEntity
  8
1
  6
Continuous
 62
     7
100
AcDbLine
 10
1084.736829613873
 20
-488.6671490933761
 30
0.0
 11
1084.193133030523
 21
-490.4455004866892
 31
0.0
  0
LINE
  5
B2
330
29
100
AcDbEntity
  8
1
  6
Continuous
 62
     7
100
AcDbLine
 10
1084.343190021276
 20
-490.6482908709631
 30
0.0
 11
1084.598876461271
 21
-490.6482908709631
 31
0.0
  0
LINE
  5
B1
330
29
100
AcDbEntity
  8
1
  6
Continuous
 62
     7
100
AcDbLine
 10
1084.703485366759
 20
-490.7528997764523
 30
0.0
 11
1084.703485366759
 21
-491.1713353984082
 31
0.0
  0
LINE
  5
B0
330
29
100
AcDbEntity
  8
1
  6
Continuous
 62
     7
100
AcDbLine
 10
1085.704126336386
 20
-485.5032640756957
 30
0.0
 11
1084.992686829568
 21
-487.8302778494641
 31
0.0
  0
LINE
  5
AF
330
29
100
AcDbEntity
  8
1
  6
Continuous
 62
     7
100
AcDbLine
 10
1085.14274382032
 20
-488.0330682337381
 30
0.0
 11
1086.565622833957
 21
-488.0330682337381
 31
0.0
  0
LINE
  5
AE
330
29
100
AcDbEntity
  8
1
  6
Continuous
 62
     7
100
AcDbLine
 10
1086.71567982471
 20
-487.8302778494641
 30
0.0
 11
1086.004240317892
 21
-485.5032640756957
 31
0.0
  0
LINE
  5
AD
330
29
100
AcDbEntity
  8
1
  6
Continuous
 62
     7
100
AcDbLine
 10
1092.49684882569
 20
-483.9533209196672
 30
0.0
 11
1095.373593726637
 21
-483.9533209196672
 31
0.0
  0
LINE
  5
AC
330
29
100
AcDbEntity
  8
1
  6
Continuous
 62
     7
100
AcDbLine
 10
1095.373593726637
 20
-483.9533209196672
 30
0.0
 11
1095.425761506421
 21
-485.5663051174704
 31
0.0
  0
LINE
  5
AB
330
29
100
AcDbEntity
  8
1
  6
Continuous
 62
     7
100
AcDbLine
 10
1094.914920511387
 20
-485.6532821723429
 30
0.0
 11
1094.705744040396
 21
-484.9887627762662
 31
0.0
  0
LINE
  5
AA
330
29
100
AcDbEntity
  8
1
  6
Continuous
 62
     7
100
AcDbLine
 10
1094.007268908433
 20
-484.4763654471121
 30
0.0
 11
1093.856764597048
 21
-484.4763654471121
 31
0.0
  0
LINE
  5
A9
330
29
100
AcDbEntity
  8
1
  6
Continuous
 62
     7
100
AcDbLine
 10
1093.490633427835
 20
-484.8424966163237
 30
0.0
 11
1093.490633427835
 21
-490.3867686072406
 31
0.0
  0
LINE
  5
A8
330
29
100
AcDbEntity
  8
1
  6
Continuous
 62
     7
100
AcDbLine
 10
1093.752155691559
 20
-490.6482908709631
 30
0.0
 11
1093.961373502536
 21
-490.6482908709631
 31
0.0
  0
LINE
  5
A7
330
29
100
AcDbEntity
  8
1
  6
Continuous
 62
     7
100
AcDbLine
 10
1094.065982408025
 20
-490.7528997764523
 30
0.0
 11
1094.065982408025
 21
-491.1713353984082
 31
0.0
  0
LINE
  5
A6
330
29
100
AcDbEntity
  8
1
  6
Continuous
 62
     7
100
AcDbLine
 10
1094.065982408025
 20
-491.1713353984082
 30
0.0
 11
1092.49684882569
 21
-491.1713353984082
 31
0.0
  0
LINE
  5
A5
330
29
100
AcDbEntity
  8
1
  6
Continuous
 62
     7
100
AcDbLine
 10
1089.620103924743
 20
-483.9533209196672
 30
0.0
 11
1092.49684882569
 21
-483.9533209196672
 31
0.0
  0
LINE
  5
A4
330
29
100
AcDbEntity
  8
1
  6
Continuous
 62
     7
100
AcDbLine
 10
1089.567936144959
 20
-485.5663051174704
 30
0.0
 11
1089.620103924743
 21
-483.9533209196672
 31
0.0
  0
LINE
  5
A3
330
29
100
AcDbEntity
  8
1
  6
Continuous
 62
     7
100
AcDbLine
 10
1090.287953610982
 20
-484.9887627762662
 30
0.0
 11
1090.078777139994
 21
-485.6532821723429
 31
0.0
  0
LINE
  5
A2
330
29
100
AcDbEntity
  8
1
  6
Continuous
 62
     7
100
AcDbLine
 10
1091.136933054333
 20
-484.4763654471121
 30
0.0
 11
1090.986428742946
 21
-484.4763654471121
 31
0.0
  0
LINE
  5
A1
330
29
100
AcDbEntity
  8
1
  6
Continuous
 62
     7
100
AcDbLine
 10
1091.503064223544
 20
-490.3867686072406
 30
0.0
 11
1091.503064223544
 21
-484.8424966163237
 31
0.0
  0
LINE
  5
A0
330
29
100
AcDbEntity
  8
1
  6
Continuous
 62
     7
100
AcDbLine
 10
1091.032324148845
 20
-490.6482908709631
 30
0.0
 11
1091.241541959822
 21
-490.6482908709631
 31
0.0
  0
LINE
  5
9F
330
29
100
AcDbEntity
  8
1
  6
Continuous
 62
     7
100
AcDbLine
 10
1090.927715243356
 20
-491.1713353984082
 30
0.0
 11
1090.927715243356
 21
-490.7528997764523
 31
0.0
  0
LINE
  5
9E
330
29
100
AcDbEntity
  8
1
  6
Continuous
 62
     7
100
AcDbLine
 10
1092.49684882569
 20
-491.1713353984082
 30
0.0
 11
1090.927715243356
 21
-491.1713353984082
 31
0.0
  0
LINE
  5
9D
330
29
100
AcDbEntity
  8
1
  6
Continuous
 62
     7
100
AcDbLine
 10
1101.835689986431
 20
-486.4157983291591
 30
0.0
 11
1098.359115663574
 21
-489.8923726520165
 31
0.0
  0
LINE
  5
9C
330
29
100
AcDbEntity
  8
1
  6
Continuous
 62
     7
100
AcDbLine
 10
1097.175601000474
 20
-488.7088579889161
 30
0.0
 11
1100.652175323331
 21
-485.2322836660588
 31
0.0
  0
LINE
  5
9B
330
29
100
AcDbEntity
  8
1
  6
Continuous
 62
     7
100
AcDbLine
 10
1106.880573330428
 20
-483.9533209196672
 30
0.0
 11
1107.722791267365
 21
-487.0965210513656
 31
0.0
  0
LINE
  5
9A
330
29
100
AcDbEntity
  8
1
  6
Continuous
 62
     7
100
AcDbLine
 10
1108.02592459778
 20
-487.0965210513656
 30
0.0
 11
1108.868142534719
 21
-483.9533209196672
 31
0.0
  0
LINE
  5
99
330
29
100
AcDbEntity
  8
1
  6
Continuous
 62
     7
100
AcDbLine
 10
1105.04991748437
 20
-490.6482908709631
 30
0.0
 11
1105.206830842603
 21
-490.6482908709631
 31
0.0
  0
LINE
  5
98
330
29
100
AcDbEntity
  8
1
  6
Continuous
 62
     7
100
AcDbLine
 10
1105.311439748092
 20
-490.7528997764523
 30
0.0
 11
1105.311439748092
 21
-491.1713353984082
 31
0.0
  0
LINE
  5
97
330
29
100
AcDbEntity
  8
1
  6
Continuous
 62
     7
100
AcDbLine
 10
1105.311439748092
 20
-491.1713353984082
 30
0.0
 11
1103.846915071246
 21
-491.1713353984082
 31
0.0
  0
LINE
  5
96
330
29
100
AcDbEntity
  8
1
  6
Continuous
 62
     7
100
AcDbLine
 10
1103.846915071246
 20
-491.1713353984082
 30
0.0
 11
1103.846915071246
 21
-490.7528997764523
 31
0.0
  0
LINE
  5
95
330
29
100
AcDbEntity
  8
1
  6
Continuous
 62
     7
100
AcDbLine
 10
1103.951523976735
 20
-490.6482908709631
 30
0.0
 11
1104.213046240458
 21
-490.6482908709631
 31
0.0
  0
LINE
  5
94
330
29
100
AcDbEntity
  8
1
  6
Continuous
 62
     7
100
AcDbLine
 10
1104.36995959869
 20
-490.4913775127297
 30
0.0
 11
1104.36995959869
 21
-484.6332788053457
 31
0.0
  0
LINE
  5
93
330
29
100
AcDbEntity
  8
1
  6
Continuous
 62
     7
100
AcDbLine
 10
1104.213046240458
 20
-484.4763654471121
 30
0.0
 11
1103.951523976735
 21
-484.4763654471121
 31
0.0
  0
LINE
  5
92
330
29
100
AcDbEntity
  8
1
  6
Continuous
 62
     7
100
AcDbLine
 10
1103.846915071246
 20
-484.3717565416231
 30
0.0
 11
1103.846915071246
 21
-483.9533209196672
 31
0.0
  0
LINE
  5
91
330
29
100
AcDbEntity
  8
1
  6
Continuous
 62
     7
100
AcDbLine
 10
1103.846915071246
 20
-483.9533209196672
 30
0.0
 11
1106.880573330428
 21
-483.9533209196672
 31
0.0
  0
LINE
  5
90
330
29
100
AcDbEntity
  8
1
  6
Continuous
 62
     7
100
AcDbLine
 10
1108.868142534719
 20
-483.9533209196672
 30
0.0
 11
1111.901800793898
 21
-483.9533209196672
 31
0.0
  0
LINE
  5
8F
330
29
100
AcDbEntity
  8
1
  6
Continuous
 62
     7
100
AcDbLine
 10
1111.901800793898
 20
-483.9533209196672
 30
0.0
 11
1111.901800793898
 21
-484.3717565416231
 31
0.0
  0
LINE
  5
8E
330
29
100
AcDbEntity
  8
1
  6
Continuous
 62
     7
100
AcDbLine
 10
1111.797191888411
 20
-484.4763654471121
 30
0.0
 11
1111.587974077432
 21
-484.4763654471121
 31
0.0
  0
LINE
  5
8D
330
29
100
AcDbEntity
  8
1
  6
Continuous
 62
     7
100
AcDbLine
 10
1111.32645181371
 20
-484.7378877108346
 30
0.0
 11
1111.32645181371
 21
-490.3867686072406
 31
0.0
  0
LINE
  5
8C
330
29
100
AcDbEntity
  8
1
  6
Continuous
 62
     7
100
AcDbLine
 10
1111.587974077432
 20
-490.6482908709631
 30
0.0
 11
1111.797191888411
 21
-490.6482908709631
 31
0.0
  0
LINE
  5
8B
330
29
100
AcDbEntity
  8
1
  6
Continuous
 62
     7
100
AcDbLine
 10
1111.901800793898
 20
-490.7528997764523
 30
0.0
 11
1111.901800793898
 21
-491.1713353984082
 31
0.0
  0
LINE
  5
8A
330
29
100
AcDbEntity
  8
1
  6
Continuous
 62
     7
100
AcDbLine
 10
1111.901800793898
 20
-491.1713353984082
 30
0.0
 11
1108.972751440208
 21
-491.1713353984082
 31
0.0
  0
LINE
  5
89
330
29
100
AcDbEntity
  8
1
  6
Continuous
 62
     7
100
AcDbLine
 10
1108.972751440208
 20
-491.1713353984082
 30
0.0
 11
1108.972751440208
 21
-490.7528997764523
 31
0.0
  0
LINE
  5
88
330
29
100
AcDbEntity
  8
1
  6
Continuous
 62
     7
100
AcDbLine
 10
1109.077360345696
 20
-490.6482908709631
 30
0.0
 11
1109.286578156674
 21
-490.6482908709631
 31
0.0
  0
LINE
  5
87
330
29
100
AcDbEntity
  8
1
  6
Continuous
 62
     7
100
AcDbLine
 10
1107.475576924741
 20
-491.1713353984082
 30
0.0
 11
1106.973549643067
 21
-491.1713353984082
 31
0.0
  0
LINE
  5
86
330
29
100
AcDbEntity
  8
1
  6
Continuous
 62
     7
100
AcDbLine
 10
1104.893004126137
 20
-490.4913775127297
 30
0.0
 11
1104.893004126137
 21
-484.5985091079103
 31
0.0
  0
LINE
  5
85
330
29
100
AcDbEntity
  8
1
  6
Continuous
 62
     7
100
AcDbLine
 10
1105.201484149578
 20
-484.5578969423684
 30
0.0
 11
1106.973549643067
 21
-491.1713353984082
 31
0.0
  0
LINE
  5
84
330
29
100
AcDbEntity
  8
1
  6
Continuous
 62
     7
100
AcDbLine
 10
1107.475576924741
 20
-491.1713353984082
 30
0.0
 11
1109.239620396957
 21
-484.587835533343
 31
0.0
  0
LINE
  5
83
330
29
100
AcDbEntity
  8
1
  6
Continuous
 62
     7
100
AcDbLine
 10
1109.548100420398
 20
-484.6284476988847
 30
0.0
 11
1109.548100420398
 21
-490.3867686072406
 31
0.0
  0
LINE
  5
82
330
29
100
AcDbEntity
  8
1
  6
Continuous
 62
     5
100
AcDbLine
 10
1098.569178026449
 20
-474.3193645326154
 30
0.0
 11
1098.569178026449
 21
-470.3193645326154
 31
0.0
  0
LINE
  5
81
330
29
100
AcDbEntity
  8
1
  6
Continuous
 62
     5
100
AcDbLine
 10
1098.569178026449
 20
-470.3193645326154
 30
0.0
 11
1108.400534518099
 21
-468.3193645326155
 31
0.0
  0
LINE
  5
80
330
29
100
AcDbEntity
  8
1
  6
Continuous
 62
     5
100
AcDbLine
 10
1108.400534518099
 20
-468.3193645326155
 30
0.0
 11
1108.400534518099
 21
-476.3193645326155
 31
0.0
  0
LINE
  5
7F
330
29
100
AcDbEntity
  8
1
  6
Continuous
 62
     5
100
AcDbLine
 10
1108.400534518099
 20
-476.3193645326155
 30
0.0
 11
1098.569178026449
 21
-474.3193645326154
 31
0.0
  0
LINE
  5
7E
330
29
100
AcDbEntity
  8
1
  6
Continuous
 62
     5
100
AcDbLine
 10
1083.113136028244
 20
-472.3193645326155
 30
0.0
 11
1087.160469272559
 21
-472.3193645326155
 31
0.0
  0
LINE
  5
7D
330
29
100
AcDbEntity
  8
1
  6
Continuous
 62
     5
100
AcDbLine
 10
1087.709260220941
 20
-472.3193645326155
 30
0.0
 11
1089.664327974551
 21
-472.3193645326155
 31
0.0
  0
LINE
  5
7C
330
29
100
AcDbEntity
  8
1
  6
Continuous
 62
     5
100
AcDbLine
 10
1090.144520054385
 20
-472.3193645326155
 30
0.0
 11
1102.217920918783
 21
-472.3193645326155
 31
0.0
  0
LINE
  5
7B
330
29
100
AcDbEntity
  8
1
  6
Continuous
 62
     5
100
AcDbLine
 10
1102.732412432892
 20
-472.3193645326155
 30
0.0
 11
1103.589898289738
 21
-472.3193645326155
 31
0.0
  0
LINE
  5
7A
330
29
100
AcDbEntity
  8
1
  6
Continuous
 62
     5
100
AcDbLine
 10
1104.344485843762
 20
-472.3193645326155
 30
0.0
 11
1110.792779487248
 21
-472.3193645326155
 31
0.0
  0
LINE
  5
79
330
29
100
AcDbEntity
  8
1
  6
Continuous
 62
     5
100
AcDbLine
 10
1088.594298082368
 20
-466.7233258939421
 30
0.0
 11
1088.594298082368
 21
-471.0793540467221
 31
0.0
  0
LINE
  5
78
330
29
100
AcDbEntity
  8
1
  6
Continuous
 62
     5
100
AcDbLine
 10
1088.594298082368
 20
-471.5252466922823
 30
0.0
 11
1088.594298082368
 21
-473.034421800332
 31
0.0
  0
LINE
  5
77
330
29
100
AcDbEntity
  8
1
  6
Continuous
 62
     5
100
AcDbLine
 10
1088.594298082368
 20
-473.5146138801661
 30
0.0
 11
1088.594298082368
 21
-478.3165346785064
 31
0.0
  0
LINE
  5
76
330
29
100
AcDbEntity
  8
1
  6
Continuous
 62
     5
100
AcDbLine
 10
1080.518851621051
 20
-405.8193645326161
 30
0.0
 11
1080.518851621051
 21
-398.8193645326163
 31
0.0
  0
LINE
  5
75
330
29
100
AcDbEntity
  8
1
  6
Continuous
 62
     5
100
AcDbLine
 10
1080.518851621051
 20
-398.8193645326163
 30
0.0
 11
1095.518851621052
 21
-398.8193645326163
 31
0.0
  0
LINE
  5
74
330
29
100
AcDbEntity
  8
1
  6
Continuous
 62
     5
100
AcDbLine
 10
1095.518851621052
 20
-398.8193645326163
 30
0.0
 11
1095.518851621052
 21
-405.8193645326161
 31
0.0
  0
LINE
  5
73
330
29
100
AcDbEntity
  8
1
  6
Continuous
 62
     5
100
AcDbLine
 10
1095.518851621052
 20
-398.8193645326163
 30
0.0
 11
1145.518851621052
 21
-398.8193645326163
 31
0.0
  0
LINE
  5
72
330
29
100
AcDbEntity
  8
1
  6
Continuous
 62
     5
100
AcDbLine
 10
1145.518851621052
 20
-398.8193645326163
 30
0.0
 11
1145.518851621052
 21
-405.8193645326161
 31
0.0
  0
LINE
  5
71
330
29
100
AcDbEntity
  8
1
  6
Continuous
 62
     5
100
AcDbLine
 10
1145.518851621052
 20
-398.8193645326163
 30
0.0
 11
1175.518851621052
 21
-398.8193645326163
 31
0.0
  0
LINE
  5
70
330
29
100
AcDbEntity
  8
1
  6
Continuous
 62
     5
100
AcDbLine
 10
1175.518851621052
 20
-398.8193645326163
 30
0.0
 11
1175.518851621052
 21
-405.8193645326161
 31
0.0
  0
LINE
  5
6F
330
29
100
AcDbEntity
  8
1
  6
Continuous
 62
     5
100
AcDbLine
 10
1175.518851621052
 20
-398.8193645326163
 30
0.0
 11
1190.518851621052
 21
-398.8193645326163
 31
0.0
  0
LINE
  5
6E
330
29
100
AcDbEntity
  8
1
  6
Continuous
 62
     5
100
AcDbLine
 10
1190.518851621052
 20
-398.8193645326163
 30
0.0
 11
1190.518851621052
 21
-405.8193645326161
 31
0.0
  0
LINE
  5
6D
330
29
100
AcDbEntity
  8
1
  6
Continuous
 62
     5
100
AcDbLine
 10
1190.518851621052
 20
-398.8193645326163
 30
0.0
 11
1230.518851621052
 21
-398.8193645326163
 31
0.0
  0
LINE
  5
6C
330
29
100
AcDbEntity
  8
1
  6
Continuous
 62
     5
100
AcDbLine
 10
1230.518851621052
 20
-398.8193645326163
 30
0.0
 11
1230.518851621052
 21
-405.8193645326161
 31
0.0
  0
LINE
  5
6B
330
29
100
AcDbEntity
  8
1
  6
Continuous
 62
     5
100
AcDbLine
 10
1230.518851621052
 20
-398.8193645326163
 30
0.0
 11
1260.518851621052
 21
-398.8193645326163
 31
0.0
  0
LINE
  5
6A
330
29
100
AcDbEntity
  8
1
  6
Continuous
 62
     5
100
AcDbLine
 10
1190.518851621052
 20
-405.8193645326161
 30
0.0
 11
1230.518851621052
 21
-405.8193645326161
 31
0.0
  0
ENDBLK
  5
1C1
330
29
100
AcDbEntity
  8
0
100
AcDbBlockEnd
  0
BLOCK
  5
2C
330
2B
100
AcDbEntity
  8
0
100
AcDbBlockBegin
  2
FORMAT_A3
 70
     0
 10
1273.684356479522
 20
-1004.361612103381
 30
0.0
  3
FORMAT_A3
  1

  0
LINE
  5
1C5
330
2B
100
AcDbEntity
  8
1
  6
Continuous
 62
     7
100
AcDbLine
 10
885.518851621051
 20
-229.8193645326155
 30
0.0
 11
885.5188516210507
 21
-499.8193645326145
 31
0.0
  0
LINE
  5
1C4
330
2B
100
AcDbEntity
  8
1
  6
Continuous
 62
     7
100
AcDbLine
 10
1260.518851621052
 20
-229.8193645326163
 30
0.0
 11
885.518851621051
 21
-229.8193645326155
 31
0.0
  0
LINE
  5
1C3
330
2B
100
AcDbEntity
  8
1
  6
Continuous
 62
     7
100
AcDbLine
 10
1260.518851621052
 20
-447.8193645326155
 30
0.0
 11
1260.518851621052
 21
-229.8193645326163
 31
0.0
  0
LINE
  5
1C2
330
2B
100
AcDbEntity
  8
1
  6
Continuous
 62
     7
100
AcDbLine
 10
1080.518851621051
 20
-499.8193645326151
 30
0.0
 11
885.5188516210507
 21
-499.8193645326145
 31
0.0
  0
INSERT
  5
2D
330
2B
100
AcDbEntity
  8
0
100
AcDbBlockReference
  2
______
 10
892.9388153301088
 20
-1025.987275808004
 30
0.0
  0
ENDBLK
  5
1C6
330
2B
100
AcDbEntity
  8
0
100
AcDbBlockEnd
  0
BLOCK
  5
2F
330
2E
100
AcDbEntity
  8
0
100
AcDbBlockBegin
  2
_6
 70
     0
 10
244.789476986361
 20
-963.4008979154755
 30
0.0
  3
_6
  1

  0
INSERT
  5
30
330
2E
100
AcDbEntity
  8
0
100
AcDbBlockReference
  2
FORMAT_A3
 10
560.372229415597
 20
-1068.023838346402
 30
0.0
  0
ENDBLK
  5
1C7
330
2E
100
AcDbEntity
  8
0
100
AcDbBlockEnd
  0
BLOCK
  5
32
330
31
100
AcDbEntity
  8
0
100
AcDbBlockBegin
  2
_1
 70
     0
 10
339.7996557213389
 20
-803.6860645894231
 30
0.0
  3
_1
  1

  0
ARC
  5
1D9
330
31
100
AcDbEntity
  8
1
  6
Continuous
 62
     7
100
AcDbCircle
 10
265.7780903980947
 20
-361.1567851612467
 30
0.0
 40
7.89999999999992
100
AcDbArc
 50
90.0
 51
180.0
  0
ARC
  5
1D8
330
31
100
AcDbEntity
  8
1
  6
Continuous
 62
     7
100
AcDbCircle
 10
265.7780903980947
 20
-361.1567851612467
 30
0.0
 40
7.89999999999986
100
AcDbArc
 50
0.0
 51
90.0
  0
LINE
  5
1D7
330
31
100
AcDbEntity
  8
1
  6
Continuous
 62
     7
100
AcDbLine
 10
257.8780903980947
 20
-398.2567851612466
 30
0.0
 11
273.6780903980947
 21
-398.2567851612466
 31
0.0
  0
LINE
  5
1D6
330
31
100
AcDbEntity
  8
1
  6
Continuous
 62
     7
100
AcDbLine
 10
273.6780903980947
 20
-398.2567851612466
 30
0.0
 11
273.6780903980946
 21
-361.1567851612467
 31
0.0
  0
LINE
  5
1D5
330
31
100
AcDbEntity
  8
1
  6
Continuous
 62
     7
100
AcDbLine
 10
363.2996557213393
 20
-398.2567851612466
 30
0.0
 11
383.3746557213394
 21
-398.2567851612466
 31
0.0
  0
LINE
  5
1D4
330
31
100
AcDbEntity
  8
1
  6
Continuous
 62
     7
100
AcDbLine
 10
383.3746557213394
 20
-398.2567851612466
 30
0.0
 11
390.2246557213393
 21
-398.2567851612466
 31
0.0
  0
LINE
  5
1D3
330
31
100
AcDbEntity
  8
1
  6
Continuous
 62
     7
100
AcDbLine
 10
257.8780903980947
 20
-361.1567851612467
 30
0.0
 11
257.8780903980947
 21
-398.2567851612466
 31
0.0
  0
LINE
  5
1D2
330
31
100
AcDbEntity
  8
1
  6
DOT_CENTER
 62
     2
100
AcDbLine
 10
386.7996557213393
 20
-348.2567851612468
 30
0.0
 11
386.7996557213393
 21
-419.7084557033177
 31
0.0
  0
LINE
  5
1D1
330
31
100
AcDbEntity
  8
1
  6
Continuous
 62
     7
100
AcDbLine
 10
394.7996557213393
 20
-398.2567851612466
 30
0.0
 11
395.7996557213393
 21
-398.2567851612466
 31
0.0
  0
LINE
  5
1D0
330
31
100
AcDbEntity
  8
1
  6
Continuous
 62
     7
100
AcDbLine
 10
363.2996557213393
 20
-353.2567851612467
 30
0.0
 11
363.2996557213393
 21
-398.2567851612466
 31
0.0
  0
LINE
  5
1CF
330
31
100
AcDbEntity
  8
1
  6
Continuous
 62
     7
100
AcDbLine
 10
394.7996557213393
 20
-353.2567851612467
 30
0.0
 11
363.2996557213393
 21
-353.2567851612467
 31
0.0
  0
LINE
  5
1CE
330
31
100
AcDbEntity
  8
1
  6
Continuous
 62
     7
100
AcDbLine
 10
395.7996557213393
 20
-398.2567851612466
 30
0.0
 11
395.7996557213393
 21
-354.2567851612468
 31
0.0
  0
LINE
  5
1CD
330
31
100
AcDbEntity
  8
1
  6
Continuous
 62
     7
100
AcDbLine
 10
394.7996557213393
 20
-353.2567851612467
 30
0.0
 11
395.7996557213393
 21
-354.2567851612468
 31
0.0
  0
LINE
  5
1CC
330
31
100
AcDbEntity
  8
1
  6
Continuous
 62
     7
100
AcDbLine
 10
394.7996557213393
 20
-398.2567851612466
 30
0.0
 11
394.7996557213393
 21
-353.2567851612467
 31
0.0
  0
LINE
  5
1CB
330
31
100
AcDbEntity
  8
1
  6
Continuous
 62
     7
100
AcDbLine
 10
390.2246557213393
 20
-398.2567851612466
 30
0.0
 11
394.7996557213393
 21
-398.2567851612466
 31
0.0
  0
LINE
  5
1CA
330
31
100
AcDbEntity
  8
1
  6
DOT_CENTER
 62
     2
100
AcDbLine
 10
367.7996557213393
 20
-351.2567851612467
 30
0.0
 11
367.7996557213393
 21
-356.7567851612468
 31
0.0
  0
LINE
  5
1C9
330
31
100
AcDbEntity
  8
1
  6
DOT_CENTER
 62
     2
100
AcDbLine
 10
389.7996557213393
 20
-356.7567851612468
 30
0.0
 11
389.7996557213393
 21
-351.2567851612467
 31
0.0
  0
LINE
  5
1C8
330
31
100
AcDbEntity
  8
1
  6
DOT_CENTER
 62
     2
100
AcDbLine
 10
397.7996557213393
 20
-386.2567851612466
 30
0.0
 11
392.2996557213393
 21
-386.2567851612466
 31
0.0
  0
ENDBLK
  5
1DA
330
31
100
AcDbEntity
  8
0
100
AcDbBlockEnd
  0
BLOCK
  5
34
330
33
100
AcDbEntity
  8
0
100
AcDbBlockBegin
  2
_2
 70
     0
 10
269.260102351672
 20
-803.186064589423
 30
0.0
  3
_2
  1

  0
LINE
  5
1E1
330
33
100
AcDbEntity
  8
1
  6
Continuous
 62
     7
100
AcDbLine
 10
362.7996557213393
 20
-398.2567851612466
 30
0.0
 11
363.2996557213393
 21
-398.2567851612466
 31
0.0
  0
LINE
  5
1E0
330
33
100
AcDbEntity
  8
1
  6
Continuous
 62
     7
100
AcDbLine
 10
359.2996557213393
 20
-353.7567851612467
 30
0.0
 11
359.2996557213393
 21
-398.2567851612466
 31
0.0
  0
LINE
  5
1DF
330
33
100
AcDbEntity
  8
1
  6
Continuous
 62
     7
100
AcDbLine
 10
362.7996557213393
 20
-353.7567851612467
 30
0.0
 11
359.2996557213393
 21
-353.7567851612467
 31
0.0
  0
LINE
  5
1DE
330
33
100
AcDbEntity
  8
1
  6
Continuous
 62
     7
100
AcDbLine
 10
363.2996557213393
 20
-398.2567851612466
 30
0.0
 11
363.2996557213393
 21
-354.2567851612468
 31
0.0
  0
LINE
  5
1DD
330
33
100
AcDbEntity
  8
1
  6
Continuous
 62
     7
100
AcDbLine
 10
362.7996557213393
 20
-353.7567851612467
 30
0.0
 11
363.2996557213393
 21
-354.2567851612468
 31
0.0
  0
LINE
  5
1DC
330
33
100
AcDbEntity
  8
1
  6
Continuous
 62
     7
100
AcDbLine
 10
362.7996557213393
 20
-398.2567851612466
 30
0.0
 11
362.7996557213393
 21
-353.7567851612467
 31
0.0
  0
LINE
  5
1DB
330
33
100
AcDbEntity
  8
1
  6
Continuous
 62
     7
100
AcDbLine
 10
359.2996557213393
 20
-398.2567851612466
 30
0.0
 11
362.7996557213393
 21
-398.2567851612466
 31
0.0
  0
ENDBLK
  5
1E2
330
33
100
AcDbEntity
  8
0
100
AcDbBlockEnd
  0
BLOCK
  5
36
330
35
100
AcDbEntity
  8
0
100
AcDbBlockBegin
  2
_3
 70
     0
 10
-151.7219096019057
 20
-705.5048224122304
 30
0.0
  3
_3
  1

  0
LINE
  5
1E8
330
35
100
AcDbEntity
  8
1
  6
Continuous
 62
     7
100
AcDbLine
 10
389.2996557213393
 20
-407.2084557033177
 30
0.0
 11
384.2996557213393
 21
-407.2084557033177
 31
0.0
  0
LINE
  5
1E7
330
35
100
AcDbEntity
  8
1
  6
Continuous
 62
     7
100
AcDbLine
 10
384.2996557213393
 20
-407.2084557033177
 30
0.0
 11
384.2996557213393
 21
-398.2567851612466
 31
0.0
  0
LINE
  5
1E6
330
35
100
AcDbEntity
  8
1
  6
Continuous
 62
     7
100
AcDbLine
 10
389.2996557213393
 20
-398.2567851612466
 30
0.0
 11
389.2996557213393
 21
-407.2084557033177
 31
0.0
  0
LINE
  5
1E5
330
35
100
AcDbEntity
  8
1
  6
Continuous
 62
     7
100
AcDbLine
 10
268.2780903980947
 20
-407.2084557033177
 30
0.0
 11
263.2780903980947
 21
-407.2084557033177
 31
0.0
  0
LINE
  5
1E4
330
35
100
AcDbEntity
  8
1
  6
Continuous
 62
     7
100
AcDbLine
 10
263.2780903980947
 20
-407.2084557033177
 30
0.0
 11
263.2780903980947
 21
-398.2567851612466
 31
0.0
  0
LINE
  5
1E3
330
35
100
AcDbEntity
  8
1
  6
Continuous
 62
     7
100
AcDbLine
 10
268.2780903980947
 20
-398.2567851612466
 30
0.0
 11
268.2780903980947
 21
-407.2084557033177
 31
0.0
  0
ENDBLK
  5
1E9
330
35
100
AcDbEntity
  8
0
100
AcDbBlockEnd
  0
BLOCK
  5
38
330
37
100
AcDbEntity
  8
0
100
AcDbBlockBegin
  2
_4
 70
     0
 10
-152.3719096019057
 20
-706.0048224122303
 30
0.0
  3
_4
  1

  0
LINE
  5
1F1
330
37
100
AcDbEntity
  8
1
  6
Continuous
 62
     7
100
AcDbLine
 10
389.9496557213394
 20
-407.7084557033177
 30
0.0
 11
389.9496557213394
 21
-407.2084557033177
 31
0.0
  0
LINE
  5
1F0
330
37
100
AcDbEntity
  8
1
  6
Continuous
 62
     7
100
AcDbLine
 10
383.6496557213393
 20
-407.7084557033177
 30
0.0
 11
389.9496557213394
 21
-407.7084557033177
 31
0.0
  0
LINE
  5
1EF
330
37
100
AcDbEntity
  8
1
  6
Continuous
 62
     7
100
AcDbLine
 10
383.6496557213393
 20
-407.2084557033177
 30
0.0
 11
383.6496557213393
 21
-407.7084557033177
 31
0.0
  0
LINE
  5
1EE
330
37
100
AcDbEntity
  8
1
  6
Continuous
 62
     7
100
AcDbLine
 10
389.9496557213394
 20
-407.2084557033177
 30
0.0
 11
383.6496557213393
 21
-407.2084557033177
 31
0.0
  0
LINE
  5
1ED
330
37
100
AcDbEntity
  8
1
  6
Continuous
 62
     7
100
AcDbLine
 10
268.9280903980947
 20
-407.7084557033177
 30
0.0
 11
268.9280903980947
 21
-407.2084557033177
 31
0.0
  0
LINE
  5
1EC
330
37
100
AcDbEntity
  8
1
  6
Continuous
 62
     7
100
AcDbLine
 10
262.6280903980947
 20
-407.7084557033177
 30
0.0
 11
268.9280903980947
 21
-407.7084557033177
 31
0.0
  0
LINE
  5
1EB
330
37
100
AcDbEntity
  8
1
  6
Continuous
 62
     7
100
AcDbLine
 10
262.6280903980947
 20
-407.2084557033177
 30
0.0
 11
262.6280903980947
 21
-407.7084557033177
 31
0.0
  0
LINE
  5
1EA
330
37
100
AcDbEntity
  8
1
  6
Continuous
 62
     7
100
AcDbLine
 10
268.9280903980947
 20
-407.2084557033177
 30
0.0
 11
262.6280903980947
 21
-407.2084557033177
 31
0.0
  0
ENDBLK
  5
1F2
330
37
100
AcDbEntity
  8
0
100
AcDbBlockEnd
  0
BLOCK
  5
3A
330
39
100
AcDbEntity
  8
0
100
AcDbBlockBegin
  2
_5
 70
     0
 10
-157.2219096019058
 20
-713.0048224122304
 30
0.0
  3
_5
  1

  0
ARC
  5
202
330
39
100
AcDbEntity
  8
1
  6
Continuous
 62
     7
100
AcDbCircle
 10
379.2996557213393
 20
-413.6114901918572
 30
0.0
 40
0.5
100
AcDbArc
 50
180.0
 51
-119.9999999999875
  0
ARC
  5
201
330
39
100
AcDbEntity
  8
1
  6
Continuous
 62
     7
100
AcDbCircle
 10
394.2996557213393
 20
-413.6114901918572
 30
0.0
 40
0.50000000000019
100
AcDbArc
 50
-60.00000000001249
 51
0.0
  0
ARC
  5
200
330
39
100
AcDbEntity
  8
1
  6
Continuous
 62
     7
100
AcDbCircle
 10
258.2780903980947
 20
-413.6114901918572
 30
0.0
 40
0.5
100
AcDbArc
 50
180.0
 51
-119.9999999999875
  0
ARC
  5
1FF
330
39
100
AcDbEntity
  8
1
  6
Continuous
 62
     7
100
AcDbCircle
 10
273.2780903980947
 20
-413.6114901918572
 30
0.0
 40
0.50000000000019
100
AcDbArc
 50
-60.00000000001249
 51
0.0
  0
LINE
  5
1FE
330
39
100
AcDbEntity
  8
1
  6
Continuous
 62
     7
100
AcDbLine
 10
378.7996557213393
 20
-413.6114901918572
 30
0.0
 11
378.7996557213393
 21
-407.7084557033177
 31
0.0
  0
LINE
  5
1FD
330
39
100
AcDbEntity
  8
1
  6
Continuous
 62
     7
100
AcDbLine
 10
380.1996557213394
 20
-414.7084557033177
 30
0.0
 11
379.0496557213393
 21
-414.0445028937496
 31
0.0
  0
LINE
  5
1FC
330
39
100
AcDbEntity
  8
1
  6
Continuous
 62
     7
100
AcDbLine
 10
393.3996557213394
 20
-414.7084557033177
 30
0.0
 11
380.1996557213394
 21
-414.7084557033177
 31
0.0
  0
LINE
  5
1FB
330
39
100
AcDbEntity
  8
1
  6
Continuous
 62
     7
100
AcDbLine
 10
394.5496557213393
 20
-414.0445028937496
 30
0.0
 11
393.3996557213394
 21
-414.7084557033177
 31
0.0
  0
LINE
  5
1FA
330
39
100
AcDbEntity
  8
1
  6
Continuous
 62
     7
100
AcDbLine
 10
394.7996557213393
 20
-407.7084557033177
 30
0.0
 11
394.7996557213393
 21
-413.6114901918572
 31
0.0
  0
LINE
  5
1F9
330
39
100
AcDbEntity
  8
1
  6
Continuous
 62
     7
100
AcDbLine
 10
394.7996557213393
 20
-407.7084557033177
 30
0.0
 11
378.7996557213393
 21
-407.7084557033177
 31
0.0
  0
LINE
  5
1F8
330
39
100
AcDbEntity
  8
1
  6
Continuous
 62
     7
100
AcDbLine
 10
257.7780903980947
 20
-413.6114901918572
 30
0.0
 11
257.7780903980947
 21
-407.7084557033177
 31
0.0
  0
LINE
  5
1F7
330
39
100
AcDbEntity
  8
1
  6
Continuous
 62
     7
100
AcDbLine
 10
259.1780903980947
 20
-414.7084557033177
 30
0.0
 11
258.0280903980947
 21
-414.0445028937496
 31
0.0
  0
LINE
  5
1F6
330
39
100
AcDbEntity
  8
1
  6
Continuous
 62
     7
100
AcDbLine
 10
272.3780903980947
 20
-414.7084557033177
 30
0.0
 11
259.1780903980947
 21
-414.7084557033177
 31
0.0
  0
LINE
  5
1F5
330
39
100
AcDbEntity
  8
1
  6
Continuous
 62
     7
100
AcDbLine
 10
273.5280903980947
 20
-414.0445028937496
 30
0.0
 11
272.3780903980947
 21
-414.7084557033177
 31
0.0
  0
LINE
  5
1F4
330
39
100
AcDbEntity
  8
1
  6
Continuous
 62
     7
100
AcDbLine
 10
273.7780903980947
 20
-407.7084557033177
 30
0.0
 11
273.7780903980947
 21
-413.6114901918572
 31
0.0
  0
LINE
  5
1F3
330
39
100
AcDbEntity
  8
1
  6
Continuous
 62
     7
100
AcDbLine
 10
273.7780903980947
 20
-407.7084557033177
 30
0.0
 11
257.7780903980947
 21
-407.7084557033177
 31
0.0
  0
ENDBLK
  5
203
330
39
100
AcDbEntity
  8
0
100
AcDbBlockEnd
  0
BLOCK
  5
3C
330
3B
100
AcDbEntity
  8
0
100
AcDbBlockBegin
  2
TOP__1
 70
     0
 10
983.7599266420419
 20
-699.326888585525
 30
0.0
  3
TOP__1
  1

  0
DIMENSION
  5
2FA
330
3B
100
AcDbEntity
  8
1
100
AcDbDimension
  2
*D28
 10
268.2780903980947
 20
-405.1504280446914
 30
0.0
 11
278.1613911366901
 21
-402.4004280446914
 31
0.0
 70
     1
  1
<>
 71
     5
 42
-1.0
 53
0.00013888888889
  3
ME10_DIM_14
100
AcDbAlignedDimension
 13
263.2780903980947
 23
-407.2084557033177
 33
0.0
 14
268.2780903980947
 24
-407.2084557033177
 34
0.0
  0
DIMENSION
  5
2EB
330
3B
100
AcDbEntity
  8
1
100
AcDbDimension
  2
*D27
 10
287.6780903980947
 20
-407.7084557033177
 30
0.0
 11
284.9280903980947
 21
-411.2084557033177
 31
0.0
  1
<>
 71
     5
 42
-1.0
 53
90.0
  3
ME10_DIM_13
100
AcDbAlignedDimension
 13
272.3780903980947
 23
-414.7084557033177
 33
0.0
 14
273.7780903980947
 24
-407.7084557033177
 34
0.0
 50
90.0
100
AcDbRotatedDimension
  0
DIMENSION
  5
2DE
330
3B
100
AcDbEntity
  8
1
100
AcDbDimension
  2
*D26
 10
273.7780903980947
 20
-435.7084557033177
 30
0.0
 11
265.7780903980947
 21
-432.9584557033177
 31
0.0
 70
     1
  1
<>
 71
     5
 42
-1.0
 53
0.00013888888889
  3
ME10_DIM_12
100
AcDbAlignedDimension
 13
257.7780903980947
 23
-413.6114901918572
 33
0.0
 14
273.7780903980947
 24
-413.6114901918572
 34
0.0
  0
DIMENSION
  5
2D1
330
3B
100
AcDbEntity
  8
1
100
AcDbDimension
  2
*D25
 10
294.6780903980947
 20
-353.2567851612467
 30
0.0
 11
291.9280903980947
 21
-375.7567851612466
 31
0.0
  1
<>
 71
     5
 42
-1.0
 53
90.0
  3
ME10_DIM_11
100
AcDbAlignedDimension
 13
273.6780903980947
 23
-398.2567851612466
 33
0.0
 14
265.7780903980947
 24
-353.2567851612467
 34
0.0
 50
90.0
100
AcDbRotatedDimension
  0
DIMENSION
  5
2C4
330
3B
100
AcDbEntity
  8
1
100
AcDbDimension
  2
*D24
 10
367.7996557213393
 20
-332.2567851612467
 30
0.0
 11
363.5496557213393
 21
-329.5067851612467
 31
0.0
  1
<>
 71
     5
 42
-1.0
 53
0.00013888888889
  3
ME10_DIM_10
100
AcDbAlignedDimension
 13
359.2996557213393
 23
-353.7567851612467
 33
0.0
 14
367.7996557213393
 24
-351.2567851612467
 34
0.0
100
AcDbRotatedDimension
  0
DIMENSION
  5
2B7
330
3B
100
AcDbEntity
  8
1
100
AcDbDimension
  2
*D23
 10
386.7996557213393
 20
-332.2567851612467
 30
0.0
 11
377.2996557213393
 21
-329.5067851612467
 31
0.0
  1
<>
 71
     5
 42
-1.0
 53
0.00013888888889
  3
ME10_DIM_9
100
AcDbAlignedDimension
 13
367.7996557213393
 23
-351.2567851612467
 33
0.0
 14
386.7996557213393
 24
-348.2567851612468
 34
0.0
100
AcDbRotatedDimension
  0
DIMENSION
  5
2AA
330
3B
100
AcDbEntity
  8
1
100
AcDbDimension
  2
*D21
 10
389.7996557213393
 20
-332.2567851612467
 30
0.0
 11
388.2996557213393
 21
-329.5067851612467
 31
0.0
  1
<>
 71
     5
 42
-1.0
 53
0.00013888888889
  3
ME10_DIM_8
100
AcDbAlignedDimension
 13
386.7996557213393
 23
-348.2567851612468
 33
0.0
 14
389.7996557213393
 24
-351.2567851612467
 34
0.0
100
AcDbRotatedDimension
  0
DIMENSION
  5
294
330
3B
100
AcDbEntity
  8
1
100
AcDbDimension
  2
*D19
 10
395.7996557213393
 20
-332.2567851612466
 30
0.0
 11
392.7996557213393
 21
-329.5067851612466
 31
0.0
  1
<>
 71
     5
 42
-1.0
 53
0.00013888888889
  3
ME10_DIM_7
100
AcDbAlignedDimension
 13
389.7996557213393
 23
-351.2567851612467
 33
0.0
 14
395.7996557213393
 24
-354.2567851612468
 34
0.0
100
AcDbRotatedDimension
  0
DIMENSION
  5
284
330
3B
100
AcDbEntity
  8
1
100
AcDbDimension
  2
*D18
 10
416.7996557213393
 20
-386.2567851612466
 30
0.0
 11
414.0496557213393
 21
-369.7567851612466
 31
0.0
  1
<>
 71
     5
 42
-1.0
 53
90.0
  3
ME10_DIM_6
100
AcDbAlignedDimension
 13
394.7996557213393
 23
-353.2567851612467
 33
0.0
 14
397.7996557213393
 24
-386.2567851612466
 34
0.0
 50
90.0
100
AcDbRotatedDimension
  0
DIMENSION
  5
277
330
3B
100
AcDbEntity
  8
1
100
AcDbDimension
  2
*D17
 10
416.7996557213393
 20
-398.2567851612466
 30
0.0
 11
414.0496557213393
 21
-392.2567851612466
 31
0.0
  1
<>
 71
     5
 42
-1.0
 53
90.0
  3
ME10_DIM_5
100
AcDbAlignedDimension
 13
397.7996557213393
 23
-386.2567851612466
 33
0.0
 14
395.7996557213393
 24
-398.2567851612466
 34
0.0
 50
90.0
100
AcDbRotatedDimension
  0
DIMENSION
  5
26A
330
3B
100
AcDbEntity
  8
1
100
AcDbDimension
  2
*D16
 10
386.7996557213393
 20
-435.7084557033177
 30
0.0
 11
373.0496557213393
 21
-432.9584557033177
 31
0.0
  1
<>
 71
     5
 42
-1.0
 53
0.00013888888889
  3
ME10_DIM_4
100
AcDbAlignedDimension
 13
359.2996557213393
 23
-398.2567851612466
 33
0.0
 14
386.7996557213393
 24
-419.7084557033177
 34
0.0
100
AcDbRotatedDimension
  0
DIMENSION
  5
25D
330
3B
100
AcDbEntity
  8
1
100
AcDbDimension
  2
*D15
 10
273.6780903980947
 20
-332.2567851612466
 30
0.0
 11
265.7780903980947
 21
-329.5067851612466
 31
0.0
 70
     1
  1
<>
 71
     5
 42
-1.0
 53
0.00013888888889
  3
ME10_DIM_3
100
AcDbAlignedDimension
 13
257.8780903980947
 23
-361.1567851612467
 33
0.0
 14
273.6780903980946
 24
-361.1567851612467
 34
0.0
  0
DIMENSION
  5
250
330
3B
100
AcDbEntity
  8
1
100
AcDbDimension
  2
*D14
 10
416.7996557213393
 20
-407.2084557033177
 30
0.0
 11
414.0496557213393
 21
-417.1832681849343
 31
0.0
  1
5.5\U+0081`12.5
 71
     5
 42
-1.0
 53
90.0
  3
ME10_DIM_2
100
AcDbAlignedDimension
 13
395.7996557213393
 23
-398.2567851612466
 33
0.0
 14
389.9496557213394
 24
-407.2084557033177
 34
0.0
 50
90.0
100
AcDbRotatedDimension
  0
DIMENSION
  5
242
330
3B
100
AcDbEntity
  8
1
100
AcDbDimension
  2
*D13
 10
395.7996557213393
 20
-325.2567851612466
 30
0.0
 11
369.0496557213393
 21
-322.5067851612466
 31
0.0
  1
<>
 71
     5
 42
-1.0
 53
0.00013888888889
  3
ME10_DIM_1
100
AcDbAlignedDimension
 13
342.2996557213394
 23
-353.7567851612466
 33
0.0
 14
395.7996557213393
 24
-354.2567851612468
 34
0.0
100
AcDbRotatedDimension
  0
DIMENSION
  5
235
330
3B
100
AcDbEntity
  8
1
100
AcDbDimension
  2
*D11
 10
342.2996557213394
 20
-332.2567851612467
 30
0.0
 11
350.7996557213393
 21
-329.5067851612467
 31
0.0
 70
     1
  1
<>
 71
     5
 42
-1.0
 53
0.00013888888889
  3
ME10_DIM_0
100
AcDbAlignedDimension
 13
359.2996557213393
 23
-353.7567851612467
 33
0.0
 14
342.2996557213394
 24
-353.7567851612466
 34
0.0
  0
MTEXT
  5
221
330
3B
100
AcDbEntity
  8
1
 62
     3
100
AcDbMText
 10
320.0601023516723
 20
-368.1343711125064
 30
0.0
 40
7.0
 41
0.0
 71
     5
 72
     1
  1
5
  7
CONVERTER_1
 73
     1
 44
1.0
1001
ACAD
1000
MTEXTBEGIN
1070
    73
1070
     1
1070
    44
1040
1.0
1070
    74
1070
     0
1000
MTEXTEND
  0
MTEXT
  5
220
330
3B
100
AcDbEntity
  8
1
 62
     3
100
AcDbMText
 10
320.0601023516723
 20
-351.1343711125064
 30
0.0
 40
7.0
 41
0.0
 71
     5
 72
     1
  1
2
  7
CONVERTER_1
 73
     1
 44
1.0
1001
ACAD
1000
MTEXTBEGIN
1070
    73
1070
     1
1070
    44
1040
1.0
1070
    74
1070
     0
1000
MTEXTEND
  0
MTEXT
  5
21F
330
3B
100
AcDbEntity
  8
1
 62
     3
100
AcDbMText
 10
320.0601023516723
 20
-334.4443044365852
 30
0.0
 40
7.0
 41
0.0
 71
     6
 72
     1
  1
1
  7
CONVERTER_1
 73
     1
 44
1.0
1001
ACAD
1000
MTEXTBEGIN
1070
    73
1070
     1
1070
    44
1040
1.0
1070
    74
1070
     0
1000
MTEXTEND
  0
MTEXT
  5
21E
330
3B
100
AcDbEntity
  8
1
 62
     3
100
AcDbMText
 10
320.0601023516723
 20
-427.7973632896412
 30
0.0
 40
7.0
 41
0.0
 71
     5
 72
     1
  1
4
  7
CONVERTER_1
 73
     1
 44
1.0
1001
ACAD
1000
MTEXTBEGIN
1070
    73
1070
     1
1070
    44
1040
1.0
1070
    74
1070
     0
1000
MTEXTEND
  0
MTEXT
  5
21D
330
3B
100
AcDbEntity
  8
1
 62
     3
100
AcDbMText
 10
320.0601023516723
 20
-411.4893870132993
 30
0.0
 40
7.0
 41
0.0
 71
     5
 72
     1
  1
3
  7
CONVERTER_1
 73
     1
 44
1.0
1001
ACAD
1000
MTEXTBEGIN
1070
    73
1070
     1
1070
    44
1040
1.0
1070
    74
1070
     0
1000
MTEXTEND
  0
MTEXT
  5
21C
330
3B
100
AcDbEntity
  8
1
 62
     3
100
AcDbMText
 10
231.256185120855
 20
-399.3132436343744
 30
0.0
 40
7.0
 41
0.0
 71
     5
 72
     1
  1
7
  7
CONVERTER_1
 73
     1
 44
1.0
1001
ACAD
1000
MTEXTBEGIN
1070
    73
1070
     1
1070
    44
1040
1.0
1070
    74
1070
     0
1000
MTEXTEND
  0
LEADER
  5
21B
330
3B
100
AcDbEntity
  8
1
  6
Continuous
 62
     2
100
AcDbLeader
  3
STANDARD
 71
     0
 76
     2
 10
342.2996557213394
 20
-383.4567321276073
 30
0.0
 10
323.8903245672671
 20
-371.3483091609392
 30
0.0
  0
LEADER
  5
218
330
3B
100
AcDbEntity
  8
1
  6
Continuous
 62
     2
100
AcDbLeader
  3
STANDARD
 71
     0
 76
     2
 10
360.6565235637703
 20
-378.5306482475976
 30
0.0
 10
323.8903245672671
 20
-354.3483091609392
 30
0.0
  0
LEADER
  5
215
330
3B
100
AcDbEntity
  8
1
  6
Continuous
 62
     2
100
AcDbLeader
  3
STANDARD
 71
     0
 76
     2
 10
369.1997011553748
 20
-369.0091587378729
 30
0.0
 10
323.8903245672671
 20
-337.6582424850177
 30
0.0
  0
LEADER
  5
212
330
3B
100
AcDbEntity
  8
1
  6
Continuous
 62
     2
100
AcDbLeader
  3
STANDARD
 71
     0
 76
     2
 10
378.7996557213393
 20
-413.6114901918572
 30
0.0
 10
324.9519926245417
 20
-426.7632406865586
 30
0.0
  0
LEADER
  5
20F
330
3B
100
AcDbEntity
  8
1
  6
Continuous
 62
     2
100
AcDbLeader
  3
STANDARD
 71
     0
 76
     2
 10
384.2996557213393
 20
-401.6895479753343
 30
0.0
 10
325.059474530556
 20
-411.5686196896694
 30
0.0
  0
LEADER
  5
20C
330
3B
100
AcDbEntity
  8
1
  6
Continuous
 62
     2
100
AcDbLeader
  3
STANDARD
 71
     0
 76
     2
 10
262.6280903980947
 20
-407.2084557033177
 30
0.0
 10
236.2117184651955
 20
-399.9785926203458
 30
0.0
  0
LWPOLYLINE
  5
209
330
3B
100
AcDbEntity
  8
1
  6
Continuous
 62
     2
100
AcDbPolyline
 90
        2
 70
     1
 43
0.0
 10
319.9894038690036
 20
-373.1338712599762
 42
1.0
 10
320.1308008343413
 20
-363.1348709650364
 42
1.0
  0
LWPOLYLINE
  5
208
330
3B
100
AcDbEntity
  8
1
  6
Continuous
 62
     2
100
AcDbPolyline
 90
        2
 70
     1
 43
0.0
 10
319.9894038690036
 20
-356.1338712599763
 42
1.0
 10
320.1308008343413
 20
-346.1348709650364
 42
1.0
  0
LWPOLYLINE
  5
207
330
3B
100
AcDbEntity
  8
1
  6
Continuous
 62
     2
100
AcDbPolyline
 90
        2
 70
     1
 43
0.0
 10
319.9894038690036
 20
-339.4438045840545
 42
1.0
 10
320.1308008343413
 20
-329.4448042891158
 42
1.0
  0
LWPOLYLINE
  5
206
330
3B
100
AcDbEntity
  8
1
  6
Continuous
 62
     2
100
AcDbPolyline
 90
        2
 70
     1
 43
0.0
 10
320.1308008343412
 20
-432.7968634371107
 42
1.0
 10
319.9894038690036
 20
-422.7978631421717
 42
1.0
  0
LWPOLYLINE
  5
205
330
3B
100
AcDbEntity
  8
1
  6
Continuous
 62
     2
100
AcDbPolyline
 90
        2
 70
     1
 43
0.0
 10
320.1308008343412
 20
-416.4888871607686
 42
1.0
 10
319.9894038690036
 20
-406.4898868658302
 42
1.0
  0
LWPOLYLINE
  5
204
330
3B
100
AcDbEntity
  8
1
  6
Continuous
 62
     2
100
AcDbPolyline
 90
        2
 70
     1
 43
0.0
 10
231.1854866381862
 20
-394.3137434869046
 42
1.0
 10
231.3268836035238
 20
-404.312743781844
 42
1.0
  0
INSERT
  5
3D
330
3B
100
AcDbEntity
  8
1
100
AcDbBlockReference
  2
_______T________________M4
 10
228.246883391972
 20
-667.6810726716619
 30
0.0
  0
INSERT
  5
3E
330
3B
100
AcDbEntity
  8
1
100
AcDbBlockReference
  2
_7
 10
-206.8501175299398
 20
-718.0048224122304
 30
0.0
  0
INSERT
  5
3F
330
3B
100
AcDbEntity
  8
1
100
AcDbBlockReference
  2
_6
 10
244.789476986361
 20
-963.4008979154755
 30
0.0
  0
INSERT
  5
40
330
3B
100
AcDbEntity
  8
1
100
AcDbBlockReference
  2
_1
 10
339.7996557213389
 20
-803.6860645894231
 30
0.0
  0
INSERT
  5
41
330
3B
100
AcDbEntity
  8
1
100
AcDbBlockReference
  2
_2
 10
269.260102351672
 20
-803.186064589423
 30
0.0
  0
INSERT
  5
42
330
3B
100
AcDbEntity
  8
1
100
AcDbBlockReference
  2
_3
 10
-151.7219096019057
 20
-705.5048224122304
 30
0.0
  0
INSERT
  5
43
330
3B
100
AcDbEntity
  8
1
100
AcDbBlockReference
  2
_4
 10
-152.3719096019057
 20
-706.0048224122303
 30
0.0
  0
INSERT
  5
44
330
3B
100
AcDbEntity
  8
1
100
AcDbBlockReference
  2
_5
 10
-157.2219096019058
 20
-713.0048224122304
 30
0.0
  0
LINE
  5
20A
330
3B
100
AcDbEntity
  8
1
 62
     2
100
AcDbLine
 10
262.6280903980947
 20
-407.2084557033177
 30
0.0
 11
260.0399369502666
 21
-407.194615859615
 31
0.0
  0
LINE
  5
20B
330
3B
100
AcDbEntity
  8
1
 62
     2
100
AcDbLine
 10
262.6280903980947
 20
-407.2084557033177
 30
0.0
 11
260.3936036852346
 21
-405.9023933231728
 31
0.0
  0
LINE
  5
20D
330
3B
100
AcDbEntity
  8
1
 62
     2
100
AcDbLine
 10
384.2996557213393
 20
-401.6895479753343
 30
0.0
 11
381.9438978399282
 21
-402.7615249410136
 31
0.0
  0
LINE
  5
20E
330
3B
100
AcDbEntity
  8
1
 62
     2
100
AcDbLine
 10
384.2996557213393
 20
-401.6895479753343
 30
0.0
 11
381.7235210680321
 21
-401.4400283191788
 31
0.0
  0
LINE
  5
210
330
3B
100
AcDbEntity
  8
1
 62
     2
100
AcDbLine
 10
378.7996557213393
 20
-413.6114901918572
 30
0.0
 11
376.5299815301703
 21
-414.8553989010151
 31
0.0
  0
LINE
  5
211
330
3B
100
AcDbEntity
  8
1
 62
     2
100
AcDbLine
 10
378.7996557213393
 20
-413.6114901918572
 30
0.0
 11
376.2121058588941
 21
-413.5539096383921
 31
0.0
  0
LINE
  5
213
330
3B
100
AcDbEntity
  8
1
 62
     2
100
AcDbLine
 10
369.1997011553748
 20
-369.0091587378729
 30
0.0
 11
366.762699616422
 21
-368.1375204471125
 31
0.0
  0
LINE
  5
214
330
3B
100
AcDbEntity
  8
1
 62
     2
100
AcDbLine
 10
369.1997011553748
 20
-369.0091587378729
 30
0.0
 11
367.5250150589602
 21
-367.0357970656869
 31
0.0
  0
LINE
  5
216
330
3B
100
AcDbEntity
  8
1
 62
     2
100
AcDbLine
 10
360.6565235637703
 20
-378.5306482475976
 30
0.0
 11
358.199715640816
 21
-377.7165078171517
 31
0.0
  0
LINE
  5
217
330
3B
100
AcDbEntity
  8
1
 62
     2
100
AcDbLine
 10
360.6565235637703
 20
-378.5306482475976
 30
0.0
 11
358.935935705496
 21
-376.5971779911063
 31
0.0
  0
LINE
  5
219
330
3B
100
AcDbEntity
  8
1
 62
     2
100
AcDbLine
 10
342.2996557213394
 20
-383.4567321276073
 30
0.0
 11
339.8428477983849
 21
-382.6425916971615
 31
0.0
  0
LINE
  5
21A
330
3B
100
AcDbEntity
  8
1
 62
     2
100
AcDbLine
 10
342.2996557213394
 20
-383.4567321276073
 30
0.0
 11
340.5790678630649
 21
-381.523261871116
 31
0.0
  0
ENDBLK
  5
2FB
330
3B
100
AcDbEntity
  8
0
100
AcDbBlockEnd
  0
BLOCK
  5
223
330
222
100
AcDbEntity
  8
0
100
AcDbBlockBegin
  2
*D11
 70
     1
 10
0.0
 20
0.0
 30
0.0
  3
*D11
  1

  0
LINE
  5
224
330
222
100
AcDbEntity
  8
0
  6
Continuous
 62
     2
100
AcDbLine
 10
342.2996557213394
 20
-332.2567851612467
 30
0.0
 11
359.2996557213393
 21
-332.2567851612467
 31
0.0
  0
LINE
  5
225
330
222
100
AcDbEntity
  8
0
  6
Continuous
 62
     2
100
AcDbLine
 10
342.2996557213394
 20
-352.7567851612466
 30
0.0
 11
342.2996557213394
 21
-331.2567851612467
 31
0.0
  0
LINE
  5
226
330
222
100
AcDbEntity
  8
0
  6
Continuous
 62
     2
100
AcDbLine
 10
359.2996557213393
 20
-352.7567851612467
 30
0.0
 11
359.2996557213393
 21
-331.2567851612467
 31
0.0
  0
LINE
  5
227
330
222
100
AcDbEntity
  8
0
 62
     2
100
AcDbLine
 10
342.2996557213394
 20
-332.2567851612467
 30
0.0
 11
344.7496557213394
 21
-331.6003096397904
 31
0.0
  0
LINE
  5
228
330
222
100
AcDbEntity
  8
0
 62
     2
100
AcDbLine
 10
342.2996557213394
 20
-332.2567851612467
 30
0.0
 11
344.7496557213394
 21
-332.9132606827029
 31
0.0
  0
LINE
  5
229
330
222
100
AcDbEntity
  8
0
 62
     2
100
AcDbLine
 10
359.2996557213393
 20
-332.2567851612467
 30
0.0
 11
356.8496557213393
 21
-332.9132606827029
 31
0.0
  0
LINE
  5
22A
330
222
100
AcDbEntity
  8
0
 62
     2
100
AcDbLine
 10
359.2996557213393
 20
-332.2567851612467
 30
0.0
 11
356.8496557213393
 21
-331.6003096397904
 31
0.0
  0
MTEXT
  5
22C
330
222
100
AcDbEntity
  8
0
 62
     3
100
AcDbMText
 10
349.3296557213394
 20
-331.2567851612467
 30
0.0
 40
3.5
 41
0.0
 71
     7
 72
     1
  1
17
  7
CONVERTER_5
 11
0.999999999997062
 21
0.00000242406841
 31
0.0
 73
     1
 44
1.0
1001
ACAD
1000
MTEXTBEGIN
1070
    73
1070
     1
1070
    44
1040
1.0
1070
    74
1070
     0
1000
MTEXTEND
  0
ENDBLK
  5
22D
330
222
100
AcDbEntity
  8
0
100
AcDbBlockEnd
  0
BLOCK
  5
22F
330
22E
100
AcDbEntity
  8
0
 62
     0
100
AcDbBlockBegin
  2
_OPEN30
 70
     0
 10
0.0
 20
0.0
 30
0.0
  3
_OPEN30
  1

  0
LINE
  5
230
330
22E
100
AcDbEntity
  8
0
  6
ByBlock
 62
     0
100
AcDbLine
 10
-1.0
 20
0.267949
 30
0.0
 11
0.0
 21
0.0
 31
0.0
  0
LINE
  5
231
330
22E
100
AcDbEntity
  8
0
  6
ByBlock
 62
     0
100
AcDbLine
 10
0.0
 20
0.0
 30
0.0
 11
-1.0
 21
-0.267949
 31
0.0
  0
LINE
  5
232
330
22E
100
AcDbEntity
  8
0
  6
ByBlock
 62
     0
100
AcDbLine
 10
0.0
 20
0.0
 30
0.0
 11
-1.0
 21
0.0
 31
0.0
  0
ENDBLK
  5
233
330
22E
100
AcDbEntity
  8
0
 62
     0
100
AcDbBlockEnd
  0
BLOCK
  5
237
330
236
100
AcDbEntity
  8
0
100
AcDbBlockBegin
  2
*D13
 70
     1
 10
0.0
 20
0.0
 30
0.0
  3
*D13
  1

  0
LINE
  5
238
330
236
100
AcDbEntity
  8
0
  6
Continuous
 62
     2
100
AcDbLine
 10
342.2996557213394
 20
-325.2567851612466
 30
0.0
 11
395.7996557213393
 21
-325.2567851612466
 31
0.0
  0
LINE
  5
239
330
236
100
AcDbEntity
  8
0
  6
Continuous
 62
     2
100
AcDbLine
 10
342.2996557213394
 20
-352.7567851612466
 30
0.0
 11
342.2996557213394
 21
-324.2567851612466
 31
0.0
  0
LINE
  5
23A
330
236
100
AcDbEntity
  8
0
  6
Continuous
 62
     2
100
AcDbLine
 10
395.7996557213393
 20
-353.2567851612467
 30
0.0
 11
395.7996557213393
 21
-324.2567851612466
 31
0.0
  0
LINE
  5
23B
330
236
100
AcDbEntity
  8
0
 62
     2
100
AcDbLine
 10
395.7996557213393
 20
-325.2567851612466
 30
0.0
 11
393.3496557213393
 21
-325.9132606827029
 31
0.0
  0
LINE
  5
23C
330
236
100
AcDbEntity
  8
0
 62
     2
100
AcDbLine
 10
395.7996557213393
 20
-325.2567851612466
 30
0.0
 11
393.3496557213393
 21
-324.6003096397904
 31
0.0
  0
LINE
  5
23D
330
236
100
AcDbEntity
  8
0
 62
     2
100
AcDbLine
 10
342.2996557213394
 20
-325.2567851612466
 30
0.0
 11
344.7496557213394
 21
-324.6003096397904
 31
0.0
  0
LINE
  5
23E
330
236
100
AcDbEntity
  8
0
 62
     2
100
AcDbLine
 10
342.2996557213394
 20
-325.2567851612466
 30
0.0
 11
344.7496557213394
 21
-325.9132606827029
 31
0.0
  0
MTEXT
  5
23F
330
236
100
AcDbEntity
  8
0
 62
     3
100
AcDbMText
 10
365.6809057213393
 20
-324.2567851612466
 30
0.0
 40
3.5
 41
0.0
 71
     7
 72
     1
  1
53.5
  7
CONVERTER_5
 11
0.999999999997062
 21
0.00000242406841
 31
0.0
 73
     1
 44
1.0
1001
ACAD
1000
MTEXTBEGIN
1070
    73
1070
     1
1070
    44
1040
1.0
1070
    74
1070
     0
1000
MTEXTEND
  0
ENDBLK
  5
240
330
236
100
AcDbEntity
  8
0
100
AcDbBlockEnd
  0
BLOCK
  5
244
330
243
100
AcDbEntity
  8
0
100
AcDbBlockBegin
  2
*D14
 70
     1
 10
0.0
 20
0.0
 30
0.0
  3
*D14
  1

  0
LINE
  5
245
330
243
100
AcDbEntity
  8
0
  6
Continuous
 62
     2
100
AcDbLine
 10
416.7996557213393
 20
-407.2084557033177
 30
0.0
 11
416.7996557213393
 21
-398.2567851612466
 31
0.0
  0
LINE
  5
246
330
243
100
AcDbEntity
  8
0
  6
Continuous
 62
     2
100
AcDbLine
 10
416.7996557213393
 20
-407.2084557033177
 30
0.0
 11
416.7996557213393
 21
-424.2594446555226
 31
0.0
  0
LINE
  5
247
330
243
100
AcDbEntity
  8
0
  6
Continuous
 62
     2
100
AcDbLine
 10
390.9496557213394
 20
-407.2084557033177
 30
0.0
 11
417.7996557213393
 21
-407.2084557033177
 31
0.0
  0
LINE
  5
248
330
243
100
AcDbEntity
  8
0
  6
Continuous
 62
     2
100
AcDbLine
 10
396.7996557213393
 20
-398.2567851612466
 30
0.0
 11
417.7996557213393
 21
-398.2567851612466
 31
0.0
  0
LINE
  5
249
330
243
100
AcDbEntity
  8
0
 62
     2
100
AcDbLine
 10
416.7996557213393
 20
-407.2084557033177
 30
0.0
 11
416.1431801998832
 21
-404.7584557033177
 31
0.0
  0
LINE
  5
24A
330
243
100
AcDbEntity
  8
0
 62
     2
100
AcDbLine
 10
416.7996557213393
 20
-407.2084557033177
 30
0.0
 11
417.4561312427957
 21
-404.7584557033177
 31
0.0
  0
LINE
  5
24B
330
243
100
AcDbEntity
  8
0
 62
     2
100
AcDbLine
 10
416.7996557213393
 20
-398.2567851612466
 30
0.0
 11
417.4561312427957
 21
-400.7067851612466
 31
0.0
  0
LINE
  5
24C
330
243
100
AcDbEntity
  8
0
 62
     2
100
AcDbLine
 10
416.7996557213393
 20
-398.2567851612466
 30
0.0
 11
416.1431801998832
 21
-400.7067851612466
 31
0.0
  0
MTEXT
  5
24D
102
{ACAD_XDICTIONARY
360
633
102
}
330
243
100
AcDbEntity
  8
0
 62
     3
100
AcDbMText
 10
415.7996557213393
 20
-424.2594446555226
 30
0.0
 40
3.5
 41
0.0
 71
     7
 72
     1
  1
5.5\U+0081`12.5
  7
CONVERTER_5
 11
0.0
 21
1.0
 31
0.0
 73
     1
 44
1.0
1001
ACAD
1000
MTEXTBEGIN
1070
    73
1070
     1
1070
    44
1040
1.0
1070
    74
1070
     0
1000
MTEXTEND
  0
ENDBLK
  5
24E
330
243
100
AcDbEntity
  8
0
100
AcDbBlockEnd
  0
BLOCK
  5
252
330
251
100
AcDbEntity
  8
0
100
AcDbBlockBegin
  2
*D15
 70
     1
 10
0.0
 20
0.0
 30
0.0
  3
*D15
  1

  0
LINE
  5
253
330
251
100
AcDbEntity
  8
0
  6
Continuous
 62
     2
100
AcDbLine
 10
257.8780903980947
 20
-332.2567851612466
 30
0.0
 11
273.6780903980947
 21
-332.2567851612466
 31
0.0
  0
LINE
  5
254
330
251
100
AcDbEntity
  8
0
  6
Continuous
 62
     2
100
AcDbLine
 10
273.6780903980947
 20
-360.1567851612466
 30
0.0
 11
273.6780903980947
 21
-331.2567851612466
 31
0.0
  0
LINE
  5
255
330
251
100
AcDbEntity
  8
0
  6
Continuous
 62
     2
100
AcDbLine
 10
257.8780903980947
 20
-360.1567851612466
 30
0.0
 11
257.8780903980947
 21
-331.2567851612466
 31
0.0
  0
LINE
  5
256
330
251
100
AcDbEntity
  8
0
 62
     2
100
AcDbLine
 10
273.6780903980947
 20
-332.2567851612466
 30
0.0
 11
271.2280903980947
 21
-332.9132606827029
 31
0.0
  0
LINE
  5
257
330
251
100
AcDbEntity
  8
0
 62
     2
100
AcDbLine
 10
273.6780903980947
 20
-332.2567851612466
 30
0.0
 11
271.2280903980947
 21
-331.6003096397904
 31
0.0
  0
LINE
  5
258
330
251
100
AcDbEntity
  8
0
 62
     2
100
AcDbLine
 10
257.8780903980947
 20
-332.2567851612466
 30
0.0
 11
260.3280903980947
 21
-331.6003096397904
 31
0.0
  0
LINE
  5
259
330
251
100
AcDbEntity
  8
0
 62
     2
100
AcDbLine
 10
257.8780903980947
 20
-332.2567851612466
 30
0.0
 11
260.3280903980947
 21
-332.9132606827029
 31
0.0
  0
MTEXT
  5
25A
330
251
100
AcDbEntity
  8
0
 62
     3
100
AcDbMText
 10
262.7768403980947
 20
-331.2567851612466
 30
0.0
 40
3.5
 41
0.0
 71
     7
 72
     1
  1
15.8
  7
CONVERTER_5
 11
0.999999999997062
 21
0.00000242406841
 31
0.0
 73
     1
 44
1.0
1001
ACAD
1000
MTEXTBEGIN
1070
    73
1070
     1
1070
    44
1040
1.0
1070
    74
1070
     0
1000
MTEXTEND
  0
ENDBLK
  5
25B
330
251
100
AcDbEntity
  8
0
100
AcDbBlockEnd
  0
BLOCK
  5
25F
330
25E
100
AcDbEntity
  8
0
100
AcDbBlockBegin
  2
*D16
 70
     1
 10
0.0
 20
0.0
 30
0.0
  3
*D16
  1

  0
LINE
  5
260
330
25E
100
AcDbEntity
  8
0
  6
Continuous
 62
     2
100
AcDbLine
 10
359.2996557213393
 20
-435.7084557033177
 30
0.0
 11
386.7996557213393
 21
-435.7084557033177
 31
0.0
  0
LINE
  5
261
330
25E
100
AcDbEntity
  8
0
  6
Continuous
 62
     2
100
AcDbLine
 10
359.2996557213393
 20
-399.2567851612466
 30
0.0
 11
359.2996557213393
 21
-436.7084557033177
 31
0.0
  0
LINE
  5
262
330
25E
100
AcDbEntity
  8
0
  6
Continuous
 62
     2
100
AcDbLine
 10
386.7996557213393
 20
-420.7084557033176
 30
0.0
 11
386.7996557213393
 21
-436.7084557033177
 31
0.0
  0
LINE
  5
263
330
25E
100
AcDbEntity
  8
0
 62
     2
100
AcDbLine
 10
386.7996557213393
 20
-435.7084557033177
 30
0.0
 11
384.3496557213393
 21
-436.364931224774
 31
0.0
  0
LINE
  5
264
330
25E
100
AcDbEntity
  8
0
 62
     2
100
AcDbLine
 10
386.7996557213393
 20
-435.7084557033177
 30
0.0
 11
384.3496557213393
 21
-435.0519801818615
 31
0.0
  0
LINE
  5
265
330
25E
100
AcDbEntity
  8
0
 62
     2
100
AcDbLine
 10
359.2996557213393
 20
-435.7084557033177
 30
0.0
 11
361.7496557213394
 21
-435.0519801818615
 31
0.0
  0
LINE
  5
266
330
25E
100
AcDbEntity
  8
0
 62
     2
100
AcDbLine
 10
359.2996557213393
 20
-435.7084557033177
 30
0.0
 11
361.7496557213394
 21
-436.364931224774
 31
0.0
  0
MTEXT
  5
267
330
25E
100
AcDbEntity
  8
0
 62
     3
100
AcDbMText
 10
369.6809057213394
 20
-434.7084557033177
 30
0.0
 40
3.5
 41
0.0
 71
     7
 72
     1
  1
27.5
  7
CONVERTER_5
 11
0.999999999997062
 21
0.00000242406841
 31
0.0
 73
     1
 44
1.0
1001
ACAD
1000
MTEXTBEGIN
1070
    73
1070
     1
1070
    44
1040
1.0
1070
    74
1070
     0
1000
MTEXTEND
  0
ENDBLK
  5
268
330
25E
100
AcDbEntity
  8
0
100
AcDbBlockEnd
  0
BLOCK
  5
26C
330
26B
100
AcDbEntity
  8
0
100
AcDbBlockBegin
  2
*D17
 70
     1
 10
0.0
 20
0.0
 30
0.0
  3
*D17
  1

  0
LINE
  5
26D
330
26B
100
AcDbEntity
  8
0
  6
Continuous
 62
     2
100
AcDbLine
 10
416.7996557213393
 20
-398.2567851612466
 30
0.0
 11
416.7996557213393
 21
-386.2567851612466
 31
0.0
  0
LINE
  5
26E
330
26B
100
AcDbEntity
  8
0
  6
Continuous
 62
     2
100
AcDbLine
 10
398.7996557213393
 20
-386.2567851612466
 30
0.0
 11
417.7996557213393
 21
-386.2567851612466
 31
0.0
  0
LINE
  5
26F
330
26B
100
AcDbEntity
  8
0
  6
Continuous
 62
     2
100
AcDbLine
 10
396.7996557213393
 20
-398.2567851612466
 30
0.0
 11
417.7996557213393
 21
-398.2567851612466
 31
0.0
  0
LINE
  5
270
330
26B
100
AcDbEntity
  8
0
 62
     2
100
AcDbLine
 10
416.7996557213393
 20
-398.2567851612466
 30
0.0
 11
416.1431801998832
 21
-395.8067851612466
 31
0.0
  0
LINE
  5
271
330
26B
100
AcDbEntity
  8
0
 62
     2
100
AcDbLine
 10
416.7996557213393
 20
-398.2567851612466
 30
0.0
 11
417.4561312427957
 21
-395.8067851612466
 31
0.0
  0
LINE
  5
272
330
26B
100
AcDbEntity
  8
0
 62
     2
100
AcDbLine
 10
416.7996557213393
 20
-386.2567851612466
 30
0.0
 11
417.4561312427957
 21
-388.7067851612467
 31
0.0
  0
LINE
  5
273
330
26B
100
AcDbEntity
  8
0
 62
     2
100
AcDbLine
 10
416.7996557213393
 20
-386.2567851612466
 30
0.0
 11
416.1431801998832
 21
-388.7067851612467
 31
0.0
  0
MTEXT
  5
274
330
26B
100
AcDbEntity
  8
0
 62
     3
100
AcDbMText
 10
415.7996557213393
 20
-393.7267851612467
 30
0.0
 40
3.5
 41
0.0
 71
     7
 72
     1
  1
12
  7
CONVERTER_5
 11
0.0
 21
1.0
 31
0.0
 73
     1
 44
1.0
1001
ACAD
1000
MTEXTBEGIN
1070
    73
1070
     1
1070
    44
1040
1.0
1070
    74
1070
     0
1000
MTEXTEND
  0
ENDBLK
  5
275
330
26B
100
AcDbEntity
  8
0
100
AcDbBlockEnd
  0
BLOCK
  5
279
330
278
100
AcDbEntity
  8
0
100
AcDbBlockBegin
  2
*D18
 70
     1
 10
0.0
 20
0.0
 30
0.0
  3
*D18
  1

  0
LINE
  5
27A
330
278
100
AcDbEntity
  8
0
  6
Continuous
 62
     2
100
AcDbLine
 10
416.7996557213393
 20
-386.2567851612466
 30
0.0
 11
416.7996557213393
 21
-353.2567851612467
 31
0.0
  0
LINE
  5
27B
330
278
100
AcDbEntity
  8
0
  6
Continuous
 62
     2
100
AcDbLine
 10
395.7996557213393
 20
-353.2567851612467
 30
0.0
 11
417.7996557213393
 21
-353.2567851612467
 31
0.0
  0
LINE
  5
27C
330
278
100
AcDbEntity
  8
0
  6
Continuous
 62
     2
100
AcDbLine
 10
398.7996557213393
 20
-386.2567851612466
 30
0.0
 11
417.7996557213393
 21
-386.2567851612466
 31
0.0
  0
LINE
  5
27D
330
278
100
AcDbEntity
  8
0
 62
     2
100
AcDbLine
 10
416.7996557213393
 20
-386.2567851612466
 30
0.0
 11
416.1431801998832
 21
-383.8067851612466
 31
0.0
  0
LINE
  5
27E
330
278
100
AcDbEntity
  8
0
 62
     2
100
AcDbLine
 10
416.7996557213393
 20
-386.2567851612466
 30
0.0
 11
417.4561312427957
 21
-383.8067851612466
 31
0.0
  0
LINE
  5
27F
330
278
100
AcDbEntity
  8
0
 62
     2
100
AcDbLine
 10
416.7996557213393
 20
-353.2567851612467
 30
0.0
 11
417.4561312427957
 21
-355.7067851612467
 31
0.0
  0
LINE
  5
280
330
278
100
AcDbEntity
  8
0
 62
     2
100
AcDbLine
 10
416.7996557213393
 20
-353.2567851612467
 30
0.0
 11
416.1431801998832
 21
-355.7067851612467
 31
0.0
  0
MTEXT
  5
281
330
278
100
AcDbEntity
  8
0
 62
     3
100
AcDbMText
 10
415.7996557213393
 20
-371.5942851612467
 30
0.0
 40
3.5
 41
0.0
 71
     7
 72
     1
  1
33
  7
CONVERTER_5
 11
0.0
 21
1.0
 31
0.0
 73
     1
 44
1.0
1001
ACAD
1000
MTEXTBEGIN
1070
    73
1070
     1
1070
    44
1040
1.0
1070
    74
1070
     0
1000
MTEXTEND
  0
ENDBLK
  5
282
330
278
100
AcDbEntity
  8
0
100
AcDbBlockEnd
  0
BLOCK
  5
286
330
285
100
AcDbEntity
  8
0
100
AcDbBlockBegin
  2
*D19
 70
     1
 10
0.0
 20
0.0
 30
0.0
  3
*D19
  1

  0
LINE
  5
287
330
285
100
AcDbEntity
  8
0
  6
Continuous
 62
     2
100
AcDbLine
 10
395.7996557213393
 20
-332.2567851612466
 30
0.0
 11
400.6996557213393
 21
-332.2567851612466
 31
0.0
  0
LINE
  5
288
330
285
100
AcDbEntity
  8
0
  6
Continuous
 62
     2
100
AcDbLine
 10
389.7996557213393
 20
-332.2567851612466
 30
0.0
 11
389.7996557213393
 21
-332.2567851612466
 31
0.0
  0
LINE
  5
289
330
285
100
AcDbEntity
  8
0
  6
Continuous
 62
     2
100
AcDbLine
 10
389.7996557213393
 20
-332.2567851612466
 30
0.0
 11
395.7996557213393
 21
-332.2567851612466
 31
0.0
  0
LINE
  5
28A
330
285
100
AcDbEntity
  8
0
  6
Continuous
 62
     2
100
AcDbLine
 10
395.7996557213393
 20
-353.2567851612467
 30
0.0
 11
395.7996557213393
 21
-331.2567851612466
 31
0.0
  0
LINE
  5
28B
330
285
100
AcDbEntity
  8
0
  6
Continuous
 62
     2
100
AcDbLine
 10
389.7996557213393
 20
-350.2567851612468
 30
0.0
 11
389.7996557213393
 21
-331.2567851612466
 31
0.0
  0
LINE
  5
28C
330
285
100
AcDbEntity
  8
0
 62
     2
100
AcDbLine
 10
395.7996557213393
 20
-332.2567851612466
 30
0.0
 11
398.2496557213394
 21
-331.6003096397904
 31
0.0
  0
LINE
  5
28D
330
285
100
AcDbEntity
  8
0
 62
     2
100
AcDbLine
 10
395.7996557213393
 20
-332.2567851612466
 30
0.0
 11
398.2496557213394
 21
-332.9132606827029
 31
0.0
  0
MTEXT
  5
28E
330
285
100
AcDbEntity
  8
0
 62
     3
100
AcDbMText
 10
392.0646557213394
 20
-331.2567851612466
 30
0.0
 40
3.5
 41
0.0
 71
     7
 72
     1
  1
6
  7
CONVERTER_5
 11
0.999999999997062
 21
0.00000242406841
 31
0.0
 73
     1
 44
1.0
1001
ACAD
1000
MTEXTBEGIN
1070
    73
1070
     1
1070
    44
1040
1.0
1070
    74
1070
     0
1000
MTEXTEND
  0
ENDBLK
  5
28F
330
285
100
AcDbEntity
  8
0
100
AcDbBlockEnd
  0
BLOCK
  5
291
330
290
100
AcDbEntity
  8
0
 62
     0
100
AcDbBlockBegin
  2
_NONE
 70
     0
 10
0.0
 20
0.0
 30
0.0
  3
_NONE
  1

  0
ENDBLK
  5
292
330
290
100
AcDbEntity
  8
0
 62
     0
100
AcDbBlockEnd
  0
BLOCK
  5
296
330
295
100
AcDbEntity
  8
0
100
AcDbBlockBegin
  2
*D21
 70
     1
 10
0.0
 20
0.0
 30
0.0
  3
*D21
  1

  0
LINE
  5
297
330
295
100
AcDbEntity
  8
0
  6
Continuous
 62
     2
100
AcDbLine
 10
386.7996557213393
 20
-332.2567851612467
 30
0.0
 11
381.8996557213393
 21
-332.2567851612467
 31
0.0
  0
LINE
  5
298
330
295
100
AcDbEntity
  8
0
  6
Continuous
 62
     2
100
AcDbLine
 10
386.7996557213393
 20
-332.2567851612467
 30
0.0
 11
389.7996557213393
 21
-332.2567851612467
 31
0.0
  0
LINE
  5
299
330
295
100
AcDbEntity
  8
0
  6
Continuous
 62
     2
100
AcDbLine
 10
389.7996557213393
 20
-350.2567851612468
 30
0.0
 11
389.7996557213393
 21
-331.2567851612467
 31
0.0
  0
LINE
  5
29A
330
295
100
AcDbEntity
  8
0
  6
Continuous
 62
     2
100
AcDbLine
 10
386.7996557213393
 20
-347.2567851612467
 30
0.0
 11
386.7996557213393
 21
-331.2567851612467
 31
0.0
  0
CIRCLE
  5
29B
330
295
100
AcDbEntity
  8
0
 62
     2
100
AcDbCircle
 10
389.7996557213393
 20
-332.2567851612467
 30
0.0
 40
0.5
  0
HATCH
  5
29C
330
295
100
AcDbEntity
  8
0
 62
     2
100
AcDbHatch
 10
0.0
 20
0.0
 30
0.0
210
0.0
220
0.0
230
1.0
  2
SOLID
 70
     1
 71
     1
 91
        1
 92
        1
 93
        1
 72
     2
 10
389.7996557213393
 20
-332.2567851612467
 40
0.5
 50
-180.0
 51
180.0
 73
     1
 97
        1
330
29B
 75
     0
 76
     1
 98
        1
 10
0.0
 20
0.0
  0
LINE
  5
29D
330
295
100
AcDbEntity
  8
0
 62
     2
100
AcDbLine
 10
386.7996557213393
 20
-332.2567851612467
 30
0.0
 11
384.3496557213393
 21
-332.9132606827029
 31
0.0
  0
LINE
  5
29E
330
295
100
AcDbEntity
  8
0
 62
     2
100
AcDbLine
 10
386.7996557213393
 20
-332.2567851612467
 30
0.0
 11
384.3496557213393
 21
-331.6003096397904
 31
0.0
  0
MTEXT
  5
29F
330
295
100
AcDbEntity
  8
0
 62
     3
100
AcDbMText
 10
387.5646557213394
 20
-331.2567851612467
 30
0.0
 40
3.5
 41
0.0
 71
     7
 72
     1
  1
3
  7
CONVERTER_5
 11
0.999999999997062
 21
0.00000242406841
 31
0.0
 73
     1
 44
1.0
1001
ACAD
1000
MTEXTBEGIN
1070
    73
1070
     1
1070
    44
1040
1.0
1070
    74
1070
     0
1000
MTEXTEND
  0
ENDBLK
  5
2A0
330
295
100
AcDbEntity
  8
0
100
AcDbBlockEnd
  0
BLOCK
  5
2A2
330
2A1
100
AcDbEntity
  8
0
 62
     0
100
AcDbBlockBegin
  2
_DOT
 70
     0
 10
0.0
 20
0.0
 30
0.0
  3
_DOT
  1

  0
LWPOLYLINE
  5
2A3
330
2A1
100
AcDbEntity
  8
0
  6
ByBlock
 62
     0
100
AcDbPolyline
 90
        2
 70
     1
 43
0.5
 10
-0.25
 20
0.0
 42
1.0
 10
0.25
 20
0.0
 42
1.0
  0
LINE
  5
2A7
330
2A1
100
AcDbEntity
  8
0
  6
ByBlock
 62
     0
100
AcDbLine
 10
-0.5
 20
0.0
 30
0.0
 11
-1.0
 21
0.0
 31
0.0
  0
ENDBLK
  5
2A8
330
2A1
100
AcDbEntity
  8
0
 62
     0
100
AcDbBlockEnd
  0
BLOCK
  5
2AC
330
2AB
100
AcDbEntity
  8
0
100
AcDbBlockBegin
  2
*D23
 70
     1
 10
0.0
 20
0.0
 30
0.0
  3
*D23
  1

  0
LINE
  5
2AD
330
2AB
100
AcDbEntity
  8
0
  6
Continuous
 62
     2
100
AcDbLine
 10
367.7996557213393
 20
-332.2567851612467
 30
0.0
 11
386.7996557213393
 21
-332.2567851612467
 31
0.0
  0
LINE
  5
2AE
330
2AB
100
AcDbEntity
  8
0
  6
Continuous
 62
     2
100
AcDbLine
 10
386.7996557213393
 20
-347.2567851612467
 30
0.0
 11
386.7996557213393
 21
-331.2567851612467
 31
0.0
  0
LINE
  5
2AF
330
2AB
100
AcDbEntity
  8
0
  6
Continuous
 62
     2
100
AcDbLine
 10
367.7996557213393
 20
-350.2567851612468
 30
0.0
 11
367.7996557213393
 21
-331.2567851612467
 31
0.0
  0
LINE
  5
2B0
330
2AB
100
AcDbEntity
  8
0
 62
     2
100
AcDbLine
 10
386.7996557213393
 20
-332.2567851612467
 30
0.0
 11
384.3496557213393
 21
-332.9132606827029
 31
0.0
  0
LINE
  5
2B1
330
2AB
100
AcDbEntity
  8
0
 62
     2
100
AcDbLine
 10
386.7996557213393
 20
-332.2567851612467
 30
0.0
 11
384.3496557213393
 21
-331.6003096397904
 31
0.0
  0
LINE
  5
2B2
330
2AB
100
AcDbEntity
  8
0
 62
     2
100
AcDbLine
 10
367.7996557213393
 20
-332.2567851612467
 30
0.0
 11
370.2496557213394
 21
-331.6003096397904
 31
0.0
  0
LINE
  5
2B3
330
2AB
100
AcDbEntity
  8
0
 62
     2
100
AcDbLine
 10
367.7996557213393
 20
-332.2567851612467
 30
0.0
 11
370.2496557213394
 21
-332.9132606827029
 31
0.0
  0
MTEXT
  5
2B4
330
2AB
100
AcDbEntity
  8
0
 62
     3
100
AcDbMText
 10
375.8296557213394
 20
-331.2567851612467
 30
0.0
 40
3.5
 41
0.0
 71
     7
 72
     1
  1
19
  7
CONVERTER_5
 11
0.999999999997062
 21
0.00000242406841
 31
0.0
 73
     1
 44
1.0
1001
ACAD
1000
MTEXTBEGIN
1070
    73
1070
     1
1070
    44
1040
1.0
1070
    74
1070
     0
1000
MTEXTEND
  0
ENDBLK
  5
2B5
330
2AB
100
AcDbEntity
  8
0
100
AcDbBlockEnd
  0
BLOCK
  5
2B9
330
2B8
100
AcDbEntity
  8
0
100
AcDbBlockBegin
  2
*D24
 70
     1
 10
0.0
 20
0.0
 30
0.0
  3
*D24
  1

  0
LINE
  5
2BA
330
2B8
100
AcDbEntity
  8
0
  6
Continuous
 62
     2
100
AcDbLine
 10
359.2996557213393
 20
-332.2567851612467
 30
0.0
 11
367.7996557213393
 21
-332.2567851612467
 31
0.0
  0
LINE
  5
2BB
330
2B8
100
AcDbEntity
  8
0
  6
Continuous
 62
     2
100
AcDbLine
 10
367.7996557213393
 20
-350.2567851612468
 30
0.0
 11
367.7996557213393
 21
-331.2567851612467
 31
0.0
  0
LINE
  5
2BC
330
2B8
100
AcDbEntity
  8
0
  6
Continuous
 62
     2
100
AcDbLine
 10
359.2996557213393
 20
-352.7567851612466
 30
0.0
 11
359.2996557213393
 21
-331.2567851612467
 31
0.0
  0
LINE
  5
2BD
330
2B8
100
AcDbEntity
  8
0
 62
     2
100
AcDbLine
 10
367.7996557213393
 20
-332.2567851612467
 30
0.0
 11
365.3496557213393
 21
-332.9132606827029
 31
0.0
  0
LINE
  5
2BE
330
2B8
100
AcDbEntity
  8
0
 62
     2
100
AcDbLine
 10
367.7996557213393
 20
-332.2567851612467
 30
0.0
 11
365.3496557213393
 21
-331.6003096397904
 31
0.0
  0
LINE
  5
2BF
330
2B8
100
AcDbEntity
  8
0
 62
     2
100
AcDbLine
 10
359.2996557213393
 20
-332.2567851612467
 30
0.0
 11
361.7496557213394
 21
-331.6003096397904
 31
0.0
  0
LINE
  5
2C0
330
2B8
100
AcDbEntity
  8
0
 62
     2
100
AcDbLine
 10
359.2996557213393
 20
-332.2567851612467
 30
0.0
 11
361.7496557213394
 21
-332.9132606827029
 31
0.0
  0
MTEXT
  5
2C1
330
2B8
100
AcDbEntity
  8
0
 62
     3
100
AcDbMText
 10
361.1609057213394
 20
-331.2567851612467
 30
0.0
 40
3.5
 41
0.0
 71
     7
 72
     1
  1
8.5
  7
CONVERTER_5
 11
0.999999999997062
 21
0.00000242406841
 31
0.0
 73
     1
 44
1.0
1001
ACAD
1000
MTEXTBEGIN
1070
    73
1070
     1
1070
    44
1040
1.0
1070
    74
1070
     0
1000
MTEXTEND
  0
ENDBLK
  5
2C2
330
2B8
100
AcDbEntity
  8
0
100
AcDbBlockEnd
  0
BLOCK
  5
2C6
330
2C5
100
AcDbEntity
  8
0
100
AcDbBlockBegin
  2
*D25
 70
     1
 10
0.0
 20
0.0
 30
0.0
  3
*D25
  1

  0
LINE
  5
2C7
330
2C5
100
AcDbEntity
  8
0
  6
Continuous
 62
     2
100
AcDbLine
 10
294.6780903980947
 20
-398.2567851612466
 30
0.0
 11
294.6780903980947
 21
-353.2567851612467
 31
0.0
  0
LINE
  5
2C8
330
2C5
100
AcDbEntity
  8
0
  6
Continuous
 62
     2
100
AcDbLine
 10
274.6780903980947
 20
-398.2567851612466
 30
0.0
 11
295.6780903980947
 21
-398.2567851612466
 31
0.0
  0
LINE
  5
2C9
330
2C5
100
AcDbEntity
  8
0
  6
Continuous
 62
     2
100
AcDbLine
 10
266.7780903980947
 20
-353.2567851612467
 30
0.0
 11
295.6780903980947
 21
-353.2567851612467
 31
0.0
  0
LINE
  5
2CA
330
2C5
100
AcDbEntity
  8
0
 62
     2
100
AcDbLine
 10
294.6780903980947
 20
-353.2567851612467
 30
0.0
 11
295.3345659195509
 21
-355.7067851612467
 31
0.0
  0
LINE
  5
2CB
330
2C5
100
AcDbEntity
  8
0
 62
     2
100
AcDbLine
 10
294.6780903980947
 20
-353.2567851612467
 30
0.0
 11
294.0216148766385
 21
-355.7067851612467
 31
0.0
  0
LINE
  5
2CC
330
2C5
100
AcDbEntity
  8
0
 62
     2
100
AcDbLine
 10
294.6780903980947
 20
-398.2567851612466
 30
0.0
 11
294.0216148766385
 21
-395.8067851612466
 31
0.0
  0
LINE
  5
2CD
330
2C5
100
AcDbEntity
  8
0
 62
     2
100
AcDbLine
 10
294.6780903980947
 20
-398.2567851612466
 30
0.0
 11
295.3345659195509
 21
-395.8067851612466
 31
0.0
  0
MTEXT
  5
2CE
330
2C5
100
AcDbEntity
  8
0
 62
     3
100
AcDbMText
 10
293.6780903980947
 20
-377.5942851612466
 30
0.0
 40
3.5
 41
0.0
 71
     7
 72
     1
  1
45
  7
CONVERTER_5
 11
0.0
 21
1.0
 31
0.0
 73
     1
 44
1.0
1001
ACAD
1000
MTEXTBEGIN
1070
    73
1070
     1
1070
    44
1040
1.0
1070
    74
1070
     0
1000
MTEXTEND
  0
ENDBLK
  5
2CF
330
2C5
100
AcDbEntity
  8
0
100
AcDbBlockEnd
  0
BLOCK
  5
2D3
330
2D2
100
AcDbEntity
  8
0
100
AcDbBlockBegin
  2
*D26
 70
     1
 10
0.0
 20
0.0
 30
0.0
  3
*D26
  1

  0
LINE
  5
2D4
330
2D2
100
AcDbEntity
  8
0
  6
Continuous
 62
     2
100
AcDbLine
 10
257.7780903980947
 20
-435.7084557033177
 30
0.0
 11
273.7780903980947
 21
-435.7084557033177
 31
0.0
  0
LINE
  5
2D5
330
2D2
100
AcDbEntity
  8
0
  6
Continuous
 62
     2
100
AcDbLine
 10
257.7780903980947
 20
-414.6114901918572
 30
0.0
 11
257.7780903980947
 21
-436.7084557033177
 31
0.0
  0
LINE
  5
2D6
330
2D2
100
AcDbEntity
  8
0
  6
Continuous
 62
     2
100
AcDbLine
 10
273.7780903980947
 20
-414.6114901918572
 30
0.0
 11
273.7780903980947
 21
-436.7084557033177
 31
0.0
  0
LINE
  5
2D7
330
2D2
100
AcDbEntity
  8
0
 62
     2
100
AcDbLine
 10
273.7780903980947
 20
-435.7084557033177
 30
0.0
 11
271.3280903980948
 21
-436.364931224774
 31
0.0
  0
LINE
  5
2D8
330
2D2
100
AcDbEntity
  8
0
 62
     2
100
AcDbLine
 10
273.7780903980947
 20
-435.7084557033177
 30
0.0
 11
271.3280903980948
 21
-435.0519801818615
 31
0.0
  0
LINE
  5
2D9
330
2D2
100
AcDbEntity
  8
0
 62
     2
100
AcDbLine
 10
257.7780903980947
 20
-435.7084557033177
 30
0.0
 11
260.2280903980947
 21
-435.0519801818615
 31
0.0
  0
LINE
  5
2DA
330
2D2
100
AcDbEntity
  8
0
 62
     2
100
AcDbLine
 10
257.7780903980947
 20
-435.7084557033177
 30
0.0
 11
260.2280903980947
 21
-436.364931224774
 31
0.0
  0
MTEXT
  5
2DB
330
2D2
100
AcDbEntity
  8
0
 62
     3
100
AcDbMText
 10
260.3005903981117
 20
-434.7084696174703
 30
0.0
 40
3.5
 41
0.0
 71
     7
 72
     1
  1
\C3;{\Fgdt;n}\C3;16
  7
CONVERTER_5
 11
0.999999999997062
 21
0.00000242406841
 31
0.0
 73
     1
 44
1.0
1001
ACAD
1000
MTEXTBEGIN
1070
    73
1070
     1
1070
    44
1040
1.0
1070
    74
1070
     0
1000
MTEXTEND
  0
ENDBLK
  5
2DC
330
2D2
100
AcDbEntity
  8
0
100
AcDbBlockEnd
  0
BLOCK
  5
2E0
330
2DF
100
AcDbEntity
  8
0
100
AcDbBlockBegin
  2
*D27
 70
     1
 10
0.0
 20
0.0
 30
0.0
  3
*D27
  1

  0
LINE
  5
2E1
330
2DF
100
AcDbEntity
  8
0
  6
Continuous
 62
     2
100
AcDbLine
 10
287.6780903980947
 20
-414.7084557033177
 30
0.0
 11
287.6780903980947
 21
-407.7084557033177
 31
0.0
  0
LINE
  5
2E2
330
2DF
100
AcDbEntity
  8
0
  6
Continuous
 62
     2
100
AcDbLine
 10
273.3780903980947
 20
-414.7084557033177
 30
0.0
 11
288.6780903980947
 21
-414.7084557033177
 31
0.0
  0
LINE
  5
2E3
330
2DF
100
AcDbEntity
  8
0
  6
Continuous
 62
     2
100
AcDbLine
 10
274.7780903980947
 20
-407.7084557033177
 30
0.0
 11
288.6780903980947
 21
-407.7084557033177
 31
0.0
  0
LINE
  5
2E4
330
2DF
100
AcDbEntity
  8
0
 62
     2
100
AcDbLine
 10
287.6780903980947
 20
-407.7084557033177
 30
0.0
 11
288.3345659195509
 21
-410.1584557033176
 31
0.0
  0
LINE
  5
2E5
330
2DF
100
AcDbEntity
  8
0
 62
     2
100
AcDbLine
 10
287.6780903980947
 20
-407.7084557033177
 30
0.0
 11
287.0216148766385
 21
-410.1584557033176
 31
0.0
  0
LINE
  5
2E6
330
2DF
100
AcDbEntity
  8
0
 62
     2
100
AcDbLine
 10
287.6780903980947
 20
-414.7084557033177
 30
0.0
 11
287.0216148766385
 21
-412.2584557033177
 31
0.0
  0
LINE
  5
2E7
330
2DF
100
AcDbEntity
  8
0
 62
     2
100
AcDbLine
 10
287.6780903980947
 20
-414.7084557033177
 30
0.0
 11
288.3345659195509
 21
-412.2584557033177
 31
0.0
  0
MTEXT
  5
2E8
330
2DF
100
AcDbEntity
  8
0
 62
     3
100
AcDbMText
 10
286.6780903980947
 20
-411.9434557033177
 30
0.0
 40
3.5
 41
0.0
 71
     7
 72
     1
  1
7
  7
CONVERTER_5
 11
0.0
 21
1.0
 31
0.0
 73
     1
 44
1.0
1001
ACAD
1000
MTEXTBEGIN
1070
    73
1070
     1
1070
    44
1040
1.0
1070
    74
1070
     0
1000
MTEXTEND
  0
ENDBLK
  5
2E9
330
2DF
100
AcDbEntity
  8
0
100
AcDbBlockEnd
  0
BLOCK
  5
2ED
330
2EC
100
AcDbEntity
  8
0
100
AcDbBlockBegin
  2
*D28
 70
     1
 10
0.0
 20
0.0
 30
0.0
  3
*D28
  1

  0
LINE
  5
2EE
330
2EC
100
AcDbEntity
  8
0
  6
Continuous
 62
     2
100
AcDbLine
 10
258.3780903980947
 20
-405.1504280446914
 30
0.0
 11
263.2780903980947
 21
-405.1504280446914
 31
0.0
  0
LINE
  5
2EF
330
2EC
100
AcDbEntity
  8
0
  6
Continuous
 62
     2
100
AcDbLine
 10
263.2780903980947
 20
-405.1504280446914
 30
0.0
 11
268.2780903980947
 21
-405.1504280446914
 31
0.0
  0
LINE
  5
2F0
330
2EC
100
AcDbEntity
  8
0
  6
Continuous
 62
     2
100
AcDbLine
 10
268.2780903980947
 20
-405.1504280446914
 30
0.0
 11
280.6288911366901
 21
-405.1504280446914
 31
0.0
  0
LINE
  5
2F1
330
2EC
100
AcDbEntity
  8
0
  6
Continuous
 62
     2
100
AcDbLine
 10
263.2780903980947
 20
-406.2084557033177
 30
0.0
 11
263.2780903980947
 21
-404.1504280446914
 31
0.0
  0
LINE
  5
2F2
330
2EC
100
AcDbEntity
  8
0
  6
Continuous
 62
     2
100
AcDbLine
 10
268.2780903980947
 20
-406.2084557033177
 30
0.0
 11
268.2780903980947
 21
-404.1504280446914
 31
0.0
  0
LINE
  5
2F3
330
2EC
100
AcDbEntity
  8
0
 62
     2
100
AcDbLine
 10
268.2780903980947
 20
-405.1504280446914
 30
0.0
 11
270.7280903980947
 21
-404.4939525232352
 31
0.0
  0
LINE
  5
2F4
330
2EC
100
AcDbEntity
  8
0
 62
     2
100
AcDbLine
 10
268.2780903980947
 20
-405.1504280446914
 30
0.0
 11
270.7280903980947
 21
-405.8069035661477
 31
0.0
  0
LINE
  5
2F5
330
2EC
100
AcDbEntity
  8
0
 62
     2
100
AcDbLine
 10
263.2780903980947
 20
-405.1504280446914
 30
0.0
 11
260.8280903980947
 21
-405.8069035661477
 31
0.0
  0
LINE
  5
2F6
330
2EC
100
AcDbEntity
  8
0
 62
     2
100
AcDbLine
 10
263.2780903980947
 20
-405.1504280446914
 30
0.0
 11
260.8280903980947
 21
-404.4939525232352
 31
0.0
  0
MTEXT
  5
2F7
330
2EC
100
AcDbEntity
  8
0
 62
     3
100
AcDbMText
 10
273.418891136707
 20
-404.150441958844
 30
0.0
 40
3.5
 41
0.0
 71
     7
 72
     1
  1
\C3;{\Fgdt;n}\C3;5
  7
CONVERTER_5
 11
0.999999999997062
 21
0.00000242406841
 31
0.0
 73
     1
 44
1.0
1001
ACAD
1000
MTEXTBEGIN
1070
    73
1070
     1
1070
    44
1040
1.0
1070
    74
1070
     0
1000
MTEXTEND
  0
ENDBLK
  5
2F8
330
2EC
100
AcDbEntity
  8
0
100
AcDbBlockEnd
  0
BLOCK
  5
390
330
38F
100
AcDbEntity
  8
0
100
AcDbBlockBegin
  2
*D29
 70
     1
 10
0.0
 20
0.0
 30
0.0
  3
*D29
  1

  0
LINE
  5
456
330
38F
100
AcDbEntity
  8
1
 62
     2
370
    -2
100
AcDbLine
 10
386.7996557213393
 20
-347.2567851612467
 30
0.0
 11
386.7996557213393
 21
-331.2567851612467
 31
0.0
  0
LINE
  5
457
330
38F
100
AcDbEntity
  8
1
 62
     2
370
    -2
100
AcDbLine
 10
389.7996557213393
 20
-350.2567851612468
 30
0.0
 11
389.7996557213393
 21
-331.2567851612467
 31
0.0
  0
LINE
  5
458
330
38F
100
AcDbEntity
  8
1
 62
     2
370
    -2
100
AcDbLine
 10
385.7996557213393
 20
-332.2567851612467
 30
0.0
 11
384.7996557213393
 21
-332.2567851612467
 31
0.0
  0
LINE
  5
459
330
38F
100
AcDbEntity
  8
1
 62
     2
370
    -2
100
AcDbLine
 10
390.7996557213393
 20
-332.2567851612467
 30
0.0
 11
391.7996557213393
 21
-332.2567851612467
 31
0.0
  0
LINE
  5
45A
330
38F
100
AcDbEntity
  8
1
 62
     2
370
    -2
100
AcDbLine
 10
386.7996557213393
 20
-332.2567851612467
 30
0.0
 11
386.8988223880019
 21
-332.2567851612467
 31
0.0
  0
LINE
  5
45B
330
38F
100
AcDbEntity
  8
1
 62
     2
370
    -2
100
AcDbLine
 10
389.7996557213393
 20
-332.2567851612467
 30
0.0
 11
389.7004890546768
 21
-332.2567851612467
 31
0.0
  0
INSERT
  5
45C
330
38F
100
AcDbEntity
  8
1
 62
     2
370
    -2
100
AcDbBlockReference
  2
_OPEN30
 10
386.7996557213393
 20
-332.2567851612467
 30
0.0
  0
INSERT
  5
45D
330
38F
100
AcDbEntity
  8
1
 62
     2
370
    -2
100
AcDbBlockReference
  2
_DOT
 10
389.7996557213393
 20
-332.2567851612467
 30
0.0
 50
180.0
  0
MTEXT
  5
45E
330
38F
100
AcDbEntity
  8
1
 62
     3
100
AcDbMText
 10
388.2996557213393
 20
-332.2567851612467
 30
0.0
 40
3.5
 41
0.0
 71
     5
 72
     1
  1
\A1;3
  7
CONVERTER_5
 11
0.999999999997062
 21
0.0000024240684056
 31
0.0
 73
     1
 44
1.0
1001
ACAD
1000
MTEXTBEGIN
1070
    73
1070
     1
1070
    44
1040
1.0
1070
    74
1070
     0
1000
MTEXTEND
  0
POINT
  5
45F
330
38F
100
AcDbEntity
  8
Defpoints
 62
     0
100
AcDbPoint
 10
386.7996557213393
 20
-348.2567851612468
 30
0.0
  0
POINT
  5
460
330
38F
100
AcDbEntity
  8
Defpoints
 62
     0
100
AcDbPoint
 10
389.7996557213393
 20
-351.2567851612467
 30
0.0
  0
POINT
  5
461
330
38F
100
AcDbEntity
  8
Defpoints
 62
     0
100
AcDbPoint
 10
389.7996557213393
 20
-332.2567851612467
 30
0.0
  0
ENDBLK
  5
391
330
38F
100
AcDbEntity
  8
0
100
AcDbBlockEnd
  0
BLOCK
  5
39F
330
39E
100
AcDbEntity
  8
0
100
AcDbBlockBegin
  2
*D30
 70
     1
 10
0.0
 20
0.0
 30
0.0
  3
*D30
  1

  0
LINE
  5
462
330
39E
100
AcDbEntity
  8
1
 62
     2
370
    -2
100
AcDbLine
 10
367.7996557213393
 20
-350.2567851612468
 30
0.0
 11
367.7996557213393
 21
-331.2567851612467
 31
0.0
  0
LINE
  5
463
330
39E
100
AcDbEntity
  8
1
 62
     2
370
    -2
100
AcDbLine
 10
386.7996557213393
 20
-347.2567851612467
 30
0.0
 11
386.7996557213393
 21
-331.2567851612467
 31
0.0
  0
LINE
  5
464
330
39E
100
AcDbEntity
  8
1
 62
     2
370
    -2
100
AcDbLine
 10
370.2496557213393
 20
-332.2567851612467
 30
0.0
 11
375.0675723879994
 21
-332.2567851612467
 31
0.0
  0
LINE
  5
465
330
39E
100
AcDbEntity
  8
1
 62
     2
370
    -2
100
AcDbLine
 10
384.3496557213393
 20
-332.2567851612467
 30
0.0
 11
379.5317390546792
 21
-332.2567851612467
 31
0.0
  0
INSERT
  5
466
330
39E
100
AcDbEntity
  8
1
 62
     2
370
    -2
100
AcDbBlockReference
  2
_OPEN30
 10
367.7996557213393
 20
-332.2567851612467
 30
0.0
 41
2.45
 42
2.45
 43
2.45
 50
180.0
  0
INSERT
  5
467
330
39E
100
AcDbEntity
  8
1
 62
     2
370
    -2
100
AcDbBlockReference
  2
_OPEN30
 10
386.7996557213393
 20
-332.2567851612467
 30
0.0
 41
2.45
 42
2.45
 43
2.45
  0
MTEXT
  5
468
330
39E
100
AcDbEntity
  8
1
 62
     3
100
AcDbMText
 10
377.2996557213393
 20
-332.2567851612467
 30
0.0
 40
3.5
 41
0.0
 71
     5
 72
     1
  1
\A1;19
  7
CONVERTER_5
 11
0.999999999997062
 21
0.0000024240684056
 31
0.0
 73
     1
 44
1.0
1001
ACAD
1000
MTEXTBEGIN
1070
    73
1070
     1
1070
    44
1040
1.0
1070
    74
1070
     0
1000
MTEXTEND
  0
POINT
  5
469
330
39E
100
AcDbEntity
  8
Defpoints
 62
     0
100
AcDbPoint
 10
367.7996557213393
 20
-351.2567851612467
 30
0.0
  0
POINT
  5
46A
330
39E
100
AcDbEntity
  8
Defpoints
 62
     0
100
AcDbPoint
 10
386.7996557213393
 20
-348.2567851612468
 30
0.0
  0
POINT
  5
46B
330
39E
100
AcDbEntity
  8
Defpoints
 62
     0
100
AcDbPoint
 10
386.7996557213393
 20
-332.2567851612467
 30
0.0
  0
ENDBLK
  5
3A0
330
39E
100
AcDbEntity
  8
0
100
AcDbBlockEnd
  0
BLOCK
  5
3AC
330
3AB
100
AcDbEntity
  8
0
100
AcDbBlockBegin
  2
*D31
 70
     1
 10
0.0
 20
0.0
 30
0.0
  3
*D31
  1

  0
LINE
  5
46C
330
3AB
100
AcDbEntity
  8
1
 62
     2
370
    -2
100
AcDbLine
 10
359.2996557213393
 20
-352.7567851612467
 30
0.0
 11
359.2996557213393
 21
-331.2567851612467
 31
0.0
  0
LINE
  5
46D
330
3AB
100
AcDbEntity
  8
1
 62
     2
370
    -2
100
AcDbLine
 10
367.7996557213393
 20
-350.2567851612468
 30
0.0
 11
367.7996557213393
 21
-331.2567851612467
 31
0.0
  0
LINE
  5
46E
330
3AB
100
AcDbEntity
  8
1
 62
     2
370
    -2
100
AcDbLine
 10
361.7496557213393
 20
-332.2567851612467
 30
0.0
 11
365.3496557213393
 21
-332.2567851612467
 31
0.0
  0
LINE
  5
46F
330
3AB
100
AcDbEntity
  8
1
 62
     2
370
    -2
100
AcDbLine
 10
367.7996557213393
 20
-332.2567851612467
 30
0.0
 11
370.2496557213394
 21
-332.2567851612467
 31
0.0
  0
INSERT
  5
470
330
3AB
100
AcDbEntity
  8
1
 62
     2
370
    -2
100
AcDbBlockReference
  2
_OPEN30
 10
359.2996557213393
 20
-332.2567851612467
 30
0.0
 41
2.45
 42
2.45
 43
2.45
 50
180.0
  0
INSERT
  5
471
330
3AB
100
AcDbEntity
  8
1
 62
     2
370
    -2
100
AcDbBlockReference
  2
_OPEN30
 10
367.7996557213393
 20
-332.2567851612467
 30
0.0
 41
2.45
 42
2.45
 43
2.45
  0
MTEXT
  5
472
330
3AB
100
AcDbEntity
  8
1
 62
     3
100
AcDbMText
 10
373.3129890546817
 20
-332.2567851612467
 30
0.0
 40
3.5
 41
0.0
 71
     5
 72
     1
  1
\A1;8.5
  7
CONVERTER_5
 11
0.999999999997062
 21
0.0000024240684056
 31
0.0
 73
     1
 44
1.0
1001
ACAD
1000
MTEXTBEGIN
1070
    73
1070
     1
1070
    44
1040
1.0
1070
    74
1070
     0
1000
MTEXTEND
  0
POINT
  5
473
330
3AB
100
AcDbEntity
  8
Defpoints
 62
     0
100
AcDbPoint
 10
359.2996557213393
 20
-353.7567851612467
 30
0.0
  0
POINT
  5
474
330
3AB
100
AcDbEntity
  8
Defpoints
 62
     0
100
AcDbPoint
 10
367.7996557213393
 20
-351.2567851612467
 30
0.0
  0
POINT
  5
475
330
3AB
100
AcDbEntity
  8
Defpoints
 62
     0
100
AcDbPoint
 10
367.7996557213393
 20
-332.2567851612467
 30
0.0
  0
ENDBLK
  5
3AD
330
3AB
100
AcDbEntity
  8
0
100
AcDbBlockEnd
  0
BLOCK
  5
3B9
330
3B8
100
AcDbEntity
  8
0
100
AcDbBlockBegin
  2
*D32
 70
     1
 10
0.0
 20
0.0
 30
0.0
  3
*D32
  1

  0
LINE
  5
476
330
3B8
100
AcDbEntity
  8
1
 62
     2
370
    -2
100
AcDbLine
 10
274.6780903980947
 20
-398.2567851612466
 30
0.0
 11
295.6780903980946
 21
-398.2567851612466
 31
0.0
  0
LINE
  5
477
330
3B8
100
AcDbEntity
  8
1
 62
     2
370
    -2
100
AcDbLine
 10
266.7780903980947
 20
-353.2567851612467
 30
0.0
 11
295.6780903980947
 21
-353.2567851612467
 31
0.0
  0
LINE
  5
478
330
3B8
100
AcDbEntity
  8
1
 62
     2
370
    -2
100
AcDbLine
 10
294.6780903980947
 20
-395.8067851612466
 30
0.0
 11
294.6780903980947
 21
-378.2659518279134
 31
0.0
  0
LINE
  5
479
330
3B8
100
AcDbEntity
  8
1
 62
     2
370
    -2
100
AcDbLine
 10
294.6780903980947
 20
-355.7067851612467
 30
0.0
 11
294.6780903980947
 21
-373.24761849458
 31
0.0
  0
INSERT
  5
47A
330
3B8
100
AcDbEntity
  8
1
 62
     2
370
    -2
100
AcDbBlockReference
  2
_OPEN30
 10
294.6780903980947
 20
-398.2567851612466
 30
0.0
 41
2.45
 42
2.45
 43
2.45
 50
270.0
  0
INSERT
  5
47B
330
3B8
100
AcDbEntity
  8
1
 62
     2
370
    -2
100
AcDbBlockReference
  2
_OPEN30
 10
294.6780903980947
 20
-353.2567851612467
 30
0.0
 41
2.45
 42
2.45
 43
2.45
 50
90.0
  0
MTEXT
  5
47C
330
3B8
100
AcDbEntity
  8
1
 62
     3
100
AcDbMText
 10
294.6780903980947
 20
-375.7567851612466
 30
0.0
 40
3.5
 41
0.0
 71
     5
 72
     1
  1
\A1;45
  7
CONVERTER_5
 11
0.0000000000000001
 21
1.0
 31
0.0
 73
     1
 44
1.0
1001
ACAD
1000
MTEXTBEGIN
1070
    73
1070
     1
1070
    44
1040
1.0
1070
    74
1070
     0
1000
MTEXTEND
  0
POINT
  5
47D
330
3B8
100
AcDbEntity
  8
Defpoints
 62
     0
100
AcDbPoint
 10
273.6780903980947
 20
-398.2567851612466
 30
0.0
  0
POINT
  5
47E
330
3B8
100
AcDbEntity
  8
Defpoints
 62
     0
100
AcDbPoint
 10
265.7780903980947
 20
-353.2567851612467
 30
0.0
  0
POINT
  5
47F
330
3B8
100
AcDbEntity
  8
Defpoints
 62
     0
100
AcDbPoint
 10
294.6780903980947
 20
-353.2567851612467
 30
0.0
  0
ENDBLK
  5
3BA
330
3B8
100
AcDbEntity
  8
0
100
AcDbBlockEnd
  0
BLOCK
  5
3C6
330
3C5
100
AcDbEntity
  8
0
100
AcDbBlockBegin
  2
*D33
 70
     1
 10
0.0
 20
0.0
 30
0.0
  3
*D33
  1

  0
LINE
  5
480
330
3C5
100
AcDbEntity
  8
1
 62
     2
370
    -2
100
AcDbLine
 10
257.7780903980947
 20
-414.6114901918572
 30
0.0
 11
257.7780903980947
 21
-436.7084557033177
 31
0.0
  0
LINE
  5
481
330
3C5
100
AcDbEntity
  8
1
 62
     2
370
    -2
100
AcDbLine
 10
273.7780903980947
 20
-414.6114901918572
 30
0.0
 11
273.7780903980947
 21
-436.7084557033177
 31
0.0
  0
LINE
  5
482
330
3C5
100
AcDbEntity
  8
1
 62
     2
370
    -2
100
AcDbLine
 10
260.2280903980947
 20
-435.7084557033177
 30
0.0
 11
262.2991320647512
 21
-435.7084557033177
 31
0.0
  0
LINE
  5
483
330
3C5
100
AcDbEntity
  8
1
 62
     2
370
    -2
100
AcDbLine
 10
271.3280903980948
 20
-435.7084557033177
 30
0.0
 11
269.2570487314382
 21
-435.7084557033177
 31
0.0
  0
INSERT
  5
484
330
3C5
100
AcDbEntity
  8
1
 62
     2
370
    -2
100
AcDbBlockReference
  2
_OPEN30
 10
257.7780903980947
 20
-435.7084557033177
 30
0.0
 41
2.45
 42
2.45
 43
2.45
 50
180.0
  0
INSERT
  5
485
330
3C5
100
AcDbEntity
  8
1
 62
     2
370
    -2
100
AcDbBlockReference
  2
_OPEN30
 10
273.7780903980947
 20
-435.7084557033177
 30
0.0
 41
2.45
 42
2.45
 43
2.45
  0
MTEXT
  5
486
330
3C5
100
AcDbEntity
  8
1
 62
     3
100
AcDbMText
 10
265.7780903980947
 20
-435.7084557033177
 30
0.0
 40
3.5
 41
0.0
 71
     5
 72
     1
  1
\A1;{\Fgdt;n}16
  7
CONVERTER_5
 11
0.999999999997062
 21
0.0000024240684056
 31
0.0
 73
     1
 44
1.0
1001
ACAD
1000
MTEXTBEGIN
1070
    73
1070
     1
1070
    44
1040
1.0
1070
    74
1070
     0
1000
MTEXTEND
  0
POINT
  5
487
330
3C5
100
AcDbEntity
  8
Defpoints
 62
     0
100
AcDbPoint
 10
257.7780903980947
 20
-413.6114901918572
 30
0.0
  0
POINT
  5
488
330
3C5
100
AcDbEntity
  8
Defpoints
 62
     0
100
AcDbPoint
 10
273.7780903980947
 20
-413.6114901918572
 30
0.0
  0
POINT
  5
489
330
3C5
100
AcDbEntity
  8
Defpoints
 62
     0
100
AcDbPoint
 10
273.7780903980947
 20
-435.7084557033177
 30
0.0
  0
ENDBLK
  5
3C7
330
3C5
100
AcDbEntity
  8
0
100
AcDbBlockEnd
  0
BLOCK
  5
3D3
330
3D2
100
AcDbEntity
  8
0
100
AcDbBlockBegin
  2
*D34
 70
     1
 10
0.0
 20
0.0
 30
0.0
  3
*D34
  1

  0
LINE
  5
48A
330
3D2
100
AcDbEntity
  8
1
 62
     2
370
    -2
100
AcDbLine
 10
273.3780903980947
 20
-414.7084557033177
 30
0.0
 11
288.6780903980947
 21
-414.7084557033177
 31
0.0
  0
LINE
  5
48B
330
3D2
100
AcDbEntity
  8
1
 62
     2
370
    -2
100
AcDbLine
 10
274.7780903980947
 20
-407.7084557033177
 30
0.0
 11
288.6780903980947
 21
-407.7084557033177
 31
0.0
  0
LINE
  5
48C
330
3D2
100
AcDbEntity
  8
1
 62
     2
370
    -2
100
AcDbLine
 10
287.6780903980947
 20
-412.2584557033177
 30
0.0
 11
287.6780903980947
 21
-410.1584557033176
 31
0.0
  0
LINE
  5
48D
330
3D2
100
AcDbEntity
  8
1
 62
     2
370
    -2
100
AcDbLine
 10
287.6780903980947
 20
-407.7084557033177
 30
0.0
 11
287.6780903980947
 21
-405.2584557033177
 31
0.0
  0
INSERT
  5
48E
330
3D2
100
AcDbEntity
  8
1
 62
     2
370
    -2
100
AcDbBlockReference
  2
_OPEN30
 10
287.6780903980947
 20
-414.7084557033177
 30
0.0
 41
2.45
 42
2.45
 43
2.45
 50
270.0
  0
INSERT
  5
48F
330
3D2
100
AcDbEntity
  8
1
 62
     2
370
    -2
100
AcDbBlockReference
  2
_OPEN30
 10
287.6780903980947
 20
-407.7084557033177
 30
0.0
 41
2.45
 42
2.45
 43
2.45
 50
90.0
  0
MTEXT
  5
490
330
3D2
100
AcDbEntity
  8
1
 62
     3
100
AcDbMText
 10
289.0789237314281
 20
-405.2584557033176
 30
0.0
 40
3.5
 41
0.0
 71
     5
 72
     1
  1
\A1;7
  7
CONVERTER_5
 11
0.0000000000000001
 21
1.0
 31
0.0
 73
     1
 44
1.0
1001
ACAD
1000
MTEXTBEGIN
1070
    73
1070
     1
1070
    44
1040
1.0
1070
    74
1070
     0
1000
MTEXTEND
  0
POINT
  5
491
330
3D2
100
AcDbEntity
  8
Defpoints
 62
     0
100
AcDbPoint
 10
272.3780903980947
 20
-414.7084557033177
 30
0.0
  0
POINT
  5
492
330
3D2
100
AcDbEntity
  8
Defpoints
 62
     0
100
AcDbPoint
 10
273.7780903980947
 20
-407.7084557033177
 30
0.0
  0
POINT
  5
493
330
3D2
100
AcDbEntity
  8
Defpoints
 62
     0
100
AcDbPoint
 10
287.6780903980947
 20
-407.7084557033177
 30
0.0
  0
ENDBLK
  5
3D4
330
3D2
100
AcDbEntity
  8
0
100
AcDbBlockEnd
  0
BLOCK
  5
3E0
330
3DF
100
AcDbEntity
  8
0
100
AcDbBlockBegin
  2
*D35
 70
     1
 10
0.0
 20
0.0
 30
0.0
  3
*D35
  1

  0
LINE
  5
494
330
3DF
100
AcDbEntity
  8
1
 62
     2
370
    -2
100
AcDbLine
 10
263.2780903980947
 20
-406.2084557033177
 30
0.0
 11
263.2780903980947
 21
-404.1504280446914
 31
0.0
  0
LINE
  5
495
330
3DF
100
AcDbEntity
  8
1
 62
     2
370
    -2
100
AcDbLine
 10
268.2780903980947
 20
-406.2084557033177
 30
0.0
 11
268.2780903980947
 21
-404.1504280446914
 31
0.0
  0
LINE
  5
496
330
3DF
100
AcDbEntity
  8
1
 62
     2
370
    -2
100
AcDbLine
 10
260.8280903980947
 20
-405.1504280446914
 30
0.0
 11
258.3780903980947
 21
-405.1504280446914
 31
0.0
  0
LINE
  5
497
330
3DF
100
AcDbEntity
  8
1
 62
     2
370
    -2
100
AcDbLine
 10
270.7280903980947
 20
-405.1504280446914
 30
0.0
 11
273.1780903980947
 21
-405.1504280446914
 31
0.0
  0
LINE
  5
498
330
3DF
100
AcDbEntity
  8
1
 62
     2
370
    -2
100
AcDbLine
 10
263.2780903980947
 20
-405.1504280446914
 30
0.0
 11
268.2780903980947
 21
-405.1504280446914
 31
0.0
  0
INSERT
  5
499
330
3DF
100
AcDbEntity
  8
1
 62
     2
370
    -2
100
AcDbBlockReference
  2
_OPEN30
 10
263.2780903980947
 20
-405.1504280446914
 30
0.0
 41
2.45
 42
2.45
 43
2.45
  0
INSERT
  5
49A
330
3DF
100
AcDbEntity
  8
1
 62
     2
370
    -2
100
AcDbBlockReference
  2
_OPEN30
 10
268.2780903980947
 20
-405.1504280446914
 30
0.0
 41
2.45
 42
2.45
 43
2.45
 50
180.0
  0
MTEXT
  5
49B
330
3DF
100
AcDbEntity
  8
1
 62
     3
100
AcDbMText
 10
275.8257987314358
 20
-405.1504280446914
 30
0.0
 40
3.5
 41
0.0
 71
     5
 72
     1
  1
\A1;{\Fgdt;n}5
  7
CONVERTER_5
 11
0.999999999997062
 21
0.0000024240684056
 31
0.0
 73
     1
 44
1.0
1001
ACAD
1000
MTEXTBEGIN
1070
    73
1070
     1
1070
    44
1040
1.0
1070
    74
1070
     0
1000
MTEXTEND
  0
POINT
  5
49C
330
3DF
100
AcDbEntity
  8
Defpoints
 62
     0
100
AcDbPoint
 10
263.2780903980947
 20
-407.2084557033177
 30
0.0
  0
POINT
  5
49D
330
3DF
100
AcDbEntity
  8
Defpoints
 62
     0
100
AcDbPoint
 10
268.2780903980947
 20
-407.2084557033177
 30
0.0
  0
POINT
  5
49E
330
3DF
100
AcDbEntity
  8
Defpoints
 62
     0
100
AcDbPoint
 10
268.2780903980947
 20
-405.1504280446914
 30
0.0
  0
ENDBLK
  5
3E1
330
3DF
100
AcDbEntity
  8
0
100
AcDbBlockEnd
  0
BLOCK
  5
3EE
330
3ED
100
AcDbEntity
  8
0
100
AcDbBlockBegin
  2
*D36
 70
     1
 10
0.0
 20
0.0
 30
0.0
  3
*D36
  1

  0
LINE
  5
49F
330
3ED
100
AcDbEntity
  8
1
 62
     2
370
    -2
100
AcDbLine
 10
396.7996557213393
 20
-398.2567851612466
 30
0.0
 11
417.7996557213393
 21
-398.2567851612466
 31
0.0
  0
LINE
  5
4A0
330
3ED
100
AcDbEntity
  8
1
 62
     2
370
    -2
100
AcDbLine
 10
390.9496557213394
 20
-407.2084557033177
 30
0.0
 11
417.7996557213393
 21
-407.2084557033177
 31
0.0
  0
LINE
  5
4A1
330
3ED
100
AcDbEntity
  8
1
 62
     2
370
    -2
100
AcDbLine
 10
416.7996557213393
 20
-400.7067851612466
 30
0.0
 11
416.7996557213393
 21
-404.7584557033177
 31
0.0
  0
LINE
  5
4A2
330
3ED
100
AcDbEntity
  8
1
 62
     2
370
    -2
100
AcDbLine
 10
416.7996557213393
 20
-407.2084557033177
 30
0.0
 11
416.7996557213393
 21
-409.6584557033176
 31
0.0
  0
INSERT
  5
4A3
330
3ED
100
AcDbEntity
  8
1
 62
     2
370
    -2
100
AcDbBlockReference
  2
_OPEN30
 10
416.7996557213393
 20
-398.2567851612466
 30
0.0
 41
2.45
 42
2.45
 43
2.45
 50
90.0
  0
INSERT
  5
4A4
330
3ED
100
AcDbEntity
  8
1
 62
     2
370
    -2
100
AcDbBlockReference
  2
_OPEN30
 10
416.7996557213393
 20
-407.2084557033177
 30
0.0
 41
2.45
 42
2.45
 43
2.45
 50
270.0
  0
MTEXT
  5
4A5
102
{ACAD_XDICTIONARY
360
66E
102
}
330
3ED
100
AcDbEntity
  8
1
 62
     3
100
AcDbMText
 10
409.1101269582653
 20
-409.6584557033176
 30
0.0
 40
3.5
 41
0.0
 71
     5
 72
     1
  1
\A1;5.5\U+0081`12.5
  7
CONVERTER_5
 11
0.0000000000000001
 21
1.0
 31
0.0
 73
     1
 44
1.0
1001
ACAD
1000
MTEXTBEGIN
1070
    73
1070
     1
1070
    44
1040
1.0
1070
    74
1070
     0
1000
MTEXTEND
  0
POINT
  5
4A6
330
3ED
100
AcDbEntity
  8
Defpoints
 62
     0
100
AcDbPoint
 10
395.7996557213393
 20
-398.2567851612466
 30
0.0
  0
POINT
  5
4A7
330
3ED
100
AcDbEntity
  8
Defpoints
 62
     0
100
AcDbPoint
 10
389.9496557213394
 20
-407.2084557033177
 30
0.0
  0
POINT
  5
4A8
330
3ED
100
AcDbEntity
  8
Defpoints
 62
     0
100
AcDbPoint
 10
416.7996557213393
 20
-407.2084557033177
 30
0.0
  0
ENDBLK
  5
3EF
330
3ED
100
AcDbEntity
  8
0
100
AcDbBlockEnd
  0
BLOCK
  5
3FB
330
3FA
100
AcDbEntity
  8
0
100
AcDbBlockBegin
  2
*D37
 70
     1
 10
0.0
 20
0.0
 30
0.0
  3
*D37
  1

  0
LINE
  5
4A9
330
3FA
100
AcDbEntity
  8
1
 62
     2
370
    -2
100
AcDbLine
 10
359.2996557213393
 20
-352.7567851612467
 30
0.0
 11
359.2996557213395
 21
-331.2567851612468
 31
0.0
  0
LINE
  5
4AA
330
3FA
100
AcDbEntity
  8
1
 62
     2
370
    -2
100
AcDbLine
 10
342.2996557213394
 20
-352.7567851612466
 30
0.0
 11
342.2996557213395
 21
-331.2567851612467
 31
0.0
  0
LINE
  5
4AB
330
3FA
100
AcDbEntity
  8
1
 62
     2
370
    -2
100
AcDbLine
 10
356.8496557213395
 20
-332.2567851612468
 30
0.0
 11
353.0871557213462
 21
-332.2567851612467
 31
0.0
  0
LINE
  5
4AC
330
3FA
100
AcDbEntity
  8
1
 62
     2
370
    -2
100
AcDbLine
 10
344.7496557213395
 20
-332.2567851612467
 30
0.0
 11
348.5121557213328
 21
-332.2567851612467
 31
0.0
  0
INSERT
  5
4AD
330
3FA
100
AcDbEntity
  8
1
 62
     2
370
    -2
100
AcDbBlockReference
  2
_OPEN30
 10
359.2996557213394
 20
-332.2567851612468
 30
0.0
 41
2.45
 42
2.45
 43
2.45
 50
359.9999999999996
  0
INSERT
  5
4AE
330
3FA
100
AcDbEntity
  8
1
 62
     2
370
    -2
100
AcDbBlockReference
  2
_OPEN30
 10
342.2996557213395
 20
-332.2567851612467
 30
0.0
 41
2.45
 42
2.45
 43
2.45
 50
179.9999999999996
  0
MTEXT
  5
4AF
330
3FA
100
AcDbEntity
  8
1
 62
     3
100
AcDbMText
 10
350.7996557213419
 20
-332.2567851612443
 30
0.0
 40
3.5
 41
0.0
 71
     5
 72
     1
  1
\A1;17
  7
CONVERTER_5
 11
0.999999999997062
 21
0.0000024240683985
 31
0.0
 73
     1
 44
1.0
1001
ACAD
1000
MTEXTBEGIN
1070
    73
1070
     1
1070
    44
1040
1.0
1070
    74
1070
     0
1000
MTEXTEND
  0
POINT
  5
4B0
330
3FA
100
AcDbEntity
  8
Defpoints
 62
     0
100
AcDbPoint
 10
359.2996557213393
 20
-353.7567851612467
 30
0.0
  0
POINT
  5
4B1
330
3FA
100
AcDbEntity
  8
Defpoints
 62
     0
100
AcDbPoint
 10
342.2996557213394
 20
-353.7567851612466
 30
0.0
  0
POINT
  5
4B2
330
3FA
100
AcDbEntity
  8
Defpoints
 62
     0
100
AcDbPoint
 10
342.2996557213395
 20
-332.2567851612467
 30
0.0
  0
ENDBLK
  5
3FC
330
3FA
100
AcDbEntity
  8
0
100
AcDbBlockEnd
  0
BLOCK
  5
408
330
407
100
AcDbEntity
  8
0
100
AcDbBlockBegin
  2
*D38
 70
     1
 10
0.0
 20
0.0
 30
0.0
  3
*D38
  1

  0
LINE
  5
4B3
330
407
100
AcDbEntity
  8
1
 62
     2
370
    -2
100
AcDbLine
 10
342.2996557213394
 20
-352.7567851612466
 30
0.0
 11
342.2996557213394
 21
-324.2567851612466
 31
0.0
  0
LINE
  5
4B4
330
407
100
AcDbEntity
  8
1
 62
     2
370
    -2
100
AcDbLine
 10
395.7996557213393
 20
-353.2567851612467
 30
0.0
 11
395.7996557213393
 21
-324.2567851612466
 31
0.0
  0
LINE
  5
4B5
330
407
100
AcDbEntity
  8
1
 62
     2
370
    -2
100
AcDbLine
 10
344.7496557213394
 20
-325.2567851612466
 30
0.0
 11
364.8779890546605
 21
-325.2567851612466
 31
0.0
  0
LINE
  5
4B6
330
407
100
AcDbEntity
  8
1
 62
     2
370
    -2
100
AcDbLine
 10
393.3496557213393
 20
-325.2567851612466
 30
0.0
 11
373.2213223880183
 21
-325.2567851612466
 31
0.0
  0
INSERT
  5
4B7
330
407
100
AcDbEntity
  8
1
 62
     2
370
    -2
100
AcDbBlockReference
  2
_OPEN30
 10
342.2996557213394
 20
-325.2567851612466
 30
0.0
 41
2.45
 42
2.45
 43
2.45
 50
180.0
  0
INSERT
  5
4B8
330
407
100
AcDbEntity
  8
1
 62
     2
370
    -2
100
AcDbBlockReference
  2
_OPEN30
 10
395.7996557213393
 20
-325.2567851612466
 30
0.0
 41
2.45
 42
2.45
 43
2.45
  0
MTEXT
  5
4B9
330
407
100
AcDbEntity
  8
1
 62
     3
100
AcDbMText
 10
369.0496557213394
 20
-325.2567851612466
 30
0.0
 40
3.5
 41
0.0
 71
     5
 72
     1
  1
\A1;53.5
  7
CONVERTER_5
 11
0.999999999997062
 21
0.0000024240684056
 31
0.0
 73
     1
 44
1.0
1001
ACAD
1000
MTEXTBEGIN
1070
    73
1070
     1
1070
    44
1040
1.0
1070
    74
1070
     0
1000
MTEXTEND
  0
POINT
  5
4BA
330
407
100
AcDbEntity
  8
Defpoints
 62
     0
100
AcDbPoint
 10
342.2996557213394
 20
-353.7567851612466
 30
0.0
  0
POINT
  5
4BB
330
407
100
AcDbEntity
  8
Defpoints
 62
     0
100
AcDbPoint
 10
395.7996557213393
 20
-354.2567851612468
 30
0.0
  0
POINT
  5
4BC
330
407
100
AcDbEntity
  8
Defpoints
 62
     0
100
AcDbPoint
 10
395.7996557213393
 20
-325.2567851612466
 30
0.0
  0
ENDBLK
  5
409
330
407
100
AcDbEntity
  8
0
100
AcDbBlockEnd
  0
BLOCK
  5
415
330
414
100
AcDbEntity
  8
0
100
AcDbBlockBegin
  2
*D39
 70
     1
 10
0.0
 20
0.0
 30
0.0
  3
*D39
  1

  0
LINE
  5
4BD
330
414
100
AcDbEntity
  8
1
 62
     2
370
    -2
100
AcDbLine
 10
257.8780903980947
 20
-360.1567851612466
 30
0.0
 11
257.8780903980947
 21
-331.2567851612466
 31
0.0
  0
LINE
  5
4BE
330
414
100
AcDbEntity
  8
1
 62
     2
370
    -2
100
AcDbLine
 10
273.6780903980946
 20
-360.1567851612466
 30
0.0
 11
273.6780903980946
 21
-331.2567851612466
 31
0.0
  0
LINE
  5
4BF
330
414
100
AcDbEntity
  8
1
 62
     2
370
    -2
100
AcDbLine
 10
260.3280903980947
 20
-332.2567851612466
 30
0.0
 11
261.828090398083
 21
-332.2567851612466
 31
0.0
  0
LINE
  5
4C0
330
414
100
AcDbEntity
  8
1
 62
     2
370
    -2
100
AcDbLine
 10
271.2280903980946
 20
-332.2567851612466
 30
0.0
 11
269.7280903981062
 21
-332.2567851612466
 31
0.0
  0
INSERT
  5
4C1
330
414
100
AcDbEntity
  8
1
 62
     2
370
    -2
100
AcDbBlockReference
  2
_OPEN30
 10
257.8780903980947
 20
-332.2567851612466
 30
0.0
 41
2.45
 42
2.45
 43
2.45
 50
180.0
  0
INSERT
  5
4C2
330
414
100
AcDbEntity
  8
1
 62
     2
370
    -2
100
AcDbBlockReference
  2
_OPEN30
 10
273.6780903980946
 20
-332.2567851612466
 30
0.0
 41
2.45
 42
2.45
 43
2.45
  0
MTEXT
  5
4C3
330
414
100
AcDbEntity
  8
1
 62
     3
100
AcDbMText
 10
265.7780903980946
 20
-332.2567851612466
 30
0.0
 40
3.5
 41
0.0
 71
     5
 72
     1
  1
\A1;15.8
  7
CONVERTER_5
 11
0.999999999997062
 21
0.0000024240684056
 31
0.0
 73
     1
 44
1.0
1001
ACAD
1000
MTEXTBEGIN
1070
    73
1070
     1
1070
    44
1040
1.0
1070
    74
1070
     0
1000
MTEXTEND
  0
POINT
  5
4C4
330
414
100
AcDbEntity
  8
Defpoints
 62
     0
100
AcDbPoint
 10
257.8780903980947
 20
-361.1567851612467
 30
0.0
  0
POINT
  5
4C5
330
414
100
AcDbEntity
  8
Defpoints
 62
     0
100
AcDbPoint
 10
273.6780903980946
 20
-361.1567851612467
 30
0.0
  0
POINT
  5
4C6
330
414
100
AcDbEntity
  8
Defpoints
 62
     0
100
AcDbPoint
 10
273.6780903980946
 20
-332.2567851612466
 30
0.0
  0
ENDBLK
  5
416
330
414
100
AcDbEntity
  8
0
100
AcDbBlockEnd
  0
BLOCK
  5
422
330
421
100
AcDbEntity
  8
0
100
AcDbBlockBegin
  2
*D40
 70
     1
 10
0.0
 20
0.0
 30
0.0
  3
*D40
  1

  0
LINE
  5
4C7
330
421
100
AcDbEntity
  8
1
 62
     2
370
    -2
100
AcDbLine
 10
359.2996557213393
 20
-399.2567851612466
 30
0.0
 11
359.2996557213393
 21
-436.7084557033177
 31
0.0
  0
LINE
  5
4C8
330
421
100
AcDbEntity
  8
1
 62
     2
370
    -2
100
AcDbLine
 10
386.7996557213393
 20
-420.7084557033176
 30
0.0
 11
386.7996557213393
 21
-436.7084557033177
 31
0.0
  0
LINE
  5
4C9
330
421
100
AcDbEntity
  8
1
 62
     2
370
    -2
100
AcDbLine
 10
361.7496557213393
 20
-435.7084557033177
 30
0.0
 11
368.8779890546604
 21
-435.7084557033177
 31
0.0
  0
LINE
  5
4CA
330
421
100
AcDbEntity
  8
1
 62
     2
370
    -2
100
AcDbLine
 10
384.3496557213393
 20
-435.7084557033177
 30
0.0
 11
377.2213223880182
 21
-435.7084557033177
 31
0.0
  0
INSERT
  5
4CB
330
421
100
AcDbEntity
  8
1
 62
     2
370
    -2
100
AcDbBlockReference
  2
_OPEN30
 10
359.2996557213393
 20
-435.7084557033177
 30
0.0
 41
2.45
 42
2.45
 43
2.45
 50
180.0
  0
INSERT
  5
4CC
330
421
100
AcDbEntity
  8
1
 62
     2
370
    -2
100
AcDbBlockReference
  2
_OPEN30
 10
386.7996557213393
 20
-435.7084557033177
 30
0.0
 41
2.45
 42
2.45
 43
2.45
  0
MTEXT
  5
4CD
330
421
100
AcDbEntity
  8
1
 62
     3
100
AcDbMText
 10
373.0496557213393
 20
-435.7084557033177
 30
0.0
 40
3.5
 41
0.0
 71
     5
 72
     1
  1
\A1;27.5
  7
CONVERTER_5
 11
0.999999999997062
 21
0.0000024240684056
 31
0.0
 73
     1
 44
1.0
1001
ACAD
1000
MTEXTBEGIN
1070
    73
1070
     1
1070
    44
1040
1.0
1070
    74
1070
     0
1000
MTEXTEND
  0
POINT
  5
4CE
330
421
100
AcDbEntity
  8
Defpoints
 62
     0
100
AcDbPoint
 10
359.2996557213393
 20
-398.2567851612466
 30
0.0
  0
POINT
  5
4CF
330
421
100
AcDbEntity
  8
Defpoints
 62
     0
100
AcDbPoint
 10
386.7996557213393
 20
-419.7084557033177
 30
0.0
  0
POINT
  5
4D0
330
421
100
AcDbEntity
  8
Defpoints
 62
     0
100
AcDbPoint
 10
386.7996557213393
 20
-435.7084557033177
 30
0.0
  0
ENDBLK
  5
423
330
421
100
AcDbEntity
  8
0
100
AcDbBlockEnd
  0
BLOCK
  5
42F
330
42E
100
AcDbEntity
  8
0
100
AcDbBlockBegin
  2
*D41
 70
     1
 10
0.0
 20
0.0
 30
0.0
  3
*D41
  1

  0
LINE
  5
4D1
330
42E
100
AcDbEntity
  8
1
 62
     2
370
    -2
100
AcDbLine
 10
398.7996557213393
 20
-386.2567851612466
 30
0.0
 11
417.7996557213393
 21
-386.2567851612466
 31
0.0
  0
LINE
  5
4D2
330
42E
100
AcDbEntity
  8
1
 62
     2
370
    -2
100
AcDbLine
 10
396.7996557213393
 20
-398.2567851612466
 30
0.0
 11
417.7996557213393
 21
-398.2567851612466
 31
0.0
  0
LINE
  5
4D3
330
42E
100
AcDbEntity
  8
1
 62
     2
370
    -2
100
AcDbLine
 10
416.7996557213393
 20
-388.7067851612466
 30
0.0
 11
416.7996557213393
 21
-389.9692851612466
 31
0.0
  0
LINE
  5
4D4
330
42E
100
AcDbEntity
  8
1
 62
     2
370
    -2
100
AcDbLine
 10
416.7996557213393
 20
-395.8067851612466
 30
0.0
 11
416.7996557213393
 21
-394.5442851612467
 31
0.0
  0
INSERT
  5
4D5
330
42E
100
AcDbEntity
  8
1
 62
     2
370
    -2
100
AcDbBlockReference
  2
_OPEN30
 10
416.7996557213393
 20
-386.2567851612466
 30
0.0
 41
2.45
 42
2.45
 43
2.45
 50
90.0
  0
INSERT
  5
4D6
330
42E
100
AcDbEntity
  8
1
 62
     2
370
    -2
100
AcDbBlockReference
  2
_OPEN30
 10
416.7996557213393
 20
-398.2567851612466
 30
0.0
 41
2.45
 42
2.45
 43
2.45
 50
270.0
  0
MTEXT
  5
4D7
330
42E
100
AcDbEntity
  8
1
 62
     3
100
AcDbMText
 10
416.7996557213394
 20
-392.2567851612465
 30
0.0
 40
3.5
 41
0.0
 71
     5
 72
     1
  1
\A1;12
  7
CONVERTER_5
 11
0.0000000000000001
 21
1.0
 31
0.0
 73
     1
 44
1.0
1001
ACAD
1000
MTEXTBEGIN
1070
    73
1070
     1
1070
    44
1040
1.0
1070
    74
1070
     0
1000
MTEXTEND
  0
POINT
  5
4D8
330
42E
100
AcDbEntity
  8
Defpoints
 62
     0
100
AcDbPoint
 10
397.7996557213393
 20
-386.2567851612466
 30
0.0
  0
POINT
  5
4D9
330
42E
100
AcDbEntity
  8
Defpoints
 62
     0
100
AcDbPoint
 10
395.7996557213393
 20
-398.2567851612466
 30
0.0
  0
POINT
  5
4DA
330
42E
100
AcDbEntity
  8
Defpoints
 62
     0
100
AcDbPoint
 10
416.7996557213393
 20
-398.2567851612466
 30
0.0
  0
ENDBLK
  5
430
330
42E
100
AcDbEntity
  8
0
100
AcDbBlockEnd
  0
BLOCK
  5
43C
330
43B
100
AcDbEntity
  8
0
100
AcDbBlockBegin
  2
*D42
 70
     1
 10
0.0
 20
0.0
 30
0.0
  3
*D42
  1

  0
LINE
  5
4DB
330
43B
100
AcDbEntity
  8
1
 62
     2
370
    -2
100
AcDbLine
 10
395.7996557213393
 20
-353.2567851612467
 30
0.0
 11
417.7996557213393
 21
-353.2567851612467
 31
0.0
  0
LINE
  5
4DC
330
43B
100
AcDbEntity
  8
1
 62
     2
370
    -2
100
AcDbLine
 10
398.7996557213393
 20
-386.2567851612466
 30
0.0
 11
417.7996557213393
 21
-386.2567851612466
 31
0.0
  0
LINE
  5
4DD
330
43B
100
AcDbEntity
  8
1
 62
     2
370
    -2
100
AcDbLine
 10
416.7996557213394
 20
-355.7067851612467
 30
0.0
 11
416.7996557213394
 21
-367.24761849458
 31
0.0
  0
LINE
  5
4DE
330
43B
100
AcDbEntity
  8
1
 62
     2
370
    -2
100
AcDbLine
 10
416.7996557213394
 20
-383.8067851612466
 30
0.0
 11
416.7996557213394
 21
-372.2659518279133
 31
0.0
  0
INSERT
  5
4DF
330
43B
100
AcDbEntity
  8
1
 62
     2
370
    -2
100
AcDbBlockReference
  2
_OPEN30
 10
416.7996557213394
 20
-353.2567851612467
 30
0.0
 41
2.45
 42
2.45
 43
2.45
 50
90.0
  0
INSERT
  5
4E0
330
43B
100
AcDbEntity
  8
1
 62
     2
370
    -2
100
AcDbBlockReference
  2
_OPEN30
 10
416.7996557213393
 20
-386.2567851612466
 30
0.0
 41
2.45
 42
2.45
 43
2.45
 50
270.0
  0
MTEXT
  5
4E1
330
43B
100
AcDbEntity
  8
1
 62
     3
100
AcDbMText
 10
416.7996557213394
 20
-369.7567851612466
 30
0.0
 40
3.5
 41
0.0
 71
     5
 72
     1
  1
\A1;33
  7
CONVERTER_5
 11
0.0000000000000001
 21
1.0
 31
0.0
 73
     1
 44
1.0
1001
ACAD
1000
MTEXTBEGIN
1070
    73
1070
     1
1070
    44
1040
1.0
1070
    74
1070
     0
1000
MTEXTEND
  0
POINT
  5
4E2
330
43B
100
AcDbEntity
  8
Defpoints
 62
     0
100
AcDbPoint
 10
394.7996557213393
 20
-353.2567851612467
 30
0.0
  0
POINT
  5
4E3
330
43B
100
AcDbEntity
  8
Defpoints
 62
     0
100
AcDbPoint
 10
397.7996557213393
 20
-386.2567851612466
 30
0.0
  0
POINT
  5
4E4
330
43B
100
AcDbEntity
  8
Defpoints
 62
     0
100
AcDbPoint
 10
416.7996557213393
 20
-386.2567851612466
 30
0.0
  0
ENDBLK
  5
43D
330
43B
100
AcDbEntity
  8
0
100
AcDbBlockEnd
  0
BLOCK
  5
449
330
448
100
AcDbEntity
  8
0
100
AcDbBlockBegin
  2
*D43
 70
     1
 10
0.0
 20
0.0
 30
0.0
  3
*D43
  1

  0
LINE
  5
4E5
330
448
100
AcDbEntity
  8
1
 62
     2
370
    -2
100
AcDbLine
 10
389.7996557213393
 20
-350.2567851612468
 30
0.0
 11
389.7996557213393
 21
-331.2567851612466
 31
0.0
  0
LINE
  5
4E6
330
448
100
AcDbEntity
  8
1
 62
     2
370
    -2
100
AcDbLine
 10
395.7996557213393
 20
-353.2567851612467
 30
0.0
 11
395.7996557213393
 21
-331.2567851612466
 31
0.0
  0
LINE
  5
4E7
330
448
100
AcDbEntity
  8
1
 62
     2
370
    -2
100
AcDbLine
 10
389.7996557213393
 20
-332.2567851612466
 30
0.0
 11
393.3496557213393
 21
-332.2567851612466
 31
0.0
  0
LINE
  5
4E8
330
448
100
AcDbEntity
  8
1
 62
     2
370
    -2
100
AcDbLine
 10
395.7996557213393
 20
-332.2567851612466
 30
0.0
 11
398.2496557213393
 21
-332.2567851612466
 31
0.0
  0
INSERT
  5
4E9
330
448
100
AcDbEntity
  8
1
 62
     2
370
    -2
100
AcDbBlockReference
  2
_OPEN30
 10
395.7996557213393
 20
-332.2567851612466
 30
0.0
 41
2.45
 42
2.45
 43
2.45
  0
MTEXT
  5
4EA
330
448
100
AcDbEntity
  8
1
 62
     3
100
AcDbMText
 10
399.5950723880099
 20
-332.2567851612466
 30
0.0
 40
3.5
 41
0.0
 71
     5
 72
     1
  1
\A1;6
  7
CONVERTER_5
 11
0.999999999997062
 21
0.0000024240684056
 31
0.0
 73
     1
 44
1.0
1001
ACAD
1000
MTEXTBEGIN
1070
    73
1070
     1
1070
    44
1040
1.0
1070
    74
1070
     0
1000
MTEXTEND
  0
POINT
  5
4EB
330
448
100
AcDbEntity
  8
Defpoints
 62
     0
100
AcDbPoint
 10
389.7996557213393
 20
-351.2567851612467
 30
0.0
  0
POINT
  5
4EC
330
448
100
AcDbEntity
  8
Defpoints
 62
     0
100
AcDbPoint
 10
395.7996557213393
 20
-354.2567851612468
 30
0.0
  0
POINT
  5
4ED
330
448
100
AcDbEntity
  8
Defpoints
 62
     0
100
AcDbPoint
 10
395.7996557213393
 20
-332.2567851612466
 30
0.0
  0
ENDBLK
  5
44A
330
448
100
AcDbEntity
  8
0
100
AcDbBlockEnd
  0
ENDSEC
  0
SECTION
  2
ENTITIES
  0
CIRCLE
  5
2FF
330
A
100
AcDbEntity
  8
1
  6
Continuous
 62
     7
100
AcDbCircle
 10
265.7780903980947
 20
-361.6567851612467
 30
0.0
 40
4.5
  0
LINE
  5
2FE
330
A
100
AcDbEntity
  8
1
  6
DOT_CENTER
 62
     2
100
AcDbLine
 10
265.7780903980947
 20
-366.6067851612468
 30
0.0
 11
265.7780903980947
 21
-356.7067851612467
 31
0.0
  0
LINE
  5
2FD
330
A
100
AcDbEntity
  8
1
  6
DOT_CENTER
 62
     2
100
AcDbLine
 10
260.8280903980948
 20
-361.6567851612467
 30
0.0
 11
270.7280903980948
 21
-361.6567851612467
 31
0.0
  0
ARC
  5
4EE
330
A
100
AcDbEntity
  8
1
  6
Continuous
 62
     7
100
AcDbCircle
 10
265.7780903980947
 20
-361.1567851612467
 30
0.0
 40
7.89999999999992
100
AcDbArc
 50
90.0
 51
180.0
  0
ARC
  5
4EF
330
A
100
AcDbEntity
  8
1
  6
Continuous
 62
     7
100
AcDbCircle
 10
265.7780903980947
 20
-361.1567851612467
 30
0.0
 40
7.89999999999986
100
AcDbArc
 50
0.0
 51
90.0
  0
LINE
  5
4F0
330
A
100
AcDbEntity
  8
1
  6
Continuous
 62
     7
100
AcDbLine
 10
257.8780903980947
 20
-398.2567851612466
 30
0.0
 11
273.6780903980947
 21
-398.2567851612466
 31
0.0
  0
LINE
  5
4F1
330
A
100
AcDbEntity
  8
1
  6
Continuous
 62
     7
100
AcDbLine
 10
273.6780903980947
 20
-398.2567851612466
 30
0.0
 11
273.6780903980946
 21
-361.1567851612467
 31
0.0
  0
LINE
  5
4F2
330
A
100
AcDbEntity
  8
1
  6
Continuous
 62
     7
100
AcDbLine
 10
363.2996557213393
 20
-398.2567851612466
 30
0.0
 11
383.3746557213394
 21
-398.2567851612466
 31
0.0
  0
LINE
  5
4F3
330
A
100
AcDbEntity
  8
1
  6
Continuous
 62
     7
100
AcDbLine
 10
383.3746557213394
 20
-398.2567851612466
 30
0.0
 11
390.2246557213393
 21
-398.2567851612466
 31
0.0
  0
LINE
  5
4F4
330
A
100
AcDbEntity
  8
1
  6
Continuous
 62
     7
100
AcDbLine
 10
257.8780903980947
 20
-361.1567851612467
 30
0.0
 11
257.8780903980947
 21
-398.2567851612466
 31
0.0
  0
LINE
  5
4F5
330
A
100
AcDbEntity
  8
1
  6
DOT_CENTER
 62
     2
100
AcDbLine
 10
386.7996557213393
 20
-348.2567851612468
 30
0.0
 11
386.7996557213393
 21
-419.7084557033177
 31
0.0
  0
LINE
  5
4F6
330
A
100
AcDbEntity
  8
1
  6
Continuous
 62
     7
100
AcDbLine
 10
394.7996557213393
 20
-398.2567851612466
 30
0.0
 11
395.7996557213393
 21
-398.2567851612466
 31
0.0
  0
LINE
  5
4F7
330
A
100
AcDbEntity
  8
1
  6
Continuous
 62
     7
100
AcDbLine
 10
363.2996557213393
 20
-353.2567851612467
 30
0.0
 11
363.2996557213393
 21
-398.2567851612466
 31
0.0
  0
LINE
  5
4F8
330
A
100
AcDbEntity
  8
1
  6
Continuous
 62
     7
100
AcDbLine
 10
394.7996557213393
 20
-353.2567851612467
 30
0.0
 11
363.2996557213393
 21
-353.2567851612467
 31
0.0
  0
LINE
  5
4F9
330
A
100
AcDbEntity
  8
1
  6
Continuous
 62
     7
100
AcDbLine
 10
395.7996557213393
 20
-398.2567851612466
 30
0.0
 11
395.7996557213393
 21
-354.2567851612468
 31
0.0
  0
LINE
  5
4FA
330
A
100
AcDbEntity
  8
1
  6
Continuous
 62
     7
100
AcDbLine
 10
394.7996557213393
 20
-353.2567851612467
 30
0.0
 11
395.7996557213393
 21
-354.2567851612468
 31
0.0
  0
LINE
  5
4FB
330
A
100
AcDbEntity
  8
1
  6
Continuous
 62
     7
100
AcDbLine
 10
394.7996557213393
 20
-398.2567851612466
 30
0.0
 11
394.7996557213393
 21
-353.2567851612467
 31
0.0
  0
LINE
  5
4FC
330
A
100
AcDbEntity
  8
1
  6
Continuous
 62
     7
100
AcDbLine
 10
390.2246557213393
 20
-398.2567851612466
 30
0.0
 11
394.7996557213393
 21
-398.2567851612466
 31
0.0
  0
LINE
  5
500
330
A
100
AcDbEntity
  8
1
  6
Continuous
 62
     7
100
AcDbLine
 10
389.2996557213393
 20
-407.2084557033177
 30
0.0
 11
384.2996557213393
 21
-407.2084557033177
 31
0.0
  0
LINE
  5
501
330
A
100
AcDbEntity
  8
1
  6
Continuous
 62
     7
100
AcDbLine
 10
384.2996557213393
 20
-407.2084557033177
 30
0.0
 11
384.2996557213393
 21
-398.2567851612466
 31
0.0
  0
LINE
  5
502
330
A
100
AcDbEntity
  8
1
  6
Continuous
 62
     7
100
AcDbLine
 10
389.2996557213393
 20
-398.2567851612466
 30
0.0
 11
389.2996557213393
 21
-407.2084557033177
 31
0.0
  0
LINE
  5
503
330
A
100
AcDbEntity
  8
1
  6
Continuous
 62
     7
100
AcDbLine
 10
268.2780903980947
 20
-407.2084557033177
 30
0.0
 11
263.2780903980947
 21
-407.2084557033177
 31
0.0
  0
LINE
  5
504
330
A
100
AcDbEntity
  8
1
  6
Continuous
 62
     7
100
AcDbLine
 10
263.2780903980947
 20
-407.2084557033177
 30
0.0
 11
263.2780903980947
 21
-398.2567851612466
 31
0.0
  0
LINE
  5
505
330
A
100
AcDbEntity
  8
1
  6
Continuous
 62
     7
100
AcDbLine
 10
268.2780903980947
 20
-398.2567851612466
 30
0.0
 11
268.2780903980947
 21
-407.2084557033177
 31
0.0
  0
ARC
  5
506
330
A
100
AcDbEntity
  8
1
  6
Continuous
 62
     7
100
AcDbCircle
 10
379.2996557213393
 20
-413.6114901918572
 30
0.0
 40
0.5
100
AcDbArc
 50
180.0
 51
240.0000000000125
  0
ARC
  5
507
330
A
100
AcDbEntity
  8
1
  6
Continuous
 62
     7
100
AcDbCircle
 10
394.2996557213393
 20
-413.6114901918572
 30
0.0
 40
0.50000000000019
100
AcDbArc
 50
299.9999999999875
 51
0.0
  0
ARC
  5
508
330
A
100
AcDbEntity
  8
1
  6
Continuous
 62
     7
100
AcDbCircle
 10
258.2780903980947
 20
-413.6114901918572
 30
0.0
 40
0.5
100
AcDbArc
 50
180.0
 51
240.0000000000125
  0
ARC
  5
509
330
A
100
AcDbEntity
  8
1
  6
Continuous
 62
     7
100
AcDbCircle
 10
273.2780903980947
 20
-413.6114901918572
 30
0.0
 40
0.50000000000019
100
AcDbArc
 50
299.9999999999875
 51
0.0
  0
LINE
  5
50A
330
A
100
AcDbEntity
  8
1
  6
Continuous
 62
     7
100
AcDbLine
 10
378.7996557213393
 20
-413.6114901918572
 30
0.0
 11
378.7996557213393
 21
-407.7084557033177
 31
0.0
  0
LINE
  5
50B
330
A
100
AcDbEntity
  8
1
  6
Continuous
 62
     7
100
AcDbLine
 10
380.1996557213394
 20
-414.7084557033177
 30
0.0
 11
379.0496557213393
 21
-414.0445028937496
 31
0.0
  0
LINE
  5
50C
330
A
100
AcDbEntity
  8
1
  6
Continuous
 62
     7
100
AcDbLine
 10
393.3996557213394
 20
-414.7084557033177
 30
0.0
 11
380.1996557213394
 21
-414.7084557033177
 31
0.0
  0
LINE
  5
50D
330
A
100
AcDbEntity
  8
1
  6
Continuous
 62
     7
100
AcDbLine
 10
394.5496557213393
 20
-414.0445028937496
 30
0.0
 11
393.3996557213394
 21
-414.7084557033177
 31
0.0
  0
LINE
  5
50E
330
A
100
AcDbEntity
  8
1
  6
Continuous
 62
     7
100
AcDbLine
 10
394.7996557213393
 20
-407.7084557033177
 30
0.0
 11
394.7996557213393
 21
-413.6114901918572
 31
0.0
  0
LINE
  5
50F
330
A
100
AcDbEntity
  8
1
  6
Continuous
 62
     7
100
AcDbLine
 10
394.7996557213393
 20
-407.7084557033177
 30
0.0
 11
378.7996557213393
 21
-407.7084557033177
 31
0.0
  0
LINE
  5
510
330
A
100
AcDbEntity
  8
1
  6
Continuous
 62
     7
100
AcDbLine
 10
257.7780903980947
 20
-413.6114901918572
 30
0.0
 11
257.7780903980947
 21
-407.7084557033177
 31
0.0
  0
LINE
  5
511
330
A
100
AcDbEntity
  8
1
  6
Continuous
 62
     7
100
AcDbLine
 10
259.1780903980947
 20
-414.7084557033177
 30
0.0
 11
258.0280903980947
 21
-414.0445028937496
 31
0.0
  0
LINE
  5
512
330
A
100
AcDbEntity
  8
1
  6
Continuous
 62
     7
100
AcDbLine
 10
272.3780903980947
 20
-414.7084557033177
 30
0.0
 11
259.1780903980947
 21
-414.7084557033177
 31
0.0
  0
LINE
  5
513
330
A
100
AcDbEntity
  8
1
  6
Continuous
 62
     7
100
AcDbLine
 10
273.5280903980947
 20
-414.0445028937496
 30
0.0
 11
272.3780903980947
 21
-414.7084557033177
 31
0.0
  0
LINE
  5
514
330
A
100
AcDbEntity
  8
1
  6
Continuous
 62
     7
100
AcDbLine
 10
273.7780903980947
 20
-407.7084557033177
 30
0.0
 11
273.7780903980947
 21
-413.6114901918572
 31
0.0
  0
LINE
  5
515
330
A
100
AcDbEntity
  8
1
  6
Continuous
 62
     7
100
AcDbLine
 10
273.7780903980947
 20
-407.7084557033177
 30
0.0
 11
257.7780903980947
 21
-407.7084557033177
 31
0.0
  0
LINE
  5
516
330
A
100
AcDbEntity
  8
1
  6
Continuous
 62
     7
100
AcDbLine
 10
389.9496557213394
 20
-407.7084557033177
 30
0.0
 11
389.9496557213394
 21
-407.2084557033177
 31
0.0
  0
LINE
  5
517
330
A
100
AcDbEntity
  8
1
  6
Continuous
 62
     7
100
AcDbLine
 10
383.6496557213393
 20
-407.7084557033177
 30
0.0
 11
389.9496557213394
 21
-407.7084557033177
 31
0.0
  0
LINE
  5
518
330
A
100
AcDbEntity
  8
1
  6
Continuous
 62
     7
100
AcDbLine
 10
383.6496557213393
 20
-407.2084557033177
 30
0.0
 11
383.6496557213393
 21
-407.7084557033177
 31
0.0
  0
LINE
  5
519
330
A
100
AcDbEntity
  8
1
  6
Continuous
 62
     7
100
AcDbLine
 10
389.9496557213394
 20
-407.2084557033177
 30
0.0
 11
383.6496557213393
 21
-407.2084557033177
 31
0.0
  0
LINE
  5
51A
330
A
100
AcDbEntity
  8
1
  6
Continuous
 62
     7
100
AcDbLine
 10
268.9280903980947
 20
-407.7084557033177
 30
0.0
 11
268.9280903980947
 21
-407.2084557033177
 31
0.0
  0
LINE
  5
51B
330
A
100
AcDbEntity
  8
1
  6
Continuous
 62
     7
100
AcDbLine
 10
262.6280903980947
 20
-407.7084557033177
 30
0.0
 11
268.9280903980947
 21
-407.7084557033177
 31
0.0
  0
LINE
  5
51C
330
A
100
AcDbEntity
  8
1
  6
Continuous
 62
     7
100
AcDbLine
 10
262.6280903980947
 20
-407.2084557033177
 30
0.0
 11
262.6280903980947
 21
-407.7084557033177
 31
0.0
  0
LINE
  5
51D
330
A
100
AcDbEntity
  8
1
  6
Continuous
 62
     7
100
AcDbLine
 10
268.9280903980947
 20
-407.2084557033177
 30
0.0
 11
262.6280903980947
 21
-407.2084557033177
 31
0.0
  0
LINE
  5
51E
330
A
100
AcDbEntity
  8
1
  6
Continuous
 62
     7
100
AcDbLine
 10
362.7996557213393
 20
-398.2567851612466
 30
0.0
 11
363.2996557213393
 21
-398.2567851612466
 31
0.0
  0
LINE
  5
51F
330
A
100
AcDbEntity
  8
1
  6
Continuous
 62
     7
100
AcDbLine
 10
359.2996557213393
 20
-353.7567851612467
 30
0.0
 11
359.2996557213393
 21
-398.2567851612466
 31
0.0
  0
LINE
  5
520
330
A
100
AcDbEntity
  8
1
  6
Continuous
 62
     7
100
AcDbLine
 10
362.7996557213393
 20
-353.7567851612467
 30
0.0
 11
359.2996557213393
 21
-353.7567851612467
 31
0.0
  0
LINE
  5
521
330
A
100
AcDbEntity
  8
1
  6
Continuous
 62
     7
100
AcDbLine
 10
363.2996557213393
 20
-398.2567851612466
 30
0.0
 11
363.2996557213393
 21
-354.2567851612468
 31
0.0
  0
LINE
  5
522
330
A
100
AcDbEntity
  8
1
  6
Continuous
 62
     7
100
AcDbLine
 10
362.7996557213393
 20
-353.7567851612467
 30
0.0
 11
363.2996557213393
 21
-354.2567851612468
 31
0.0
  0
LINE
  5
523
330
A
100
AcDbEntity
  8
1
  6
Continuous
 62
     7
100
AcDbLine
 10
362.7996557213393
 20
-398.2567851612466
 30
0.0
 11
362.7996557213393
 21
-353.7567851612467
 31
0.0
  0
LINE
  5
524
330
A
100
AcDbEntity
  8
1
  6
Continuous
 62
     7
100
AcDbLine
 10
359.2996557213393
 20
-398.2567851612466
 30
0.0
 11
362.7996557213393
 21
-398.2567851612466
 31
0.0
  0
ARC
  5
525
330
A
100
AcDbEntity
  8
1
  6
Continuous
 62
     7
100
AcDbCircle
 10
265.7780903980947
 20
-361.6567851612467
 30
0.0
 40
7.89999999999998
100
AcDbArc
 50
0.0
 51
180.0
  0
LINE
  5
526
330
A
100
AcDbEntity
  8
1
  6
Continuous
 62
     7
100
AcDbLine
 10
273.6780903980947
 20
-398.2567851612466
 30
0.0
 11
273.6780903980947
 21
-361.6567851612467
 31
0.0
  0
LINE
  5
527
330
A
100
AcDbEntity
  8
1
  6
Continuous
 62
     7
100
AcDbLine
 10
257.8780903980947
 20
-361.6567851612467
 30
0.0
 11
257.8780903980947
 21
-398.2567851612466
 31
0.0
  0
LINE
  5
528
330
A
100
AcDbEntity
  8
1
  6
Continuous
 62
     7
100
AcDbLine
 10
257.8780903980947
 20
-398.2567851612466
 30
0.0
 11
273.6780903980947
 21
-398.2567851612466
 31
0.0
  0
LINE
  5
529
330
A
100
AcDbEntity
  8
1
  6
DOT_CENTER
 62
     2
100
AcDbLine
 10
265.7780903980947
 20
-348.2567851612468
 30
0.0
 11
265.7780903980947
 21
-419.7084557033177
 31
0.0
  0
LINE
  5
52A
330
A
100
AcDbEntity
  8
1
  6
Continuous
 62
     7
100
AcDbLine
 10
358.7996557213393
 20
-398.2567851612466
 30
0.0
 11
359.2996557213393
 21
-398.2567851612466
 31
0.0
  0
LINE
  5
52B
330
A
100
AcDbEntity
  8
1
  6
Continuous
 62
     7
100
AcDbLine
 10
342.2996557213394
 20
-353.7567851612466
 30
0.0
 11
342.2996557213394
 21
-398.2567851612466
 31
0.0
  0
LINE
  5
52C
330
A
100
AcDbEntity
  8
1
  6
Continuous
 62
     7
100
AcDbLine
 10
358.7996557213393
 20
-353.7567851612466
 30
0.0
 11
342.2996557213394
 21
-353.7567851612466
 31
0.0
  0
LINE
  5
52D
330
A
100
AcDbEntity
  8
1
  6
Continuous
 62
     7
100
AcDbLine
 10
359.2996557213393
 20
-398.2567851612466
 30
0.0
 11
359.2996557213393
 21
-354.2567851612466
 31
0.0
  0
LINE
  5
52E
330
A
100
AcDbEntity
  8
1
  6
Continuous
 62
     7
100
AcDbLine
 10
358.7996557213393
 20
-353.7567851612466
 30
0.0
 11
359.2996557213393
 21
-354.2567851612466
 31
0.0
  0
LINE
  5
52F
330
A
100
AcDbEntity
  8
1
  6
Continuous
 62
     7
100
AcDbLine
 10
358.7996557213393
 20
-398.2567851612466
 30
0.0
 11
358.7996557213393
 21
-353.7567851612466
 31
0.0
  0
LINE
  5
530
330
A
100
AcDbEntity
  8
1
  6
Continuous
 62
     7
100
AcDbLine
 10
342.2996557213394
 20
-398.2567851612466
 30
0.0
 11
358.7996557213393
 21
-398.2567851612466
 31
0.0
  0
CIRCLE
  5
534
330
A
100
AcDbEntity
  8
1
  6
Continuous
 62
     7
100
AcDbCircle
 10
265.7780903980947
 20
-361.6567851612467
 30
0.0
 40
4.0
  0
LINE
  5
536
330
A
100
AcDbEntity
  8
1
  6
Continuous
 62
     7
100
AcDbLine
 10
265.3180903980947
 20
-359.3567851612468
 30
0.0
 11
266.2380903980947
 21
-359.3567851612468
 31
0.0
  0
LINE
  5
537
330
A
100
AcDbEntity
  8
1
  6
Continuous
 62
     7
100
AcDbLine
 10
266.2380903980947
 20
-359.3567851612468
 30
0.0
 11
266.5447570647614
 21
-360.8901184945801
 31
0.0
  0
LINE
  5
538
330
A
100
AcDbEntity
  8
1
  6
Continuous
 62
     7
100
AcDbLine
 10
266.5447570647614
 20
-360.8901184945801
 30
0.0
 11
268.0780903980947
 21
-361.1967851612466
 31
0.0
  0
LINE
  5
539
330
A
100
AcDbEntity
  8
1
  6
Continuous
 62
     7
100
AcDbLine
 10
268.0780903980947
 20
-361.1967851612466
 30
0.0
 11
268.0780903980947
 21
-362.1167851612468
 31
0.0
  0
LINE
  5
53A
330
A
100
AcDbEntity
  8
1
  6
Continuous
 62
     7
100
AcDbLine
 10
268.0780903980947
 20
-362.1167851612468
 30
0.0
 11
266.5447570647614
 21
-362.4234518279134
 31
0.0
  0
LINE
  5
53B
330
A
100
AcDbEntity
  8
1
  6
Continuous
 62
     7
100
AcDbLine
 10
266.5447570647614
 20
-362.4234518279134
 30
0.0
 11
266.2380903980947
 21
-363.9567851612467
 31
0.0
  0
LINE
  5
53C
330
A
100
AcDbEntity
  8
1
  6
Continuous
 62
     7
100
AcDbLine
 10
266.2380903980947
 20
-363.9567851612467
 30
0.0
 11
265.3180903980947
 21
-363.9567851612467
 31
0.0
  0
LINE
  5
53D
330
A
100
AcDbEntity
  8
1
  6
Continuous
 62
     7
100
AcDbLine
 10
265.3180903980947
 20
-363.9567851612467
 30
0.0
 11
265.0114237314281
 21
-362.4234518279134
 31
0.0
  0
LINE
  5
53E
330
A
100
AcDbEntity
  8
1
  6
Continuous
 62
     7
100
AcDbLine
 10
265.0114237314281
 20
-362.4234518279134
 30
0.0
 11
263.4780903980947
 21
-362.1167851612468
 31
0.0
  0
LINE
  5
53F
330
A
100
AcDbEntity
  8
1
  6
Continuous
 62
     7
100
AcDbLine
 10
263.4780903980947
 20
-362.1167851612468
 30
0.0
 11
263.4780903980947
 21
-361.1967851612466
 31
0.0
  0
LINE
  5
540
330
A
100
AcDbEntity
  8
1
  6
Continuous
 62
     7
100
AcDbLine
 10
263.4780903980947
 20
-361.1967851612466
 30
0.0
 11
265.0114237314281
 21
-360.8901184945801
 31
0.0
  0
LINE
  5
541
330
A
100
AcDbEntity
  8
1
  6
Continuous
 62
     7
100
AcDbLine
 10
265.0114237314281
 20
-360.8901184945801
 30
0.0
 11
265.3180903980947
 21
-359.3567851612468
 31
0.0
  0
LINE
  5
5BC
330
A
100
AcDbEntity
  8
1
 62
     2
100
AcDbLine
 10
263.2780903980947
 20
-406.2084557033177
 30
0.0
 11
263.2780903980947
 21
-404.1504280446914
 31
0.0
  0
LINE
  5
5BD
330
A
100
AcDbEntity
  8
1
 62
     2
100
AcDbLine
 10
268.2780903980947
 20
-406.2084557033177
 30
0.0
 11
268.2780903980947
 21
-404.1504280446914
 31
0.0
  0
ENDSEC
  0
SECTION
  2
OBJECTS
  0
DICTIONARY
  5
19
330
0
100
AcDbDictionary
281
     1
  3
ACAD_CIP_PREVIOUS_PRODUCT_INFO
350
355
  3
ACAD_COLOR
350
337
  3
ACAD_GROUP
350
1A
  3
ACAD_LAYOUT
350
34E
  3
ACAD_MATERIAL
350
305
  3
ACAD_MLEADERSTYLE
350
34C
  3
ACAD_MLINESTYLE
350
1B
  3
ACAD_PLOTSETTINGS
350
34F
  3
ACAD_PLOTSTYLENAME
350
303
  3
ACAD_SCALELIST
350
33A
  3
ACAD_TABLESTYLE
350
338
  3
ACAD_VISUALSTYLE
350
31E
  3
ACDB_RECOMPOSE_DATA
350
5D7
  3
AcDbVariableDictionary
350
5CC
  3
ASE_INDEX_DICTIONARY
350
5C9
  3
DWGPROPS
350
5D8
  0
DICTIONARY
  5
5C4
330
14
100
AcDbDictionary
280
     1
281
     1
  3
ADSK_XREC_LAYER_RECONCILED
360
5C5
  0
DICTIONARY
  5
5C6
330
24
100
AcDbDictionary
280
     1
281
     1
  3
ADSK_XREC_LAYER_RECONCILED
360
5C7
  0
DICTIONARY
  5
454
330
A
100
AcDbDictionary
280
     1
281
     1
  3
ACAD_SORTENTS
360
455
  0
DICTIONARY
  5
631
330
1C0
100
AcDbDictionary
280
     1
281
     1
  3
ACAD_MTEXT_RT
360
632
  0
DICTIONARY
  5
62F
330
1BF
100
AcDbDictionary
280
     1
281
     1
  3
ACAD_MTEXT_RT
360
630
  0
DICTIONARY
  5
62D
330
1BE
100
AcDbDictionary
280
     1
281
     1
  3
ACAD_MTEXT_RT
360
62E
  0
DICTIONARY
  5
62B
330
1BD
100
AcDbDictionary
280
     1
281
     1
  3
ACAD_MTEXT_RT
360
62C
  0
DICTIONARY
  5
629
330
1BC
100
AcDbDictionary
280
     1
281
     1
  3
ACAD_MTEXT_RT
360
62A
  0
DICTIONARY
  5
627
330
1B9
100
AcDbDictionary
280
     1
281
     1
  3
ACAD_MTEXT_RT
360
628
  0
DICTIONARY
  5
625
330
1B8
100
AcDbDictionary
280
     1
281
     1
  3
ACAD_MTEXT_RT
360
626
  0
DICTIONARY
  5
623
330
1B7
100
AcDbDictionary
280
     1
281
     1
  3
ACAD_MTEXT_RT
360
624
  0
DICTIONARY
  5
621
330
1B4
100
AcDbDictionary
280
     1
281
     1
  3
ACAD_MTEXT_RT
360
622
  0
DICTIONARY
  5
61F
330
1B3
100
AcDbDictionary
280
     1
281
     1
  3
ACAD_MTEXT_RT
360
620
  0
DICTIONARY
  5
61D
330
1B1
100
AcDbDictionary
280
     1
281
     1
  3
ACAD_MTEXT_RT
360
61E
  0
DICTIONARY
  5
61B
330
1B0
100
AcDbDictionary
280
     1
281
     1
  3
ACAD_MTEXT_RT
360
61C
  0
DICTIONARY
  5
619
330
1AC
100
AcDbDictionary
280
     1
281
     1
  3
ACAD_MTEXT_RT
360
61A
  0
DICTIONARY
  5
617
330
1AA
100
AcDbDictionary
280
     1
281
     1
  3
ACAD_MTEXT_RT
360
618
  0
DICTIONARY
  5
615
330
1A5
100
AcDbDictionary
280
     1
281
     1
  3
ACAD_MTEXT_RT
360
616
  0
DICTIONARY
  5
613
330
1A3
100
AcDbDictionary
280
     1
281
     1
  3
ACAD_MTEXT_RT
360
614
  0
DICTIONARY
  5
611
330
1A1
100
AcDbDictionary
280
     1
281
     1
  3
ACAD_MTEXT_RT
360
612
  0
DICTIONARY
  5
60F
330
19E
100
AcDbDictionary
280
     1
281
     1
  3
ACAD_MTEXT_RT
360
610
  0
DICTIONARY
  5
60D
330
19D
100
AcDbDictionary
280
     1
281
     1
  3
ACAD_MTEXT_RT
360
60E
  0
DICTIONARY
  5
60B
330
19A
100
AcDbDictionary
280
     1
281
     1
  3
ACAD_MTEXT_RT
360
60C
  0
DICTIONARY
  5
609
330
196
100
AcDbDictionary
280
     1
281
     1
  3
ACAD_MTEXT_RT
360
60A
  0
DICTIONARY
  5
607
330
195
100
AcDbDictionary
280
     1
281
     1
  3
ACAD_MTEXT_RT
360
608
  0
DICTIONARY
  5
605
330
194
100
AcDbDictionary
280
     1
281
     1
  3
ACAD_MTEXT_RT
360
606
  0
DICTIONARY
  5
603
330
193
100
AcDbDictionary
280
     1
281
     1
  3
ACAD_MTEXT_RT
360
604
  0
DICTIONARY
  5
601
330
192
100
AcDbDictionary
280
     1
281
     1
  3
ACAD_MTEXT_RT
360
602
  0
DICTIONARY
  5
5FF
330
191
100
AcDbDictionary
280
     1
281
     1
  3
ACAD_MTEXT_RT
360
600
  0
DICTIONARY
  5
5FD
330
190
100
AcDbDictionary
280
     1
281
     1
  3
ACAD_MTEXT_RT
360
5FE
  0
DICTIONARY
  5
5FB
330
18F
100
AcDbDictionary
280
     1
281
     1
  3
ACAD_MTEXT_RT
360
5FC
  0
DICTIONARY
  5
5F9
330
18E
100
AcDbDictionary
280
     1
281
     1
  3
ACAD_MTEXT_RT
360
5FA
  0
DICTIONARY
  5
5F7
330
18D
100
AcDbDictionary
280
     1
281
     1
  3
ACAD_MTEXT_RT
360
5F8
  0
DICTIONARY
  5
5F5
330
18C
100
AcDbDictionary
280
     1
281
     1
  3
ACAD_MTEXT_RT
360
5F6
  0
DICTIONARY
  5
5F3
330
18B
100
AcDbDictionary
280
     1
281
     1
  3
ACAD_MTEXT_RT
360
5F4
  0
DICTIONARY
  5
5F1
330
18A
100
AcDbDictionary
280
     1
281
     1
  3
ACAD_MTEXT_RT
360
5F2
  0
DICTIONARY
  5
5EF
330
189
100
AcDbDictionary
280
     1
281
     1
  3
ACAD_MTEXT_RT
360
5F0
  0
DICTIONARY
  5
5ED
330
188
100
AcDbDictionary
280
     1
281
     1
  3
ACAD_MTEXT_RT
360
5EE
  0
DICTIONARY
  5
5EB
330
187
100
AcDbDictionary
280
     1
281
     1
  3
ACAD_MTEXT_RT
360
5EC
  0
DICTIONARY
  5
5E9
330
184
100
AcDbDictionary
280
     1
281
     1
  3
ACAD_MTEXT_RT
360
5EA
  0
DICTIONARY
  5
5E7
330
17F
100
AcDbDictionary
280
     1
281
     1
  3
ACAD_MTEXT_RT
360
5E8
  0
DICTIONARY
  5
5E5
330
17D
100
AcDbDictionary
280
     1
281
     1
  3
ACAD_MTEXT_RT
360
5E6
  0
DICTIONARY
  5
5E3
330
17C
100
AcDbDictionary
280
     1
281
     1
  3
ACAD_MTEXT_RT
360
5E4
  0
DICTIONARY
  5
5E1
330
17A
100
AcDbDictionary
280
     1
281
     1
  3
ACAD_MTEXT_RT
360
5E2
  0
DICTIONARY
  5
5DF
330
178
100
AcDbDictionary
280
     1
281
     1
  3
ACAD_MTEXT_RT
360
5E0
  0
DICTIONARY
  5
5DD
330
177
100
AcDbDictionary
280
     1
281
     1
  3
ACAD_MTEXT_RT
360
5DE
  0
DICTIONARY
  5
5DB
330
176
100
AcDbDictionary
280
     1
281
     1
  3
ACAD_MTEXT_RT
360
5DC
  0
DICTIONARY
  5
5D9
330
175
100
AcDbDictionary
280
     1
281
     1
  3
ACAD_MTEXT_RT
360
5DA
  0
DICTIONARY
  5
633
330
24D
100
AcDbDictionary
280
     1
281
     1
  3
ACAD_MTEXT_RT
360
634
  0
DICTIONARY
  5
66E
330
4A5
100
AcDbDictionary
280
     1
281
     1
  3
ACAD_MTEXT_RT
360
66F
  0
XRECORD
  5
355
102
{ACAD_REACTORS
330
19
102
}
330
19
100
AcDbXrecord
280
     1
300
ACD
300
2012
300
ACD_F_S
  0
DICTIONARY
  5
337
102
{ACAD_REACTORS
330
19
102
}
330
19
100
AcDbDictionary
281
     1
  0
DICTIONARY
  5
1A
102
{ACAD_REACTORS
330
19
102
}
330
19
100
AcDbDictionary
281
     1
  0
DICTIONARY
  5
34E
102
{ACAD_REACTORS
330
19
102
}
330
19
100
AcDbDictionary
281
     1
  3
Model
350
350
  3
レイアウト1
350
351
  0
DICTIONARY
  5
305
102
{ACAD_REACTORS
330
19
102
}
330
19
100
AcDbDictionary
281
     1
  3
ByBlock
350
30E
  3
ByLayer
350
306
  3
Global
350
316
  0
DICTIONARY
  5
34C
102
{ACAD_REACTORS
330
19
102
}
330
19
100
AcDbDictionary
281
     1
  3
Standard
350
34D
  0
DICTIONARY
  5
1B
102
{ACAD_REACTORS
330
19
102
}
330
19
100
AcDbDictionary
281
     1
  3
STANDARD
350
1C
  0
DICTIONARY
  5
34F
102
{ACAD_REACTORS
330
19
102
}
330
19
100
AcDbDictionary
281
     1
  0
ACDBDICTIONARYWDFLT
  5
303
102
{ACAD_REACTORS
330
19
102
}
330
19
100
AcDbDictionary
281
     1
  3
Normal
350
304
100
AcDbDictionaryWithDefault
340
304
  0
DICTIONARY
  5
33A
102
{ACAD_REACTORS
330
19
102
}
330
19
100
AcDbDictionary
281
     1
  3
A0
350
33B
  3
A1
350
33C
  3
A2
350
33D
  3
A3
350
33E
  3
A4
350
33F
  3
A5
350
340
  3
A6
350
341
  3
A7
350
342
  3
A8
350
343
  3
A9
350
344
  3
B0
350
345
  3
B1
350
346
  3
B2
350
347
  3
B3
350
348
  3
B4
350
349
  3
B5
350
34A
  3
B6
350
34B
  0
DICTIONARY
  5
338
102
{ACAD_REACTORS
330
19
102
}
330
19
100
AcDbDictionary
281
     1
  3
Standard
350
339
  0
DICTIONARY
  5
31E
102
{ACAD_REACTORS
330
19
102
}
330
19
100
AcDbDictionary
281
     1
  3
2dWireframe
350
324
  3
Basic
350
323
  3
Brighten
350
32A
  3
ColorChange
350
32E
  3
Conceptual
350
327
  3
Dim
350
329
  3
EdgeColorOff
350
336
  3
Facepattern
350
32D
  3
Flat
350
31F
  3
FlatWithEdges
350
320
  3
Gouraud
350
321
  3
GouraudWithEdges
350
322
  3
Hidden
350
326
  3
JitterOff
350
334
  3
Linepattern
350
32C
  3
OverhangOff
350
335
  3
Realistic
350
328
  3
Shaded
350
333
  3
Shaded with edges
350
332
  3
Shades of Gray
350
32F
  3
Sketchy
350
330
  3
Thicken
350
32B
  3
Wireframe
350
325
  3
X-Ray
350
331
  0
XRECORD
  5
5D7
102
{ACAD_REACTORS
330
19
102
}
330
19
100
AcDbXrecord
280
     1
 90
        1
330
339
  0
DICTIONARY
  5
5CC
102
{ACAD_REACTORS
330
19
102
}
330
19
100
AcDbDictionary
281
     1
  3
CANNOSCALE
350
5CF
  3
CMLEADERSTYLE
350
5CE
  3
CTABLESTYLE
350
5CD
  3
DIMASSOC
350
5D2
  3
INDEXCTL
350
5D1
  3
SORTENTS
350
5D0
  3
XCLIPFRAME
350
5D3
  0
DICTIONARY
  5
5C9
102
{ACAD_REACTORS
330
19
102
}
330
19
100
AcDbDictionary
281
     1
  3
ASEBlockHierarchyIndexRecord
350
5CB
1001
DCO15
1040
1882589976.322
  0
XRECORD
  5
5D8
102
{ACAD_REACTORS
330
19
102
}
330
19
100
AcDbXrecord
280
     1
  1
DWGPROPS COOKIE
  2

  3

  4

  6

  7

  8
0035sekine
  9

300
=
301
=
302
=
303
=
304
=
305
=
306
=
307
=
308
=
309
=
 40
0.0012030671296296
 41
2305814.417110764
 42
2457592.447688912
  1

 90
        0
  0
XRECORD
  5
5C5
102
{ACAD_REACTORS
330
5C4
102
}
330
5C4
100
AcDbXrecord
280
     1
290
     1
  0
XRECORD
  5
5C7
102
{ACAD_REACTORS
330
5C6
102
}
330
5C6
100
AcDbXrecord
280
     1
290
     1
  0
SORTENTSTABLE
  5
455
102
{ACAD_REACTORS
330
454
102
}
330
454
100
AcDbSortentsTable
330
A
331
500
  5
597
331
511
  5
5B0
331
4EF
  5
57F
331
524
  5
596
331
50F
  5
5AE
331
522
  5
594
331
5BD
  5
376
331
50D
  5
5AC
331
520
  5
592
331
4FC
  5
58C
331
50B
  5
5AA
331
51E
  5
590
331
540
  5
56D
331
4FA
  5
58A
331
52F
  5
57B
331
509
  5
5A8
331
51C
  5
5A3
331
53E
  5
56B
331
4F8
  5
588
331
52D
  5
579
331
507
  5
5A6
331
51A
  5
5A1
331
53C
  5
569
331
4F6
  5
586
331
52B
  5
577
331
518
  5
59F
331
505
  5
59C
331
53A
  5
567
331
516
  5
59D
331
4F4
  5
584
331
529
  5
575
331
2FE
  5
5C2
331
503
  5
59A
331
538
  5
565
331
514
  5
5B3
331
4F2
  5
582
331
527
  5
573
331
501
  5
598
331
536
  5
563
331
512
  5
5B1
331
4F0
  5
580
331
525
  5
571
331
534
  5
561
331
510
  5
5AF
331
4EE
  5
57E
331
523
  5
595
331
50E
  5
5AD
331
521
  5
593
331
5BC
  5
36A
331
530
  5
57C
331
50C
  5
5AB
331
51F
  5
591
331
541
  5
56E
331
4FB
  5
58B
331
50A
  5
5A9
331
51D
  5
5A4
331
53F
  5
56C
331
4F9
  5
589
331
52E
  5
57A
331
508
  5
5A7
331
51B
  5
5A2
331
53D
  5
56A
331
4F7
  5
587
331
52C
  5
578
331
506
  5
5A5
331
519
  5
5A0
331
53B
  5
568
331
517
  5
59E
331
4F5
  5
585
331
52A
  5
576
331
2FF
  5
5C3
331
504
  5
59B
331
539
  5
566
331
515
  5
5B4
331
4F3
  5
583
331
528
  5
574
331
2FD
  5
5C1
331
502
  5
599
331
537
  5
564
331
513
  5
5B2
331
4F1
  5
581
331
526
  5
572
  0
XRECORD
  5
632
102
{ACAD_REACTORS
330
631
102
}
330
631
100
AcDbXrecord
280
     1
 40
45028.0
  1
\U+0192`\U+0192\U+2021\U+0192R\U+0090F
  0
XRECORD
  5
630
102
{ACAD_REACTORS
330
62F
102
}
330
62F
100
AcDbXrecord
280
     1
 40
191404.0
  1
\U+201A\U+00E0\U+201A\U+00E6\U+0192\U+0152b\U+0192s\U+0192\U+201C3.5\U+0081~30
  0
XRECORD
  5
62E
102
{ACAD_REACTORS
330
62D
102
}
330
62D
100
AcDbXrecord
280
     1
 40
26437.0
  1
\U+017DM\U+0081{M4\U+0081~40
  0
XRECORD
  5
62C
102
{ACAD_REACTORS
330
62B
102
}
330
62B
100
AcDbXrecord
280
     1
 40
86044.0
  1
\U+0192N\U+0192\U+008D\U+0192\U+0081\U+0081[\U+0192g
  0
XRECORD
  5
62A
102
{ACAD_REACTORS
330
629
102
}
330
629
100
AcDbXrecord
280
     1
 40
32646.0
  1
GB\U+0192\U+0081\U+0192b\U+0192L
  0
XRECORD
  5
628
102
{ACAD_REACTORS
330
627
102
}
330
627
100
AcDbXrecord
280
     1
 40
110596.0
  1
\U+017Ds\U+201D\U+00E4\U+2022i \U+02C6\U+00F5\U+017D\U+00DA
  0
XRECORD
  5
626
102
{ACAD_REACTORS
330
625
102
}
330
625
100
AcDbXrecord
280
     1
 40
226025.0
  1
\U+017D\U+00CC\U+2022t\U+201A\U+00A3%%dp\U+201CY\U+2022t\U+201A\U+00F9\U+201A\U+00D1
  0
XRECORD
  5
624
102
{ACAD_REACTORS
330
623
102
}
330
623
100
AcDbXrecord
280
     1
 40
638878.0
  1
\U+0192J\U+0192o\U+0081[\U+0081E\U+2019\U+2026\U+2019E\U+0192z\U+0192\U+2039\U+0192_\U+0081[\U+017D\U+00CC\U+2022t\U+201A\U+00F9\U+201A\U+00D1
  0
XRECORD
  5
622
102
{ACAD_REACTORS
330
621
102
}
330
621
100
AcDbXrecord
280
     1
 40
30173.0
  1
ABS\U+017D\U+00BC\U+017D\U+2030
  0
XRECORD
  5
620
102
{ACAD_REACTORS
330
61F
102
}
330
61F
100
AcDbXrecord
280
     1
 40
19222.0
  1
\U+0192J\U+0192o\U+0081[
  0
XRECORD
  5
61E
102
{ACAD_REACTORS
330
61D
102
}
330
61D
100
AcDbXrecord
280
     1
 40
86044.0
  1
\U+0192N\U+0192\U+008D\U+0192\U+0081\U+0081[\U+0192g
  0
XRECORD
  5
61C
102
{ACAD_REACTORS
330
61B
102
}
330
61B
100
AcDbXrecord
280
     1
 40
45028.0
  1
\U+0192`\U+0192\U+2021\U+0192R\U+0090F
  0
XRECORD
  5
61A
102
{ACAD_REACTORS
330
619
102
}
330
619
100
AcDbXrecord
280
     1
 40
324919.0
  1
6\U+0192i\U+0192C\U+0192\U+008D\U+0192\U+201C(\U+0192t\U+0192B\U+0192\U+2030\U+0081[\U+201C*\U+201A%%c)
  0
XRECORD
  5
618
102
{ACAD_REACTORS
330
617
102
}
330
617
100
AcDbXrecord
280
     1
 40
114981.0
  1
\U+2019\U+2026\U+2019E\U+0192z\U+0192\U+2039\U+0192_\U+0081[
  0
XRECORD
  5
616
102
{ACAD_REACTORS
330
615
102
}
330
615
100
AcDbXrecord
280
     1
 40
74943.0
  1
\U+0152\U+00E9\U+2019%%c\U+0192J\U+0192b\U+0192v
  0
XRECORD
  5
614
102
{ACAD_REACTORS
330
613
102
}
330
613
100
AcDbXrecord
280
     1
 40
86044.0
  1
\U+0192N\U+0192\U+008D\U+0192\U+0081\U+0081[\U+0192g
  0
XRECORD
  5
612
102
{ACAD_REACTORS
330
611
102
}
330
611
100
AcDbXrecord
280
     1
 40
23171.0
  1
\U+2018g%%d\U+00CF\U+0090}
  0
XRECORD
  5
610
102
{ACAD_REACTORS
330
60F
102
}
330
60F
100
AcDbXrecord
280
     1
 40
16080.0
  1
\U+0160\U+00F8\U+008D^ 
  0
XRECORD
  5
60E
102
{ACAD_REACTORS
330
60D
102
}
330
60D
100
AcDbXrecord
280
     1
 40
23804.0
  1
\U+2019\U+2020\U+201C\U+2021
  0
XRECORD
  5
60C
102
{ACAD_REACTORS
330
60B
102
}
330
60B
100
AcDbXrecord
280
     1
 40
25044.0
  1
\U+02C6\U+00CF\U+008D\U+00E3
  0
XRECORD
  5
60A
102
{ACAD_REACTORS
330
609
102
}
330
609
100
AcDbXrecord
280
     1
 40
18800.0
  1
\U+2022i\P\U+00B2\U+00A5
  0
XRECORD
  5
608
102
{ACAD_REACTORS
330
607
102
}
330
607
100
AcDbXrecord
280
     1
 40
18980.0
  1
\U+0090}\P\U+00B2\U+00A5
  0
XRECORD
  5
606
102
{ACAD_REACTORS
330
605
102
}
330
605
100
AcDbXrecord
280
     1
 40
19134.0
  1
\U+0090}\P\U+201D\U+00E5
  0
XRECORD
  5
604
102
{ACAD_REACTORS
330
603
102
}
330
603
100
AcDbXrecord
280
     1
 40
16741.0
  1
\U+2022i \U+201D\U+00E5
  0
XRECORD
  5
602
102
{ACAD_REACTORS
330
601
102
}
330
601
100
AcDbXrecord
280
     1
 40
25568.0
  1
\U+2022i        \U+00B2\U+00A5
  0
XRECORD
  5
600
102
{ACAD_REACTORS
330
5FF
102
}
330
5FF
100
AcDbXrecord
280
     1
 40
29091.0
  1
\U+008D\U+00DF   \U+017D\U+00A2
  0
XRECORD
  5
5FE
102
{ACAD_REACTORS
330
5FD
102
}
330
5FD
100
AcDbXrecord
280
     1
 40
13191.0
  1
\U+0090\U+201D %%d%%d
  0
XRECORD
  5
5FC
102
{ACAD_REACTORS
330
5FB
102
}
330
5FB
100
AcDbXrecord
280
     1
 40
53004.0
  1
\U+017Dd   \U+008F\U+00D0   \U+201A\U+00AF
  0
XRECORD
  5
5FA
102
{ACAD_REACTORS
330
5F9
102
}
330
5F9
100
AcDbXrecord
280
     1
 40
18923.0
  1
\U+2039L   \U+017D\U+00B2
  0
XRECORD
  5
5F8
102
{ACAD_REACTORS
330
5F7
102
}
330
5F7
100
AcDbXrecord
280
     1
 40
17447.0
  1
\U+008F\U+00B0  \U+201DF
  0
XRECORD
  5
5F6
102
{ACAD_REACTORS
330
5F5
102
}
330
5F5
100
AcDbXrecord
280
     1
 40
18174.0
  1
\U+0152\U+0081  \U+0090}
  0
XRECORD
  5
5F4
102
{ACAD_REACTORS
330
5F3
102
}
330
5F3
100
AcDbXrecord
280
     1
 40
17643.0
  1
\U+2019S  \U+201C\U+00B2
  0
XRECORD
  5
5F2
102
{ACAD_REACTORS
330
5F1
102
}
330
5F1
100
AcDbXrecord
280
     1
 40
16619.0
  1
\U+017D\U+00D6\U+201Cx
  0
XRECORD
  5
5F0
102
{ACAD_REACTORS
330
5EF
102
}
330
5EF
100
AcDbXrecord
280
     1
 40
391180.0
  1
\U+008D\U+201A\U+2039\U+00C7\U+2039\U+00C1\U+2022\U+00B4\U+0160\U+201D\U+017D\U+00DB\U+2030\U+00FF\U+017D\U+00C5
  0
XRECORD
  5
5EE
102
{ACAD_REACTORS
330
5ED
102
}
330
5ED
100
AcDbXrecord
280
     1
 40
15843.0
  1
\U+00B2{\U+017D\U+00C5
  0
XRECORD
  5
5EC
102
{ACAD_REACTORS
330
5EB
102
}
330
5EB
100
AcDbXrecord
280
     1
 40
274718.0
  1
\U+201C\U+0152\U+2039\U+20AC\U+201Cs\U+2018\U+00F0\U+201C\U+0152\U+2039\U+00CC\U+201C*\U+2019J
  0
XRECORD
  5
5EA
102
{ACAD_REACTORS
330
5E9
102
}
330
5E9
100
AcDbXrecord
280
     1
 40
6388.0
  1
\U+0081\U+00CF
  0
XRECORD
  5
5E8
102
{ACAD_REACTORS
330
5E7
102
}
330
5E7
100
AcDbXrecord
280
     1
 40
86044.0
  1
\U+0192N\U+0192\U+008D\U+0192\U+0081\U+0081[\U+0192g
  0
XRECORD
  5
5E6
102
{ACAD_REACTORS
330
5E5
102
}
330
5E5
100
AcDbXrecord
280
     1
 40
85509.0
  1
\U+0192\U+008F\U+0192b\U+0192V\U+0192\U+0192\U+0081[
  0
XRECORD
  5
5E4
102
{ACAD_REACTORS
330
5E3
102
}
330
5E3
100
AcDbXrecord
280
     1
 40
38532.0
  1
SPCC \U+201A\U+201D\U+0081\U+00810.5
  0
XRECORD
  5
5E2
102
{ACAD_REACTORS
330
5E1
102
}
330
5E1
100
AcDbXrecord
280
     1
 40
95307.0
  1
\U+0192\U+00C66.3\U+0081~\U+0152\U+0160\U+0192\U+00C64.4
  0
XRECORD
  5
5E0
102
{ACAD_REACTORS
330
5DF
102
}
330
5DF
100
AcDbXrecord
280
     1
 40
63091.0
  1
6\U+0192i\U+0192C\U+0192\U+008D\U+0192\U+201C
  0
XRECORD
  5
5DE
102
{ACAD_REACTORS
330
5DD
102
}
330
5DD
100
AcDbXrecord
280
     1
 40
146405.0
  1
\U+0192\U+008D\U+0081[\U+0192\U+2030\U+0081[\U+0192K\U+0192C\U+0192h
  0
XRECORD
  5
5DC
102
{ACAD_REACTORS
330
5DB
102
}
330
5DB
100
AcDbXrecord
280
     1
 40
14977.0
  1
\U+008D\U+2022\U+0090F
  0
XRECORD
  5
5DA
102
{ACAD_REACTORS
330
5D9
102
}
330
5D9
100
AcDbXrecord
280
     1
 40
47482.0
  1
\U+0192V\U+0192\U+0192\U+0192t\U+0192g
  0
XRECORD
  5
634
102
{ACAD_REACTORS
330
633
102
}
330
633
100
AcDbXrecord
280
     1
 40
6802.0
  1
5.5\U+0081`12.5
  0
XRECORD
  5
66F
102
{ACAD_REACTORS
330
66E
102
}
330
66E
100
AcDbXrecord
280
     1
 40
10875.0
  1
\A1;5.5\U+0081`12.5
  0
LAYOUT
  5
350
102
{ACAD_XDICTIONARY
360
66A
102
}
102
{ACAD_REACTORS
330
34E
102
}
330
34E
100
AcDbPlotSettings
  1

  2
\\asrv0030\DocuCentre 230 - 本社９階　開発部
  4

  6

 40
0.0
 41
0.0
 42
0.0
 43
0.0
 44
0.0
 45
0.0
 46
0.0
 47
0.0
 48
0.0
 49
0.0
140
0.0
141
0.0
142
1.0
143
1.0
 70
  1712
 72
     0
 73
     0
 74
     0
  7

 75
     0
147
1.0
148
0.0
149
0.0
100
AcDbLayout
  1
Model
 70
     1
 71
     0
 10
0.0
 20
0.0
 11
12.0
 21
9.0
 12
0.0
 22
0.0
 32
0.0
 14
0.0
 24
0.0
 34
0.0
 15
0.0
 25
0.0
 35
0.0
146
0.0
 13
0.0
 23
0.0
 33
0.0
 16
1.0
 26
0.0
 36
0.0
 17
0.0
 27
1.0
 37
0.0
 76
     0
330
A
331
15
  0
LAYOUT
  5
351
102
{ACAD_XDICTIONARY
360
66C
102
}
102
{ACAD_REACTORS
330
34E
102
}
330
34E
100
AcDbPlotSettings
  1

  2
\\asrv0030\DocuCentre 230 - 本社９階　開発部
  4

  6

 40
0.0
 41
0.0
 42
0.0
 43
0.0
 44
0.0
 45
0.0
 46
0.0
 47
0.0
 48
0.0
 49
0.0
140
0.0
141
0.0
142
1.0
143
1.0
 70
   688
 72
     0
 73
     0
 74
     5
  7

 75
    16
147
1.0
148
0.0
149
0.0
100
AcDbLayout
  1
レイアウト1
 70
     0
 71
     1
 10
0.0
 20
0.0
 11
12.0
 21
9.0
 12
0.0
 22
0.0
 32
0.0
 14
1.000000000000000E+20
 24
1.000000000000000E+20
 34
1.000000000000000E+20
 15
-1.000000000000000E+20
 25
-1.000000000000000E+20
 35
-1.000000000000000E+20
146
0.0
 13
0.0
 23
0.0
 33
0.0
 16
1.0
 26
0.0
 36
0.0
 17
0.0
 27
1.0
 37
0.0
 76
     0
330
B
  0
MATERIAL
  5
30E
102
{ACAD_XDICTIONARY
360
30F
102
}
102
{ACAD_REACTORS
330
305
102
}
330
305
100
AcDbMaterial
  1
ByBlock
 72
     0
 43
0.0208333333333333
 43
0.0
 43
0.0
 43
0.0
 43
0.0
 43
0.0208333333333333
 43
0.0
 43
0.0
 43
0.0
 43
0.0
 43
1.0
 43
0.0
 43
0.0
 43
0.0
 43
0.0
 43
1.0
 77
     0
 47
0.0208333333333333
 47
0.0
 47
0.0
 47
0.0
 47
0.0
 47
0.0208333333333333
 47
0.0
 47
0.0
 47
0.0
 47
0.0
 47
1.0
 47
0.0
 47
0.0
 47
0.0
 47
0.0
 47
1.0
171
     0
 49
0.0208333333333333
 49
0.0
 49
0.0
 49
0.0
 49
0.0
 49
0.0208333333333333
 49
0.0
 49
0.0
 49
0.0
 49
0.0
 49
1.0
 49
0.0
 49
0.0
 49
0.0
 49
0.0
 49
1.0
175
     0
142
0.0208333333333333
142
0.0
142
0.0
142
0.0
142
0.0
142
0.0208333333333333
142
0.0
142
0.0
142
0.0
142
0.0
142
1.0
142
0.0
142
0.0
142
0.0
142
0.0
142
1.0
179
     0
144
0.0208333333333333
144
0.0
144
0.0
144
0.0
144
0.0
144
0.0208333333333333
144
0.0
144
0.0
144
0.0
144
0.0
144
1.0
144
0.0
144
0.0
144
0.0
144
0.0
144
1.0
147
0.0208333333333333
147
0.0
147
0.0
147
0.0
147
0.0
147
0.0208333333333333
147
0.0
147
0.0
147
0.0
147
0.0
147
1.0
147
0.0
147
0.0
147
0.0
147
0.0
147
1.0
  0
MATERIAL
  5
306
102
{ACAD_XDICTIONARY
360
307
102
}
102
{ACAD_REACTORS
330
305
102
}
330
305
100
AcDbMaterial
  1
ByLayer
 72
     0
 43
0.0208333333333333
 43
0.0
 43
0.0
 43
0.0
 43
0.0
 43
0.0208333333333333
 43
0.0
 43
0.0
 43
0.0
 43
0.0
 43
1.0
 43
0.0
 43
0.0
 43
0.0
 43
0.0
 43
1.0
 77
     0
 47
0.0208333333333333
 47
0.0
 47
0.0
 47
0.0
 47
0.0
 47
0.0208333333333333
 47
0.0
 47
0.0
 47
0.0
 47
0.0
 47
1.0
 47
0.0
 47
0.0
 47
0.0
 47
0.0
 47
1.0
171
     0
 49
0.0208333333333333
 49
0.0
 49
0.0
 49
0.0
 49
0.0
 49
0.0208333333333333
 49
0.0
 49
0.0
 49
0.0
 49
0.0
 49
1.0
 49
0.0
 49
0.0
 49
0.0
 49
0.0
 49
1.0
175
     0
142
0.0208333333333333
142
0.0
142
0.0
142
0.0
142
0.0
142
0.0208333333333333
142
0.0
142
0.0
142
0.0
142
0.0
142
1.0
142
0.0
142
0.0
142
0.0
142
0.0
142
1.0
179
     0
144
0.0208333333333333
144
0.0
144
0.0
144
0.0
144
0.0
144
0.0208333333333333
144
0.0
144
0.0
144
0.0
144
0.0
144
1.0
144
0.0
144
0.0
144
0.0
144
0.0
144
1.0
147
0.0208333333333333
147
0.0
147
0.0
147
0.0
147
0.0
147
0.0208333333333333
147
0.0
147
0.0
147
0.0
147
0.0
147
1.0
147
0.0
147
0.0
147
0.0
147
0.0
147
1.0
  0
MATERIAL
  5
316
102
{ACAD_XDICTIONARY
360
317
102
}
102
{ACAD_REACTORS
330
305
102
}
330
305
100
AcDbMaterial
  1
Global
 72
     0
 43
0.0208333333333333
 43
0.0
 43
0.0
 43
0.0
 43
0.0
 43
0.0208333333333333
 43
0.0
 43
0.0
 43
0.0
 43
0.0
 43
1.0
 43
0.0
 43
0.0
 43
0.0
 43
0.0
 43
1.0
 77
     0
 47
0.0208333333333333
 47
0.0
 47
0.0
 47
0.0
 47
0.0
 47
0.0208333333333333
 47
0.0
 47
0.0
 47
0.0
 47
0.0
 47
1.0
 47
0.0
 47
0.0
 47
0.0
 47
0.0
 47
1.0
171
     0
 49
0.0208333333333333
 49
0.0
 49
0.0
 49
0.0
 49
0.0
 49
0.0208333333333333
 49
0.0
 49
0.0
 49
0.0
 49
0.0
 49
1.0
 49
0.0
 49
0.0
 49
0.0
 49
0.0
 49
1.0
175
     0
142
0.0208333333333333
142
0.0
142
0.0
142
0.0
142
0.0
142
0.0208333333333333
142
0.0
142
0.0
142
0.0
142
0.0
142
1.0
142
0.0
142
0.0
142
0.0
142
0.0
142
1.0
179
     0
144
0.0208333333333333
144
0.0
144
0.0
144
0.0
144
0.0
144
0.0208333333333333
144
0.0
144
0.0
144
0.0
144
0.0
144
1.0
144
0.0
144
0.0
144
0.0
144
0.0
144
1.0
147
0.0208333333333333
147
0.0
147
0.0
147
0.0
147
0.0
147
0.0208333333333333
147
0.0
147
0.0
147
0.0
147
0.0
147
1.0
147
0.0
147
0.0
147
0.0
147
0.0
147
1.0
  0
MLEADERSTYLE
  5
34D
102
{ACAD_REACTORS
330
34C
102
}
330
34C
100
AcDbMLeaderStyle
170
     2
171
     1
172
     0
 90
        2
 40
0.0
 41
0.0
173
     1
 91
-1056964608
340
11
 92
       -2
290
     1
 42
2.0
291
     1
 43
0.36
  3
Standard
 44
4.0
300

342
17
174
     1
178
     6
175
     1
176
     0
 93
-1056964608
 45
4.0
292
     0
297
     0
 46
4.0
 94
-1056964608
 47
1.0
 49
1.0
140
1.0
293
     1
141
0.0
294
     1
177
     0
142
1.0
295
     0
296
     0
143
0.125
1001
ACAD_MLEADERVER
1070
     2
  0
MLINESTYLE
  5
1C
102
{ACAD_REACTORS
330
1B
102
}
330
1B
100
AcDbMlineStyle
  2
STANDARD
 70
     0
  3

 62
     0
 51
90.0
 52
90.0
 71
     2
 49
0.5
 62
   256
  6
BYLAYER
 49
-0.5
 62
   256
  6
BYLAYER
  0
ACDBPLACEHOLDER
  5
304
102
{ACAD_REACTORS
330
303
102
}
330
303
  0
SCALE
  5
33B
102
{ACAD_REACTORS
330
33A
102
}
330
33A
100
AcDbScale
 70
     0
300
1:1
140
1.0
141
1.0
290
     1
  0
SCALE
  5
33C
102
{ACAD_REACTORS
330
33A
102
}
330
33A
100
AcDbScale
 70
     0
300
1:2
140
1.0
141
2.0
290
     0
  0
SCALE
  5
33D
102
{ACAD_REACTORS
330
33A
102
}
330
33A
100
AcDbScale
 70
     0
300
1:4
140
1.0
141
4.0
290
     0
  0
SCALE
  5
33E
102
{ACAD_REACTORS
330
33A
102
}
330
33A
100
AcDbScale
 70
     0
300
1:5
140
1.0
141
5.0
290
     0
  0
SCALE
  5
33F
102
{ACAD_REACTORS
330
33A
102
}
330
33A
100
AcDbScale
 70
     0
300
1:8
140
1.0
141
8.0
290
     0
  0
SCALE
  5
340
102
{ACAD_REACTORS
330
33A
102
}
330
33A
100
AcDbScale
 70
     0
300
1:10
140
1.0
141
10.0
290
     0
  0
SCALE
  5
341
102
{ACAD_REACTORS
330
33A
102
}
330
33A
100
AcDbScale
 70
     0
300
1:16
140
1.0
141
16.0
290
     0
  0
SCALE
  5
342
102
{ACAD_REACTORS
330
33A
102
}
330
33A
100
AcDbScale
 70
     0
300
1:20
140
1.0
141
20.0
290
     0
  0
SCALE
  5
343
102
{ACAD_REACTORS
330
33A
102
}
330
33A
100
AcDbScale
 70
     0
300
1:30
140
1.0
141
30.0
290
     0
  0
SCALE
  5
344
102
{ACAD_REACTORS
330
33A
102
}
330
33A
100
AcDbScale
 70
     0
300
1:40
140
1.0
141
40.0
290
     0
  0
SCALE
  5
345
102
{ACAD_REACTORS
330
33A
102
}
330
33A
100
AcDbScale
 70
     0
300
1:50
140
1.0
141
50.0
290
     0
  0
SCALE
  5
346
102
{ACAD_REACTORS
330
33A
102
}
330
33A
100
AcDbScale
 70
     0
300
1:100
140
1.0
141
100.0
290
     0
  0
SCALE
  5
347
102
{ACAD_REACTORS
330
33A
102
}
330
33A
100
AcDbScale
 70
     0
300
2:1
140
2.0
141
1.0
290
     0
  0
SCALE
  5
348
102
{ACAD_REACTORS
330
33A
102
}
330
33A
100
AcDbScale
 70
     0
300
4:1
140
4.0
141
1.0
290
     0
  0
SCALE
  5
349
102
{ACAD_REACTORS
330
33A
102
}
330
33A
100
AcDbScale
 70
     0
300
8:1
140
8.0
141
1.0
290
     0
  0
SCALE
  5
34A
102
{ACAD_REACTORS
330
33A
102
}
330
33A
100
AcDbScale
 70
     0
300
10:1
140
10.0
141
1.0
290
     0
  0
SCALE
  5
34B
102
{ACAD_REACTORS
330
33A
102
}
330
33A
100
AcDbScale
 70
     0
300
100:1
140
100.0
141
1.0
290
     0
  0
TABLESTYLE
  5
339
102
{ACAD_XDICTIONARY
360
5D5
102
}
102
{ACAD_REACTORS
330
338
102
}
330
338
100
AcDbTableStyle
  3
Standard
 70
     0
 71
     0
 40
1.5
 41
1.5
280
     0
281
     0
  7
STANDARD
140
4.5
170
     2
 62
     0
 63
     7
283
     0
274
    -2
284
     1
 64
     0
275
    -2
285
     1
 65
     0
276
    -2
286
     1
 66
     0
277
    -2
287
     1
 67
     0
278
    -2
288
     1
 68
     0
279
    -2
289
     1
 69
     0
  7
STANDARD
140
6.0
170
     5
 62
     0
 63
     7
283
     0
274
    -2
284
     1
 64
     0
275
    -2
285
     1
 65
     0
276
    -2
286
     1
 66
     0
277
    -2
287
     1
 67
     0
278
    -2
288
     1
 68
     0
279
    -2
289
     1
 69
     0
  7
STANDARD
140
4.5
170
     5
 62
     0
 63
     7
283
     0
274
    -2
284
     1
 64
     0
275
    -2
285
     1
 65
     0
276
    -2
286
     1
 66
     0
277
    -2
287
     1
 67
     0
278
    -2
288
     1
 68
     0
279
    -2
289
     1
 69
     0
  0
VISUALSTYLE
  5
324
102
{ACAD_XDICTIONARY
360
642
102
}
102
{ACAD_REACTORS
330
31E
102
}
330
31E
100
AcDbVisualStyle
  2
2dWireframe
 70
     4
 71
     0
 72
     2
 73
     0
 90
        0
 40
-0.6
 41
-30.0
 62
     5
 63
     7
 74
     1
 91
        4
 64
     7
 65
   257
 75
     1
175
     1
 42
1.0
 92
        0
 66
   257
 43
1.0
 76
     1
 77
     6
 78
     2
 67
     7
 79
     5
170
     0
171
     0
290
     0
174
     0
 93
        1
 44
0.0
173
     0
291
     0
 45
0.0
1001
ACAD
1000
AcDbSavedByObjectVersion
1070
     0
  0
VISUALSTYLE
  5
323
102
{ACAD_XDICTIONARY
360
640
102
}
102
{ACAD_REACTORS
330
31E
102
}
330
31E
100
AcDbVisualStyle
  2
Basic
 70
     7
 71
     1
 72
     0
 73
     1
 90
        0
 40
-0.6
 41
-30.0
 62
     5
 63
     7
 74
     0
 91
        4
 64
     7
 65
   257
 75
     1
175
     1
 42
1.0
 92
        8
 66
     7
 43
1.0
 76
     1
 77
     6
 78
     2
 67
     7
 79
     5
170
     0
171
     0
290
     0
174
     0
 93
        1
 44
0.0
173
     0
291
     1
 45
0.0
1001
ACAD
1000
AcDbSavedByObjectVersion
1070
     0
  0
VISUALSTYLE
  5
32A
102
{ACAD_XDICTIONARY
360
64E
102
}
102
{ACAD_REACTORS
330
31E
102
}
330
31E
100
AcDbVisualStyle
  2
Brighten
 70
    12
 71
     2
 72
     2
 73
     0
 90
        0
 40
-0.6
 41
-30.0
 62
     5
 63
     7
 74
     1
 91
        4
 64
     7
 65
   257
 75
     1
175
     1
 42
1.0
 92
        8
 66
     7
 43
1.0
 76
     1
 77
     6
 78
     2
 67
     7
 79
     5
170
     0
171
     0
290
     0
174
     0
 93
        1
 44
50.0
173
     0
291
     1
 45
0.0
1001
ACAD
1000
AcDbSavedByObjectVersion
1070
     0
  0
VISUALSTYLE
  5
32E
102
{ACAD_XDICTIONARY
360
656
102
}
102
{ACAD_REACTORS
330
31E
102
}
330
31E
100
AcDbVisualStyle
  2
ColorChange
 70
    16
 71
     2
 72
     2
 73
     3
 90
        0
 40
-0.6
 41
-30.0
 62
     5
 63
     8
 74
     1
 91
        4
 64
     7
 65
   257
 75
     1
175
     1
 42
1.0
 92
        8
 66
     8
 43
1.0
 76
     1
 77
     6
 78
     2
 67
     7
 79
     5
170
     0
171
     0
290
     0
174
     0
 93
        1
 44
0.0
173
     0
291
     1
 45
0.0
1001
ACAD
1000
AcDbSavedByObjectVersion
1070
     0
  0
VISUALSTYLE
  5
327
102
{ACAD_XDICTIONARY
360
648
102
}
102
{ACAD_REACTORS
330
31E
102
}
330
31E
100
AcDbVisualStyle
  2
Conceptual
 70
     9
 71
     3
 72
     2
 73
     0
 90
        0
 40
-0.6
 41
-30.0
 62
     5
 63
     7
 74
     2
 91
        2
 64
     7
 65
   257
 75
     1
175
     1
 42
179.0
 92
        8
 66
     7
 43
1.0
 76
     1
 77
     6
 78
     2
 67
     7
 79
     3
170
     0
171
     0
290
     0
174
     0
 93
        1
 44
0.0
173
     0
291
     0
 45
0.0
1001
ACAD
1000
AcDbSavedByObjectVersion
1070
     0
  0
VISUALSTYLE
  5
329
102
{ACAD_XDICTIONARY
360
64C
102
}
102
{ACAD_REACTORS
330
31E
102
}
330
31E
100
AcDbVisualStyle
  2
Dim
 70
    11
 71
     2
 72
     2
 73
     0
 90
        0
 40
-0.6
 41
-30.0
 62
     5
 63
     7
 74
     1
 91
        4
 64
     7
 65
   257
 75
     1
175
     1
 42
1.0
 92
        8
 66
     7
 43
1.0
 76
     1
 77
     6
 78
     2
 67
     7
 79
     5
170
     0
171
     0
290
     0
174
     0
 93
        1
 44
-50.0
173
     0
291
     1
 45
0.0
1001
ACAD
1000
AcDbSavedByObjectVersion
1070
     0
  0
VISUALSTYLE
  5
336
102
{ACAD_XDICTIONARY
360
666
102
}
102
{ACAD_REACTORS
330
31E
102
}
330
31E
100
AcDbVisualStyle
  2
EdgeColorOff
 70
    22
 71
     2
 72
     2
 73
     0
 90
        0
 40
-0.6
 41
-30.0
 62
     5
 63
     7
 74
     1
 91
        4
 64
     7
 65
   257
 75
     1
175
     1
 42
1.0
 92
        8
 66
     7
 43
1.0
 76
     1
 77
     6
 78
     2
 67
     7
 79
     5
170
     0
171
     0
290
     0
174
     0
 93
        1
 44
0.0
173
     0
291
     1
 45
0.0
1001
ACAD
1000
AcDbSavedByObjectVersion
1070
     0
  0
VISUALSTYLE
  5
32D
102
{ACAD_XDICTIONARY
360
654
102
}
102
{ACAD_REACTORS
330
31E
102
}
330
31E
100
AcDbVisualStyle
  2
Facepattern
 70
    15
 71
     2
 72
     2
 73
     0
 90
        0
 40
-0.6
 41
-30.0
 62
     5
 63
     7
 74
     1
 91
        4
 64
     7
 65
   257
 75
     1
175
     1
 42
1.0
 92
        8
 66
     7
 43
1.0
 76
     1
 77
     6
 78
     2
 67
     7
 79
     5
170
     0
171
     0
290
     0
174
     0
 93
        1
 44
0.0
173
     0
291
     1
 45
0.0
1001
ACAD
1000
AcDbSavedByObjectVersion
1070
     0
  0
VISUALSTYLE
  5
31F
102
{ACAD_XDICTIONARY
360
638
102
}
102
{ACAD_REACTORS
330
31E
102
}
330
31E
100
AcDbVisualStyle
  2
Flat
 70
     0
 71
     2
 72
     1
 73
     1
 90
        2
 40
-0.6
 41
30.0
 62
     5
 63
     7
 74
     0
 91
        0
 64
     7
 65
   257
 75
     1
175
     1
 42
1.0
 92
        8
 66
     7
 43
1.0
 76
     1
 77
     6
 78
     2
 67
     7
 79
     5
170
     0
171
     0
290
     0
174
     0
 93
       13
 44
0.0
173
     0
291
     1
 45
0.0
1001
ACAD
1000
AcDbSavedByObjectVersion
1070
     0
  0
VISUALSTYLE
  5
320
102
{ACAD_XDICTIONARY
360
63A
102
}
102
{ACAD_REACTORS
330
31E
102
}
330
31E
100
AcDbVisualStyle
  2
FlatWithEdges
 70
     1
 71
     2
 72
     1
 73
     1
 90
        2
 40
-0.6
 41
30.0
 62
     5
 63
     7
 74
     1
 91
        0
 64
     7
 65
   257
 75
     1
175
     1
 42
1.0
 92
        0
 66
   257
 43
1.0
 76
     1
 77
     6
 78
     2
 67
     7
 79
     5
170
     0
171
     0
290
     0
174
     0
 93
       13
 44
0.0
173
     0
291
     1
 45
0.0
1001
ACAD
1000
AcDbSavedByObjectVersion
1070
     0
  0
VISUALSTYLE
  5
321
102
{ACAD_XDICTIONARY
360
63C
102
}
102
{ACAD_REACTORS
330
31E
102
}
330
31E
100
AcDbVisualStyle
  2
Gouraud
 70
     2
 71
     2
 72
     2
 73
     1
 90
        2
 40
-0.6
 41
30.0
 62
     5
 63
     7
 74
     0
 91
        0
 64
     7
 65
   257
 75
     1
175
     1
 42
1.0
 92
        0
 66
     7
 43
1.0
 76
     1
 77
     6
 78
     2
 67
     7
 79
     5
170
     0
171
     0
290
     0
174
     0
 93
       13
 44
0.0
173
     0
291
     1
 45
0.0
1001
ACAD
1000
AcDbSavedByObjectVersion
1070
     0
  0
VISUALSTYLE
  5
322
102
{ACAD_XDICTIONARY
360
63E
102
}
102
{ACAD_REACTORS
330
31E
102
}
330
31E
100
AcDbVisualStyle
  2
GouraudWithEdges
 70
     3
 71
     2
 72
     2
 73
     1
 90
        2
 40
-0.6
 41
30.0
 62
     5
 63
     7
 74
     1
 91
        0
 64
     7
 65
   257
 75
     1
175
     1
 42
1.0
 92
        0
 66
   257
 43
1.0
 76
     1
 77
     6
 78
     2
 67
     7
 79
     5
170
     0
171
     0
290
     0
174
     0
 93
       13
 44
0.0
173
     0
291
     1
 45
0.0
1001
ACAD
1000
AcDbSavedByObjectVersion
1070
     0
  0
VISUALSTYLE
  5
326
102
{ACAD_XDICTIONARY
360
646
102
}
102
{ACAD_REACTORS
330
31E
102
}
330
31E
100
AcDbVisualStyle
  2
Hidden
 70
     6
 71
     1
 72
     2
 73
     2
 90
        0
 40
-0.6
 41
-30.0
 62
     5
 63
     7
 74
     2
 91
        2
 64
     7
 65
   257
 75
     2
175
     1
 42
40.0
 92
        0
 66
   257
 43
1.0
 76
     1
 77
     6
 78
     2
 67
     7
 79
     3
170
     0
171
     0
290
     0
174
     0
 93
        1
 44
0.0
173
     0
291
     0
 45
0.0
1001
ACAD
1000
AcDbSavedByObjectVersion
1070
     0
  0
VISUALSTYLE
  5
334
102
{ACAD_XDICTIONARY
360
662
102
}
102
{ACAD_REACTORS
330
31E
102
}
330
31E
100
AcDbVisualStyle
  2
JitterOff
 70
    20
 71
     2
 72
     2
 73
     0
 90
        0
 40
-0.6
 41
-30.0
 62
     5
 63
     7
 74
     1
 91
        4
 64
     7
 65
   257
 75
     1
175
     1
 42
1.0
 92
       10
 66
     7
 43
1.0
 76
     1
 77
     6
 78
     2
 67
     7
 79
     5
170
     0
171
     0
290
     0
174
     0
 93
        1
 44
0.0
173
     0
291
     1
 45
0.0
1001
ACAD
1000
AcDbSavedByObjectVersion
1070
     0
  0
VISUALSTYLE
  5
32C
102
{ACAD_XDICTIONARY
360
652
102
}
102
{ACAD_REACTORS
330
31E
102
}
330
31E
100
AcDbVisualStyle
  2
Linepattern
 70
    14
 71
     2
 72
     2
 73
     0
 90
        0
 40
-0.6
 41
-30.0
 62
     5
 63
     7
 74
     1
 91
        4
 64
     7
 65
   257
 75
     7
175
     7
 42
1.0
 92
        8
 66
     7
 43
1.0
 76
     1
 77
     6
 78
     2
 67
     7
 79
     5
170
     0
171
     0
290
     0
174
     0
 93
        1
 44
0.0
173
     0
291
     1
 45
0.0
1001
ACAD
1000
AcDbSavedByObjectVersion
1070
     0
  0
VISUALSTYLE
  5
335
102
{ACAD_XDICTIONARY
360
664
102
}
102
{ACAD_REACTORS
330
31E
102
}
330
31E
100
AcDbVisualStyle
  2
OverhangOff
 70
    21
 71
     2
 72
     2
 73
     0
 90
        0
 40
-0.6
 41
-30.0
 62
     5
 63
     7
 74
     1
 91
        4
 64
     7
 65
   257
 75
     1
175
     1
 42
1.0
 92
        9
 66
     7
 43
1.0
 76
     1
 77
     6
 78
     2
 67
     7
 79
     5
170
     0
171
     0
290
     0
174
     0
 93
        1
 44
0.0
173
     0
291
     1
 45
0.0
1001
ACAD
1000
AcDbSavedByObjectVersion
1070
     0
  0
VISUALSTYLE
  5
328
102
{ACAD_XDICTIONARY
360
64A
102
}
102
{ACAD_REACTORS
330
31E
102
}
330
31E
100
AcDbVisualStyle
  2
Realistic
 70
     8
 71
     2
 72
     3
 73
     0
 90
        2
 40
-0.6
 41
30.0
 62
     5
 63
     7
 74
     0
 91
        0
 64
     7
 65
   257
 75
     1
175
     1
 42
1.0
 92
        8
 66
   257
 43
1.0
 76
     1
 77
     6
 78
     2
 67
     7
 79
     3
170
     0
171
     0
290
     0
174
     0
 93
       13
 44
0.0
173
     0
291
     0
 45
0.0
1001
ACAD
1000
AcDbSavedByObjectVersion
1070
     0
  0
VISUALSTYLE
  5
333
102
{ACAD_XDICTIONARY
360
660
102
}
102
{ACAD_REACTORS
330
31E
102
}
330
31E
100
AcDbVisualStyle
  2
Shaded
 70
    27
 71
     2
 72
     2
 73
     1
 90
        2
 40
-0.6
 41
30.0
 62
     5
 63
     7
 74
     0
 91
        4
 64
     7
 65
   257
 75
     1
175
     1
 42
1.0
 92
        8
 66
   257
 43
1.0
 76
     1
 77
     6
 78
     2
 67
     8
 79
     3
170
     0
171
     0
290
     0
174
     0
 93
        5
 44
0.0
173
     0
291
     0
 45
0.0
1001
ACAD
1000
AcDbSavedByObjectVersion
1070
     0
  0
VISUALSTYLE
  5
332
102
{ACAD_XDICTIONARY
360
65E
102
}
102
{ACAD_REACTORS
330
31E
102
}
330
31E
100
AcDbVisualStyle
  2
Shaded with edges
 70
    26
 71
     2
 72
     2
 73
     1
 90
        2
 40
-0.6
 41
30.0
 62
     5
 63
     7
 74
     1
 91
       10
 64
     7
 65
   257
 75
     2
175
     1
 42
1.0
 92
        8
 66
   257
 43
1.0
 76
     1
 77
     6
 78
     2
 67
     7
 79
     3
170
     0
171
     0
290
     0
174
     0
 93
        5
 44
0.0
173
     0
291
     0
 45
0.0
1001
ACAD
1000
AcDbSavedByObjectVersion
1070
     0
  0
VISUALSTYLE
  5
32F
102
{ACAD_XDICTIONARY
360
658
102
}
102
{ACAD_REACTORS
330
31E
102
}
330
31E
100
AcDbVisualStyle
  2
Shades of Gray
 70
    23
 71
     2
 72
     2
 73
     3
 90
        0
 40
-0.6
 41
-30.0
 62
     5
 63
     7
 74
     2
 91
        2
 64
     7
 65
     7
 75
     1
175
     1
 42
40.0
 92
        8
 66
     7
 43
1.0
 76
     1
 77
     6
 78
     2
 67
     7
 79
     3
170
     0
171
     0
290
     0
174
     0
 93
        1
 44
0.0
173
     0
291
     0
 45
0.0
1001
ACAD
1000
AcDbSavedByObjectVersion
1070
     0
  0
VISUALSTYLE
  5
330
102
{ACAD_XDICTIONARY
360
65A
102
}
102
{ACAD_REACTORS
330
31E
102
}
330
31E
100
AcDbVisualStyle
  2
Sketchy
 70
    24
 71
     1
 72
     2
 73
     2
 90
        0
 40
-0.6
 41
-30.0
 62
     5
 63
     7
 74
     2
 91
        2
 64
     7
 65
     7
 75
     1
175
     1
 42
40.0
 92
       11
 66
     7
 43
1.0
 76
     1
 77
     6
 78
     2
 67
     7
 79
     6
170
     0
171
     0
290
     0
174
     0
 93
        1
 44
0.0
173
     0
291
     0
 45
0.0
1001
ACAD
1000
AcDbSavedByObjectVersion
1070
     0
  0
VISUALSTYLE
  5
32B
102
{ACAD_XDICTIONARY
360
650
102
}
102
{ACAD_REACTORS
330
31E
102
}
330
31E
100
AcDbVisualStyle
  2
Thicken
 70
    13
 71
     2
 72
     2
 73
     0
 90
        0
 40
-0.6
 41
-30.0
 62
     5
 63
     7
 74
     1
 91
        4
 64
     7
 65
   257
 75
     1
175
     1
 42
1.0
 92
       12
 66
     7
 43
1.0
 76
     1
 77
     6
 78
     2
 67
     7
 79
     5
170
     0
171
     0
290
     0
174
     0
 93
        1
 44
0.0
173
     0
291
     1
 45
0.0
1001
ACAD
1000
AcDbSavedByObjectVersion
1070
     0
  0
VISUALSTYLE
  5
325
102
{ACAD_XDICTIONARY
360
644
102
}
102
{ACAD_REACTORS
330
31E
102
}
330
31E
100
AcDbVisualStyle
  2
Wireframe
 70
     5
 71
     0
 72
     2
 73
     0
 90
        0
 40
-0.6
 41
-30.0
 62
     5
 63
     7
 74
     1
 91
        4
 64
     7
 65
   257
 75
     1
175
     1
 42
1.0
 92
        0
 66
   257
 43
1.0
 76
     1
 77
     6
 78
     2
 67
     7
 79
     3
170
     0
171
     0
290
     0
174
     0
 93
        1
 44
0.0
173
     0
291
     0
 45
0.0
1001
ACAD
1000
AcDbSavedByObjectVersion
1070
     0
  0
VISUALSTYLE
  5
331
102
{ACAD_XDICTIONARY
360
65C
102
}
102
{ACAD_REACTORS
330
31E
102
}
330
31E
100
AcDbVisualStyle
  2
X-Ray
 70
    25
 71
     2
 72
     2
 73
     1
 90
        1
 40
0.5
 41
-30.0
 62
     5
 63
     7
 74
     1
 91
        0
 64
     7
 65
   257
 75
     1
175
     1
 42
1.0
 92
        8
 66
     7
 43
1.0
 76
     1
 77
     6
 78
     2
 67
     7
 79
     3
170
     0
171
     0
290
     0
174
     0
 93
       13
 44
0.0
173
     0
291
     0
 45
0.0
1001
ACAD
1000
AcDbSavedByObjectVersion
1070
     0
  0
DICTIONARYVAR
  5
5CF
102
{ACAD_REACTORS
330
5CC
102
}
330
5CC
100
DictionaryVariables
280
     0
  1
1:1
  0
DICTIONARYVAR
  5
5CE
102
{ACAD_REACTORS
330
5CC
102
}
330
5CC
100
DictionaryVariables
280
     0
  1
STANDARD
  0
DICTIONARYVAR
  5
5CD
102
{ACAD_REACTORS
330
5CC
102
}
330
5CC
100
DictionaryVariables
280
     0
  1
STANDARD
  0
DICTIONARYVAR
  5
5D2
102
{ACAD_REACTORS
330
5CC
102
}
330
5CC
100
DictionaryVariables
280
     0
  1
1
  0
DICTIONARYVAR
  5
5D1
102
{ACAD_REACTORS
330
5CC
102
}
330
5CC
100
DictionaryVariables
280
     0
  1
0
  0
DICTIONARYVAR
  5
5D0
102
{ACAD_REACTORS
330
5CC
102
}
330
5CC
100
DictionaryVariables
280
     0
  1
127
  0
DICTIONARYVAR
  5
5D3
102
{ACAD_REACTORS
330
5CC
102
}
330
5CC
100
DictionaryVariables
280
     0
  1
2
  0
XRECORD
  5
5CB
102
{ACAD_REACTORS
330
5C9
102
}
330
5C9
100
AcDbXrecord
280
     1
330
2D
330
30
330
40
330
41
330
42
330
43
330
44
330
3D
330
3E
330
3F
330
45C
330
45D
330
466
330
467
330
470
330
471
330
47A
330
47B
330
484
330
485
330
48E
330
48F
330
499
330
49A
330
4A3
330
4A4
330
4AD
330
4AE
330
4B7
330
4B8
330
4C1
330
4C2
330
4CB
330
4CC
330
4D5
330
4D6
330
4DF
330
4E0
330
4E9
  0
DICTIONARY
  5
66A
330
350
100
AcDbDictionary
280
     1
281
     1
  3
ACAD_XREC_ROUNDTRIP
360
66B
  0
DICTIONARY
  5
66C
330
351
100
AcDbDictionary
280
     1
281
     1
  3
ACAD_XREC_ROUNDTRIP
360
66D
  0
DICTIONARY
  5
30F
330
30E
100
AcDbDictionary
280
     1
281
     1
  3
ACAD_XREC_ROUNDTRIP
360
636
  3
BUMPTILE
360
311
  3
DIFFUSETILE
360
310
  3
OPACITYTILE
360
314
  3
REFLECTIONTILE
360
313
  3
REFRACTIONTILE
360
315
  3
SPECULARTILE
360
312
  0
DICTIONARY
  5
307
330
306
100
AcDbDictionary
280
     1
281
     1
  3
ACAD_XREC_ROUNDTRIP
360
635
  3
BUMPTILE
360
309
  3
DIFFUSETILE
360
308
  3
OPACITYTILE
360
30C
  3
REFLECTIONTILE
360
30B
  3
REFRACTIONTILE
360
30D
  3
SPECULARTILE
360
30A
  0
DICTIONARY
  5
317
330
316
100
AcDbDictionary
280
     1
281
     1
  3
ACAD_XREC_ROUNDTRIP
360
637
  3
BUMPTILE
360
319
  3
DIFFUSETILE
360
318
  3
OPACITYTILE
360
31C
  3
REFLECTIONTILE
360
31B
  3
REFRACTIONTILE
360
31D
  3
SPECULARTILE
360
31A
  0
DICTIONARY
  5
5D5
330
339
100
AcDbDictionary
280
     1
281
     1
  3
ACAD_ROUNDTRIP_2008_TABLESTYLE_CELLSTYLEMAP
360
5D6
  3
ACAD_XREC_ROUNDTRIP
360
668
  0
DICTIONARY
  5
642
330
324
100
AcDbDictionary
280
     1
281
     1
  3
ACAD_XREC_ROUNDTRIP
360
643
  0
DICTIONARY
  5
640
330
323
100
AcDbDictionary
280
     1
281
     1
  3
ACAD_XREC_ROUNDTRIP
360
641
  0
DICTIONARY
  5
64E
330
32A
100
AcDbDictionary
280
     1
281
     1
  3
ACAD_XREC_ROUNDTRIP
360
64F
  0
DICTIONARY
  5
656
330
32E
100
AcDbDictionary
280
     1
281
     1
  3
ACAD_XREC_ROUNDTRIP
360
657
  0
DICTIONARY
  5
648
330
327
100
AcDbDictionary
280
     1
281
     1
  3
ACAD_XREC_ROUNDTRIP
360
649
  0
DICTIONARY
  5
64C
330
329
100
AcDbDictionary
280
     1
281
     1
  3
ACAD_XREC_ROUNDTRIP
360
64D
  0
DICTIONARY
  5
666
330
336
100
AcDbDictionary
280
     1
281
     1
  3
ACAD_XREC_ROUNDTRIP
360
667
  0
DICTIONARY
  5
654
330
32D
100
AcDbDictionary
280
     1
281
     1
  3
ACAD_XREC_ROUNDTRIP
360
655
  0
DICTIONARY
  5
638
330
31F
100
AcDbDictionary
280
     1
281
     1
  3
ACAD_XREC_ROUNDTRIP
360
639
  0
DICTIONARY
  5
63A
330
320
100
AcDbDictionary
280
     1
281
     1
  3
ACAD_XREC_ROUNDTRIP
360
63B
  0
DICTIONARY
  5
63C
330
321
100
AcDbDictionary
280
     1
281
     1
  3
ACAD_XREC_ROUNDTRIP
360
63D
  0
DICTIONARY
  5
63E
330
322
100
AcDbDictionary
280
     1
281
     1
  3
ACAD_XREC_ROUNDTRIP
360
63F
  0
DICTIONARY
  5
646
330
326
100
AcDbDictionary
280
     1
281
     1
  3
ACAD_XREC_ROUNDTRIP
360
647
  0
DICTIONARY
  5
662
330
334
100
AcDbDictionary
280
     1
281
     1
  3
ACAD_XREC_ROUNDTRIP
360
663
  0
DICTIONARY
  5
652
330
32C
100
AcDbDictionary
280
     1
281
     1
  3
ACAD_XREC_ROUNDTRIP
360
653
  0
DICTIONARY
  5
664
330
335
100
AcDbDictionary
280
     1
281
     1
  3
ACAD_XREC_ROUNDTRIP
360
665
  0
DICTIONARY
  5
64A
330
328
100
AcDbDictionary
280
     1
281
     1
  3
ACAD_XREC_ROUNDTRIP
360
64B
  0
DICTIONARY
  5
660
330
333
100
AcDbDictionary
280
     1
281
     1
  3
ACAD_XREC_ROUNDTRIP
360
661
  0
DICTIONARY
  5
65E
330
332
100
AcDbDictionary
280
     1
281
     1
  3
ACAD_XREC_ROUNDTRIP
360
65F
  0
DICTIONARY
  5
658
330
32F
100
AcDbDictionary
280
     1
281
     1
  3
ACAD_XREC_ROUNDTRIP
360
659
  0
DICTIONARY
  5
65A
330
330
100
AcDbDictionary
280
     1
281
     1
  3
ACAD_XREC_ROUNDTRIP
360
65B
  0
DICTIONARY
  5
650
330
32B
100
AcDbDictionary
280
     1
281
     1
  3
ACAD_XREC_ROUNDTRIP
360
651
  0
DICTIONARY
  5
644
330
325
100
AcDbDictionary
280
     1
281
     1
  3
ACAD_XREC_ROUNDTRIP
360
645
  0
DICTIONARY
  5
65C
330
331
100
AcDbDictionary
280
     1
281
     1
  3
ACAD_XREC_ROUNDTRIP
360
65D
  0
XRECORD
  5
66B
102
{ACAD_REACTORS
330
66A
102
}
330
66A
100
AcDbXrecord
280
     1
102
SHADEPLOT
 70
     0
102
SHADEPLOTRESLEVEL
 70
     2
102
SHADEPLOTCUSTOMDPI
 70
   300
  0
XRECORD
  5
66D
102
{ACAD_REACTORS
330
66C
102
}
330
66C
100
AcDbXrecord
280
     1
102
SHADEPLOT
 70
     0
102
SHADEPLOTRESLEVEL
 70
     2
102
SHADEPLOTCUSTOMDPI
 70
   300
  0
XRECORD
  5
636
102
{ACAD_REACTORS
330
30F
102
}
330
30F
100
AcDbXrecord
280
     1
102
MATERIAL
148
0.0
149
0.0
149
0.0
 93
        0
 94
      127
282
     0
 72
     0
 77
     0
171
     0
175
     0
179
     0
273
     0
  0
XRECORD
  5
311
102
{ACAD_REACTORS
330
30F
102
}
330
30F
100
AcDbXrecord
280
     1
270
     1
271
     1
  0
XRECORD
  5
310
102
{ACAD_REACTORS
330
30F
102
}
330
30F
100
AcDbXrecord
280
     1
270
     1
271
     1
  0
XRECORD
  5
314
102
{ACAD_REACTORS
330
30F
102
}
330
30F
100
AcDbXrecord
280
     1
270
     1
271
     1
  0
XRECORD
  5
313
102
{ACAD_REACTORS
330
30F
102
}
330
30F
100
AcDbXrecord
280
     1
270
     1
271
     1
  0
XRECORD
  5
315
102
{ACAD_REACTORS
330
30F
102
}
330
30F
100
AcDbXrecord
280
     1
270
     1
271
     1
  0
XRECORD
  5
312
102
{ACAD_REACTORS
330
30F
102
}
330
30F
100
AcDbXrecord
280
     1
270
     1
271
     1
  0
XRECORD
  5
635
102
{ACAD_REACTORS
330
307
102
}
330
307
100
AcDbXrecord
280
     1
102
MATERIAL
148
0.0
149
0.0
149
0.0
 93
        0
 94
      127
282
     0
 72
     0
 77
     0
171
     0
175
     0
179
     0
273
     0
  0
XRECORD
  5
309
102
{ACAD_REACTORS
330
307
102
}
330
307
100
AcDbXrecord
280
     1
270
     1
271
     1
  0
XRECORD
  5
308
102
{ACAD_REACTORS
330
307
102
}
330
307
100
AcDbXrecord
280
     1
270
     1
271
     1
  0
XRECORD
  5
30C
102
{ACAD_REACTORS
330
307
102
}
330
307
100
AcDbXrecord
280
     1
270
     1
271
     1
  0
XRECORD
  5
30B
102
{ACAD_REACTORS
330
307
102
}
330
307
100
AcDbXrecord
280
     1
270
     1
271
     1
  0
XRECORD
  5
30D
102
{ACAD_REACTORS
330
307
102
}
330
307
100
AcDbXrecord
280
     1
270
     1
271
     1
  0
XRECORD
  5
30A
102
{ACAD_REACTORS
330
307
102
}
330
307
100
AcDbXrecord
280
     1
270
     1
271
     1
  0
XRECORD
  5
637
102
{ACAD_REACTORS
330
317
102
}
330
317
100
AcDbXrecord
280
     1
102
MATERIAL
148
0.0
149
0.0
149
0.0
 93
        0
 94
      127
282
     0
 72
     0
 77
     0
171
     0
175
     0
179
     0
273
     0
  0
XRECORD
  5
319
102
{ACAD_REACTORS
330
317
102
}
330
317
100
AcDbXrecord
280
     1
270
     1
271
     1
  0
XRECORD
  5
318
102
{ACAD_REACTORS
330
317
102
}
330
317
100
AcDbXrecord
280
     1
270
     1
271
     1
  0
XRECORD
  5
31C
102
{ACAD_REACTORS
330
317
102
}
330
317
100
AcDbXrecord
280
     1
270
     1
271
     1
  0
XRECORD
  5
31B
102
{ACAD_REACTORS
330
317
102
}
330
317
100
AcDbXrecord
280
     1
270
     1
271
     1
  0
XRECORD
  5
31D
102
{ACAD_REACTORS
330
317
102
}
330
317
100
AcDbXrecord
280
     1
270
     1
271
     1
  0
XRECORD
  5
31A
102
{ACAD_REACTORS
330
317
102
}
330
317
100
AcDbXrecord
280
     1
270
     1
271
     1
  0
CELLSTYLEMAP
  5
5D6
102
{ACAD_REACTORS
330
5D5
102
}
330
5D5
100
AcDbCellStyleMap
 90
        3
300
CELLSTYLE
  1
TABLEFORMAT_BEGIN
 90
        5
170
     1
 91
        0
 92
    32768
 62
   257
 93
        1
300
CONTENTFORMAT
  1
CONTENTFORMAT_BEGIN
 90
        0
 91
        0
 92
      512
 93
        0
300

 40
0.0
140
1.0
 94
        5
 62
     0
340
17
144
6.0
309
CONTENTFORMAT_END
171
     1
301
MARGIN
  1
CELLMARGIN_BEGIN
 40
1.5
 40
1.5
 40
1.5
 40
1.5
 40
4.5
 40
4.5
309
CELLMARGIN_END
 94
        6
 95
        1
302
GRIDFORMAT
  1
GRIDFORMAT_BEGIN
 90
        0
 91
        1
 62
     0
 92
       -2
340
0
 93
        0
 40
1.125
309
GRIDFORMAT_END
 95
        2
302
GRIDFORMAT
  1
GRIDFORMAT_BEGIN
 90
        0
 91
        1
 62
     0
 92
       -2
340
0
 93
        0
 40
1.125
309
GRIDFORMAT_END
 95
        4
302
GRIDFORMAT
  1
GRIDFORMAT_BEGIN
 90
        0
 91
        1
 62
     0
 92
       -2
340
0
 93
        0
 40
1.125
309
GRIDFORMAT_END
 95
        8
302
GRIDFORMAT
  1
GRIDFORMAT_BEGIN
 90
        0
 91
        1
 62
     0
 92
       -2
340
0
 93
        0
 40
1.125
309
GRIDFORMAT_END
 95
       16
302
GRIDFORMAT
  1
GRIDFORMAT_BEGIN
 90
        0
 91
        1
 62
     0
 92
       -2
340
0
 93
        0
 40
1.125
309
GRIDFORMAT_END
 95
       32
302
GRIDFORMAT
  1
GRIDFORMAT_BEGIN
 90
        0
 91
        1
 62
     0
 92
       -2
340
0
 93
        0
 40
1.125
309
GRIDFORMAT_END
309
TABLEFORMAT_END
  1
CELLSTYLE_BEGIN
 90
        1
 91
        1
300
_TITLE
309
CELLSTYLE_END
300
CELLSTYLE
  1
TABLEFORMAT_BEGIN
 90
        5
170
     1
 91
        0
 92
        0
 62
   257
 93
        1
300
CONTENTFORMAT
  1
CONTENTFORMAT_BEGIN
 90
        0
 91
        0
 92
      512
 93
        0
300

 40
0.0
140
1.0
 94
        5
 62
     0
340
17
144
4.5
309
CONTENTFORMAT_END
171
     1
301
MARGIN
  1
CELLMARGIN_BEGIN
 40
1.5
 40
1.5
 40
1.5
 40
1.5
 40
4.5
 40
4.5
309
CELLMARGIN_END
 94
        6
 95
        1
302
GRIDFORMAT
  1
GRIDFORMAT_BEGIN
 90
        0
 91
        1
 62
     0
 92
       -2
340
0
 93
        0
 40
1.125
309
GRIDFORMAT_END
 95
        2
302
GRIDFORMAT
  1
GRIDFORMAT_BEGIN
 90
        0
 91
        1
 62
     0
 92
       -2
340
0
 93
        0
 40
1.125
309
GRIDFORMAT_END
 95
        4
302
GRIDFORMAT
  1
GRIDFORMAT_BEGIN
 90
        0
 91
        1
 62
     0
 92
       -2
340
0
 93
        0
 40
1.125
309
GRIDFORMAT_END
 95
        8
302
GRIDFORMAT
  1
GRIDFORMAT_BEGIN
 90
        0
 91
        1
 62
     0
 92
       -2
340
0
 93
        0
 40
1.125
309
GRIDFORMAT_END
 95
       16
302
GRIDFORMAT
  1
GRIDFORMAT_BEGIN
 90
        0
 91
        1
 62
     0
 92
       -2
340
0
 93
        0
 40
1.125
309
GRIDFORMAT_END
 95
       32
302
GRIDFORMAT
  1
GRIDFORMAT_BEGIN
 90
        0
 91
        1
 62
     0
 92
       -2
340
0
 93
        0
 40
1.125
309
GRIDFORMAT_END
309
TABLEFORMAT_END
  1
CELLSTYLE_BEGIN
 90
        2
 91
        1
300
_HEADER
309
CELLSTYLE_END
300
CELLSTYLE
  1
TABLEFORMAT_BEGIN
 90
        5
170
     1
 91
        0
 92
        0
 62
   257
 93
        1
300
CONTENTFORMAT
  1
CONTENTFORMAT_BEGIN
 90
        0
 91
        0
 92
      512
 93
        0
300

 40
0.0
140
1.0
 94
        2
 62
     0
340
17
144
4.5
309
CONTENTFORMAT_END
171
     1
301
MARGIN
  1
CELLMARGIN_BEGIN
 40
1.5
 40
1.5
 40
1.5
 40
1.5
 40
4.5
 40
4.5
309
CELLMARGIN_END
 94
        6
 95
        1
302
GRIDFORMAT
  1
GRIDFORMAT_BEGIN
 90
        0
 91
        1
 62
     0
 92
       -2
340
0
 93
        0
 40
1.125
309
GRIDFORMAT_END
 95
        2
302
GRIDFORMAT
  1
GRIDFORMAT_BEGIN
 90
        0
 91
        1
 62
     0
 92
       -2
340
0
 93
        0
 40
1.125
309
GRIDFORMAT_END
 95
        4
302
GRIDFORMAT
  1
GRIDFORMAT_BEGIN
 90
        0
 91
        1
 62
     0
 92
       -2
340
0
 93
        0
 40
1.125
309
GRIDFORMAT_END
 95
        8
302
GRIDFORMAT
  1
GRIDFORMAT_BEGIN
 90
        0
 91
        1
 62
     0
 92
       -2
340
0
 93
        0
 40
1.125
309
GRIDFORMAT_END
 95
       16
302
GRIDFORMAT
  1
GRIDFORMAT_BEGIN
 90
        0
 91
        1
 62
     0
 92
       -2
340
0
 93
        0
 40
1.125
309
GRIDFORMAT_END
 95
       32
302
GRIDFORMAT
  1
GRIDFORMAT_BEGIN
 90
        0
 91
        1
 62
     0
 92
       -2
340
0
 93
        0
 40
1.125
309
GRIDFORMAT_END
309
TABLEFORMAT_END
  1
CELLSTYLE_BEGIN
 90
        3
 91
        2
300
_DATA
309
CELLSTYLE_END
  0
XRECORD
  5
668
102
{ACAD_REACTORS
330
5D5
102
}
330
5D5
100
AcDbXrecord
280
     1
102
ACAD_ROUNDTRIP_PRE2007_TABLESTYLE
 90
      512
 91
        0
  1

 92
      512
 93
        0
  2

 94
      512
 95
        0
  3

  0
XRECORD
  5
643
102
{ACAD_REACTORS
330
642
102
}
330
642
100
AcDbXrecord
280
     1
102
RTVSPropertyOp0
 70
     1
102
RTVSPropertyOp1
 70
     1
102
RTVSPropertyOp2
 70
     1
102
RTVSPropertyOp3
 70
     1
102
RTVSPropertyOp4
 70
     1
102
RTVSPropertyOp5
 70
     1
102
RTVSPropertyOp6
 70
     1
102
RTVSPropertyOp7
 70
     1
102
RTVSPropertyOp8
 70
     1
102
RTVSPropertyOp9
 70
     1
102
RTVSPropertyOp10
 70
     1
102
RTVSPropertyOp11
 70
     1
102
RTVSPropertyOp12
 70
     1
102
RTVSPropertyOp13
 70
     1
102
RTVSPropertyOp14
 70
     1
102
RTVSPropertyOp15
 70
     1
102
RTVSPropertyOp16
 70
     1
102
RTVSPropertyOp17
 70
     1
102
RTVSPropertyOp18
 70
     1
102
RTVSPropertyOp19
 70
     1
102
RTVSPropertyOp20
 70
     1
102
RTVSPropertyOp21
 70
     1
102
RTVSPropertyOp22
 70
     1
102
RTVSPropertyOp23
 70
     1
102
RTVSPropertyOp24
 70
     1
102
RTVSPropertyOp25
 70
     1
102
RTVSPropertyOp26
 70
     1
102
RTVSPropertyOp27
 70
     1
102
RTVSPropertyOp28
 70
     1
102
RTVSPropertyOp29
 70
     1
102
RTVSPropertyOp30
 70
     1
102
RTVSPropertyOp31
 70
     1
102
RTVSPropertyOp32
 70
     1
  0
XRECORD
  5
641
102
{ACAD_REACTORS
330
640
102
}
330
640
100
AcDbXrecord
280
     1
102
RTVSPropertyOp0
 70
     1
102
RTVSPropertyOp1
 70
     1
102
RTVSPropertyOp2
 70
     1
102
RTVSPropertyOp3
 70
     1
102
RTVSPropertyOp4
 70
     1
102
RTVSPropertyOp5
 70
     1
102
RTVSPropertyOp6
 70
     1
102
RTVSPropertyOp7
 70
     1
102
RTVSPropertyOp8
 70
     1
102
RTVSPropertyOp9
 70
     1
102
RTVSPropertyOp10
 70
     1
102
RTVSPropertyOp11
 70
     1
102
RTVSPropertyOp12
 70
     1
102
RTVSPropertyOp13
 70
     1
102
RTVSPropertyOp14
 70
     1
102
RTVSPropertyOp15
 70
     1
102
RTVSPropertyOp16
 70
     1
102
RTVSPropertyOp17
 70
     1
102
RTVSPropertyOp18
 70
     1
102
RTVSPropertyOp19
 70
     1
102
RTVSPropertyOp20
 70
     1
102
RTVSPropertyOp21
 70
     1
102
RTVSPropertyOp22
 70
     1
102
RTVSPropertyOp23
 70
     1
102
RTVSPropertyOp24
 70
     1
102
RTVSPropertyOp25
 70
     1
102
RTVSPropertyOp26
 70
     1
102
RTVSPropertyOp27
 70
     1
102
RTVSPropertyOp28
 70
     1
102
RTVSPropertyOp29
 70
     1
102
RTVSPropertyOp30
 70
     1
102
RTVSPropertyOp31
 70
     1
102
RTVSPropertyOp32
 70
     1
  0
XRECORD
  5
64F
102
{ACAD_REACTORS
330
64E
102
}
330
64E
100
AcDbXrecord
280
     1
102
RTVSPropertyOp0
 70
     1
102
RTVSPropertyOp1
 70
     1
102
RTVSPropertyOp2
 70
     1
102
RTVSPropertyOp3
 70
     1
102
RTVSPropertyOp4
 70
     1
102
RTVSPropertyOp5
 70
     1
102
RTVSPropertyOp6
 70
     1
102
RTVSPropertyOp7
 70
     1
102
RTVSPropertyOp8
 70
     1
102
RTVSPropertyOp9
 70
     1
102
RTVSPropertyOp10
 70
     1
102
RTVSPropertyOp11
 70
     1
102
RTVSPropertyOp12
 70
     1
102
RTVSPropertyOp13
 70
     1
102
RTVSPropertyOp14
 70
     1
102
RTVSPropertyOp15
 70
     1
102
RTVSPropertyOp16
 70
     1
102
RTVSPropertyOp17
 70
     1
102
RTVSPropertyOp18
 70
     1
102
RTVSPropertyOp19
 70
     1
102
RTVSPropertyOp20
 70
     1
102
RTVSPropertyOp21
 70
     1
102
RTVSPropertyOp22
 70
     1
102
RTVSPropertyOp23
 70
     1
102
RTVSPropertyOp24
 70
     1
102
RTVSPropertyOp25
 70
     1
102
RTVSPropertyOp26
 70
     1
102
RTVSPropertyOp27
 70
     1
102
RTVSPropertyOp28
 70
     1
102
RTVSPropertyOp29
 70
     1
102
RTVSPropertyOp30
 70
     1
102
RTVSPropertyOp31
 70
     1
102
RTVSPropertyOp32
 70
     1
  0
XRECORD
  5
657
102
{ACAD_REACTORS
330
656
102
}
330
656
100
AcDbXrecord
280
     1
102
RTVSPropertyOp0
 70
     1
102
RTVSPropertyOp1
 70
     1
102
RTVSPropertyOp2
 70
     1
102
RTVSPropertyOp3
 70
     1
102
RTVSPropertyOp4
 70
     1
102
RTVSPropertyOp5
 70
     1
102
RTVSPropertyOp6
 70
     1
102
RTVSPropertyOp7
 70
     1
102
RTVSPropertyOp8
 70
     1
102
RTVSPropertyOp9
 70
     1
102
RTVSPropertyOp10
 70
     1
102
RTVSPropertyOp11
 70
     1
102
RTVSPropertyOp12
 70
     1
102
RTVSPropertyOp13
 70
     1
102
RTVSPropertyOp14
 70
     1
102
RTVSPropertyOp15
 70
     1
102
RTVSPropertyOp16
 70
     1
102
RTVSPropertyOp17
 70
     1
102
RTVSPropertyOp18
 70
     1
102
RTVSPropertyOp19
 70
     1
102
RTVSPropertyOp20
 70
     1
102
RTVSPropertyOp21
 70
     1
102
RTVSPropertyOp22
 70
     1
102
RTVSPropertyOp23
 70
     1
102
RTVSPropertyOp24
 70
     1
102
RTVSPropertyOp25
 70
     1
102
RTVSPropertyOp26
 70
     1
102
RTVSPropertyOp27
 70
     1
102
RTVSPropertyOp28
 70
     1
102
RTVSPropertyOp29
 70
     1
102
RTVSPropertyOp30
 70
     1
102
RTVSPropertyOp31
 70
     1
102
RTVSPropertyOp32
 70
     1
  0
XRECORD
  5
649
102
{ACAD_REACTORS
330
648
102
}
330
648
100
AcDbXrecord
280
     1
102
RTVSPropertyOp0
 70
     1
102
RTVSPropertyOp1
 70
     1
102
RTVSPropertyOp2
 70
     1
102
RTVSPropertyOp3
 70
     1
102
RTVSPropertyOp4
 70
     1
102
RTVSPropertyOp5
 70
     1
102
RTVSPropertyOp6
 70
     1
102
RTVSPropertyOp7
 70
     1
102
RTVSPropertyOp8
 70
     1
102
RTVSPropertyOp9
 70
     1
102
RTVSPropertyOp10
 70
     1
102
RTVSPropertyOp11
 70
     1
102
RTVSPropertyOp12
 70
     1
102
RTVSPropertyOp13
 70
     1
102
RTVSPropertyOp14
 70
     1
102
RTVSPropertyOp15
 70
     1
102
RTVSPropertyOp16
 70
     1
102
RTVSPropertyOp17
 70
     1
102
RTVSPropertyOp18
 70
     1
102
RTVSPropertyOp19
 70
     1
102
RTVSPropertyOp20
 70
     1
102
RTVSPropertyOp21
 70
     1
102
RTVSPropertyOp22
 70
     1
102
RTVSPropertyOp23
 70
     1
102
RTVSPropertyOp24
 70
     1
102
RTVSPropertyOp25
 70
     1
102
RTVSPropertyOp26
 70
     1
102
RTVSPropertyOp27
 70
     1
102
RTVSPropertyOp28
 70
     1
102
RTVSPropertyOp29
 70
     1
102
RTVSPropertyOp30
 70
     1
102
RTVSPropertyOp31
 70
     1
102
RTVSPropertyOp32
 70
     1
  0
XRECORD
  5
64D
102
{ACAD_REACTORS
330
64C
102
}
330
64C
100
AcDbXrecord
280
     1
102
RTVSPropertyOp0
 70
     1
102
RTVSPropertyOp1
 70
     1
102
RTVSPropertyOp2
 70
     1
102
RTVSPropertyOp3
 70
     1
102
RTVSPropertyOp4
 70
     1
102
RTVSPropertyOp5
 70
     1
102
RTVSPropertyOp6
 70
     1
102
RTVSPropertyOp7
 70
     1
102
RTVSPropertyOp8
 70
     1
102
RTVSPropertyOp9
 70
     1
102
RTVSPropertyOp10
 70
     1
102
RTVSPropertyOp11
 70
     1
102
RTVSPropertyOp12
 70
     1
102
RTVSPropertyOp13
 70
     1
102
RTVSPropertyOp14
 70
     1
102
RTVSPropertyOp15
 70
     1
102
RTVSPropertyOp16
 70
     1
102
RTVSPropertyOp17
 70
     1
102
RTVSPropertyOp18
 70
     1
102
RTVSPropertyOp19
 70
     1
102
RTVSPropertyOp20
 70
     1
102
RTVSPropertyOp21
 70
     1
102
RTVSPropertyOp22
 70
     1
102
RTVSPropertyOp23
 70
     1
102
RTVSPropertyOp24
 70
     1
102
RTVSPropertyOp25
 70
     1
102
RTVSPropertyOp26
 70
     1
102
RTVSPropertyOp27
 70
     1
102
RTVSPropertyOp28
 70
     1
102
RTVSPropertyOp29
 70
     1
102
RTVSPropertyOp30
 70
     1
102
RTVSPropertyOp31
 70
     1
102
RTVSPropertyOp32
 70
     1
  0
XRECORD
  5
667
102
{ACAD_REACTORS
330
666
102
}
330
666
100
AcDbXrecord
280
     1
102
RTVSPropertyOp0
 70
     0
102
RTVSPropertyOp1
 70
     0
102
RTVSPropertyOp2
 70
     0
102
RTVSPropertyOp3
 70
     0
102
RTVSPropertyOp4
 70
     0
102
RTVSPropertyOp5
 70
     0
102
RTVSPropertyOp6
 70
     0
102
RTVSPropertyOp7
 70
     0
102
RTVSPropertyOp8
 70
     0
102
RTVSPropertyOp9
 70
     0
102
RTVSPropertyOp10
 70
     0
102
RTVSPropertyOp11
 70
     0
102
RTVSPropertyOp12
 70
     0
102
RTVSPropertyOp13
 70
     0
102
RTVSPropertyOp14
 70
     2
102
RTVSPropertyOp15
 70
     0
102
RTVSPropertyOp16
 70
     0
102
RTVSPropertyOp17
 70
     0
102
RTVSPropertyOp18
 70
     0
102
RTVSPropertyOp19
 70
     0
102
RTVSPropertyOp20
 70
     0
102
RTVSPropertyOp21
 70
     0
102
RTVSPropertyOp22
 70
     0
102
RTVSPropertyOp23
 70
     0
102
RTVSPropertyOp24
 70
     0
102
RTVSPropertyOp25
 70
     0
102
RTVSPropertyOp26
 70
     0
102
RTVSPropertyOp27
 70
     0
102
RTVSPropertyOp28
 70
     0
102
RTVSPropertyOp29
 70
     0
102
RTVSPropertyOp30
 70
     0
102
RTVSPropertyOp31
 70
     0
102
RTVSPropertyOp32
 70
     0
  0
XRECORD
  5
655
102
{ACAD_REACTORS
330
654
102
}
330
654
100
AcDbXrecord
280
     1
102
RTVSPropertyOp0
 70
     1
102
RTVSPropertyOp1
 70
     1
102
RTVSPropertyOp2
 70
     1
102
RTVSPropertyOp3
 70
     1
102
RTVSPropertyOp4
 70
     1
102
RTVSPropertyOp5
 70
     1
102
RTVSPropertyOp6
 70
     1
102
RTVSPropertyOp7
 70
     1
102
RTVSPropertyOp8
 70
     1
102
RTVSPropertyOp9
 70
     1
102
RTVSPropertyOp10
 70
     1
102
RTVSPropertyOp11
 70
     1
102
RTVSPropertyOp12
 70
     1
102
RTVSPropertyOp13
 70
     1
102
RTVSPropertyOp14
 70
     1
102
RTVSPropertyOp15
 70
     1
102
RTVSPropertyOp16
 70
     1
102
RTVSPropertyOp17
 70
     1
102
RTVSPropertyOp18
 70
     1
102
RTVSPropertyOp19
 70
     1
102
RTVSPropertyOp20
 70
     1
102
RTVSPropertyOp21
 70
     1
102
RTVSPropertyOp22
 70
     1
102
RTVSPropertyOp23
 70
     1
102
RTVSPropertyOp24
 70
     1
102
RTVSPropertyOp25
 70
     1
102
RTVSPropertyOp26
 70
     1
102
RTVSPropertyOp27
 70
     1
102
RTVSPropertyOp28
 70
     1
102
RTVSPropertyOp29
 70
     1
102
RTVSPropertyOp30
 70
     1
102
RTVSPropertyOp31
 70
     1
102
RTVSPropertyOp32
 70
     1
  0
XRECORD
  5
639
102
{ACAD_REACTORS
330
638
102
}
330
638
100
AcDbXrecord
280
     1
102
RTVSPropertyOp0
 70
     1
102
RTVSPropertyOp1
 70
     1
102
RTVSPropertyOp2
 70
     1
102
RTVSPropertyOp3
 70
     1
102
RTVSPropertyOp4
 70
     1
102
RTVSPropertyOp5
 70
     1
102
RTVSPropertyOp6
 70
     1
102
RTVSPropertyOp7
 70
     1
102
RTVSPropertyOp8
 70
     1
102
RTVSPropertyOp9
 70
     1
102
RTVSPropertyOp10
 70
     1
102
RTVSPropertyOp11
 70
     1
102
RTVSPropertyOp12
 70
     1
102
RTVSPropertyOp13
 70
     1
102
RTVSPropertyOp14
 70
     1
102
RTVSPropertyOp15
 70
     1
102
RTVSPropertyOp16
 70
     1
102
RTVSPropertyOp17
 70
     1
102
RTVSPropertyOp18
 70
     1
102
RTVSPropertyOp19
 70
     1
102
RTVSPropertyOp20
 70
     1
102
RTVSPropertyOp21
 70
     1
102
RTVSPropertyOp22
 70
     1
102
RTVSPropertyOp23
 70
     1
102
RTVSPropertyOp24
 70
     1
102
RTVSPropertyOp25
 70
     1
102
RTVSPropertyOp26
 70
     1
102
RTVSPropertyOp27
 70
     1
102
RTVSPropertyOp28
 70
     1
102
RTVSPropertyOp29
 70
     1
102
RTVSPropertyOp30
 70
     1
102
RTVSPropertyOp31
 70
     1
102
RTVSPropertyOp32
 70
     1
  0
XRECORD
  5
63B
102
{ACAD_REACTORS
330
63A
102
}
330
63A
100
AcDbXrecord
280
     1
102
RTVSPropertyOp0
 70
     1
102
RTVSPropertyOp1
 70
     1
102
RTVSPropertyOp2
 70
     1
102
RTVSPropertyOp3
 70
     1
102
RTVSPropertyOp4
 70
     1
102
RTVSPropertyOp5
 70
     1
102
RTVSPropertyOp6
 70
     1
102
RTVSPropertyOp7
 70
     1
102
RTVSPropertyOp8
 70
     1
102
RTVSPropertyOp9
 70
     1
102
RTVSPropertyOp10
 70
     1
102
RTVSPropertyOp11
 70
     1
102
RTVSPropertyOp12
 70
     1
102
RTVSPropertyOp13
 70
     1
102
RTVSPropertyOp14
 70
     1
102
RTVSPropertyOp15
 70
     1
102
RTVSPropertyOp16
 70
     1
102
RTVSPropertyOp17
 70
     1
102
RTVSPropertyOp18
 70
     1
102
RTVSPropertyOp19
 70
     1
102
RTVSPropertyOp20
 70
     1
102
RTVSPropertyOp21
 70
     1
102
RTVSPropertyOp22
 70
     1
102
RTVSPropertyOp23
 70
     1
102
RTVSPropertyOp24
 70
     1
102
RTVSPropertyOp25
 70
     1
102
RTVSPropertyOp26
 70
     1
102
RTVSPropertyOp27
 70
     1
102
RTVSPropertyOp28
 70
     1
102
RTVSPropertyOp29
 70
     1
102
RTVSPropertyOp30
 70
     1
102
RTVSPropertyOp31
 70
     1
102
RTVSPropertyOp32
 70
     1
  0
XRECORD
  5
63D
102
{ACAD_REACTORS
330
63C
102
}
330
63C
100
AcDbXrecord
280
     1
102
RTVSPropertyOp0
 70
     1
102
RTVSPropertyOp1
 70
     1
102
RTVSPropertyOp2
 70
     1
102
RTVSPropertyOp3
 70
     1
102
RTVSPropertyOp4
 70
     1
102
RTVSPropertyOp5
 70
     1
102
RTVSPropertyOp6
 70
     1
102
RTVSPropertyOp7
 70
     1
102
RTVSPropertyOp8
 70
     1
102
RTVSPropertyOp9
 70
     1
102
RTVSPropertyOp10
 70
     1
102
RTVSPropertyOp11
 70
     1
102
RTVSPropertyOp12
 70
     1
102
RTVSPropertyOp13
 70
     1
102
RTVSPropertyOp14
 70
     1
102
RTVSPropertyOp15
 70
     1
102
RTVSPropertyOp16
 70
     1
102
RTVSPropertyOp17
 70
     1
102
RTVSPropertyOp18
 70
     1
102
RTVSPropertyOp19
 70
     1
102
RTVSPropertyOp20
 70
     1
102
RTVSPropertyOp21
 70
     1
102
RTVSPropertyOp22
 70
     1
102
RTVSPropertyOp23
 70
     1
102
RTVSPropertyOp24
 70
     1
102
RTVSPropertyOp25
 70
     1
102
RTVSPropertyOp26
 70
     1
102
RTVSPropertyOp27
 70
     1
102
RTVSPropertyOp28
 70
     1
102
RTVSPropertyOp29
 70
     1
102
RTVSPropertyOp30
 70
     1
102
RTVSPropertyOp31
 70
     1
102
RTVSPropertyOp32
 70
     1
  0
XRECORD
  5
63F
102
{ACAD_REACTORS
330
63E
102
}
330
63E
100
AcDbXrecord
280
     1
102
RTVSPropertyOp0
 70
     1
102
RTVSPropertyOp1
 70
     1
102
RTVSPropertyOp2
 70
     1
102
RTVSPropertyOp3
 70
     1
102
RTVSPropertyOp4
 70
     1
102
RTVSPropertyOp5
 70
     1
102
RTVSPropertyOp6
 70
     1
102
RTVSPropertyOp7
 70
     1
102
RTVSPropertyOp8
 70
     1
102
RTVSPropertyOp9
 70
     1
102
RTVSPropertyOp10
 70
     1
102
RTVSPropertyOp11
 70
     1
102
RTVSPropertyOp12
 70
     1
102
RTVSPropertyOp13
 70
     1
102
RTVSPropertyOp14
 70
     1
102
RTVSPropertyOp15
 70
     1
102
RTVSPropertyOp16
 70
     1
102
RTVSPropertyOp17
 70
     1
102
RTVSPropertyOp18
 70
     1
102
RTVSPropertyOp19
 70
     1
102
RTVSPropertyOp20
 70
     1
102
RTVSPropertyOp21
 70
     1
102
RTVSPropertyOp22
 70
     1
102
RTVSPropertyOp23
 70
     1
102
RTVSPropertyOp24
 70
     1
102
RTVSPropertyOp25
 70
     1
102
RTVSPropertyOp26
 70
     1
102
RTVSPropertyOp27
 70
     1
102
RTVSPropertyOp28
 70
     1
102
RTVSPropertyOp29
 70
     1
102
RTVSPropertyOp30
 70
     1
102
RTVSPropertyOp31
 70
     1
102
RTVSPropertyOp32
 70
     1
  0
XRECORD
  5
647
102
{ACAD_REACTORS
330
646
102
}
330
646
100
AcDbXrecord
280
     1
102
RTVSPropertyOp0
 70
     1
102
RTVSPropertyOp1
 70
     1
102
RTVSPropertyOp2
 70
     1
102
RTVSPropertyOp3
 70
     1
102
RTVSPropertyOp4
 70
     1
102
RTVSPropertyOp5
 70
     1
102
RTVSPropertyOp6
 70
     1
102
RTVSPropertyOp7
 70
     1
102
RTVSPropertyOp8
 70
     1
102
RTVSPropertyOp9
 70
     1
102
RTVSPropertyOp10
 70
     1
102
RTVSPropertyOp11
 70
     1
102
RTVSPropertyOp12
 70
     1
102
RTVSPropertyOp13
 70
     1
102
RTVSPropertyOp14
 70
     1
102
RTVSPropertyOp15
 70
     1
102
RTVSPropertyOp16
 70
     1
102
RTVSPropertyOp17
 70
     1
102
RTVSPropertyOp18
 70
     1
102
RTVSPropertyOp19
 70
     1
102
RTVSPropertyOp20
 70
     1
102
RTVSPropertyOp21
 70
     1
102
RTVSPropertyOp22
 70
     1
102
RTVSPropertyOp23
 70
     1
102
RTVSPropertyOp24
 70
     1
102
RTVSPropertyOp25
 70
     1
102
RTVSPropertyOp26
 70
     1
102
RTVSPropertyOp27
 70
     1
102
RTVSPropertyOp28
 70
     1
102
RTVSPropertyOp29
 70
     1
102
RTVSPropertyOp30
 70
     1
102
RTVSPropertyOp31
 70
     1
102
RTVSPropertyOp32
 70
     1
  0
XRECORD
  5
663
102
{ACAD_REACTORS
330
662
102
}
330
662
100
AcDbXrecord
280
     1
102
RTVSPropertyOp0
 70
     0
102
RTVSPropertyOp1
 70
     0
102
RTVSPropertyOp2
 70
     0
102
RTVSPropertyOp3
 70
     0
102
RTVSPropertyOp4
 70
     0
102
RTVSPropertyOp5
 70
     0
102
RTVSPropertyOp6
 70
     0
102
RTVSPropertyOp7
 70
     0
102
RTVSPropertyOp8
 70
     0
102
RTVSPropertyOp9
 70
     0
102
RTVSPropertyOp10
 70
     0
102
RTVSPropertyOp11
 70
     0
102
RTVSPropertyOp12
 70
     0
102
RTVSPropertyOp13
 70
     0
102
RTVSPropertyOp14
 70
     2
102
RTVSPropertyOp15
 70
     0
102
RTVSPropertyOp16
 70
     0
102
RTVSPropertyOp17
 70
     0
102
RTVSPropertyOp18
 70
     0
102
RTVSPropertyOp19
 70
     0
102
RTVSPropertyOp20
 70
     0
102
RTVSPropertyOp21
 70
     0
102
RTVSPropertyOp22
 70
     0
102
RTVSPropertyOp23
 70
     0
102
RTVSPropertyOp24
 70
     0
102
RTVSPropertyOp25
 70
     0
102
RTVSPropertyOp26
 70
     0
102
RTVSPropertyOp27
 70
     0
102
RTVSPropertyOp28
 70
     0
102
RTVSPropertyOp29
 70
     0
102
RTVSPropertyOp30
 70
     0
102
RTVSPropertyOp31
 70
     0
102
RTVSPropertyOp32
 70
     0
  0
XRECORD
  5
653
102
{ACAD_REACTORS
330
652
102
}
330
652
100
AcDbXrecord
280
     1
102
RTVSPropertyOp0
 70
     1
102
RTVSPropertyOp1
 70
     1
102
RTVSPropertyOp2
 70
     1
102
RTVSPropertyOp3
 70
     1
102
RTVSPropertyOp4
 70
     1
102
RTVSPropertyOp5
 70
     1
102
RTVSPropertyOp6
 70
     1
102
RTVSPropertyOp7
 70
     1
102
RTVSPropertyOp8
 70
     1
102
RTVSPropertyOp9
 70
     1
102
RTVSPropertyOp10
 70
     1
102
RTVSPropertyOp11
 70
     1
102
RTVSPropertyOp12
 70
     1
102
RTVSPropertyOp13
 70
     1
102
RTVSPropertyOp14
 70
     1
102
RTVSPropertyOp15
 70
     1
102
RTVSPropertyOp16
 70
     1
102
RTVSPropertyOp17
 70
     1
102
RTVSPropertyOp18
 70
     1
102
RTVSPropertyOp19
 70
     1
102
RTVSPropertyOp20
 70
     1
102
RTVSPropertyOp21
 70
     1
102
RTVSPropertyOp22
 70
     1
102
RTVSPropertyOp23
 70
     1
102
RTVSPropertyOp24
 70
     1
102
RTVSPropertyOp25
 70
     1
102
RTVSPropertyOp26
 70
     1
102
RTVSPropertyOp27
 70
     1
102
RTVSPropertyOp28
 70
     1
102
RTVSPropertyOp29
 70
     1
102
RTVSPropertyOp30
 70
     1
102
RTVSPropertyOp31
 70
     1
102
RTVSPropertyOp32
 70
     1
  0
XRECORD
  5
665
102
{ACAD_REACTORS
330
664
102
}
330
664
100
AcDbXrecord
280
     1
102
RTVSPropertyOp0
 70
     0
102
RTVSPropertyOp1
 70
     0
102
RTVSPropertyOp2
 70
     0
102
RTVSPropertyOp3
 70
     0
102
RTVSPropertyOp4
 70
     0
102
RTVSPropertyOp5
 70
     0
102
RTVSPropertyOp6
 70
     0
102
RTVSPropertyOp7
 70
     0
102
RTVSPropertyOp8
 70
     0
102
RTVSPropertyOp9
 70
     0
102
RTVSPropertyOp10
 70
     0
102
RTVSPropertyOp11
 70
     0
102
RTVSPropertyOp12
 70
     0
102
RTVSPropertyOp13
 70
     0
102
RTVSPropertyOp14
 70
     2
102
RTVSPropertyOp15
 70
     0
102
RTVSPropertyOp16
 70
     0
102
RTVSPropertyOp17
 70
     0
102
RTVSPropertyOp18
 70
     0
102
RTVSPropertyOp19
 70
     0
102
RTVSPropertyOp20
 70
     0
102
RTVSPropertyOp21
 70
     0
102
RTVSPropertyOp22
 70
     0
102
RTVSPropertyOp23
 70
     0
102
RTVSPropertyOp24
 70
     0
102
RTVSPropertyOp25
 70
     0
102
RTVSPropertyOp26
 70
     0
102
RTVSPropertyOp27
 70
     0
102
RTVSPropertyOp28
 70
     0
102
RTVSPropertyOp29
 70
     0
102
RTVSPropertyOp30
 70
     0
102
RTVSPropertyOp31
 70
     0
102
RTVSPropertyOp32
 70
     0
  0
XRECORD
  5
64B
102
{ACAD_REACTORS
330
64A
102
}
330
64A
100
AcDbXrecord
280
     1
102
RTVSPropertyOp0
 70
     1
102
RTVSPropertyOp1
 70
     1
102
RTVSPropertyOp2
 70
     1
102
RTVSPropertyOp3
 70
     1
102
RTVSPropertyOp4
 70
     1
102
RTVSPropertyOp5
 70
     1
102
RTVSPropertyOp6
 70
     1
102
RTVSPropertyOp7
 70
     1
102
RTVSPropertyOp8
 70
     1
102
RTVSPropertyOp9
 70
     1
102
RTVSPropertyOp10
 70
     1
102
RTVSPropertyOp11
 70
     1
102
RTVSPropertyOp12
 70
     1
102
RTVSPropertyOp13
 70
     1
102
RTVSPropertyOp14
 70
     1
102
RTVSPropertyOp15
 70
     1
102
RTVSPropertyOp16
 70
     1
102
RTVSPropertyOp17
 70
     1
102
RTVSPropertyOp18
 70
     1
102
RTVSPropertyOp19
 70
     1
102
RTVSPropertyOp20
 70
     1
102
RTVSPropertyOp21
 70
     1
102
RTVSPropertyOp22
 70
     1
102
RTVSPropertyOp23
 70
     1
102
RTVSPropertyOp24
 70
     1
102
RTVSPropertyOp25
 70
     1
102
RTVSPropertyOp26
 70
     1
102
RTVSPropertyOp27
 70
     1
102
RTVSPropertyOp28
 70
     1
102
RTVSPropertyOp29
 70
     1
102
RTVSPropertyOp30
 70
     1
102
RTVSPropertyOp31
 70
     1
102
RTVSPropertyOp32
 70
     1
  0
XRECORD
  5
661
102
{ACAD_REACTORS
330
660
102
}
330
660
100
AcDbXrecord
280
     1
102
RTVSPropertyOp0
 70
     1
102
RTVSPropertyOp1
 70
     1
102
RTVSPropertyOp2
 70
     1
102
RTVSPropertyOp3
 70
     1
102
RTVSPropertyOp4
 70
     1
102
RTVSPropertyOp5
 70
     1
102
RTVSPropertyOp6
 70
     1
102
RTVSPropertyOp7
 70
     1
102
RTVSPropertyOp8
 70
     1
102
RTVSPropertyOp9
 70
     1
102
RTVSPropertyOp10
 70
     1
102
RTVSPropertyOp11
 70
     1
102
RTVSPropertyOp12
 70
     1
102
RTVSPropertyOp13
 70
     1
102
RTVSPropertyOp14
 70
     1
102
RTVSPropertyOp15
 70
     1
102
RTVSPropertyOp16
 70
     1
102
RTVSPropertyOp17
 70
     1
102
RTVSPropertyOp18
 70
     1
102
RTVSPropertyOp19
 70
     1
102
RTVSPropertyOp20
 70
     1
102
RTVSPropertyOp21
 70
     1
102
RTVSPropertyOp22
 70
     1
102
RTVSPropertyOp23
 70
     1
102
RTVSPropertyOp24
 70
     1
102
RTVSPropertyOp25
 70
     1
102
RTVSPropertyOp26
 70
     1
102
RTVSPropertyOp27
 70
     1
102
RTVSPropertyOp28
 70
     1
102
RTVSPropertyOp29
 70
     1
102
RTVSPropertyOp30
 70
     1
102
RTVSPropertyOp31
 70
     1
102
RTVSPropertyOp32
 70
     1
  0
XRECORD
  5
65F
102
{ACAD_REACTORS
330
65E
102
}
330
65E
100
AcDbXrecord
280
     1
102
RTVSPropertyOp0
 70
     1
102
RTVSPropertyOp1
 70
     1
102
RTVSPropertyOp2
 70
     1
102
RTVSPropertyOp3
 70
     1
102
RTVSPropertyOp4
 70
     1
102
RTVSPropertyOp5
 70
     1
102
RTVSPropertyOp6
 70
     1
102
RTVSPropertyOp7
 70
     1
102
RTVSPropertyOp8
 70
     1
102
RTVSPropertyOp9
 70
     1
102
RTVSPropertyOp10
 70
     1
102
RTVSPropertyOp11
 70
     1
102
RTVSPropertyOp12
 70
     1
102
RTVSPropertyOp13
 70
     1
102
RTVSPropertyOp14
 70
     1
102
RTVSPropertyOp15
 70
     1
102
RTVSPropertyOp16
 70
     1
102
RTVSPropertyOp17
 70
     1
102
RTVSPropertyOp18
 70
     1
102
RTVSPropertyOp19
 70
     1
102
RTVSPropertyOp20
 70
     1
102
RTVSPropertyOp21
 70
     1
102
RTVSPropertyOp22
 70
     1
102
RTVSPropertyOp23
 70
     1
102
RTVSPropertyOp24
 70
     1
102
RTVSPropertyOp25
 70
     1
102
RTVSPropertyOp26
 70
     1
102
RTVSPropertyOp27
 70
     1
102
RTVSPropertyOp28
 70
     1
102
RTVSPropertyOp29
 70
     1
102
RTVSPropertyOp30
 70
     1
102
RTVSPropertyOp31
 70
     1
102
RTVSPropertyOp32
 70
     1
  0
XRECORD
  5
659
102
{ACAD_REACTORS
330
658
102
}
330
658
100
AcDbXrecord
280
     1
102
RTVSPropertyOp0
 70
     1
102
RTVSPropertyOp1
 70
     1
102
RTVSPropertyOp2
 70
     1
102
RTVSPropertyOp3
 70
     1
102
RTVSPropertyOp4
 70
     1
102
RTVSPropertyOp5
 70
     1
102
RTVSPropertyOp6
 70
     1
102
RTVSPropertyOp7
 70
     1
102
RTVSPropertyOp8
 70
     1
102
RTVSPropertyOp9
 70
     1
102
RTVSPropertyOp10
 70
     1
102
RTVSPropertyOp11
 70
     1
102
RTVSPropertyOp12
 70
     1
102
RTVSPropertyOp13
 70
     1
102
RTVSPropertyOp14
 70
     1
102
RTVSPropertyOp15
 70
     1
102
RTVSPropertyOp16
 70
     1
102
RTVSPropertyOp17
 70
     1
102
RTVSPropertyOp18
 70
     1
102
RTVSPropertyOp19
 70
     1
102
RTVSPropertyOp20
 70
     1
102
RTVSPropertyOp21
 70
     1
102
RTVSPropertyOp22
 70
     1
102
RTVSPropertyOp23
 70
     1
102
RTVSPropertyOp24
 70
     1
102
RTVSPropertyOp25
 70
     1
102
RTVSPropertyOp26
 70
     1
102
RTVSPropertyOp27
 70
     1
102
RTVSPropertyOp28
 70
     1
102
RTVSPropertyOp29
 70
     1
102
RTVSPropertyOp30
 70
     1
102
RTVSPropertyOp31
 70
     1
102
RTVSPropertyOp32
 70
     1
  0
XRECORD
  5
65B
102
{ACAD_REACTORS
330
65A
102
}
330
65A
100
AcDbXrecord
280
     1
102
RTVSPropertyOp0
 70
     1
102
RTVSPropertyOp1
 70
     1
102
RTVSPropertyOp2
 70
     1
102
RTVSPropertyOp3
 70
     1
102
RTVSPropertyOp4
 70
     1
102
RTVSPropertyOp5
 70
     1
102
RTVSPropertyOp6
 70
     1
102
RTVSPropertyOp7
 70
     1
102
RTVSPropertyOp8
 70
     1
102
RTVSPropertyOp9
 70
     1
102
RTVSPropertyOp10
 70
     1
102
RTVSPropertyOp11
 70
     1
102
RTVSPropertyOp12
 70
     1
102
RTVSPropertyOp13
 70
     1
102
RTVSPropertyOp14
 70
     1
102
RTVSPropertyOp15
 70
     1
102
RTVSPropertyOp16
 70
     1
102
RTVSPropertyOp17
 70
     1
102
RTVSPropertyOp18
 70
     1
102
RTVSPropertyOp19
 70
     1
102
RTVSPropertyOp20
 70
     1
102
RTVSPropertyOp21
 70
     1
102
RTVSPropertyOp22
 70
     1
102
RTVSPropertyOp23
 70
     1
102
RTVSPropertyOp24
 70
     1
102
RTVSPropertyOp25
 70
     1
102
RTVSPropertyOp26
 70
     1
102
RTVSPropertyOp27
 70
     1
102
RTVSPropertyOp28
 70
     1
102
RTVSPropertyOp29
 70
     1
102
RTVSPropertyOp30
 70
     1
102
RTVSPropertyOp31
 70
     1
102
RTVSPropertyOp32
 70
     1
  0
XRECORD
  5
651
102
{ACAD_REACTORS
330
650
102
}
330
650
100
AcDbXrecord
280
     1
102
RTVSPropertyOp0
 70
     1
102
RTVSPropertyOp1
 70
     1
102
RTVSPropertyOp2
 70
     1
102
RTVSPropertyOp3
 70
     1
102
RTVSPropertyOp4
 70
     1
102
RTVSPropertyOp5
 70
     1
102
RTVSPropertyOp6
 70
     1
102
RTVSPropertyOp7
 70
     1
102
RTVSPropertyOp8
 70
     1
102
RTVSPropertyOp9
 70
     1
102
RTVSPropertyOp10
 70
     1
102
RTVSPropertyOp11
 70
     1
102
RTVSPropertyOp12
 70
     1
102
RTVSPropertyOp13
 70
     1
102
RTVSPropertyOp14
 70
     1
102
RTVSPropertyOp15
 70
     1
102
RTVSPropertyOp16
 70
     1
102
RTVSPropertyOp17
 70
     1
102
RTVSPropertyOp18
 70
     1
102
RTVSPropertyOp19
 70
     1
102
RTVSPropertyOp20
 70
     1
102
RTVSPropertyOp21
 70
     1
102
RTVSPropertyOp22
 70
     1
102
RTVSPropertyOp23
 70
     1
102
RTVSPropertyOp24
 70
     1
102
RTVSPropertyOp25
 70
     1
102
RTVSPropertyOp26
 70
     1
102
RTVSPropertyOp27
 70
     1
102
RTVSPropertyOp28
 70
     1
102
RTVSPropertyOp29
 70
     1
102
RTVSPropertyOp30
 70
     1
102
RTVSPropertyOp31
 70
     1
102
RTVSPropertyOp32
 70
     1
  0
XRECORD
  5
645
102
{ACAD_REACTORS
330
644
102
}
330
644
100
AcDbXrecord
280
     1
102
RTVSPropertyOp0
 70
     1
102
RTVSPropertyOp1
 70
     1
102
RTVSPropertyOp2
 70
     1
102
RTVSPropertyOp3
 70
     1
102
RTVSPropertyOp4
 70
     1
102
RTVSPropertyOp5
 70
     1
102
RTVSPropertyOp6
 70
     1
102
RTVSPropertyOp7
 70
     1
102
RTVSPropertyOp8
 70
     1
102
RTVSPropertyOp9
 70
     1
102
RTVSPropertyOp10
 70
     1
102
RTVSPropertyOp11
 70
     1
102
RTVSPropertyOp12
 70
     1
102
RTVSPropertyOp13
 70
     1
102
RTVSPropertyOp14
 70
     1
102
RTVSPropertyOp15
 70
     1
102
RTVSPropertyOp16
 70
     1
102
RTVSPropertyOp17
 70
     1
102
RTVSPropertyOp18
 70
     1
102
RTVSPropertyOp19
 70
     1
102
RTVSPropertyOp20
 70
     1
102
RTVSPropertyOp21
 70
     1
102
RTVSPropertyOp22
 70
     1
102
RTVSPropertyOp23
 70
     1
102
RTVSPropertyOp24
 70
     1
102
RTVSPropertyOp25
 70
     1
102
RTVSPropertyOp26
 70
     1
102
RTVSPropertyOp27
 70
     1
102
RTVSPropertyOp28
 70
     1
102
RTVSPropertyOp29
 70
     1
102
RTVSPropertyOp30
 70
     1
102
RTVSPropertyOp31
 70
     1
102
RTVSPropertyOp32
 70
     1
  0
XRECORD
  5
65D
102
{ACAD_REACTORS
330
65C
102
}
330
65C
100
AcDbXrecord
280
     1
102
RTVSPropertyOp0
 70
     1
102
RTVSPropertyOp1
 70
     1
102
RTVSPropertyOp2
 70
     1
102
RTVSPropertyOp3
 70
     1
102
RTVSPropertyOp4
 70
     1
102
RTVSPropertyOp5
 70
     1
102
RTVSPropertyOp6
 70
     1
102
RTVSPropertyOp7
 70
     1
102
RTVSPropertyOp8
 70
     1
102
RTVSPropertyOp9
 70
     1
102
RTVSPropertyOp10
 70
     1
102
RTVSPropertyOp11
 70
     1
102
RTVSPropertyOp12
 70
     1
102
RTVSPropertyOp13
 70
     1
102
RTVSPropertyOp14
 70
     1
102
RTVSPropertyOp15
 70
     1
102
RTVSPropertyOp16
 70
     1
102
RTVSPropertyOp17
 70
     1
102
RTVSPropertyOp18
 70
     1
102
RTVSPropertyOp19
 70
     1
102
RTVSPropertyOp20
 70
     1
102
RTVSPropertyOp21
 70
     1
102
RTVSPropertyOp22
 70
     1
102
RTVSPropertyOp23
 70
     1
102
RTVSPropertyOp24
 70
     1
102
RTVSPropertyOp25
 70
     1
102
RTVSPropertyOp26
 70
     1
102
RTVSPropertyOp27
 70
     1
102
RTVSPropertyOp28
 70
     1
102
RTVSPropertyOp29
 70
     1
102
RTVSPropertyOp30
 70
     1
102
RTVSPropertyOp31
 70
     1
102
RTVSPropertyOp32
 70
     1
  0
ENDSEC
  0
EOF
