  0
SECTION
  2
HEADER
  9
$ACADVER
  1
AC1015
  9
$ACADMAINTVER
 70
    20
  9
$DWGCODEPAGE
  3
ANSI_932
  9
$INSBASE
 10
0.0
 20
0.0
 30
0.0
  9
$EXTMIN
 10
-966.7787369699727
 20
-426.3465905146531
 30
0.0
  9
$EXTMAX
 10
-588.9588733956205
 20
-156.3465905146531
 30
0.0
  9
$LIMMIN
 10
0.0
 20
0.0
  9
$LIMMAX
 10
0.0
 20
0.0
  9
$ORTHOMODE
 70
     0
  9
$REGENMODE
 70
     1
  9
$FILLMODE
 70
     1
  9
$QTEXTMODE
 70
     0
  9
$MIRRTEXT
 70
     1
  9
$LTSCALE
 40
1.0
  9
$ATTMODE
 70
     1
  9
$TEXTSIZE
 40
0.0
  9
$TRACEWID
 40
0.05
  9
$TEXTSTYLE
  7
STANDARD
  9
$CLAYER
  8
0
  9
$CELTYPE
  6
CONTINUOUS
  9
$CECOLOR
 62
   256
  9
$CELTSCALE
 40
1.0
  9
$DISPSILH
 70
     0
  9
$DIMSCALE
 40
1.0
  9
$DIMASZ
 40
0.18
  9
$DIMEXO
 40
0.0625
  9
$DIMDLI
 40
0.38
  9
$DIMRND
 40
0.0
  9
$DIMDLE
 40
0.0
  9
$DIMEXE
 40
0.18
  9
$DIMTP
 40
0.0
  9
$DIMTM
 40
0.0
  9
$DIMTXT
 40
0.18
  9
$DIMCEN
 40
0.09
  9
$DIMTSZ
 40
0.0
  9
$DIMTOL
 70
     0
  9
$DIMLIM
 70
     0
  9
$DIMTIH
 70
     1
  9
$DIMTOH
 70
     1
  9
$DIMSE1
 70
     0
  9
$DIMSE2
 70
     0
  9
$DIMTAD
 70
     0
  9
$DIMZIN
 70
     0
  9
$DIMBLK
  1

  9
$DIMASO
 70
     1
  9
$DIMSHO
 70
     1
  9
$DIMPOST
  1

  9
$DIMAPOST
  1

  9
$DIMALT
 70
     0
  9
$DIMALTD
 70
     2
  9
$DIMALTF
 40
25.4
  9
$DIMLFAC
 40
1.0
  9
$DIMTOFL
 70
     0
  9
$DIMTVP
 40
0.0
  9
$DIMTIX
 70
     0
  9
$DIMSOXD
 70
     0
  9
$DIMSAH
 70
     0
  9
$DIMBLK1
  1

  9
$DIMBLK2
  1

  9
$DIMSTYLE
  2
STANDARD
  9
$DIMCLRD
 70
     0
  9
$DIMCLRE
 70
     0
  9
$DIMCLRT
 70
     0
  9
$DIMTFAC
 40
1.0
  9
$DIMGAP
 40
0.09
  9
$DIMJUST
 70
     0
  9
$DIMSD1
 70
     0
  9
$DIMSD2
 70
     0
  9
$DIMTOLJ
 70
     1
  9
$DIMTZIN
 70
     0
  9
$DIMALTZ
 70
     0
  9
$DIMALTTZ
 70
     0
  9
$DIMUPT
 70
     0
  9
$DIMDEC
 70
     4
  9
$DIMTDEC
 70
     4
  9
$DIMALTU
 70
     2
  9
$DIMALTTD
 70
     2
  9
$DIMTXSTY
  7
STANDARD
  9
$DIMAUNIT
 70
     0
  9
$DIMADEC
 70
     0
  9
$DIMALTRND
 40
0.0
  9
$DIMAZIN
 70
     0
  9
$DIMDSEP
 70
    46
  9
$DIMATFIT
 70
     3
  9
$DIMFRAC
 70
     0
  9
$DIMLDRBLK
  1

  9
$DIMLUNIT
 70
     2
  9
$DIMLWD
 70
    -2
  9
$DIMLWE
 70
    -2
  9
$DIMTMOVE
 70
     0
  9
$LUNITS
 70
     2
  9
$LUPREC
 70
     4
  9
$SKETCHINC
 40
0.1
  9
$FILLETRAD
 40
0.0
  9
$AUNITS
 70
     0
  9
$AUPREC
 70
     0
  9
$MENU
  1
acad
  9
$ELEVATION
 40
0.0
  9
$PELEVATION
 40
0.0
  9
$THICKNESS
 40
0.0
  9
$LIMCHECK
 70
     0
  9
$CHAMFERA
 40
0.0
  9
$CHAMFERB
 40
0.0
  9
$CHAMFERC
 40
0.0
  9
$CHAMFERD
 40
0.0
  9
$SKPOLY
 70
     0
  9
$TDCREATE
 40
12367012.42921506
  9
$TDUCREATE
 40
6.0000000000
  9
$TDUPDATE
 40
2457592.436186736
  9
$TDUUPDATE
 40
2457592.061186736
  9
$TDINDWG
 40
0.0023984144
  9
$TDUSRTIMER
 40
0.0023982407
  9
$USRTIMER
 70
     1
  9
$ANGBASE
 50
0.0
  9
$ANGDIR
 70
     0
  9
$PDMODE
 70
     0
  9
$PDSIZE
 40
0.0
  9
$PLINEWID
 40
0.0
  9
$SPLFRAME
 70
     0
  9
$SPLINETYPE
 70
     6
  9
$SPLINESEGS
 70
     8
  9
$HANDSEED
  5
6A2
  9
$SURFTAB1
 70
     6
  9
$SURFTAB2
 70
     6
  9
$SURFTYPE
 70
     6
  9
$SURFU
 70
     6
  9
$SURFV
 70
     6
  9
$UCSBASE
  2

  9
$UCSNAME
  2

  9
$UCSORG
 10
0.0
 20
0.0
 30
0.0
  9
$UCSXDIR
 10
1.0
 20
0.0
 30
0.0
  9
$UCSYDIR
 10
0.0
 20
1.0
 30
0.0
  9
$UCSORTHOREF
  2

  9
$UCSORTHOVIEW
 70
     0
  9
$UCSORGTOP
 10
0.0
 20
0.0
 30
0.0
  9
$UCSORGBOTTOM
 10
0.0
 20
0.0
 30
0.0
  9
$UCSORGLEFT
 10
0.0
 20
0.0
 30
0.0
  9
$UCSORGRIGHT
 10
0.0
 20
0.0
 30
0.0
  9
$UCSORGFRONT
 10
0.0
 20
0.0
 30
0.0
  9
$UCSORGBACK
 10
0.0
 20
0.0
 30
0.0
  9
$PUCSBASE
  2

  9
$PUCSNAME
  2

  9
$PUCSORG
 10
0.0
 20
0.0
 30
0.0
  9
$PUCSXDIR
 10
1.0
 20
0.0
 30
0.0
  9
$PUCSYDIR
 10
0.0
 20
1.0
 30
0.0
  9
$PUCSORTHOREF
  2

  9
$PUCSORTHOVIEW
 70
     0
  9
$PUCSORGTOP
 10
0.0
 20
0.0
 30
0.0
  9
$PUCSORGBOTTOM
 10
0.0
 20
0.0
 30
0.0
  9
$PUCSORGLEFT
 10
0.0
 20
0.0
 30
0.0
  9
$PUCSORGRIGHT
 10
0.0
 20
0.0
 30
0.0
  9
$PUCSORGFRONT
 10
0.0
 20
0.0
 30
0.0
  9
$PUCSORGBACK
 10
0.0
 20
0.0
 30
0.0
  9
$USERI1
 70
     0
  9
$USERI2
 70
     0
  9
$USERI3
 70
     0
  9
$USERI4
 70
     0
  9
$USERI5
 70
     0
  9
$USERR1
 40
12.01
  9
$USERR2
 40
0.0
  9
$USERR3
 40
0.0
  9
$USERR4
 40
0.0
  9
$USERR5
 40
0.0
  9
$WORLDVIEW
 70
     1
  9
$SHADEDGE
 70
     3
  9
$SHADEDIF
 70
    70
  9
$TILEMODE
 70
     1
  9
$MAXACTVP
 70
    16
  9
$PINSBASE
 10
0.0
 20
0.0
 30
0.0
  9
$PLIMCHECK
 70
     0
  9
$PEXTMIN
 10
1.000000000000000E+20
 20
1.000000000000000E+20
 30
1.000000000000000E+20
  9
$PEXTMAX
 10
-1.000000000000000E+20
 20
-1.000000000000000E+20
 30
-1.000000000000000E+20
  9
$PLIMMIN
 10
0.0
 20
0.0
  9
$PLIMMAX
 10
12.0
 20
9.0
  9
$UNITMODE
 70
     0
  9
$VISRETAIN
 70
     0
  9
$PLINEGEN
 70
     1
  9
$PSLTSCALE
 70
     0
  9
$TREEDEPTH
 70
  3020
  9
$CMLSTYLE
  2
STANDARD
  9
$CMLJUST
 70
     0
  9
$CMLSCALE
 40
1.0
  9
$PROXYGRAPHICS
 70
     0
  9
$MEASUREMENT
 70
     1
  9
$CELWEIGHT
370
    -1
  9
$ENDCAPS
280
     0
  9
$JOINSTYLE
280
     0
  9
$LWDISPLAY
290
     0
  9
$INSUNITS
 70
     0
  9
$HYPERLINKBASE
  1

  9
$STYLESHEET
  1

  9
$XEDIT
290
     1
  9
$CEPSNTYPE
380
     0
  9
$PSTYLEMODE
290
     1
  9
$FINGERPRINTGUID
  2
{5B205E80-B172-478A-91A5-746E82053A20}
  9
$VERSIONGUID
  2
{3D541E1B-A659-4D68-A5AF-8C150856213B}
  9
$EXTNAMES
290
     1
  9
$PSVPSCALE
 40
0.0
  9
$OLESTARTUP
290
     0
  0
ENDSEC
  0
SECTION
  2
CLASSES
  0
CLASS
  1
IMAGE
  2
AcDbRasterImage
  3
ISM
 90
    34943
280
     0
281
     1
  0
CLASS
  1
DICTIONARYVAR
  2
AcDbDictionaryVar
  3
ObjectDBX Classes
 90
        0
280
     0
281
     0
  0
CLASS
  1
RASTERVARIABLES
  2
AcDbRasterVariables
  3
ISM
 90
    32768
280
     0
281
     0
  0
CLASS
  1
IMAGEDEF
  2
AcDbRasterImageDef
  3
ISM
 90
    32768
280
     0
281
     0
  0
CLASS
  1
IMAGEDEF_REACTOR
  2
AcDbRasterImageDefReactor
  3
ISM
 90
    32769
280
     0
281
     0
  0
CLASS
  1
IDBUFFER
  2
AcDbIdBuffer
  3
ObjectDBX Classes
 90
    32768
280
     0
281
     0
  0
CLASS
  1
SPATIAL_FILTER
  2
AcDbSpatialFilter
  3
ObjectDBX Classes
 90
    32768
280
     0
281
     0
  0
CLASS
  1
SORTENTSTABLE
  2
AcDbSortentsTable
  3
ObjectDBX Classes
 90
        0
280
     0
281
     0
  0
CLASS
  1
LAYER_INDEX
  2
AcDbLayerIndex
  3
ObjectDBX Classes
 90
    32768
280
     0
281
     0
  0
CLASS
  1
SPATIAL_INDEX
  2
AcDbSpatialIndex
  3
ObjectDBX Classes
 90
    32768
280
     0
281
     0
  0
CLASS
  1
OBJECT_PTR
  2
CAseDLPNTableRecord
  3
ASE-LPNTableRecord
 90
    32769
280
     0
281
     0
  0
CLASS
  1
LAYOUT
  2
AcDbLayout
  3
ObjectDBX Classes
 90
        0
280
     0
281
     0
  0
CLASS
  1
PLOTSETTINGS
  2
AcDbPlotSettings
  3
ObjectDBX Classes
 90
    32768
280
     0
281
     0
  0
CLASS
  1
ACDBDICTIONARYWDFLT
  2
AcDbDictionaryWithDefault
  3
ObjectDBX Classes
 90
        0
280
     0
281
     0
  0
CLASS
  1
ACDBPLACEHOLDER
  2
AcDbPlaceHolder
  3
ObjectDBX Classes
 90
        0
280
     0
281
     0
  0
CLASS
  1
MATERIAL
  2
AcDbMaterial
  3
ObjectDBX Classes
 90
     1153
280
     0
281
     0
  0
CLASS
  1
VISUALSTYLE
  2
AcDbVisualStyle
  3
ObjectDBX Classes
 90
     4095
280
     0
281
     0
  0
CLASS
  1
TABLESTYLE
  2
AcDbTableStyle
  3
ObjectDBX Classes
 90
     4095
280
     0
281
     0
  0
CLASS
  1
SCALE
  2
AcDbScale
  3
ObjectDBX Classes
 90
     1153
280
     0
281
     0
  0
CLASS
  1
MLEADERSTYLE
  2
AcDbMLeaderStyle
  3
ACDB_MLEADERSTYLE_CLASS
 90
     4095
280
     0
281
     0
  0
CLASS
  1
CELLSTYLEMAP
  2
AcDbCellStyleMap
  3
ObjectDBX Classes
 90
     1152
280
     0
281
     0
  0
ENDSEC
  0
SECTION
  2
TABLES
  0
TABLE
  2
VPORT
  5
7
330
0
100
AcDbSymbolTable
 70
     1
  0
VPORT
  5
15
330
7
100
AcDbSymbolTableRecord
100
AcDbViewportTableRecord
  2
*ACTIVE
 70
     0
 10
0.0
 20
0.0
 11
1.0
 21
1.0
 12
-714.2345442211947
 22
-224.2595325273575
 13
0.0
 23
0.0
 14
1.0
 24
1.0
 15
0.0
 25
0.0
 16
0.0
 26
0.0
 36
1.0
 17
0.0
 27
0.0
 37
0.0
 40
337.4141902903898
 41
2.026347305389221
 42
50.0
 43
0.0
 44
0.0
 50
0.0
 51
0.0
 71
     0
 72
   100
 73
     1
 74
     1
 75
     0
 76
     0
 77
     0
 78
     0
281
     0
 65
     1
110
0.0
120
0.0
130
0.0
111
1.0
121
0.0
131
0.0
112
0.0
122
1.0
132
0.0
 79
     0
146
0.0
1001
ACAD_NAV_VCDISPLAY
1070
     3
  0
ENDTAB
  0
TABLE
  2
LTYPE
  5
4
330
0
100
AcDbSymbolTable
 70
     9
  0
LTYPE
  5
11
330
4
100
AcDbSymbolTableRecord
100
AcDbLinetypeTableRecord
  2
BYBLOCK
 70
     0
  3

 72
    65
 73
     0
 40
0.0
  0
LTYPE
  5
12
330
4
100
AcDbSymbolTableRecord
100
AcDbLinetypeTableRecord
  2
BYLAYER
 70
     0
  3

 72
    65
 73
     0
 40
0.0
  0
LTYPE
  5
13
330
4
100
AcDbSymbolTableRecord
100
AcDbLinetypeTableRecord
  2
CONTINUOUS
 70
     0
  3
Solid line
 72
    65
 73
     0
 40
0.0
  0
LTYPE
  5
1D
330
4
100
AcDbSymbolTableRecord
100
AcDbLinetypeTableRecord
  2
DASHED
 70
     0
  3
Dashed
 72
    65
 73
     2
 40
15.0
 49
7.0
 74
     0
 49
-8.0
 74
     0
  0
LTYPE
  5
1E
330
4
100
AcDbSymbolTableRecord
100
AcDbLinetypeTableRecord
  2
DOTTED
 70
     0
  3
Dotted
 72
    65
 73
     2
 40
1.0
 49
0.0
 74
     0
 49
-1.0
 74
     0
  0
LTYPE
  5
1F
330
4
100
AcDbSymbolTableRecord
100
AcDbLinetypeTableRecord
  2
DOT_CENTER
 70
     0
  3
Dot_Center
 72
    65
 73
     4
 40
14.0
 49
12.0
 74
     0
 49
-1.0
 74
     0
 49
0.0
 74
     0
 49
-1.0
 74
     0
  0
LTYPE
  5
20
330
4
100
AcDbSymbolTableRecord
100
AcDbLinetypeTableRecord
  2
LONG_DASHED
 70
     0
  3
Long_Dashed
 72
    65
 73
     2
 40
15.0
 49
10.0
 74
     0
 49
-5.0
 74
     0
  0
LTYPE
  5
21
330
4
100
AcDbSymbolTableRecord
100
AcDbLinetypeTableRecord
  2
DASH_CENTER
 70
     0
  3
Dash_Center
 72
    65
 73
     4
 40
14.0
 49
11.0
 74
     0
 49
-1.0
 74
     0
 49
1.0
 74
     0
 49
-1.0
 74
     0
  0
LTYPE
  5
22
330
4
100
AcDbSymbolTableRecord
100
AcDbLinetypeTableRecord
  2
PHANTOM
 70
     0
  3
Phantom
 72
    65
 73
     6
 40
13.0
 49
10.0
 74
     0
 49
-1.0
 74
     0
 49
0.0
 74
     0
 49
-1.0
 74
     0
 49
0.0
 74
     0
 49
-1.0
 74
     0
  0
LTYPE
  5
23
330
4
100
AcDbSymbolTableRecord
100
AcDbLinetypeTableRecord
  2
CENTER_DASH_DASH
 70
     0
  3
Center_Dash_Dash
 72
    65
 73
     6
 40
14.0
 49
9.0
 74
     0
 49
-1.0
 74
     0
 49
1.0
 74
     0
 49
-1.0
 74
     0
 49
1.0
 74
     0
 49
-1.0
 74
     0
  0
ENDTAB
  0
TABLE
  2
LAYER
  5
2
330
0
100
AcDbSymbolTable
 70
     3
  0
LAYER
  5
14
102
{ACAD_XDICTIONARY
360
5FC
102
}
330
2
100
AcDbSymbolTableRecord
100
AcDbLayerTableRecord
  2
0
 70
     0
 62
     7
  6
CONTINUOUS
370
    -3
390
357
  0
LAYER
  5
24
102
{ACAD_XDICTIONARY
360
5FE
102
}
330
2
100
AcDbSymbolTableRecord
100
AcDbLayerTableRecord
  2
1
 70
     0
 62
     7
  6
CONTINUOUS
370
    -3
390
357
  0
LAYER
  5
400
330
2
100
AcDbSymbolTableRecord
100
AcDbLayerTableRecord
  2
Defpoints
 70
     0
 62
     7
  6
CONTINUOUS
290
     0
370
    -3
390
357
  0
ENDTAB
  0
TABLE
  2
STYLE
  5
3
330
0
100
AcDbSymbolTable
 70
     7
  0
STYLE
  5
17
330
3
100
AcDbSymbolTableRecord
100
AcDbTextStyleTableRecord
  2
STANDARD
 70
     0
 40
0.0
 41
1.0
 50
0.0
 71
     0
 42
0.0
  3
txt
  4

  0
STYLE
  5
176
330
3
100
AcDbSymbolTableRecord
100
AcDbTextStyleTableRecord
  2
CONVERTER_1
 70
     0
 40
0.0
 41
0.63
 50
0.0
 71
     0
 42
0.0
  3
txt.shx
  4

  0
STYLE
  5
183
330
3
100
AcDbSymbolTableRecord
100
AcDbTextStyleTableRecord
  2
CONVERTER_2
 70
     0
 40
0.0
 41
0.9
 50
0.0
 71
     0
 42
0.0
  3
txt.shx
  4

  0
STYLE
  5
185
330
3
100
AcDbSymbolTableRecord
100
AcDbTextStyleTableRecord
  2
CONVERTER_3
 70
     0
 40
0.0
 41
0.76
 50
0.0
 71
     0
 42
0.0
  3
complex.shx
  4

  0
STYLE
  5
1B0
330
3
100
AcDbSymbolTableRecord
100
AcDbTextStyleTableRecord
  2
CONVERTER_4
 70
     0
 40
0.0
 41
0.603
 50
0.0
 71
     0
 42
0.0
  3
txt.shx
  4

  0
STYLE
  5
1B4
330
3
100
AcDbSymbolTableRecord
100
AcDbTextStyleTableRecord
  2
CONVERTER_5
 70
     0
 40
0.0
 41
0.45
 50
0.0
 71
     0
 42
0.0
  3
txt.shx
  4

  0
STYLE
  5
201
330
3
100
AcDbSymbolTableRecord
100
AcDbTextStyleTableRecord
  2
CONVERTER_6
 70
     0
 40
0.0
 41
0.6650000000000001
 50
0.0
 71
     0
 42
0.0
  3
simplex.shx
  4

  0
ENDTAB
  0
TABLE
  2
VIEW
  5
5
330
0
100
AcDbSymbolTable
 70
     0
  0
ENDTAB
  0
TABLE
  2
UCS
  5
6
330
0
100
AcDbSymbolTable
 70
     0
  0
ENDTAB
  0
TABLE
  2
APPID
  5
8
330
0
100
AcDbSymbolTable
 70
     4
  0
APPID
  5
16
330
8
100
AcDbSymbolTableRecord
100
AcDbRegAppTableRecord
  2
ACAD
 70
     0
  0
APPID
  5
602
330
8
100
AcDbSymbolTableRecord
100
AcDbRegAppTableRecord
  2
DCO15
 70
     0
  0
APPID
  5
60C
330
8
100
AcDbSymbolTableRecord
100
AcDbRegAppTableRecord
  2
ACAD_NAV_VCDISPLAY
 70
     0
  0
APPID
  5
69D
330
8
100
AcDbSymbolTableRecord
100
AcDbRegAppTableRecord
  2
ACAD_MLEADERVER
 70
     0
  0
ENDTAB
  0
TABLE
  2
DIMSTYLE
  5
9
330
0
100
AcDbSymbolTable
 70
    17
100
AcDbDimStyleTable
 71
     0
  0
DIMSTYLE
105
18
330
9
100
AcDbSymbolTableRecord
100
AcDbDimStyleTableRecord
  2
STANDARD
 70
     0
340
17
  0
DIMSTYLE
105
20A
102
{ACAD_REACTORS
330
20B
102
}
330
9
100
AcDbSymbolTableRecord
100
AcDbDimStyleTableRecord
  2
ME10_DIM_0
 70
     0
 41
2.45
 42
1.0
 44
1.0
 73
     0
 74
     0
 77
     1
 78
     8
140
3.5
147
0.625
172
     1
173
     1
176
     2
177
     2
178
     3
271
     2
340
201
341
204
343
204
344
204
  0
DIMSTYLE
105
217
102
{ACAD_REACTORS
330
218
102
}
330
9
100
AcDbSymbolTableRecord
100
AcDbDimStyleTableRecord
  2
ME10_DIM_1
 70
     0
 41
2.45
 42
1.0
 44
1.0
 73
     0
 74
     0
 77
     1
 78
     8
140
3.5
147
0.625
172
     1
173
     1
176
     2
177
     2
178
     3
271
     2
340
201
341
204
343
204
344
204
  0
DIMSTYLE
105
22D
102
{ACAD_REACTORS
330
22E
102
}
330
9
100
AcDbSymbolTableRecord
100
AcDbDimStyleTableRecord
  2
ME10_DIM_2
 70
     0
 41
1.0
 42
1.0
 44
1.0
 73
     0
 74
     0
 77
     1
 78
     8
140
3.5
147
0.625
172
     1
173
     1
176
     2
177
     2
178
     3
271
     2
340
201
341
204
343
204
344
225
  0
DIMSTYLE
105
23D
102
{ACAD_REACTORS
330
23E
102
}
330
9
100
AcDbSymbolTableRecord
100
AcDbDimStyleTableRecord
  2
ME10_DIM_3
 70
     0
 41
2.45
 42
1.0
 44
1.0
 73
     0
 74
     0
 77
     1
 78
     8
140
3.5
147
0.625
172
     1
173
     1
176
     2
177
     2
178
     3
271
     2
340
201
341
23A
343
23A
344
204
  0
DIMSTYLE
105
24A
102
{ACAD_REACTORS
330
24B
102
}
330
9
100
AcDbSymbolTableRecord
100
AcDbDimStyleTableRecord
  2
ME10_DIM_4
 70
     0
 41
2.45
 42
1.0
 44
1.0
 73
     0
 74
     0
 77
     1
 78
     8
140
3.5
147
0.625
172
     1
173
     1
176
     2
177
     2
178
     3
271
     2
340
201
341
204
343
204
344
204
  0
DIMSTYLE
105
257
102
{ACAD_REACTORS
330
258
102
}
330
9
100
AcDbSymbolTableRecord
100
AcDbDimStyleTableRecord
  2
ME10_DIM_5
 70
     0
 41
2.45
 42
1.0
 44
1.0
 73
     0
 74
     0
 77
     1
 78
     8
140
3.5
147
0.625
172
     1
173
     1
176
     2
177
     2
178
     3
271
     2
340
201
341
204
343
204
344
204
  0
DIMSTYLE
105
264
102
{ACAD_REACTORS
330
265
102
}
330
9
100
AcDbSymbolTableRecord
100
AcDbDimStyleTableRecord
  2
ME10_DIM_6
 70
     0
 41
2.45
 42
1.0
 44
1.0
 73
     0
 74
     0
 77
     1
 78
     8
140
3.5
147
0.625
172
     1
173
     1
176
     2
177
     2
178
     3
271
     2
340
201
341
204
343
204
344
204
  0
DIMSTYLE
105
271
102
{ACAD_REACTORS
330
272
102
}
330
9
100
AcDbSymbolTableRecord
100
AcDbDimStyleTableRecord
  2
ME10_DIM_7
 70
     0
 41
2.45
 42
1.0
 44
1.0
 73
     0
 74
     0
 77
     1
 78
     8
140
3.5
147
0.625
172
     1
173
     1
176
     2
177
     2
178
     3
271
     2
340
201
341
204
343
204
344
204
  0
DIMSTYLE
105
27E
102
{ACAD_REACTORS
330
27F
102
}
330
9
100
AcDbSymbolTableRecord
100
AcDbDimStyleTableRecord
  2
ME10_DIM_8
 70
     0
 41
2.45
 42
1.0
 44
1.0
 73
     0
 74
     0
 77
     1
 78
     8
140
3.5
147
0.625
172
     1
173
     1
176
     2
177
     2
178
     3
271
     2
340
201
341
204
343
204
344
204
  0
DIMSTYLE
105
28B
102
{ACAD_REACTORS
330
28C
102
}
330
9
100
AcDbSymbolTableRecord
100
AcDbDimStyleTableRecord
  2
ME10_DIM_9
 70
     0
 41
2.45
 42
1.0
 44
1.0
 73
     0
 74
     0
 77
     1
 78
     8
140
3.5
147
0.625
172
     1
173
     1
176
     2
177
     2
178
     3
271
     2
340
201
341
204
343
204
344
204
  0
DIMSTYLE
105
298
102
{ACAD_REACTORS
330
299
102
}
330
9
100
AcDbSymbolTableRecord
100
AcDbDimStyleTableRecord
  2
ME10_DIM_10
 70
     0
 41
2.45
 42
1.0
 44
1.0
 73
     0
 74
     0
 77
     1
 78
     8
140
3.5
147
0.625
172
     1
173
     1
176
     2
177
     2
178
     3
271
     2
340
201
341
204
343
204
344
204
  0
DIMSTYLE
105
32A
330
9
100
AcDbSymbolTableRecord
100
AcDbDimStyleTableRecord
  2
ME10_DIM_11
 70
     0
 41
2.45
 42
1.0
 44
1.0
 73
     0
 74
     0
 77
     1
 78
     8
140
3.5
147
0.625
172
     1
173
     1
176
     2
177
     2
178
     3
271
     2
340
201
341
204
343
204
344
204
  0
DIMSTYLE
105
337
330
9
100
AcDbSymbolTableRecord
100
AcDbDimStyleTableRecord
  2
ME10_DIM_12
 70
     0
  3
{\Fgdt;n}<>
 41
2.45
 42
1.0
 44
1.0
 73
     0
 74
     0
 77
     1
 78
     8
140
3.5
147
0.625
172
     1
173
     1
176
     2
177
     2
178
     3
271
     2
340
201
341
204
343
204
344
204
  0
DIMSTYLE
105
344
330
9
100
AcDbSymbolTableRecord
100
AcDbDimStyleTableRecord
  2
ME10_DIM_13
 70
     0
 41
2.45
 42
1.0
 44
1.0
 73
     0
 74
     0
 77
     1
 78
     8
140
3.5
147
0.625
172
     1
173
     1
176
     2
177
     2
178
     3
271
     2
340
201
341
204
343
204
344
204
  0
DIMSTYLE
105
351
330
9
100
AcDbSymbolTableRecord
100
AcDbDimStyleTableRecord
  2
ME10_DIM_14
 70
     0
 41
2.45
 42
1.0
 44
1.0
 73
     0
 74
     0
 77
     1
 78
     8
140
3.5
147
0.625
172
     1
173
     1
176
     2
177
     2
178
     3
271
     2
340
201
341
204
343
204
344
204
  0
ENDTAB
  0
TABLE
  2
BLOCK_RECORD
  5
1
330
0
100
AcDbSymbolTable
 70
    39
  0
BLOCK_RECORD
  5
A
102
{ACAD_XDICTIONARY
360
3DB
102
}
330
1
100
AcDbSymbolTableRecord
100
AcDbBlockTableRecord
  2
*MODEL_SPACE
340
3A3
  0
BLOCK_RECORD
  5
B
330
1
100
AcDbSymbolTableRecord
100
AcDbBlockTableRecord
  2
*PAPER_SPACE
340
3A4
  0
BLOCK_RECORD
  5
25
330
1
100
AcDbSymbolTableRecord
100
AcDbBlockTableRecord
  2
_______T________________M4
340
0
102
{BLKREFS
331
3D
102
}
  0
BLOCK_RECORD
  5
27
330
1
100
AcDbSymbolTableRecord
100
AcDbBlockTableRecord
  2
_7
340
0
102
{BLKREFS
331
37
102
}
  0
BLOCK_RECORD
  5
29
330
1
100
AcDbSymbolTableRecord
100
AcDbBlockTableRecord
  2
______
340
0
102
{BLKREFS
331
2D
102
}
  0
BLOCK_RECORD
  5
2B
330
1
100
AcDbSymbolTableRecord
100
AcDbBlockTableRecord
  2
FORMAT_A3
340
0
102
{BLKREFS
331
30
102
}
  0
BLOCK_RECORD
  5
2E
330
1
100
AcDbSymbolTableRecord
100
AcDbBlockTableRecord
  2
_6
340
0
102
{BLKREFS
331
38
102
}
  0
BLOCK_RECORD
  5
31
330
1
100
AcDbSymbolTableRecord
100
AcDbBlockTableRecord
  2
_1
340
0
102
{BLKREFS
331
39
102
}
  0
BLOCK_RECORD
  5
33
330
1
100
AcDbSymbolTableRecord
100
AcDbBlockTableRecord
  2
_2
340
0
102
{BLKREFS
331
3A
102
}
  0
BLOCK_RECORD
  5
35
330
1
100
AcDbSymbolTableRecord
100
AcDbBlockTableRecord
  2
AFD-770-B
340
0
102
{BLKREFS
331
3E
102
}
  0
BLOCK_RECORD
  5
3B
330
1
100
AcDbSymbolTableRecord
100
AcDbBlockTableRecord
  2
TOP__1
340
0
  0
BLOCK_RECORD
  5
1F8
330
1
100
AcDbSymbolTableRecord
100
AcDbBlockTableRecord
  2
*D9
340
0
  0
BLOCK_RECORD
  5
204
330
1
100
AcDbSymbolTableRecord
100
AcDbBlockTableRecord
  2
_OPEN30
340
0
102
{BLKREFS
331
495
331
496
331
49F
331
4A0
331
4A9
331
4AA
331
4B3
331
4B4
331
4BD
331
4BE
331
4C7
331
4C8
331
4D3
331
4DD
331
4E6
331
4E7
331
4F0
331
4F1
331
4FA
331
4FB
102
}
  0
BLOCK_RECORD
  5
20C
330
1
100
AcDbSymbolTableRecord
100
AcDbBlockTableRecord
  2
*D11
340
0
  0
BLOCK_RECORD
  5
219
330
1
100
AcDbSymbolTableRecord
100
AcDbBlockTableRecord
  2
*D12
340
0
  0
BLOCK_RECORD
  5
225
330
1
100
AcDbSymbolTableRecord
100
AcDbBlockTableRecord
  2
_DOT
340
0
102
{BLKREFS
331
4D4
102
}
  0
BLOCK_RECORD
  5
22F
330
1
100
AcDbSymbolTableRecord
100
AcDbBlockTableRecord
  2
*D14
340
0
  0
BLOCK_RECORD
  5
23A
330
1
100
AcDbSymbolTableRecord
100
AcDbBlockTableRecord
  2
_NONE
340
0
  0
BLOCK_RECORD
  5
23F
330
1
100
AcDbSymbolTableRecord
100
AcDbBlockTableRecord
  2
*D16
340
0
  0
BLOCK_RECORD
  5
24C
330
1
100
AcDbSymbolTableRecord
100
AcDbBlockTableRecord
  2
*D17
340
0
  0
BLOCK_RECORD
  5
259
330
1
100
AcDbSymbolTableRecord
100
AcDbBlockTableRecord
  2
*D18
340
0
  0
BLOCK_RECORD
  5
266
330
1
100
AcDbSymbolTableRecord
100
AcDbBlockTableRecord
  2
*D19
340
0
  0
BLOCK_RECORD
  5
273
330
1
100
AcDbSymbolTableRecord
100
AcDbBlockTableRecord
  2
*D20
340
0
  0
BLOCK_RECORD
  5
280
330
1
100
AcDbSymbolTableRecord
100
AcDbBlockTableRecord
  2
*D21
340
0
  0
BLOCK_RECORD
  5
28D
330
1
100
AcDbSymbolTableRecord
100
AcDbBlockTableRecord
  2
*D22
340
0
  0
BLOCK_RECORD
  5
31F
330
1
100
AcDbSymbolTableRecord
100
AcDbBlockTableRecord
  2
*D23
340
0
  0
BLOCK_RECORD
  5
32C
330
1
100
AcDbSymbolTableRecord
100
AcDbBlockTableRecord
  2
*D24
340
0
  0
BLOCK_RECORD
  5
339
330
1
100
AcDbSymbolTableRecord
100
AcDbBlockTableRecord
  2
*D25
340
0
  0
BLOCK_RECORD
  5
346
330
1
100
AcDbSymbolTableRecord
100
AcDbBlockTableRecord
  2
*D26
340
0
  0
BLOCK_RECORD
  5
401
330
1
100
AcDbSymbolTableRecord
100
AcDbBlockTableRecord
  2
*D27
340
0
  0
BLOCK_RECORD
  5
40E
330
1
100
AcDbSymbolTableRecord
100
AcDbBlockTableRecord
  2
*D28
340
0
  0
BLOCK_RECORD
  5
41B
330
1
100
AcDbSymbolTableRecord
100
AcDbBlockTableRecord
  2
*D29
340
0
  0
BLOCK_RECORD
  5
428
330
1
100
AcDbSymbolTableRecord
100
AcDbBlockTableRecord
  2
*D30
340
0
  0
BLOCK_RECORD
  5
435
330
1
100
AcDbSymbolTableRecord
100
AcDbBlockTableRecord
  2
*D31
340
0
  0
BLOCK_RECORD
  5
442
330
1
100
AcDbSymbolTableRecord
100
AcDbBlockTableRecord
  2
*D32
340
0
  0
BLOCK_RECORD
  5
44F
330
1
100
AcDbSymbolTableRecord
100
AcDbBlockTableRecord
  2
*D33
340
0
  0
BLOCK_RECORD
  5
45E
330
1
100
AcDbSymbolTableRecord
100
AcDbBlockTableRecord
  2
*D34
340
0
  0
BLOCK_RECORD
  5
46A
330
1
100
AcDbSymbolTableRecord
100
AcDbBlockTableRecord
  2
*D35
340
0
  0
BLOCK_RECORD
  5
477
330
1
100
AcDbSymbolTableRecord
100
AcDbBlockTableRecord
  2
*D36
340
0
  0
BLOCK_RECORD
  5
484
330
1
100
AcDbSymbolTableRecord
100
AcDbBlockTableRecord
  2
*D37
340
0
  0
ENDTAB
  0
ENDSEC
  0
SECTION
  2
BLOCKS
  0
BLOCK
  5
D
330
A
100
AcDbEntity
  8
0
100
AcDbBlockBegin
  2
*MODEL_SPACE
 70
     0
 10
0.0
 20
0.0
 30
0.0
  3
*MODEL_SPACE
  1

  0
ENDBLK
  5
E
330
A
100
AcDbEntity
  8
0
100
AcDbBlockEnd
  0
BLOCK
  5
F
330
B
100
AcDbEntity
 67
     1
  8
0
100
AcDbBlockBegin
  2
*PAPER_SPACE
 70
     0
 10
0.0
 20
0.0
 30
0.0
  3
*PAPER_SPACE
  1

  0
ENDBLK
  5
10
330
B
100
AcDbEntity
 67
     1
  8
0
100
AcDbBlockEnd
  0
BLOCK
  5
26
330
25
100
AcDbEntity
  8
0
100
AcDbBlockBegin
  2
_______T________________M4
 70
     0
 10
-482.2073711290033
 20
-269.8546976195271
 30
0.0
  3
_______T________________M4
  1

  0
CIRCLE
  5
5A
330
25
100
AcDbEntity
  8
1
  6
Continuous
 62
     7
100
AcDbCircle
 10
-873.2073711290039
 20
-265.8546976195271
 30
0.0
 40
4.0
  0
LINE
  5
59
330
25
100
AcDbEntity
  8
1
  6
Continuous
 62
     7
100
AcDbLine
 10
-873.6673711290038
 20
-263.5546976195271
 30
0.0
 11
-872.7473711290038
 21
-263.5546976195271
 31
0.0
  0
LINE
  5
58
330
25
100
AcDbEntity
  8
1
  6
Continuous
 62
     7
100
AcDbLine
 10
-872.7473711290038
 20
-263.5546976195271
 30
0.0
 11
-872.4407044623372
 21
-265.0880309528604
 31
0.0
  0
LINE
  5
57
330
25
100
AcDbEntity
  8
1
  6
Continuous
 62
     7
100
AcDbLine
 10
-872.4407044623372
 20
-265.0880309528604
 30
0.0
 11
-870.9073711290036
 21
-265.3946976195271
 31
0.0
  0
LINE
  5
56
330
25
100
AcDbEntity
  8
1
  6
Continuous
 62
     7
100
AcDbLine
 10
-870.9073711290036
 20
-265.3946976195271
 30
0.0
 11
-870.9073711290036
 21
-266.3146976195271
 31
0.0
  0
LINE
  5
55
330
25
100
AcDbEntity
  8
1
  6
Continuous
 62
     7
100
AcDbLine
 10
-870.9073711290036
 20
-266.3146976195271
 30
0.0
 11
-872.4407044623372
 21
-266.6213642861937
 31
0.0
  0
LINE
  5
54
330
25
100
AcDbEntity
  8
1
  6
Continuous
 62
     7
100
AcDbLine
 10
-872.4407044623372
 20
-266.6213642861937
 30
0.0
 11
-872.7473711290038
 21
-268.154697619527
 31
0.0
  0
LINE
  5
53
330
25
100
AcDbEntity
  8
1
  6
Continuous
 62
     7
100
AcDbLine
 10
-872.7473711290038
 20
-268.154697619527
 30
0.0
 11
-873.6673711290038
 21
-268.154697619527
 31
0.0
  0
LINE
  5
52
330
25
100
AcDbEntity
  8
1
  6
Continuous
 62
     7
100
AcDbLine
 10
-873.6673711290038
 20
-268.154697619527
 30
0.0
 11
-873.9740377956703
 21
-266.6213642861937
 31
0.0
  0
LINE
  5
51
330
25
100
AcDbEntity
  8
1
  6
Continuous
 62
     7
100
AcDbLine
 10
-873.9740377956703
 20
-266.6213642861937
 30
0.0
 11
-875.5073711290039
 21
-266.3146976195271
 31
0.0
  0
LINE
  5
50
330
25
100
AcDbEntity
  8
1
  6
Continuous
 62
     7
100
AcDbLine
 10
-875.5073711290039
 20
-266.3146976195271
 30
0.0
 11
-875.5073711290039
 21
-265.3946976195271
 31
0.0
  0
LINE
  5
4F
330
25
100
AcDbEntity
  8
1
  6
Continuous
 62
     7
100
AcDbLine
 10
-875.5073711290039
 20
-265.3946976195271
 30
0.0
 11
-873.9740377956703
 21
-265.0880309528604
 31
0.0
  0
LINE
  5
4E
330
25
100
AcDbEntity
  8
1
  6
Continuous
 62
     7
100
AcDbLine
 10
-873.9740377956703
 20
-265.0880309528604
 30
0.0
 11
-873.6673711290038
 21
-263.5546976195271
 31
0.0
  0
LINE
  5
4D
330
25
100
AcDbEntity
  8
1
  6
Continuous
 62
     7
100
AcDbLine
 10
-873.6673711290038
 20
-252.0546976195271
 30
0.0
 11
-872.7473711290038
 21
-252.0546976195271
 31
0.0
  0
LINE
  5
4C
330
25
100
AcDbEntity
  8
1
  6
Continuous
 62
     7
100
AcDbLine
 10
-872.7473711290038
 20
-252.0546976195271
 30
0.0
 11
-872.4407044623372
 21
-253.5880309528604
 31
0.0
  0
LINE
  5
4B
330
25
100
AcDbEntity
  8
1
  6
Continuous
 62
     7
100
AcDbLine
 10
-872.4407044623372
 20
-253.5880309528604
 30
0.0
 11
-870.9073711290036
 21
-253.8946976195271
 31
0.0
  0
LINE
  5
4A
330
25
100
AcDbEntity
  8
1
  6
Continuous
 62
     7
100
AcDbLine
 10
-870.9073711290036
 20
-253.8946976195271
 30
0.0
 11
-870.9073711290036
 21
-254.8146976195271
 31
0.0
  0
LINE
  5
49
330
25
100
AcDbEntity
  8
1
  6
Continuous
 62
     7
100
AcDbLine
 10
-870.9073711290036
 20
-254.8146976195271
 30
0.0
 11
-872.4407044623372
 21
-255.1213642861937
 31
0.0
  0
LINE
  5
48
330
25
100
AcDbEntity
  8
1
  6
Continuous
 62
     7
100
AcDbLine
 10
-872.4407044623372
 20
-255.1213642861937
 30
0.0
 11
-872.7473711290038
 21
-256.654697619527
 31
0.0
  0
LINE
  5
47
330
25
100
AcDbEntity
  8
1
  6
Continuous
 62
     7
100
AcDbLine
 10
-872.7473711290038
 20
-256.654697619527
 30
0.0
 11
-873.6673711290038
 21
-256.654697619527
 31
0.0
  0
LINE
  5
46
330
25
100
AcDbEntity
  8
1
  6
Continuous
 62
     7
100
AcDbLine
 10
-873.6673711290038
 20
-256.654697619527
 30
0.0
 11
-873.9740377956703
 21
-255.1213642861937
 31
0.0
  0
LINE
  5
45
330
25
100
AcDbEntity
  8
1
  6
Continuous
 62
     7
100
AcDbLine
 10
-873.9740377956703
 20
-255.1213642861937
 30
0.0
 11
-875.5073711290039
 21
-254.8146976195271
 31
0.0
  0
LINE
  5
44
330
25
100
AcDbEntity
  8
1
  6
Continuous
 62
     7
100
AcDbLine
 10
-875.5073711290039
 20
-254.8146976195271
 30
0.0
 11
-875.5073711290039
 21
-253.8946976195271
 31
0.0
  0
LINE
  5
43
330
25
100
AcDbEntity
  8
1
  6
Continuous
 62
     7
100
AcDbLine
 10
-875.5073711290039
 20
-253.8946976195271
 30
0.0
 11
-873.9740377956703
 21
-253.5880309528604
 31
0.0
  0
LINE
  5
42
330
25
100
AcDbEntity
  8
1
  6
Continuous
 62
     7
100
AcDbLine
 10
-873.9740377956703
 20
-253.5880309528604
 30
0.0
 11
-873.6673711290038
 21
-252.0546976195271
 31
0.0
  0
ENDBLK
  5
5B
330
25
100
AcDbEntity
  8
0
100
AcDbBlockEnd
  0
BLOCK
  5
28
330
27
100
AcDbEntity
  8
0
100
AcDbBlockBegin
  2
_7
 70
     0
 10
-522.9681070451852
 20
-480.2546976195271
 30
0.0
  3
_7
  1

  0
ARC
  5
68
330
27
100
AcDbEntity
  8
1
  6
Continuous
 62
     7
100
AcDbCircle
 10
-873.2073711290039
 20
-265.8546976195272
 30
0.0
 40
7.900000000000089
100
AcDbArc
 50
180.0
 51
0.0
  0
LINE
  5
67
330
27
100
AcDbEntity
  8
1
  6
DOT_CENTER
 62
     2
100
AcDbLine
 10
-873.2073711290039
 20
-206.9046976195265
 30
0.0
 11
-873.2073711290039
 21
-279.2546976195272
 31
0.0
  0
LINE
  5
66
330
27
100
AcDbEntity
  8
1
  6
Continuous
 62
     7
100
AcDbLine
 10
-865.3073711290039
 20
-265.8546976195272
 30
0.0
 11
-865.3073711290039
 21
-229.2546976195272
 31
0.0
  0
LINE
  5
65
330
27
100
AcDbEntity
  8
1
  6
Continuous
 62
     7
100
AcDbLine
 10
-865.3073711290039
 20
-229.2546976195272
 30
0.0
 11
-881.1073711290038
 21
-229.2546976195272
 31
0.0
  0
LINE
  5
64
330
27
100
AcDbEntity
  8
1
  6
Continuous
 62
     7
100
AcDbLine
 10
-881.1073711290038
 20
-229.2546976195272
 30
0.0
 11
-881.1073711290038
 21
-265.8546976195272
 31
0.0
  0
LINE
  5
63
330
27
100
AcDbEntity
  8
1
  6
DOT_CENTER
 62
     2
100
AcDbLine
 10
-798.6858058057589
 20
-241.2546976195272
 30
0.0
 11
-777.6858058057589
 21
-241.2546976195272
 31
0.0
  0
LINE
  5
62
330
27
100
AcDbEntity
  8
1
  6
Continuous
 62
     7
100
AcDbLine
 10
-780.185805805759
 20
-229.2546976195272
 30
0.0
 11
-796.685805805759
 21
-229.2546976195272
 31
0.0
  0
LINE
  5
61
330
27
100
AcDbEntity
  8
1
  6
Continuous
 62
     7
100
AcDbLine
 10
-780.185805805759
 20
-273.7546976195272
 30
0.0
 11
-780.185805805759
 21
-229.2546976195272
 31
0.0
  0
LINE
  5
60
330
27
100
AcDbEntity
  8
1
  6
Continuous
 62
     7
100
AcDbLine
 10
-779.6858058057589
 20
-273.2546976195272
 30
0.0
 11
-780.185805805759
 21
-273.7546976195272
 31
0.0
  0
LINE
  5
5F
330
27
100
AcDbEntity
  8
1
  6
Continuous
 62
     7
100
AcDbLine
 10
-779.6858058057589
 20
-273.2546976195272
 30
0.0
 11
-779.6858058057589
 21
-229.2546976195272
 31
0.0
  0
LINE
  5
5E
330
27
100
AcDbEntity
  8
1
  6
Continuous
 62
     7
100
AcDbLine
 10
-796.685805805759
 20
-273.7546976195272
 30
0.0
 11
-780.185805805759
 21
-273.7546976195272
 31
0.0
  0
LINE
  5
5D
330
27
100
AcDbEntity
  8
1
  6
Continuous
 62
     7
100
AcDbLine
 10
-796.685805805759
 20
-229.2546976195272
 30
0.0
 11
-796.685805805759
 21
-273.7546976195272
 31
0.0
  0
LINE
  5
5C
330
27
100
AcDbEntity
  8
1
  6
Continuous
 62
     7
100
AcDbLine
 10
-779.6858058057589
 20
-229.2546976195272
 30
0.0
 11
-780.185805805759
 21
-229.2546976195272
 31
0.0
  0
ENDBLK
  5
69
330
27
100
AcDbEntity
  8
0
100
AcDbBlockEnd
  0
BLOCK
  5
2A
330
29
100
AcDbEntity
  8
0
100
AcDbBlockBegin
  2
______
 70
     0
 10
168.9533538030109
 20
-590.5559088381084
 30
0.0
  3
______
  1

  0
MTEXT
  5
1C1
330
29
100
AcDbEntity
  8
1
 62
     3
100
AcDbMText
 10
-50.96660990604732
 20
-272.1843642716329
 30
0.0
 40
3.5
 41
0.0
 71
     5
 72
     1
  1
6
  7
CONVERTER_1
 73
     1
 44
1.0
1001
ACAD
1000
MTEXTBEGIN
1070
    73
1070
     1
1070
    44
1040
1.0
1070
    74
1070
     0
1000
MTEXTEND
  0
MTEXT
  5
1C0
102
{ACAD_XDICTIONARY
360
667
102
}
330
29
100
AcDbEntity
  8
1
 62
     3
100
AcDbMText
 10
-41.46660990604732
 20
-272.1843642716329
 30
0.0
 40
3.5
 41
0.0
 71
     4
 72
     1
  1
\U+0192J\U+0192o\U+0081[
  7
CONVERTER_1
 73
     1
 44
1.0
1001
ACAD
1000
MTEXTBEGIN
1070
    73
1070
     1
1070
    44
1040
1.0
1070
    74
1070
     0
1000
MTEXTEND
  0
MTEXT
  5
1BF
102
{ACAD_XDICTIONARY
360
665
102
}
330
29
100
AcDbEntity
  8
1
 62
     3
100
AcDbMText
 10
8.533390093952679
 20
-272.1843642716329
 30
0.0
 40
3.5
 41
0.0
 71
     4
 72
     1
  1
ABS\U+017D\U+00BC\U+017D\U+2030
  7
CONVERTER_1
 73
     1
 44
1.0
1001
ACAD
1000
MTEXTBEGIN
1070
    73
1070
     1
1070
    44
1040
1.0
1070
    74
1070
     0
1000
MTEXTEND
  0
MTEXT
  5
1BE
330
29
100
AcDbEntity
  8
1
 62
     3
100
AcDbMText
 10
44.03339009395268
 20
-272.1843642716329
 30
0.0
 40
3.5
 41
0.0
 71
     5
 72
     1
  1
1
  7
CONVERTER_1
 73
     1
 44
1.0
1001
ACAD
1000
MTEXTBEGIN
1070
    73
1070
     1
1070
    44
1040
1.0
1070
    74
1070
     0
1000
MTEXTEND
  0
MTEXT
  5
1BD
102
{ACAD_XDICTIONARY
360
663
102
}
330
29
100
AcDbEntity
  8
1
 62
     3
100
AcDbMText
 10
53.53339009395268
 20
-279.1843642716327
 30
0.0
 40
3.5
 41
0.0
 71
     4
 72
     1
  1
\U+201D\U+2019\U+0081A\U+2018\U+00A5
  7
CONVERTER_1
 73
     1
 44
1.0
1001
ACAD
1000
MTEXTBEGIN
1070
    73
1070
     1
1070
    44
1040
1.0
1070
    74
1070
     0
1000
MTEXTEND
  0
MTEXT
  5
1BC
102
{ACAD_XDICTIONARY
360
661
102
}
330
29
100
AcDbEntity
  8
1
 62
     3
100
AcDbMText
 10
53.53339009395268
 20
-286.1843642716328
 30
0.0
 40
3.5
 41
0.0
 71
     4
 72
     1
  1
\U+0192`\U+0192\U+2021\U+0192R\U+0090F
  7
CONVERTER_1
 73
     1
 44
1.0
1001
ACAD
1000
MTEXTBEGIN
1070
    73
1070
     1
1070
    44
1040
1.0
1070
    74
1070
     0
1000
MTEXTEND
  0
MTEXT
  5
1BB
102
{ACAD_XDICTIONARY
360
65F
102
}
330
29
100
AcDbEntity
  8
1
 62
     3
100
AcDbMText
 10
53.53339009395268
 20
-293.1843642716326
 30
0.0
 40
3.5
 41
0.0
 71
     4
 72
     1
  1
\U+0192\U+2020\U+0192j\U+0192N\U+0192\U+008D\U+0192\U+0081\U+0192b\U+0192L
  7
CONVERTER_1
 73
     1
 44
1.0
1001
ACAD
1000
MTEXTBEGIN
1070
    73
1070
     1
1070
    44
1040
1.0
1070
    74
1070
     0
1000
MTEXTEND
  0
MTEXT
  5
1BA
102
{ACAD_XDICTIONARY
360
65D
102
}
330
29
100
AcDbEntity
  8
1
 62
     3
100
AcDbMText
 10
53.53339009395268
 20
-300.1843642716324
 30
0.0
 40
3.5
 41
0.0
 71
     4
 72
     1
  1
\U+0192`\U+0192\U+2021\U+0192R\U+0090F
  7
CONVERTER_1
 73
     1
 44
1.0
1001
ACAD
1000
MTEXTBEGIN
1070
    73
1070
     1
1070
    44
1040
1.0
1070
    74
1070
     0
1000
MTEXTEND
  0
MTEXT
  5
1B9
330
29
100
AcDbEntity
  8
1
 62
     3
100
AcDbMText
 10
44.03339009395268
 20
-279.1843642716327
 30
0.0
 40
3.5
 41
0.0
 71
     5
 72
     1
  1
4
  7
CONVERTER_1
 73
     1
 44
1.0
1001
ACAD
1000
MTEXTBEGIN
1070
    73
1070
     1
1070
    44
1040
1.0
1070
    74
1070
     0
1000
MTEXTEND
  0
MTEXT
  5
1B8
330
29
100
AcDbEntity
  8
1
 62
     3
100
AcDbMText
 10
44.03339009395268
 20
-286.1843642716328
 30
0.0
 40
3.5
 41
0.0
 71
     5
 72
     1
  1
1
  7
CONVERTER_1
 73
     1
 44
1.0
1001
ACAD
1000
MTEXTBEGIN
1070
    73
1070
     1
1070
    44
1040
1.0
1070
    74
1070
     0
1000
MTEXTEND
  0
MTEXT
  5
1B7
330
29
100
AcDbEntity
  8
1
 62
     3
100
AcDbMText
 10
44.03339009395268
 20
-293.1843642716326
 30
0.0
 40
3.5
 41
0.0
 71
     5
 72
     1
  1
1
  7
CONVERTER_1
 73
     1
 44
1.0
1001
ACAD
1000
MTEXTBEGIN
1070
    73
1070
     1
1070
    44
1040
1.0
1070
    74
1070
     0
1000
MTEXTEND
  0
MTEXT
  5
1B6
330
29
100
AcDbEntity
  8
1
 62
     3
100
AcDbMText
 10
44.03339009395268
 20
-300.1843642716324
 30
0.0
 40
3.5
 41
0.0
 71
     5
 72
     1
  1
1
  7
CONVERTER_1
 73
     1
 44
1.0
1001
ACAD
1000
MTEXTBEGIN
1070
    73
1070
     1
1070
    44
1040
1.0
1070
    74
1070
     0
1000
MTEXTEND
  0
MTEXT
  5
1B5
102
{ACAD_XDICTIONARY
360
65B
102
}
330
29
100
AcDbEntity
  8
1
 62
     3
100
AcDbMText
 10
8.533390093952679
 20
-279.1843642716327
 30
0.0
 40
3.5
 41
0.0
 71
     4
 72
     1
  1
\U+0192W\U+0192\U+2026\U+0192\U+2030\U+0192R\U+0192\U+201C\U+0081A\U+0192X\U+0192`\U+0081[\U+0192\U+2039\U+0192{\U+0081[\U+0192\U+2039,\U+2018\U+00A5
  7
CONVERTER_5
 73
     1
 44
1.0
1001
ACAD
1000
MTEXTBEGIN
1070
    73
1070
     1
1070
    44
1040
1.0
1070
    74
1070
     0
1000
MTEXTEND
  0
MTEXT
  5
1B3
102
{ACAD_XDICTIONARY
360
659
102
}
330
29
100
AcDbEntity
  8
1
 62
     3
100
AcDbMText
 10
8.533390093952679
 20
-286.1843642716328
 30
0.0
 40
3.5
 41
0.0
 71
     4
 72
     1
  1
66\U+0192i\U+0192C\U+0192\U+008D\U+0192\U+201C\U+2022\U+00C0\U+008D\U+2021\U+008D\U+00DF
  7
CONVERTER_1
 73
     1
 44
1.0
1001
ACAD
1000
MTEXTBEGIN
1070
    73
1070
     1
1070
    44
1040
1.0
1070
    74
1070
     0
1000
MTEXTEND
  0
MTEXT
  5
1B2
330
29
100
AcDbEntity
  8
1
 62
     3
100
AcDbMText
 10
8.533390093952679
 20
-293.1843642716326
 30
0.0
 40
3.5
 41
0.0
 71
     4
 72
     1
  1
SWCH 10 A
  7
CONVERTER_1
 73
     1
 44
1.0
1001
ACAD
1000
MTEXTBEGIN
1070
    73
1070
     1
1070
    44
1040
1.0
1070
    74
1070
     0
1000
MTEXTEND
  0
MTEXT
  5
1B1
102
{ACAD_XDICTIONARY
360
657
102
}
330
29
100
AcDbEntity
  8
1
 62
     3
100
AcDbMText
 10
8.533390093952679
 20
-300.1843642716324
 30
0.0
 40
3.5
 41
0.0
 71
     4
 72
     1
  1
6\U+0192i\U+0192C\U+0192\U+008D\U+0192\U+201C(\U+0192t\U+0192B\U+0192\U+2030\U+0081[\U+201C*\U+201A%%c)
  7
CONVERTER_4
 73
     1
 44
1.0
1001
ACAD
1000
MTEXTBEGIN
1070
    73
1070
     1
1070
    44
1040
1.0
1070
    74
1070
     0
1000
MTEXTEND
  0
MTEXT
  5
1AF
102
{ACAD_XDICTIONARY
360
655
102
}
330
29
100
AcDbEntity
  8
1
 62
     3
100
AcDbMText
 10
-41.46660990604732
 20
-279.1843642716327
 30
0.0
 40
3.5
 41
0.0
 71
     4
 72
     1
  1
\U+0192x\U+0192A\U+0192\U+0160\U+0192\U+201C\U+0192O\U+201C*\U+201A%%c\U+017D\U+00E5%%d\U+00F8
  7
CONVERTER_1
 73
     1
 44
1.0
1001
ACAD
1000
MTEXTBEGIN
1070
    73
1070
     1
1070
    44
1040
1.0
1070
    74
1070
     0
1000
MTEXTEND
  0
MTEXT
  5
1AE
102
{ACAD_XDICTIONARY
360
653
102
}
330
29
100
AcDbEntity
  8
1
 62
     3
100
AcDbMText
 10
-41.46660990604732
 20
-286.1843642716328
 30
0.0
 40
3.5
 41
0.0
 71
     4
 72
     1
  1
\U+0192\U+2030\U+0192\U+201C\U+0192i\U+0081[\U+00B2{\U+2018\U+00E4
  7
CONVERTER_1
 73
     1
 44
1.0
1001
ACAD
1000
MTEXTBEGIN
1070
    73
1070
     1
1070
    44
1040
1.0
1070
    74
1070
     0
1000
MTEXTEND
  0
MTEXT
  5
1AD
102
{ACAD_XDICTIONARY
360
651
102
}
330
29
100
AcDbEntity
  8
1
 62
     3
100
AcDbMText
 10
-41.46660990604732
 20
-293.1843642716326
 30
0.0
 40
3.5
 41
0.0
 71
     4
 72
     1
  1
\U+2019\U+00EF\U+201A%%c\U+017D\U+00FD
  7
CONVERTER_1
 73
     1
 44
1.0
1001
ACAD
1000
MTEXTBEGIN
1070
    73
1070
     1
1070
    44
1040
1.0
1070
    74
1070
     0
1000
MTEXTEND
  0
MTEXT
  5
1AC
102
{ACAD_XDICTIONARY
360
64F
102
}
330
29
100
AcDbEntity
  8
1
 62
     3
100
AcDbMText
 10
-41.46660990604732
 20
-300.1843642716324
 30
0.0
 40
3.5
 41
0.0
 71
     4
 72
     1
  1
\U+2019\U+2026\U+2019E\U+0192z\U+0192\U+2039\U+0192_\U+0081[
  7
CONVERTER_1
 73
     1
 44
1.0
1001
ACAD
1000
MTEXTBEGIN
1070
    73
1070
     1
1070
    44
1040
1.0
1070
    74
1070
     0
1000
MTEXTEND
  0
MTEXT
  5
1AB
330
29
100
AcDbEntity
  8
1
 62
     3
100
AcDbMText
 10
-50.96660990604732
 20
-279.1843642716327
 30
0.0
 40
3.5
 41
0.0
 71
     5
 72
     1
  1
5
  7
CONVERTER_1
 73
     1
 44
1.0
1001
ACAD
1000
MTEXTBEGIN
1070
    73
1070
     1
1070
    44
1040
1.0
1070
    74
1070
     0
1000
MTEXTEND
  0
MTEXT
  5
1AA
330
29
100
AcDbEntity
  8
1
 62
     3
100
AcDbMText
 10
-50.96660990604732
 20
-286.1843642716328
 30
0.0
 40
3.5
 41
0.0
 71
     5
 72
     1
  1
4
  7
CONVERTER_1
 73
     1
 44
1.0
1001
ACAD
1000
MTEXTBEGIN
1070
    73
1070
     1
1070
    44
1040
1.0
1070
    74
1070
     0
1000
MTEXTEND
  0
MTEXT
  5
1A9
330
29
100
AcDbEntity
  8
1
 62
     3
100
AcDbMText
 10
-50.96660990604732
 20
-293.1843642716326
 30
0.0
 40
3.5
 41
0.0
 71
     5
 72
     1
  1
3
  7
CONVERTER_1
 73
     1
 44
1.0
1001
ACAD
1000
MTEXTBEGIN
1070
    73
1070
     1
1070
    44
1040
1.0
1070
    74
1070
     0
1000
MTEXTEND
  0
MTEXT
  5
1A8
330
29
100
AcDbEntity
  8
1
 62
     3
100
AcDbMText
 10
-50.96660990604732
 20
-300.1843642716324
 30
0.0
 40
3.5
 41
0.0
 71
     5
 72
     1
  1
2
  7
CONVERTER_1
 73
     1
 44
1.0
1001
ACAD
1000
MTEXTBEGIN
1070
    73
1070
     1
1070
    44
1040
1.0
1070
    74
1070
     0
1000
MTEXTEND
  0
MTEXT
  5
1A7
102
{ACAD_XDICTIONARY
360
64D
102
}
330
29
100
AcDbEntity
  8
1
 62
     3
100
AcDbMText
 10
-41.46660990604732
 20
-307.1843642716323
 30
0.0
 40
3.5
 41
0.0
 71
     4
 72
     1
  1
\U+0152\U+00E9\U+2019%%c\U+0192J\U+0192b\U+0192v
  7
CONVERTER_1
 73
     1
 44
1.0
1001
ACAD
1000
MTEXTBEGIN
1070
    73
1070
     1
1070
    44
1040
1.0
1070
    74
1070
     0
1000
MTEXTEND
  0
MTEXT
  5
1A6
330
29
100
AcDbEntity
  8
1
 62
     3
100
AcDbMText
 10
8.533390093952679
 20
-307.1843642716323
 30
0.0
 40
3.5
 41
0.0
 71
     4
 72
     1
  1
ZDC 2
  7
CONVERTER_1
 73
     1
 44
1.0
1001
ACAD
1000
MTEXTBEGIN
1070
    73
1070
     1
1070
    44
1040
1.0
1070
    74
1070
     0
1000
MTEXTEND
  0
MTEXT
  5
1A5
102
{ACAD_XDICTIONARY
360
64B
102
}
330
29
100
AcDbEntity
  8
1
 62
     3
100
AcDbMText
 10
53.53339009395268
 20
-307.1843642716323
 30
0.0
 40
3.5
 41
0.0
 71
     4
 72
     1
  1
\U+0192N\U+0192\U+008D\U+0192\U+0081\U+0081[\U+0192g
  7
CONVERTER_1
 73
     1
 44
1.0
1001
ACAD
1000
MTEXTBEGIN
1070
    73
1070
     1
1070
    44
1040
1.0
1070
    74
1070
     0
1000
MTEXTEND
  0
MTEXT
  5
1A4
102
{ACAD_XDICTIONARY
360
649
102
}
330
29
100
AcDbEntity
  8
1
 62
     3
100
AcDbMText
 10
43.53339009395268
 20
-340.1843642716324
 30
0.0
 40
6.0
 41
0.0
 71
     4
 72
     1
  1
\U+2018g%%d\U+00CF\U+0090}
  7
CONVERTER_1
 73
     1
 44
1.0
1001
ACAD
1000
MTEXTBEGIN
1070
    73
1070
     1
1070
    44
1040
1.0
1070
    74
1070
     0
1000
MTEXTEND
  0
MTEXT
  5
1A3
330
29
100
AcDbEntity
  8
1
 62
     3
100
AcDbMText
 10
43.53339009395268
 20
-325.1843642716324
 30
0.0
 40
6.0
 41
0.0
 71
     4
 72
     1
  1
AFD-700-B
  7
CONVERTER_1
 73
     1
 44
1.0
1001
ACAD
1000
MTEXTBEGIN
1070
    73
1070
     1
1070
    44
1040
1.0
1070
    74
1070
     0
1000
MTEXTEND
  0
MTEXT
  5
1A2
330
29
100
AcDbEntity
  8
1
 62
     3
100
AcDbMText
 10
24.53339009395268
 20
-339.1843642716324
 30
0.0
 40
3.5
 41
0.0
 71
     5
 72
     1
  1
99.11.11.
  7
CONVERTER_1
 73
     1
 44
1.0
1001
ACAD
1000
MTEXTBEGIN
1070
    73
1070
     1
1070
    44
1040
1.0
1070
    74
1070
     0
1000
MTEXTEND
  0
MTEXT
  5
1A1
102
{ACAD_XDICTIONARY
360
647
102
}
330
29
100
AcDbEntity
  8
1
 62
     3
100
AcDbMText
 10
24.53339009395268
 20
-330.1843642716324
 30
0.0
 40
6.0
 41
0.0
 71
     5
 72
     1
  1
\U+0160\U+00F8\U+008D^ 
  7
CONVERTER_1
 73
     1
 44
1.0
1001
ACAD
1000
MTEXTBEGIN
1070
    73
1070
     1
1070
    44
1040
1.0
1070
    74
1070
     0
1000
MTEXTEND
  0
MTEXT
  5
1A0
102
{ACAD_XDICTIONARY
360
645
102
}
330
29
100
AcDbEntity
  8
1
 62
     3
100
AcDbMText
 10
4.533390093952679
 20
-330.1843642716324
 30
0.0
 40
6.0
 41
0.0
 71
     5
 72
     1
  1
\U+2019\U+2020\U+201C\U+2021
  7
CONVERTER_1
 73
     1
 44
1.0
1001
ACAD
1000
MTEXTBEGIN
1070
    73
1070
     1
1070
    44
1040
1.0
1070
    74
1070
     0
1000
MTEXTEND
  0
MTEXT
  5
19F
330
29
100
AcDbEntity
  8
1
 62
     3
100
AcDbMText
 10
4.533390093952679
 20
-339.1843642716324
 30
0.0
 40
3.5
 41
0.0
 71
     5
 72
     1
  1
99.11.11.
  7
CONVERTER_1
 73
     1
 44
1.0
1001
ACAD
1000
MTEXTBEGIN
1070
    73
1070
     1
1070
    44
1040
1.0
1070
    74
1070
     0
1000
MTEXTEND
  0
MTEXT
  5
19E
330
29
100
AcDbEntity
  8
1
 62
     3
100
AcDbMText
 10
-15.46660990604732
 20
-339.1843642716324
 30
0.0
 40
3.5
 41
0.0
 71
     5
 72
     1
  1
99.11.11.
  7
CONVERTER_1
 73
     1
 44
1.0
1001
ACAD
1000
MTEXTBEGIN
1070
    73
1070
     1
1070
    44
1040
1.0
1070
    74
1070
     0
1000
MTEXTEND
  0
MTEXT
  5
19D
102
{ACAD_XDICTIONARY
360
643
102
}
330
29
100
AcDbEntity
  8
1
 62
     3
100
AcDbMText
 10
-15.46660990604732
 20
-330.1843642716324
 30
0.0
 40
6.0
 41
0.0
 71
     5
 72
     1
  1
\U+02C6\U+00CF\U+008D\U+00E3
  7
CONVERTER_1
 73
     1
 44
1.0
1001
ACAD
1000
MTEXTBEGIN
1070
    73
1070
     1
1070
    44
1040
1.0
1070
    74
1070
     0
1000
MTEXTEND
  0
MTEXT
  5
19C
330
29
100
AcDbEntity
  8
1
 62
     3
100
AcDbMText
 10
-41.96660990604732
 20
-322.6843642716324
 30
0.0
 40
6.0
 41
0.0
 71
     5
 72
     1
  1
1 : 1
  7
CONVERTER_1
 73
     1
 44
1.0
1001
ACAD
1000
MTEXTBEGIN
1070
    73
1070
     1
1070
    44
1040
1.0
1070
    74
1070
     0
1000
MTEXTEND
  0
MTEXT
  5
19B
330
29
100
AcDbEntity
  8
1
 62
     3
100
AcDbMText
 10
-50.96660990604732
 20
-307.1843642716323
 30
0.0
 40
3.5
 41
0.0
 71
     5
 72
     1
  1
1
  7
CONVERTER_1
 73
     1
 44
1.0
1001
ACAD
1000
MTEXTBEGIN
1070
    73
1070
     1
1070
    44
1040
1.0
1070
    74
1070
     0
1000
MTEXTEND
  0
MTEXT
  5
19A
330
29
100
AcDbEntity
  8
1
 62
     3
100
AcDbMText
 10
44.03339009395268
 20
-307.1843642716323
 30
0.0
 40
3.5
 41
0.0
 71
     5
 72
     1
  1
1
  7
CONVERTER_1
 73
     1
 44
1.0
1001
ACAD
1000
MTEXTBEGIN
1070
    73
1070
     1
1070
    44
1040
1.0
1070
    74
1070
     0
1000
MTEXTEND
  0
MTEXT
  5
199
102
{ACAD_XDICTIONARY
360
641
102
}
330
29
100
AcDbEntity
  8
1
 62
     4
100
AcDbMText
 10
34.43339009395268
 20
-325.1843642716324
 30
0.0
 40
4.0
 41
0.0
 71
     4
 72
     1
  1
\U+2022i\P\U+00B2\U+00A5
  7
CONVERTER_2
 73
     1
 44
1.0
1001
ACAD
1000
MTEXTBEGIN
1070
    73
1070
     1
1070
    44
1040
1.0
1070
    74
1070
     0
1000
MTEXTEND
  0
MTEXT
  5
198
102
{ACAD_XDICTIONARY
360
63F
102
}
330
29
100
AcDbEntity
  8
1
 62
     4
100
AcDbMText
 10
34.43339009395268
 20
-340.1843642716324
 30
0.0
 40
4.0
 41
0.0
 71
     4
 72
     1
  1
\U+0090}\P\U+00B2\U+00A5
  7
CONVERTER_2
 73
     1
 44
1.0
1001
ACAD
1000
MTEXTBEGIN
1070
    73
1070
     1
1070
    44
1040
1.0
1070
    74
1070
     0
1000
MTEXTEND
  0
MTEXT
  5
197
102
{ACAD_XDICTIONARY
360
63D
102
}
330
29
100
AcDbEntity
  8
1
 62
     4
100
AcDbMText
 10
34.43339009395268
 20
-355.1843642716324
 30
0.0
 40
4.0
 41
0.0
 71
     4
 72
     1
  1
\U+0090}\P\U+201D\U+00E5
  7
CONVERTER_2
 73
     1
 44
1.0
1001
ACAD
1000
MTEXTBEGIN
1070
    73
1070
     1
1070
    44
1040
1.0
1070
    74
1070
     0
1000
MTEXTEND
  0
MTEXT
  5
196
102
{ACAD_XDICTIONARY
360
63B
102
}
330
29
100
AcDbEntity
  8
1
 62
     4
100
AcDbMText
 10
-50.96660990604732
 20
-314.1843642716323
 30
0.0
 40
4.0
 41
0.0
 71
     5
 72
     1
  1
\U+2022i \U+201D\U+00E5
  7
CONVERTER_2
 73
     1
 44
1.0
1001
ACAD
1000
MTEXTBEGIN
1070
    73
1070
     1
1070
    44
1040
1.0
1070
    74
1070
     0
1000
MTEXTEND
  0
MTEXT
  5
195
102
{ACAD_XDICTIONARY
360
639
102
}
330
29
100
AcDbEntity
  8
1
 62
     4
100
AcDbMText
 10
-18.46660990604732
 20
-314.1843642716323
 30
0.0
 40
4.0
 41
0.0
 71
     5
 72
     1
  1
\U+2022i        \U+00B2\U+00A5
  7
CONVERTER_2
 73
     1
 44
1.0
1001
ACAD
1000
MTEXTBEGIN
1070
    73
1070
     1
1070
    44
1040
1.0
1070
    74
1070
     0
1000
MTEXTEND
  0
MTEXT
  5
194
102
{ACAD_XDICTIONARY
360
637
102
}
330
29
100
AcDbEntity
  8
1
 62
     4
100
AcDbMText
 10
21.53339009395268
 20
-314.1843642716323
 30
0.0
 40
4.0
 41
0.0
 71
     5
 72
     1
  1
\U+008D\U+00DF   \U+017D\U+00A2
  7
CONVERTER_2
 73
     1
 44
1.0
1001
ACAD
1000
MTEXTBEGIN
1070
    73
1070
     1
1070
    44
1040
1.0
1070
    74
1070
     0
1000
MTEXTEND
  0
MTEXT
  5
193
102
{ACAD_XDICTIONARY
360
635
102
}
330
29
100
AcDbEntity
  8
1
 62
     4
100
AcDbMText
 10
44.03339009395268
 20
-314.1843642716324
 30
0.0
 40
4.0
 41
0.0
 71
     5
 72
     1
  1
\U+0090\U+201D %%d%%d
  7
CONVERTER_2
 73
     1
 44
1.0
1001
ACAD
1000
MTEXTBEGIN
1070
    73
1070
     1
1070
    44
1040
1.0
1070
    74
1070
     0
1000
MTEXTEND
  0
MTEXT
  5
192
102
{ACAD_XDICTIONARY
360
633
102
}
330
29
100
AcDbEntity
  8
1
 62
     4
100
AcDbMText
 10
71.53339009395269
 20
-314.1843642716324
 30
0.0
 40
4.0
 41
0.0
 71
     5
 72
     1
  1
\U+017Dd   \U+008F\U+00D0   \U+201A\U+00AF
  7
CONVERTER_2
 73
     1
 44
1.0
1001
ACAD
1000
MTEXTBEGIN
1070
    73
1070
     1
1070
    44
1040
1.0
1070
    74
1070
     0
1000
MTEXTEND
  0
MTEXT
  5
191
102
{ACAD_XDICTIONARY
360
631
102
}
330
29
100
AcDbEntity
  8
1
 62
     4
100
AcDbMText
 10
106.5333900939527
 20
-314.1843642716324
 30
0.0
 40
4.0
 41
0.0
 71
     5
 72
     1
  1
\U+2039L   \U+017D\U+00B2
  7
CONVERTER_2
 73
     1
 44
1.0
1001
ACAD
1000
MTEXTBEGIN
1070
    73
1070
     1
1070
    44
1040
1.0
1070
    74
1070
     0
1000
MTEXTEND
  0
MTEXT
  5
190
102
{ACAD_XDICTIONARY
360
62F
102
}
330
29
100
AcDbEntity
  8
1
 62
     4
100
AcDbMText
 10
-15.46660990604732
 20
-321.1843642716324
 30
0.0
 40
4.0
 41
0.0
 71
     5
 72
     1
  1
\U+008F\U+00B0  \U+201DF
  7
CONVERTER_2
 73
     1
 44
1.0
1001
ACAD
1000
MTEXTBEGIN
1070
    73
1070
     1
1070
    44
1040
1.0
1070
    74
1070
     0
1000
MTEXTEND
  0
MTEXT
  5
18F
102
{ACAD_XDICTIONARY
360
62D
102
}
330
29
100
AcDbEntity
  8
1
 62
     4
100
AcDbMText
 10
4.533390093952679
 20
-321.1843642716324
 30
0.0
 40
4.0
 41
0.0
 71
     5
 72
     1
  1
\U+0152\U+0081  \U+0090}
  7
CONVERTER_2
 73
     1
 44
1.0
1001
ACAD
1000
MTEXTBEGIN
1070
    73
1070
     1
1070
    44
1040
1.0
1070
    74
1070
     0
1000
MTEXTEND
  0
MTEXT
  5
18E
102
{ACAD_XDICTIONARY
360
62B
102
}
330
29
100
AcDbEntity
  8
1
 62
     4
100
AcDbMText
 10
24.53339009395268
 20
-321.1843642716324
 30
0.0
 40
4.0
 41
0.0
 71
     5
 72
     1
  1
\U+2019S  \U+201C\U+00B2
  7
CONVERTER_2
 73
     1
 44
1.0
1001
ACAD
1000
MTEXTBEGIN
1070
    73
1070
     1
1070
    44
1040
1.0
1070
    74
1070
     0
1000
MTEXTEND
  0
MTEXT
  5
18D
102
{ACAD_XDICTIONARY
360
629
102
}
330
29
100
AcDbEntity
  8
1
 62
     4
100
AcDbMText
 10
-54.27953840751638
 20
-320.1912202951387
 30
0.0
 40
4.0
 41
0.0
 71
     5
 72
     1
  1
\U+017D\U+00D6\U+201Cx
  7
CONVERTER_2
 73
     1
 44
1.0
1001
ACAD
1000
MTEXTBEGIN
1070
    73
1070
     1
1070
    44
1040
1.0
1070
    74
1070
     0
1000
MTEXTEND
  0
MTEXT
  5
18C
102
{ACAD_XDICTIONARY
360
627
102
}
330
29
100
AcDbEntity
  8
1
 62
     4
100
AcDbMText
 10
-41.54169507645746
 20
-358.2779939820993
 30
0.0
 40
4.0
 41
0.0
 71
     5
 72
     1
  1
\U+008D\U+201A\U+2039\U+00C7\U+2039\U+00C1\U+2022\U+00B4\U+0160\U+201D\U+017D\U+00DB\U+2030\U+00FF\U+017D\U+00C5
  7
CONVERTER_2
 73
     1
 44
1.0
1001
ACAD
1000
MTEXTBEGIN
1070
    73
1070
     1
1070
    44
1040
1.0
1070
    74
1070
     0
1000
MTEXTEND
  0
MTEXT
  5
18B
102
{ACAD_XDICTIONARY
360
625
102
}
330
29
100
AcDbEntity
  8
1
 62
     4
100
AcDbMText
 10
-13.97689777845426
 20
-348.007568654422
 30
0.0
 40
3.0
 41
0.0
 71
     5
 72
     1
  1
\U+00B2{\U+017D\U+00C5
  7
CONVERTER_2
 73
     1
 44
1.0
1001
ACAD
1000
MTEXTBEGIN
1070
    73
1070
     1
1070
    44
1040
1.0
1070
    74
1070
     0
1000
MTEXTEND
  0
MTEXT
  5
18A
102
{ACAD_XDICTIONARY
360
623
102
}
330
29
100
AcDbEntity
  8
1
 62
     4
100
AcDbMText
 10
6.16924670358253
 20
-352.7364751345014
 30
0.0
 40
2.5
 41
0.0
 71
     5
 72
     1
  1
\U+201C\U+0152\U+2039\U+20AC\U+201Cs\U+2018\U+00F0\U+201C\U+0152\U+2039\U+00CC\U+201C*\U+2019J
  7
CONVERTER_2
 73
     1
 44
1.0
1001
ACAD
1000
MTEXTBEGIN
1070
    73
1070
     1
1070
    44
1040
1.0
1070
    74
1070
     0
1000
MTEXTEND
  0
MTEXT
  5
189
330
29
100
AcDbEntity
  8
1
 62
     4
100
AcDbMText
 10
22.44529302179171
 20
-352.7180574240662
 30
0.0
 40
2.0
 41
0.0
 71
     5
 72
     1
  1
1-27-4
  7
CONVERTER_2
 73
     1
 44
1.0
1001
ACAD
1000
MTEXTBEGIN
1070
    73
1070
     1
1070
    44
1040
1.0
1070
    74
1070
     0
1000
MTEXTEND
  0
MTEXT
  5
188
330
29
100
AcDbEntity
  8
1
 62
     4
100
AcDbMText
 10
3.31959478083672
 20
-357.8953025405607
 30
0.0
 40
2.0
 41
0.0
 71
     5
 72
     1
  1
03 (3876) 0600
  7
CONVERTER_2
 73
     1
 44
1.0
1001
ACAD
1000
MTEXTBEGIN
1070
    73
1070
     1
1070
    44
1040
1.0
1070
    74
1070
     0
1000
MTEXTEND
  0
MTEXT
  5
187
102
{ACAD_XDICTIONARY
360
621
102
}
330
29
100
AcDbEntity
  8
1
 62
     4
100
AcDbMText
 10
-15.31682109305939
 20
-352.8336288343271
 30
0.0
 40
2.5
 41
0.0
 71
     5
 72
     1
  1
\U+0081\U+00CF
  7
CONVERTER_2
 73
     1
 44
1.0
1001
ACAD
1000
MTEXTBEGIN
1070
    73
1070
     1
1070
    44
1040
1.0
1070
    74
1070
     0
1000
MTEXTEND
  0
MTEXT
  5
186
330
29
100
AcDbEntity
  8
1
 62
     4
100
AcDbMText
 10
-12.34579827258335
 20
-357.8753645296805
 30
0.0
 40
2.0
 41
0.0
 71
     5
 72
     1
  1
TEL
  7
CONVERTER_3
 73
     1
 44
1.0
1001
ACAD
1000
MTEXTBEGIN
1070
    73
1070
     1
1070
    44
1040
1.0
1070
    74
1070
     0
1000
MTEXTEND
  0
MTEXT
  5
184
330
29
100
AcDbEntity
  8
1
 62
     4
100
AcDbMText
 10
-11.1679001086934
 20
-352.77117174887
 30
0.0
 40
2.0
 41
0.0
 71
     5
 72
     1
  1
110
  7
CONVERTER_2
 73
     1
 44
1.0
1001
ACAD
1000
MTEXTBEGIN
1070
    73
1070
     1
1070
    44
1040
1.0
1070
    74
1070
     0
1000
MTEXTEND
  0
MTEXT
  5
182
330
29
100
AcDbEntity
  8
1
 62
     3
100
AcDbMText
 10
-50.96660990604732
 20
-265.1843642716331
 30
0.0
 40
3.5
 41
0.0
 71
     5
 72
     1
  1
7
  7
CONVERTER_1
 73
     1
 44
1.0
1001
ACAD
1000
MTEXTBEGIN
1070
    73
1070
     1
1070
    44
1040
1.0
1070
    74
1070
     0
1000
MTEXTEND
  0
MTEXT
  5
181
330
29
100
AcDbEntity
  8
1
 62
     3
100
AcDbMText
 10
-50.96660990604732
 20
-258.1843642716334
 30
0.0
 40
3.5
 41
0.0
 71
     5
 72
     1
  1
8
  7
CONVERTER_1
 73
     1
 44
1.0
1001
ACAD
1000
MTEXTBEGIN
1070
    73
1070
     1
1070
    44
1040
1.0
1070
    74
1070
     0
1000
MTEXTEND
  0
MTEXT
  5
180
102
{ACAD_XDICTIONARY
360
61F
102
}
330
29
100
AcDbEntity
  8
1
 62
     3
100
AcDbMText
 10
-41.46660990604732
 20
-265.1843642716331
 30
0.0
 40
3.5
 41
0.0
 71
     4
 72
     1
  1
\U+0192J\U+0192o\U+0081[\U+0081E\U+2019\U+2026\U+2019E\U+0192z\U+0192\U+2039\U+0192_\U+0081[\U+017D\U+00CC\U+2022t\U+201A\U+00F9\U+201A\U+00D1
  7
CONVERTER_1
 73
     1
 44
1.0
1001
ACAD
1000
MTEXTBEGIN
1070
    73
1070
     1
1070
    44
1040
1.0
1070
    74
1070
     0
1000
MTEXTEND
  0
MTEXT
  5
17F
102
{ACAD_XDICTIONARY
360
61D
102
}
330
29
100
AcDbEntity
  8
1
 62
     3
100
AcDbMText
 10
-41.46660990604732
 20
-258.1843642716334
 30
0.0
 40
3.5
 41
0.0
 71
     4
 72
     1
  1
\U+017D\U+00CC\U+2022t\U+201A\U+00A3%%dp\U+201CY\U+2022t\U+201A\U+00F9\U+201A\U+00D1
  7
CONVERTER_1
 73
     1
 44
1.0
1001
ACAD
1000
MTEXTBEGIN
1070
    73
1070
     1
1070
    44
1040
1.0
1070
    74
1070
     0
1000
MTEXTEND
  0
MTEXT
  5
17E
102
{ACAD_XDICTIONARY
360
61B
102
}
330
29
100
AcDbEntity
  8
1
 62
     3
100
AcDbMText
 10
8.533390093952679
 20
-258.1843642716334
 30
0.0
 40
3.5
 41
0.0
 71
     4
 72
     1
  1
\U+017Ds\U+201D\U+00E4\U+2022i \U+02C6\U+00F5\U+017D\U+00DA
  7
CONVERTER_1
 73
     1
 44
1.0
1001
ACAD
1000
MTEXTBEGIN
1070
    73
1070
     1
1070
    44
1040
1.0
1070
    74
1070
     0
1000
MTEXTEND
  0
MTEXT
  5
17D
330
29
100
AcDbEntity
  8
1
 62
     3
100
AcDbMText
 10
44.03339009395268
 20
-265.1843642716331
 30
0.0
 40
3.5
 41
0.0
 71
     5
 72
     1
  1
1
  7
CONVERTER_1
 73
     1
 44
1.0
1001
ACAD
1000
MTEXTBEGIN
1070
    73
1070
     1
1070
    44
1040
1.0
1070
    74
1070
     0
1000
MTEXTEND
  0
MTEXT
  5
17C
330
29
100
AcDbEntity
  8
1
 62
     3
100
AcDbMText
 10
44.03339009395268
 20
-258.1843642716334
 30
0.0
 40
3.5
 41
0.0
 71
     5
 72
     1
  1
3
  7
CONVERTER_1
 73
     1
 44
1.0
1001
ACAD
1000
MTEXTBEGIN
1070
    73
1070
     1
1070
    44
1040
1.0
1070
    74
1070
     0
1000
MTEXTEND
  0
MTEXT
  5
17B
102
{ACAD_XDICTIONARY
360
619
102
}
330
29
100
AcDbEntity
  8
1
 62
     3
100
AcDbMText
 10
53.53339009395268
 20
-265.1843642716331
 30
0.0
 40
3.5
 41
0.0
 71
     4
 72
     1
  1
GB\U+0192\U+0081\U+0192b\U+0192L
  7
CONVERTER_1
 73
     1
 44
1.0
1001
ACAD
1000
MTEXTBEGIN
1070
    73
1070
     1
1070
    44
1040
1.0
1070
    74
1070
     0
1000
MTEXTEND
  0
MTEXT
  5
17A
102
{ACAD_XDICTIONARY
360
617
102
}
330
29
100
AcDbEntity
  8
1
 62
     3
100
AcDbMText
 10
53.53339009395268
 20
-258.1843642716334
 30
0.0
 40
3.5
 41
0.0
 71
     4
 72
     1
  1
\U+0192N\U+0192\U+008D\U+0192\U+0081\U+0081[\U+0192g
  7
CONVERTER_1
 73
     1
 44
1.0
1001
ACAD
1000
MTEXTBEGIN
1070
    73
1070
     1
1070
    44
1040
1.0
1070
    74
1070
     0
1000
MTEXTEND
  0
MTEXT
  5
179
102
{ACAD_XDICTIONARY
360
615
102
}
330
29
100
AcDbEntity
  8
1
 62
     3
100
AcDbMText
 10
93.53339009395268
 20
-265.1843642716331
 30
0.0
 40
3.5
 41
0.0
 71
     4
 72
     1
  1
\U+017DM\U+0081{M4\U+0081~40
  7
CONVERTER_1
 73
     1
 44
1.0
1001
ACAD
1000
MTEXTBEGIN
1070
    73
1070
     1
1070
    44
1040
1.0
1070
    74
1070
     0
1000
MTEXTEND
  0
MTEXT
  5
178
102
{ACAD_XDICTIONARY
360
613
102
}
330
29
100
AcDbEntity
  8
1
 62
     3
100
AcDbMText
 10
93.53339009395268
 20
-258.1843642716334
 30
0.0
 40
3.5
 41
0.0
 71
     4
 72
     1
  1
\U+201A\U+00E0\U+201A\U+00E6\U+0192\U+0152b\U+0192s\U+0192\U+201C3.5\U+0081~30
  7
CONVERTER_1
 73
     1
 44
1.0
1001
ACAD
1000
MTEXTBEGIN
1070
    73
1070
     1
1070
    44
1040
1.0
1070
    74
1070
     0
1000
MTEXTEND
  0
MTEXT
  5
177
102
{ACAD_XDICTIONARY
360
611
102
}
330
29
100
AcDbEntity
  8
1
 62
     3
100
AcDbMText
 10
53.53339009395268
 20
-272.1843642716327
 30
0.0
 40
3.5
 41
0.0
 71
     4
 72
     1
  1
\U+0192`\U+0192\U+2021\U+0192R\U+0090F
  7
CONVERTER_1
 73
     1
 44
1.0
1001
ACAD
1000
MTEXTBEGIN
1070
    73
1070
     1
1070
    44
1040
1.0
1070
    74
1070
     0
1000
MTEXTEND
  0
ARC
  5
175
330
29
100
AcDbEntity
  8
1
  6
Continuous
 62
     7
100
AcDbCircle
 10
-53.13127819995941
 20
-348.4141408407531
 30
0.0
 40
0.15691335823365
100
AcDbArc
 50
16.99999999996254
 51
163.0000000000374
  0
ARC
  5
174
330
29
100
AcDbEntity
  8
1
  6
Continuous
 62
     7
100
AcDbCircle
 10
-53.84271770677731
 20
-350.7411546145216
 30
0.0
 40
0.15691335823367
100
AcDbArc
 50
163.0000000000176
 51
-90.0
  0
ARC
  5
173
330
29
100
AcDbEntity
  8
1
  6
Continuous
 62
     7
100
AcDbCircle
 10
-52.41983869314231
 20
-350.7411546145216
 30
0.0
 40
0.1569133582334
100
AcDbArc
 50
-90.0
 51
16.99999999998239
  0
ARC
  5
172
330
29
100
AcDbEntity
  8
1
  6
Continuous
 62
     7
100
AcDbCircle
 10
-54.09857492247238
 20
-351.5780258584336
 30
0.0
 40
0.15691335823357
100
AcDbArc
 50
90.0
 51
163.0000000000573
  0
ARC
  5
171
330
29
100
AcDbEntity
  8
1
  6
Continuous
 62
     7
100
AcDbCircle
 10
-54.64227150582235
 20
-353.3563772517465
 30
0.0
 40
0.15691335823363
100
AcDbArc
 50
163.0000000000573
 51
-90.0
  0
ARC
  5
170
330
29
100
AcDbEntity
  8
1
  6
Continuous
 62
     7
100
AcDbCircle
 10
-52.20268473652936
 20
-351.630330311178
 30
0.0
 40
0.20921781097849
100
AcDbArc
 50
16.99999999993827
 51
90.0
  0
ARC
  5
16F
330
29
100
AcDbEntity
  8
1
  6
Continuous
 62
     7
100
AcDbCircle
 10
-51.69097030514035
 20
-353.304072799002
 30
0.0
 40
0.20921781097815
100
AcDbArc
 50
-90.0
 51
17.00000000000644
  0
ARC
  5
16E
330
29
100
AcDbEntity
  8
1
  6
Continuous
 62
     7
100
AcDbCircle
 10
-55.59478738498535
 20
-353.2517683462576
 30
0.0
 40
0.2615222637225
100
AcDbArc
 50
-90.0
 51
-16.99999999999387
  0
ARC
  5
16D
330
29
100
AcDbEntity
  8
1
  6
Continuous
 62
     7
100
AcDbCircle
 10
-49.40979930849642
 20
-353.2517683462576
 30
0.0
 40
0.26152226372237
100
AcDbArc
 50
-162.9999999999992
 51
-90.0
  0
ARC
  5
16C
330
29
100
AcDbEntity
  8
1
  6
Continuous
 62
     7
100
AcDbCircle
 10
-55.85110974267332
 20
-353.6178995154691
 30
0.0
 40
0.10460890548899
100
AcDbArc
 50
90.0
 51
180.0
  0
ARC
  5
16B
330
29
100
AcDbEntity
  8
1
  6
Continuous
 62
     7
100
AcDbCircle
 10
-54.38658506582839
 20
-353.6178995154691
 30
0.0
 40
0.10460890548905
100
AcDbArc
 50
0.0
 51
90.0
  0
ARC
  5
16A
330
29
100
AcDbEntity
  8
1
  6
Continuous
 62
     7
100
AcDbCircle
 10
-51.98058023958139
 20
-353.6178995154691
 30
0.0
 40
0.10460890548899
100
AcDbArc
 50
90.0
 51
180.0
  0
ARC
  5
169
330
29
100
AcDbEntity
  8
1
  6
Continuous
 62
     7
100
AcDbCircle
 10
-49.05153088588838
 20
-353.6178995154691
 30
0.0
 40
0.10460890548904
100
AcDbArc
 50
0.0
 51
90.0
  0
ARC
  5
168
330
29
100
AcDbEntity
  8
1
  6
Continuous
 62
     7
100
AcDbCircle
 10
-47.84852847276534
 20
-347.7074963553406
 30
0.0
 40
0.36613116921103
100
AcDbArc
 50
0.0
 51
90.0
  0
ARC
  5
167
330
29
100
AcDbEntity
  8
1
  6
Continuous
 62
     7
100
AcDbCircle
 10
-45.12869693005131
 20
-347.7074963553406
 30
0.0
 40
0.36613116921149
100
AcDbArc
 50
90.0
 51
180.0
  0
ARC
  5
166
330
29
100
AcDbEntity
  8
1
  6
Continuous
 62
     7
100
AcDbCircle
 10
-44.97819261866538
 20
-348.0736275245521
 30
0.0
 40
0.7322623384232
100
AcDbArc
 50
17.47288527030367
 51
90.0
  0
ARC
  5
165
330
29
100
AcDbEntity
  8
1
  6
Continuous
 62
     7
100
AcDbCircle
 10
-47.9990327841524
 20
-348.0736275245521
 30
0.0
 40
0.7322623384229701
100
AcDbArc
 50
90.0
 51
162.5271147296963
  0
ARC
  5
164
330
29
100
AcDbEntity
  8
1
  6
Continuous
 62
     7
100
AcDbCircle
 10
-47.74391956727639
 20
-353.2517683462576
 30
0.0
 40
0.2615222637225
100
AcDbArc
 50
-90.0
 51
0.0
  0
ARC
  5
163
330
29
100
AcDbEntity
  8
1
  6
Continuous
 62
     7
100
AcDbCircle
 10
-45.23330583554025
 20
-353.2517683462576
 30
0.0
 40
0.26152226372301
100
AcDbArc
 50
180.0
 51
-90.0
  0
ARC
  5
162
330
29
100
AcDbEntity
  8
1
  6
Continuous
 62
     7
100
AcDbCircle
 10
-45.02408802456239
 20
-353.6178995154691
 30
0.0
 40
0.10460890548893
100
AcDbArc
 50
0.0
 51
90.0
  0
ARC
  5
161
330
29
100
AcDbEntity
  8
1
  6
Continuous
 62
     7
100
AcDbCircle
 10
-47.95313737825438
 20
-353.6178995154691
 30
0.0
 40
0.10460890548899
100
AcDbArc
 50
90.0
 51
180.0
  0
ARC
  5
160
330
29
100
AcDbEntity
  8
1
  6
Continuous
 62
     7
100
AcDbCircle
 10
-35.03393755036245
 20
-347.23675628064
 30
0.0
 40
0.10460890548984
100
AcDbArc
 50
180.0
 51
-90.0
  0
ARC
  5
15F
330
29
100
AcDbEntity
  8
1
  6
Continuous
 62
     7
100
AcDbCircle
 10
-27.18826963868833
 20
-347.23675628064
 30
0.0
 40
0.10460890548899
100
AcDbArc
 50
-90.0
 51
0.0
  0
ARC
  5
15E
330
29
100
AcDbEntity
  8
1
  6
Continuous
 62
     7
100
AcDbCircle
 10
-27.18826963868833
 20
-353.6178995154691
 30
0.0
 40
0.10460890548893
100
AcDbArc
 50
0.0
 51
90.0
  0
ARC
  5
15D
330
29
100
AcDbEntity
  8
1
  6
Continuous
 62
     7
100
AcDbCircle
 10
-29.90810118140234
 20
-353.6178995154691
 30
0.0
 40
0.10460890548899
100
AcDbArc
 50
90.0
 51
180.0
  0
ARC
  5
15C
330
29
100
AcDbEntity
  8
1
  6
Continuous
 62
     7
100
AcDbCircle
 10
-35.03393755036245
 20
-353.6178995154691
 30
0.0
 40
0.10460890548899
100
AcDbArc
 50
90.0
 51
180.0
  0
ARC
  5
15B
330
29
100
AcDbEntity
  8
1
  6
Continuous
 62
     7
100
AcDbCircle
 10
-33.77863068449528
 20
-353.6178995154691
 30
0.0
 40
0.10460890548984
100
AcDbArc
 50
0.0
 51
90.0
  0
ARC
  5
15A
330
29
100
AcDbEntity
  8
1
  6
Continuous
 62
     7
100
AcDbCircle
 10
-34.77241528664035
 20
-347.4982785443625
 30
0.0
 40
0.15691335823294
100
AcDbArc
 50
0.0
 51
90.0
  0
ARC
  5
159
330
29
100
AcDbEntity
  8
1
  6
Continuous
 62
     7
100
AcDbCircle
 10
-34.77241528664035
 20
-353.3563772517465
 30
0.0
 40
0.15691335823362
100
AcDbArc
 50
-90.0
 51
0.0
  0
ARC
  5
158
330
29
100
AcDbEntity
  8
1
  6
Continuous
 62
     7
100
AcDbCircle
 10
-33.93554404272844
 20
-353.3563772517465
 30
0.0
 40
0.15691335823385
100
AcDbArc
 50
180.0
 51
-90.0
  0
ARC
  5
157
330
29
100
AcDbEntity
  8
1
  6
Continuous
 62
     7
100
AcDbCircle
 10
-33.93554404272844
 20
-347.4635088469272
 30
0.0
 40
0.1569133582332
100
AcDbArc
 50
15.00000000006409
 51
180.0
  0
ARC
  5
156
330
29
100
AcDbEntity
  8
1
  6
Continuous
 62
     7
100
AcDbCircle
 10
-31.11110359452528
 20
-349.9209086248407
 30
0.0
 40
0.15691335823317
100
AcDbArc
 50
-164.9999999999763
 51
-15.00000000004482
  0
ARC
  5
155
330
29
100
AcDbEntity
  8
1
  6
Continuous
 62
     7
100
AcDbCircle
 10
-29.59427446493442
 20
-347.4934474379016
 30
0.0
 40
0.15691335823295
100
AcDbArc
 50
0.0
 51
165.0000000000204
  0
ARC
  5
154
330
29
100
AcDbEntity
  8
1
  6
Continuous
 62
     7
100
AcDbCircle
 10
-27.39748744966641
 20
-347.6028874498516
 30
0.0
 40
0.2615222637225
100
AcDbArc
 50
90.0
 51
180.0
  0
ARC
  5
153
330
29
100
AcDbEntity
  8
1
  6
Continuous
 62
     7
100
AcDbCircle
 10
-29.69888337042426
 20
-353.2517683462576
 30
0.0
 40
0.2615222637225
100
AcDbArc
 50
-90.0
 51
0.0
  0
ARC
  5
152
330
29
100
AcDbEntity
  8
1
  6
Continuous
 62
     7
100
AcDbCircle
 10
-27.39748744966641
 20
-353.2517683462576
 30
0.0
 40
0.26152226372188
100
AcDbArc
 50
180.0
 51
-90.0
  0
CIRCLE
  5
151
330
29
100
AcDbEntity
  8
1
  6
Continuous
 62
     7
100
AcDbCircle
 10
-39.47981603364542
 20
-350.4273278980547
 30
0.0
 40
3.81822505034802
  0
CIRCLE
  5
150
330
29
100
AcDbEntity
  8
1
  6
Continuous
 62
     5
100
AcDbCircle
 10
-50.3911634447304
 20
-335.1843642716324
 30
0.0
 40
2.0
  0
CIRCLE
  5
14F
330
29
100
AcDbEntity
  8
1
  6
Continuous
 62
     5
100
AcDbCircle
 10
-50.3911634447304
 20
-335.1843642716324
 30
0.0
 40
4.0
  0
ARC
  5
14E
330
29
100
AcDbEntity
  8
1
  6
Continuous
 62
     7
100
AcDbCircle
 10
-43.82108561143946
 20
-348.4397586937637
 30
0.0
 40
0.26152226372075
100
AcDbArc
 50
-162.5271147296031
 51
1.852437285312309
  0
ARC
  5
14D
330
29
100
AcDbEntity
  8
1
  6
Continuous
 62
     7
100
AcDbCircle
 10
-49.15613979137834
 20
-348.4397586937637
 30
0.0
 40
0.26152226372185
100
AcDbArc
 50
178.1475627146556
 51
-17.47288527026269
  0
ARC
  5
14C
330
29
100
AcDbEntity
  8
1
  6
Continuous
 62
     7
100
AcDbCircle
 10
-37.74152887221726
 20
-348.6890407366259
 30
0.0
 40
0.8368712439117798
100
AcDbArc
 50
-45.00000000001961
 51
134.9999999999945
  0
ARC
  5
14B
330
29
100
AcDbEntity
  8
1
  6
Continuous
 62
     7
100
AcDbCircle
 10
-41.21810319507425
 20
-352.1656150594832
 30
0.0
 40
0.8368712439111
100
AcDbArc
 50
134.9999999999615
 51
-45.0000000000251
  0
LINE
  5
14A
330
29
100
AcDbEntity
  8
1
  6
Continuous
 62
     5
100
AcDbLine
 10
-58.46660990604732
 20
-275.6843642716327
 30
0.0
 11
-58.46660990604732
 21
-268.6843642716329
 31
0.0
  0
LINE
  5
149
330
29
100
AcDbEntity
  8
1
  6
Continuous
 62
     5
100
AcDbLine
 10
-58.46660990604732
 20
-268.6843642716329
 30
0.0
 11
-43.46660990604731
 21
-268.6843642716329
 31
0.0
  0
LINE
  5
148
330
29
100
AcDbEntity
  8
1
  6
Continuous
 62
     5
100
AcDbLine
 10
-43.46660990604731
 20
-268.6843642716329
 30
0.0
 11
-43.46660990604731
 21
-275.6843642716327
 31
0.0
  0
LINE
  5
147
330
29
100
AcDbEntity
  8
1
  6
Continuous
 62
     5
100
AcDbLine
 10
6.533390093952679
 20
-268.6843642716329
 30
0.0
 11
36.53339009395268
 21
-268.6843642716329
 31
0.0
  0
LINE
  5
146
330
29
100
AcDbEntity
  8
1
  6
Continuous
 62
     5
100
AcDbLine
 10
-43.46660990604731
 20
-268.6843642716329
 30
0.0
 11
6.533390093952679
 21
-268.6843642716329
 31
0.0
  0
LINE
  5
145
330
29
100
AcDbEntity
  8
1
  6
Continuous
 62
     5
100
AcDbLine
 10
6.533390093952679
 20
-268.6843642716329
 30
0.0
 11
6.533390093952679
 21
-275.6843642716327
 31
0.0
  0
LINE
  5
144
330
29
100
AcDbEntity
  8
1
  6
Continuous
 62
     5
100
AcDbLine
 10
91.53339009395269
 20
-268.6843642716329
 30
0.0
 11
121.5333900939527
 21
-268.6843642716329
 31
0.0
  0
LINE
  5
143
330
29
100
AcDbEntity
  8
1
  6
Continuous
 62
     5
100
AcDbLine
 10
91.53339009395269
 20
-268.6843642716329
 30
0.0
 11
91.53339009395269
 21
-275.6843642716327
 31
0.0
  0
LINE
  5
142
330
29
100
AcDbEntity
  8
1
  6
Continuous
 62
     5
100
AcDbLine
 10
51.53339009395268
 20
-268.6843642716329
 30
0.0
 11
91.53339009395269
 21
-268.6843642716329
 31
0.0
  0
LINE
  5
141
330
29
100
AcDbEntity
  8
1
  6
Continuous
 62
     5
100
AcDbLine
 10
51.53339009395268
 20
-268.6843642716329
 30
0.0
 11
51.53339009395268
 21
-275.6843642716327
 31
0.0
  0
LINE
  5
140
330
29
100
AcDbEntity
  8
1
  6
Continuous
 62
     5
100
AcDbLine
 10
36.53339009395268
 20
-268.6843642716329
 30
0.0
 11
36.53339009395268
 21
-275.6843642716327
 31
0.0
  0
LINE
  5
13F
330
29
100
AcDbEntity
  8
1
  6
Continuous
 62
     5
100
AcDbLine
 10
36.53339009395268
 20
-268.6843642716329
 30
0.0
 11
51.53339009395268
 21
-268.6843642716329
 31
0.0
  0
LINE
  5
13E
330
29
100
AcDbEntity
  8
1
  6
Continuous
 62
     5
100
AcDbLine
 10
91.53339009395269
 20
-275.6843642716327
 30
0.0
 11
121.5333900939527
 21
-275.6843642716327
 31
0.0
  0
LINE
  5
13D
330
29
100
AcDbEntity
  8
1
  6
Continuous
 62
     5
100
AcDbLine
 10
91.53339009395269
 20
-282.6843642716328
 30
0.0
 11
121.5333900939527
 21
-282.6843642716328
 31
0.0
  0
LINE
  5
13C
330
29
100
AcDbEntity
  8
1
  6
Continuous
 62
     5
100
AcDbLine
 10
91.53339009395269
 20
-289.6843642716326
 30
0.0
 11
121.5333900939527
 21
-289.6843642716326
 31
0.0
  0
LINE
  5
13B
330
29
100
AcDbEntity
  8
1
  6
Continuous
 62
     5
100
AcDbLine
 10
91.53339009395269
 20
-296.6843642716325
 30
0.0
 11
121.5333900939527
 21
-296.6843642716325
 31
0.0
  0
LINE
  5
13A
330
29
100
AcDbEntity
  8
1
  6
Continuous
 62
     5
100
AcDbLine
 10
91.53339009395269
 20
-275.6843642716327
 30
0.0
 11
91.53339009395269
 21
-282.6843642716328
 31
0.0
  0
LINE
  5
139
330
29
100
AcDbEntity
  8
1
  6
Continuous
 62
     5
100
AcDbLine
 10
91.53339009395269
 20
-282.6843642716328
 30
0.0
 11
91.53339009395269
 21
-289.6843642716326
 31
0.0
  0
LINE
  5
138
330
29
100
AcDbEntity
  8
1
  6
Continuous
 62
     5
100
AcDbLine
 10
91.53339009395269
 20
-289.6843642716326
 30
0.0
 11
91.53339009395269
 21
-296.6843642716325
 31
0.0
  0
LINE
  5
137
330
29
100
AcDbEntity
  8
1
  6
Continuous
 62
     5
100
AcDbLine
 10
91.53339009395269
 20
-296.6843642716325
 30
0.0
 11
91.53339009395269
 21
-303.6843642716324
 31
0.0
  0
LINE
  5
136
330
29
100
AcDbEntity
  8
1
  6
Continuous
 62
     5
100
AcDbLine
 10
51.53339009395268
 20
-275.6843642716327
 30
0.0
 11
91.53339009395269
 21
-275.6843642716327
 31
0.0
  0
LINE
  5
135
330
29
100
AcDbEntity
  8
1
  6
Continuous
 62
     5
100
AcDbLine
 10
51.53339009395268
 20
-282.6843642716328
 30
0.0
 11
91.53339009395269
 21
-282.6843642716328
 31
0.0
  0
LINE
  5
134
330
29
100
AcDbEntity
  8
1
  6
Continuous
 62
     5
100
AcDbLine
 10
51.53339009395268
 20
-289.6843642716326
 30
0.0
 11
91.53339009395269
 21
-289.6843642716326
 31
0.0
  0
LINE
  5
133
330
29
100
AcDbEntity
  8
1
  6
Continuous
 62
     5
100
AcDbLine
 10
51.53339009395268
 20
-296.6843642716325
 30
0.0
 11
91.53339009395269
 21
-296.6843642716325
 31
0.0
  0
LINE
  5
132
330
29
100
AcDbEntity
  8
1
  6
Continuous
 62
     5
100
AcDbLine
 10
51.53339009395268
 20
-275.6843642716327
 30
0.0
 11
51.53339009395268
 21
-282.6843642716328
 31
0.0
  0
LINE
  5
131
330
29
100
AcDbEntity
  8
1
  6
Continuous
 62
     5
100
AcDbLine
 10
51.53339009395268
 20
-282.6843642716328
 30
0.0
 11
51.53339009395268
 21
-289.6843642716326
 31
0.0
  0
LINE
  5
130
330
29
100
AcDbEntity
  8
1
  6
Continuous
 62
     5
100
AcDbLine
 10
51.53339009395268
 20
-289.6843642716326
 30
0.0
 11
51.53339009395268
 21
-296.6843642716325
 31
0.0
  0
LINE
  5
12F
330
29
100
AcDbEntity
  8
1
  6
Continuous
 62
     5
100
AcDbLine
 10
51.53339009395268
 20
-296.6843642716325
 30
0.0
 11
51.53339009395268
 21
-303.6843642716324
 31
0.0
  0
LINE
  5
12E
330
29
100
AcDbEntity
  8
1
  6
Continuous
 62
     5
100
AcDbLine
 10
36.53339009395268
 20
-275.6843642716327
 30
0.0
 11
51.53339009395268
 21
-275.6843642716327
 31
0.0
  0
LINE
  5
12D
330
29
100
AcDbEntity
  8
1
  6
Continuous
 62
     5
100
AcDbLine
 10
36.53339009395268
 20
-282.6843642716328
 30
0.0
 11
51.53339009395268
 21
-282.6843642716328
 31
0.0
  0
LINE
  5
12C
330
29
100
AcDbEntity
  8
1
  6
Continuous
 62
     5
100
AcDbLine
 10
36.53339009395268
 20
-289.6843642716326
 30
0.0
 11
51.53339009395268
 21
-289.6843642716326
 31
0.0
  0
LINE
  5
12B
330
29
100
AcDbEntity
  8
1
  6
Continuous
 62
     5
100
AcDbLine
 10
36.53339009395268
 20
-296.6843642716325
 30
0.0
 11
51.53339009395268
 21
-296.6843642716325
 31
0.0
  0
LINE
  5
12A
330
29
100
AcDbEntity
  8
1
  6
Continuous
 62
     5
100
AcDbLine
 10
36.53339009395268
 20
-275.6843642716327
 30
0.0
 11
36.53339009395268
 21
-282.6843642716328
 31
0.0
  0
LINE
  5
129
330
29
100
AcDbEntity
  8
1
  6
Continuous
 62
     5
100
AcDbLine
 10
36.53339009395268
 20
-282.6843642716328
 30
0.0
 11
36.53339009395268
 21
-289.6843642716326
 31
0.0
  0
LINE
  5
128
330
29
100
AcDbEntity
  8
1
  6
Continuous
 62
     5
100
AcDbLine
 10
36.53339009395268
 20
-289.6843642716326
 30
0.0
 11
36.53339009395268
 21
-296.6843642716325
 31
0.0
  0
LINE
  5
127
330
29
100
AcDbEntity
  8
1
  6
Continuous
 62
     5
100
AcDbLine
 10
36.53339009395268
 20
-296.6843642716325
 30
0.0
 11
36.53339009395268
 21
-303.6843642716324
 31
0.0
  0
LINE
  5
126
330
29
100
AcDbEntity
  8
1
  6
Continuous
 62
     5
100
AcDbLine
 10
6.533390093952679
 20
-275.6843642716327
 30
0.0
 11
36.53339009395268
 21
-275.6843642716327
 31
0.0
  0
LINE
  5
125
330
29
100
AcDbEntity
  8
1
  6
Continuous
 62
     5
100
AcDbLine
 10
6.533390093952679
 20
-282.6843642716328
 30
0.0
 11
36.53339009395268
 21
-282.6843642716328
 31
0.0
  0
LINE
  5
124
330
29
100
AcDbEntity
  8
1
  6
Continuous
 62
     5
100
AcDbLine
 10
6.533390093952679
 20
-275.6843642716327
 30
0.0
 11
6.533390093952679
 21
-282.6843642716328
 31
0.0
  0
LINE
  5
123
330
29
100
AcDbEntity
  8
1
  6
Continuous
 62
     5
100
AcDbLine
 10
6.533390093952679
 20
-282.6843642716328
 30
0.0
 11
6.533390093952679
 21
-289.6843642716326
 31
0.0
  0
LINE
  5
122
330
29
100
AcDbEntity
  8
1
  6
Continuous
 62
     5
100
AcDbLine
 10
6.533390093952679
 20
-289.6843642716326
 30
0.0
 11
36.53339009395268
 21
-289.6843642716326
 31
0.0
  0
LINE
  5
121
330
29
100
AcDbEntity
  8
1
  6
Continuous
 62
     5
100
AcDbLine
 10
6.533390093952679
 20
-289.6843642716326
 30
0.0
 11
6.533390093952679
 21
-296.6843642716325
 31
0.0
  0
LINE
  5
120
330
29
100
AcDbEntity
  8
1
  6
Continuous
 62
     5
100
AcDbLine
 10
6.533390093952679
 20
-296.6843642716325
 30
0.0
 11
36.53339009395268
 21
-296.6843642716325
 31
0.0
  0
LINE
  5
11F
330
29
100
AcDbEntity
  8
1
  6
Continuous
 62
     5
100
AcDbLine
 10
6.533390093952679
 20
-296.6843642716325
 30
0.0
 11
6.533390093952679
 21
-303.6843642716324
 31
0.0
  0
LINE
  5
11E
330
29
100
AcDbEntity
  8
1
  6
Continuous
 62
     5
100
AcDbLine
 10
-43.46660990604731
 20
-275.6843642716327
 30
0.0
 11
6.533390093952679
 21
-275.6843642716327
 31
0.0
  0
LINE
  5
11D
330
29
100
AcDbEntity
  8
1
  6
Continuous
 62
     5
100
AcDbLine
 10
-43.46660990604731
 20
-282.6843642716328
 30
0.0
 11
6.533390093952679
 21
-282.6843642716328
 31
0.0
  0
LINE
  5
11C
330
29
100
AcDbEntity
  8
1
  6
Continuous
 62
     5
100
AcDbLine
 10
-43.46660990604731
 20
-289.6843642716326
 30
0.0
 11
6.533390093952679
 21
-289.6843642716326
 31
0.0
  0
LINE
  5
11B
330
29
100
AcDbEntity
  8
1
  6
Continuous
 62
     5
100
AcDbLine
 10
-43.46660990604731
 20
-296.6843642716325
 30
0.0
 11
6.533390093952679
 21
-296.6843642716325
 31
0.0
  0
LINE
  5
11A
330
29
100
AcDbEntity
  8
1
  6
Continuous
 62
     5
100
AcDbLine
 10
-43.46660990604731
 20
-275.6843642716327
 30
0.0
 11
-43.46660990604731
 21
-282.6843642716328
 31
0.0
  0
LINE
  5
119
330
29
100
AcDbEntity
  8
1
  6
Continuous
 62
     5
100
AcDbLine
 10
-43.46660990604731
 20
-282.6843642716328
 30
0.0
 11
-43.46660990604731
 21
-289.6843642716326
 31
0.0
  0
LINE
  5
118
330
29
100
AcDbEntity
  8
1
  6
Continuous
 62
     5
100
AcDbLine
 10
-43.46660990604731
 20
-289.6843642716326
 30
0.0
 11
-43.46660990604731
 21
-296.6843642716325
 31
0.0
  0
LINE
  5
117
330
29
100
AcDbEntity
  8
1
  6
Continuous
 62
     5
100
AcDbLine
 10
-43.46660990604731
 20
-296.6843642716325
 30
0.0
 11
-43.46660990604731
 21
-303.6843642716324
 31
0.0
  0
LINE
  5
116
330
29
100
AcDbEntity
  8
1
  6
Continuous
 62
     5
100
AcDbLine
 10
-58.46660990604732
 20
-282.6843642716328
 30
0.0
 11
-58.46660990604732
 21
-275.6843642716327
 31
0.0
  0
LINE
  5
115
330
29
100
AcDbEntity
  8
1
  6
Continuous
 62
     5
100
AcDbLine
 10
-58.46660990604732
 20
-289.6843642716326
 30
0.0
 11
-58.46660990604732
 21
-282.6843642716328
 31
0.0
  0
LINE
  5
114
330
29
100
AcDbEntity
  8
1
  6
Continuous
 62
     5
100
AcDbLine
 10
-58.46660990604732
 20
-296.6843642716325
 30
0.0
 11
-58.46660990604732
 21
-289.6843642716326
 31
0.0
  0
LINE
  5
113
330
29
100
AcDbEntity
  8
1
  6
Continuous
 62
     5
100
AcDbLine
 10
-58.46660990604732
 20
-303.6843642716324
 30
0.0
 11
-58.46660990604732
 21
-296.6843642716325
 31
0.0
  0
LINE
  5
112
330
29
100
AcDbEntity
  8
1
  6
Continuous
 62
     5
100
AcDbLine
 10
-58.46660990604732
 20
-275.6843642716327
 30
0.0
 11
-43.46660990604731
 21
-275.6843642716327
 31
0.0
  0
LINE
  5
111
330
29
100
AcDbEntity
  8
1
  6
Continuous
 62
     5
100
AcDbLine
 10
-58.46660990604732
 20
-282.6843642716328
 30
0.0
 11
-43.46660990604731
 21
-282.6843642716328
 31
0.0
  0
LINE
  5
110
330
29
100
AcDbEntity
  8
1
  6
Continuous
 62
     5
100
AcDbLine
 10
-58.46660990604732
 20
-289.6843642716326
 30
0.0
 11
-43.46660990604731
 21
-289.6843642716326
 31
0.0
  0
LINE
  5
10F
330
29
100
AcDbEntity
  8
1
  6
Continuous
 62
     5
100
AcDbLine
 10
-58.46660990604732
 20
-296.6843642716325
 30
0.0
 11
-43.46660990604731
 21
-296.6843642716325
 31
0.0
  0
LINE
  5
10E
330
29
100
AcDbEntity
  8
1
  6
Continuous
 62
     7
100
AcDbLine
 10
-58.46660990604732
 20
-362.6843642716324
 30
0.0
 11
34.53339009395268
 21
-362.6843642716324
 31
0.0
  0
LINE
  5
10D
330
29
100
AcDbEntity
  8
1
  6
Continuous
 62
     7
100
AcDbLine
 10
121.5333900939527
 20
-362.6843642716324
 30
0.0
 11
121.5333900939527
 21
-347.6843642716324
 31
0.0
  0
LINE
  5
10C
330
29
100
AcDbEntity
  8
1
  6
Continuous
 62
     7
100
AcDbLine
 10
121.5333900939527
 20
-310.6843642716323
 30
0.0
 11
91.53339009395269
 21
-310.6843642716323
 31
0.0
  0
LINE
  5
10B
330
29
100
AcDbEntity
  8
1
  6
Continuous
 62
     7
100
AcDbLine
 10
-58.46660990604732
 20
-310.6843642716323
 30
0.0
 11
-58.46660990604732
 21
-317.6843642716324
 31
0.0
  0
LINE
  5
10A
330
29
100
AcDbEntity
  8
1
  6
Continuous
 62
     7
100
AcDbLine
 10
-58.46660990604732
 20
-317.6843642716324
 30
0.0
 11
-43.46660990604731
 21
-317.6843642716324
 31
0.0
  0
LINE
  5
109
330
29
100
AcDbEntity
  8
1
  6
Continuous
 62
     7
100
AcDbLine
 10
-58.46660990604732
 20
-317.6843642716324
 30
0.0
 11
-58.46660990604732
 21
-327.6843642716324
 31
0.0
  0
LINE
  5
108
330
29
100
AcDbEntity
  8
1
  6
Continuous
 62
     7
100
AcDbLine
 10
121.5333900939527
 20
-317.6843642716324
 30
0.0
 11
121.5333900939527
 21
-310.6843642716323
 31
0.0
  0
LINE
  5
107
330
29
100
AcDbEntity
  8
1
  6
Continuous
 62
     7
100
AcDbLine
 10
34.53339009395268
 20
-317.6843642716324
 30
0.0
 11
34.53339009395268
 21
-324.6843642716324
 31
0.0
  0
LINE
  5
106
330
29
100
AcDbEntity
  8
1
  6
Continuous
 62
     7
100
AcDbLine
 10
34.53339009395268
 20
-317.6843642716324
 30
0.0
 11
36.53339009395268
 21
-317.6843642716324
 31
0.0
  0
LINE
  5
105
330
29
100
AcDbEntity
  8
1
  6
Continuous
 62
     7
100
AcDbLine
 10
34.53339009395268
 20
-362.6843642716324
 30
0.0
 11
41.53339009395268
 21
-362.6843642716324
 31
0.0
  0
LINE
  5
104
330
29
100
AcDbEntity
  8
1
  6
Continuous
 62
     7
100
AcDbLine
 10
41.53339009395268
 20
-317.6843642716324
 30
0.0
 11
41.53339009395268
 21
-362.6843642716324
 31
0.0
  0
LINE
  5
103
330
29
100
AcDbEntity
  8
1
  6
Continuous
 62
     7
100
AcDbLine
 10
41.53339009395268
 20
-317.6843642716324
 30
0.0
 11
51.53339009395268
 21
-317.6843642716324
 31
0.0
  0
LINE
  5
102
330
29
100
AcDbEntity
  8
1
  6
Continuous
 62
     7
100
AcDbLine
 10
41.53339009395268
 20
-362.6843642716324
 30
0.0
 11
121.5333900939527
 21
-362.6843642716324
 31
0.0
  0
LINE
  5
101
330
29
100
AcDbEntity
  8
1
  6
Continuous
 62
     7
100
AcDbLine
 10
34.53339009395268
 20
-332.6843642716324
 30
0.0
 11
121.5333900939527
 21
-332.6843642716324
 31
0.0
  0
LINE
  5
100
330
29
100
AcDbEntity
  8
1
  6
Continuous
 62
     7
100
AcDbLine
 10
34.53339009395268
 20
-332.6843642716324
 30
0.0
 11
34.53339009395268
 21
-335.6843642716324
 31
0.0
  0
LINE
  5
FF
330
29
100
AcDbEntity
  8
1
  6
Continuous
 62
     7
100
AcDbLine
 10
121.5333900939527
 20
-332.6843642716324
 30
0.0
 11
121.5333900939527
 21
-317.6843642716324
 31
0.0
  0
LINE
  5
FE
330
29
100
AcDbEntity
  8
1
  6
Continuous
 62
     7
100
AcDbLine
 10
34.53339009395268
 20
-347.6843642716324
 30
0.0
 11
121.5333900939527
 21
-347.6843642716324
 31
0.0
  0
LINE
  5
FD
330
29
100
AcDbEntity
  8
1
  6
Continuous
 62
     7
100
AcDbLine
 10
34.53339009395268
 20
-347.6843642716324
 30
0.0
 11
34.53339009395268
 21
-362.6843642716324
 31
0.0
  0
LINE
  5
FC
330
29
100
AcDbEntity
  8
1
  6
Continuous
 62
     7
100
AcDbLine
 10
121.5333900939527
 20
-347.6843642716324
 30
0.0
 11
121.5333900939527
 21
-332.6843642716324
 31
0.0
  0
LINE
  5
FB
330
29
100
AcDbEntity
  8
1
  6
Continuous
 62
     7
100
AcDbLine
 10
-25.46660990604732
 20
-317.6843642716324
 30
0.0
 11
-25.46660990604732
 21
-324.6843642716324
 31
0.0
  0
LINE
  5
FA
330
29
100
AcDbEntity
  8
1
  6
Continuous
 62
     7
100
AcDbLine
 10
-25.46660990604732
 20
-317.6843642716324
 30
0.0
 11
-5.46660990604732
 21
-317.6843642716324
 31
0.0
  0
LINE
  5
F9
330
29
100
AcDbEntity
  8
1
  6
Continuous
 62
     7
100
AcDbLine
 10
-58.46660990604732
 20
-342.6843642716324
 30
0.0
 11
-5.46660990604732
 21
-342.6843642716324
 31
0.0
  0
LINE
  5
F8
330
29
100
AcDbEntity
  8
1
  6
Continuous
 62
     7
100
AcDbLine
 10
-58.46660990604732
 20
-342.6843642716324
 30
0.0
 11
-58.46660990604732
 21
-362.6843642716324
 31
0.0
  0
LINE
  5
F7
330
29
100
AcDbEntity
  8
1
  6
Continuous
 62
     7
100
AcDbLine
 10
34.53339009395268
 20
-342.6843642716324
 30
0.0
 11
34.53339009395268
 21
-347.6843642716324
 31
0.0
  0
LINE
  5
F6
330
29
100
AcDbEntity
  8
1
  6
Continuous
 62
     7
100
AcDbLine
 10
-25.46660990604732
 20
-324.6843642716324
 30
0.0
 11
34.53339009395268
 21
-324.6843642716324
 31
0.0
  0
LINE
  5
F5
330
29
100
AcDbEntity
  8
1
  6
Continuous
 62
     7
100
AcDbLine
 10
-25.46660990604732
 20
-324.6843642716324
 30
0.0
 11
-25.46660990604732
 21
-327.6843642716324
 31
0.0
  0
LINE
  5
F4
330
29
100
AcDbEntity
  8
1
  6
Continuous
 62
     7
100
AcDbLine
 10
34.53339009395268
 20
-324.6843642716324
 30
0.0
 11
34.53339009395268
 21
-332.6843642716324
 31
0.0
  0
LINE
  5
F3
330
29
100
AcDbEntity
  8
1
  6
Continuous
 62
     7
100
AcDbLine
 10
-5.46660990604732
 20
-317.6843642716324
 30
0.0
 11
-5.46660990604732
 21
-342.6843642716324
 31
0.0
  0
LINE
  5
F2
330
29
100
AcDbEntity
  8
1
  6
Continuous
 62
     7
100
AcDbLine
 10
-5.46660990604732
 20
-317.6843642716324
 30
0.0
 11
6.533390093952679
 21
-317.6843642716324
 31
0.0
  0
LINE
  5
F1
330
29
100
AcDbEntity
  8
1
  6
Continuous
 62
     7
100
AcDbLine
 10
-5.46660990604732
 20
-342.6843642716324
 30
0.0
 11
14.53339009395268
 21
-342.6843642716324
 31
0.0
  0
LINE
  5
F0
330
29
100
AcDbEntity
  8
1
  6
Continuous
 62
     7
100
AcDbLine
 10
14.53339009395268
 20
-317.6843642716324
 30
0.0
 11
14.53339009395268
 21
-342.6843642716324
 31
0.0
  0
LINE
  5
EF
330
29
100
AcDbEntity
  8
1
  6
Continuous
 62
     7
100
AcDbLine
 10
14.53339009395268
 20
-317.6843642716324
 30
0.0
 11
34.53339009395268
 21
-317.6843642716324
 31
0.0
  0
LINE
  5
EE
330
29
100
AcDbEntity
  8
1
  6
Continuous
 62
     7
100
AcDbLine
 10
14.53339009395268
 20
-342.6843642716324
 30
0.0
 11
34.53339009395268
 21
-342.6843642716324
 31
0.0
  0
LINE
  5
ED
330
29
100
AcDbEntity
  8
1
  6
Continuous
 62
     7
100
AcDbLine
 10
-58.46660990604732
 20
-327.6843642716324
 30
0.0
 11
-25.46660990604732
 21
-327.6843642716324
 31
0.0
  0
LINE
  5
EC
330
29
100
AcDbEntity
  8
1
  6
Continuous
 62
     7
100
AcDbLine
 10
-58.46660990604732
 20
-327.6843642716324
 30
0.0
 11
-58.46660990604732
 21
-342.6843642716324
 31
0.0
  0
LINE
  5
EB
330
29
100
AcDbEntity
  8
1
  6
Continuous
 62
     7
100
AcDbLine
 10
-25.46660990604732
 20
-327.6843642716324
 30
0.0
 11
-25.46660990604732
 21
-335.6843642716324
 31
0.0
  0
LINE
  5
EA
330
29
100
AcDbEntity
  8
1
  6
Continuous
 62
     7
100
AcDbLine
 10
91.53339009395269
 20
-310.6843642716323
 30
0.0
 11
91.53339009395269
 21
-317.6843642716324
 31
0.0
  0
LINE
  5
E9
330
29
100
AcDbEntity
  8
1
  6
Continuous
 62
     7
100
AcDbLine
 10
91.53339009395269
 20
-310.6843642716323
 30
0.0
 11
51.53339009395268
 21
-310.6843642716323
 31
0.0
  0
LINE
  5
E8
330
29
100
AcDbEntity
  8
1
  6
Continuous
 62
     7
100
AcDbLine
 10
91.53339009395269
 20
-317.6843642716324
 30
0.0
 11
121.5333900939527
 21
-317.6843642716324
 31
0.0
  0
LINE
  5
E7
330
29
100
AcDbEntity
  8
1
  6
Continuous
 62
     7
100
AcDbLine
 10
51.53339009395268
 20
-310.6843642716323
 30
0.0
 11
51.53339009395268
 21
-317.6843642716324
 31
0.0
  0
LINE
  5
E6
330
29
100
AcDbEntity
  8
1
  6
Continuous
 62
     7
100
AcDbLine
 10
51.53339009395268
 20
-310.6843642716323
 30
0.0
 11
36.53339009395268
 21
-310.6843642716323
 31
0.0
  0
LINE
  5
E5
330
29
100
AcDbEntity
  8
1
  6
Continuous
 62
     7
100
AcDbLine
 10
51.53339009395268
 20
-317.6843642716324
 30
0.0
 11
91.53339009395269
 21
-317.6843642716324
 31
0.0
  0
LINE
  5
E4
330
29
100
AcDbEntity
  8
1
  6
Continuous
 62
     7
100
AcDbLine
 10
36.53339009395268
 20
-310.6843642716323
 30
0.0
 11
36.53339009395268
 21
-317.6843642716324
 31
0.0
  0
LINE
  5
E3
330
29
100
AcDbEntity
  8
1
  6
Continuous
 62
     7
100
AcDbLine
 10
36.53339009395268
 20
-310.6843642716323
 30
0.0
 11
6.533390093952679
 21
-310.6843642716323
 31
0.0
  0
LINE
  5
E2
330
29
100
AcDbEntity
  8
1
  6
Continuous
 62
     7
100
AcDbLine
 10
36.53339009395268
 20
-317.6843642716324
 30
0.0
 11
41.53339009395268
 21
-317.6843642716324
 31
0.0
  0
LINE
  5
E1
330
29
100
AcDbEntity
  8
1
  6
Continuous
 62
     7
100
AcDbLine
 10
6.533390093952679
 20
-310.6843642716323
 30
0.0
 11
6.533390093952679
 21
-317.6843642716324
 31
0.0
  0
LINE
  5
E0
330
29
100
AcDbEntity
  8
1
  6
Continuous
 62
     7
100
AcDbLine
 10
6.533390093952679
 20
-310.6843642716323
 30
0.0
 11
-43.46660990604731
 21
-310.6843642716323
 31
0.0
  0
LINE
  5
DF
330
29
100
AcDbEntity
  8
1
  6
Continuous
 62
     7
100
AcDbLine
 10
6.533390093952679
 20
-317.6843642716324
 30
0.0
 11
14.53339009395268
 21
-317.6843642716324
 31
0.0
  0
LINE
  5
DE
330
29
100
AcDbEntity
  8
1
  6
Continuous
 62
     7
100
AcDbLine
 10
-43.46660990604731
 20
-310.6843642716323
 30
0.0
 11
-43.46660990604731
 21
-317.6843642716324
 31
0.0
  0
LINE
  5
DD
330
29
100
AcDbEntity
  8
1
  6
Continuous
 62
     7
100
AcDbLine
 10
-43.46660990604731
 20
-310.6843642716323
 30
0.0
 11
-58.46660990604732
 21
-310.6843642716323
 31
0.0
  0
LINE
  5
DC
330
29
100
AcDbEntity
  8
1
  6
Continuous
 62
     7
100
AcDbLine
 10
-43.46660990604731
 20
-317.6843642716324
 30
0.0
 11
-25.46660990604732
 21
-317.6843642716324
 31
0.0
  0
LINE
  5
DB
330
29
100
AcDbEntity
  8
1
  6
Continuous
 62
     5
100
AcDbLine
 10
-58.46660990604732
 20
-310.6843642716323
 30
0.0
 11
-58.46660990604732
 21
-303.6843642716324
 31
0.0
  0
LINE
  5
DA
330
29
100
AcDbEntity
  8
1
  6
Continuous
 62
     5
100
AcDbLine
 10
-58.46660990604732
 20
-303.6843642716324
 30
0.0
 11
-43.46660990604731
 21
-303.6843642716324
 31
0.0
  0
LINE
  5
D9
330
29
100
AcDbEntity
  8
1
  6
Continuous
 62
     5
100
AcDbLine
 10
121.5333900939527
 20
-303.6843642716324
 30
0.0
 11
121.5333900939527
 21
-310.6843642716323
 31
0.0
  0
LINE
  5
D8
330
29
100
AcDbEntity
  8
1
  6
Continuous
 62
     5
100
AcDbLine
 10
91.53339009395269
 20
-303.6843642716324
 30
0.0
 11
91.53339009395269
 21
-310.6843642716323
 31
0.0
  0
LINE
  5
D7
330
29
100
AcDbEntity
  8
1
  6
Continuous
 62
     5
100
AcDbLine
 10
91.53339009395269
 20
-303.6843642716324
 30
0.0
 11
121.5333900939527
 21
-303.6843642716324
 31
0.0
  0
LINE
  5
D6
330
29
100
AcDbEntity
  8
1
  6
Continuous
 62
     5
100
AcDbLine
 10
51.53339009395268
 20
-303.6843642716324
 30
0.0
 11
51.53339009395268
 21
-310.6843642716323
 31
0.0
  0
LINE
  5
D5
330
29
100
AcDbEntity
  8
1
  6
Continuous
 62
     5
100
AcDbLine
 10
51.53339009395268
 20
-303.6843642716324
 30
0.0
 11
91.53339009395269
 21
-303.6843642716324
 31
0.0
  0
LINE
  5
D4
330
29
100
AcDbEntity
  8
1
  6
Continuous
 62
     5
100
AcDbLine
 10
36.53339009395268
 20
-303.6843642716324
 30
0.0
 11
36.53339009395268
 21
-310.6843642716323
 31
0.0
  0
LINE
  5
D3
330
29
100
AcDbEntity
  8
1
  6
Continuous
 62
     5
100
AcDbLine
 10
36.53339009395268
 20
-303.6843642716324
 30
0.0
 11
51.53339009395268
 21
-303.6843642716324
 31
0.0
  0
LINE
  5
D2
330
29
100
AcDbEntity
  8
1
  6
Continuous
 62
     5
100
AcDbLine
 10
6.533390093952679
 20
-303.6843642716324
 30
0.0
 11
6.533390093952679
 21
-310.6843642716323
 31
0.0
  0
LINE
  5
D1
330
29
100
AcDbEntity
  8
1
  6
Continuous
 62
     5
100
AcDbLine
 10
6.533390093952679
 20
-303.6843642716324
 30
0.0
 11
36.53339009395268
 21
-303.6843642716324
 31
0.0
  0
LINE
  5
D0
330
29
100
AcDbEntity
  8
1
  6
Continuous
 62
     5
100
AcDbLine
 10
-43.46660990604731
 20
-303.6843642716324
 30
0.0
 11
-43.46660990604731
 21
-310.6843642716323
 31
0.0
  0
LINE
  5
CF
330
29
100
AcDbEntity
  8
1
  6
Continuous
 62
     5
100
AcDbLine
 10
-43.46660990604731
 20
-303.6843642716324
 30
0.0
 11
6.533390093952679
 21
-303.6843642716324
 31
0.0
  0
LINE
  5
CE
330
29
100
AcDbEntity
  8
1
  6
Continuous
 62
     5
100
AcDbLine
 10
-25.46660990604732
 20
-335.6843642716324
 30
0.0
 11
34.53339009395268
 21
-335.6843642716324
 31
0.0
  0
LINE
  5
CD
330
29
100
AcDbEntity
  8
1
  6
Continuous
 62
     7
100
AcDbLine
 10
-25.46660990604732
 20
-335.6843642716324
 30
0.0
 11
-25.46660990604732
 21
-342.6843642716324
 31
0.0
  0
LINE
  5
CC
330
29
100
AcDbEntity
  8
1
  6
Continuous
 62
     7
100
AcDbLine
 10
34.53339009395268
 20
-335.6843642716324
 30
0.0
 11
34.53339009395268
 21
-342.6843642716324
 31
0.0
  0
LINE
  5
CB
330
29
100
AcDbEntity
  8
1
  6
Continuous
 62
     7
100
AcDbLine
 10
-54.28197616033935
 20
-354.036335137425
 30
0.0
 11
-55.95571864816236
 21
-354.036335137425
 31
0.0
  0
LINE
  5
CA
330
29
100
AcDbEntity
  8
1
  6
Continuous
 62
     7
100
AcDbLine
 10
-55.95571864816236
 20
-354.036335137425
 30
0.0
 11
-55.95571864816236
 21
-353.6178995154691
 31
0.0
  0
LINE
  5
C9
330
29
100
AcDbEntity
  8
1
  6
Continuous
 62
     7
100
AcDbLine
 10
-55.85110974267332
 20
-353.51329060998
 30
0.0
 11
-55.59478738498535
 21
-353.51329060998
 31
0.0
  0
LINE
  5
C8
330
29
100
AcDbEntity
  8
1
  6
Continuous
 62
     7
100
AcDbLine
 10
-55.34469240039732
 20
-353.3282300563251
 30
0.0
 11
-53.35441336402232
 21
-346.818320658684
 31
0.0
  0
LINE
  5
C7
330
29
100
AcDbEntity
  8
1
  6
Continuous
 62
     7
100
AcDbLine
 10
-53.35441336402232
 20
-346.818320658684
 30
0.0
 11
-51.65017332945934
 21
-346.818320658684
 31
0.0
  0
LINE
  5
C6
330
29
100
AcDbEntity
  8
1
  6
Continuous
 62
     7
100
AcDbLine
 10
-51.65017332945934
 20
-346.818320658684
 30
0.0
 11
-49.65989429308434
 21
-353.3282300563251
 31
0.0
  0
LINE
  5
C5
330
29
100
AcDbEntity
  8
1
  6
Continuous
 62
     7
100
AcDbLine
 10
-49.40979930849642
 20
-353.51329060998
 30
0.0
 11
-49.05153088588838
 21
-353.51329060998
 31
0.0
  0
LINE
  5
C4
330
29
100
AcDbEntity
  8
1
  6
Continuous
 62
     7
100
AcDbLine
 10
-48.94692198039933
 20
-353.6178995154691
 30
0.0
 11
-48.94692198039933
 21
-354.036335137425
 31
0.0
  0
LINE
  5
C3
330
29
100
AcDbEntity
  8
1
  6
Continuous
 62
     7
100
AcDbLine
 10
-48.94692198039933
 20
-354.036335137425
 30
0.0
 11
-52.08518914506932
 21
-354.036335137425
 31
0.0
  0
LINE
  5
C2
330
29
100
AcDbEntity
  8
1
  6
Continuous
 62
     7
100
AcDbLine
 10
-52.08518914506932
 20
-354.036335137425
 30
0.0
 11
-52.08518914506932
 21
-353.6178995154691
 31
0.0
  0
LINE
  5
C1
330
29
100
AcDbEntity
  8
1
  6
Continuous
 62
     7
100
AcDbLine
 10
-51.98058023958139
 20
-353.51329060998
 30
0.0
 11
-51.69097030514035
 21
-353.51329060998
 31
0.0
  0
LINE
  5
C0
330
29
100
AcDbEntity
  8
1
  6
Continuous
 62
     7
100
AcDbLine
 10
-51.4908943174704
 20
-353.2429034309481
 30
0.0
 11
-52.00260874885839
 21
-351.5691609431241
 31
0.0
  0
LINE
  5
BF
330
29
100
AcDbEntity
  8
1
  6
Continuous
 62
     7
100
AcDbLine
 10
-52.20268473652936
 20
-351.4211125002
 30
0.0
 11
-54.09857492247238
 21
-351.4211125002
 31
0.0
  0
LINE
  5
BE
330
29
100
AcDbEntity
  8
1
  6
Continuous
 62
     7
100
AcDbLine
 10
-54.24863191322538
 20
-351.532148832393
 30
0.0
 11
-54.79232849657535
 21
-353.3105002257061
 31
0.0
  0
LINE
  5
BD
330
29
100
AcDbEntity
  8
1
  6
Continuous
 62
     7
100
AcDbLine
 10
-54.64227150582235
 20
-353.51329060998
 30
0.0
 11
-54.38658506582839
 21
-353.51329060998
 31
0.0
  0
LINE
  5
BC
330
29
100
AcDbEntity
  8
1
  6
Continuous
 62
     7
100
AcDbLine
 10
-54.28197616033935
 20
-353.6178995154691
 30
0.0
 11
-54.28197616033935
 21
-354.036335137425
 31
0.0
  0
LINE
  5
BB
330
29
100
AcDbEntity
  8
1
  6
Continuous
 62
     7
100
AcDbLine
 10
-53.2813351907124
 20
-348.3682638147125
 30
0.0
 11
-53.9927746975303
 21
-350.6952775884811
 31
0.0
  0
LINE
  5
BA
330
29
100
AcDbEntity
  8
1
  6
Continuous
 62
     7
100
AcDbLine
 10
-53.84271770677731
 20
-350.898067972755
 30
0.0
 11
-52.41983869314231
 21
-350.898067972755
 31
0.0
  0
LINE
  5
B9
330
29
100
AcDbEntity
  8
1
  6
Continuous
 62
     7
100
AcDbLine
 10
-52.26978170238932
 20
-350.6952775884811
 30
0.0
 11
-52.98122120920641
 21
-348.3682638147125
 31
0.0
  0
LINE
  5
B8
330
29
100
AcDbEntity
  8
1
  6
Continuous
 62
     7
100
AcDbLine
 10
-46.48861270140833
 20
-346.818320658684
 30
0.0
 11
-43.61186780046137
 21
-346.818320658684
 31
0.0
  0
LINE
  5
B7
330
29
100
AcDbEntity
  8
1
  6
Continuous
 62
     7
100
AcDbLine
 10
-43.61186780046137
 20
-346.818320658684
 30
0.0
 11
-43.55970002067738
 21
-348.4313048564873
 31
0.0
  0
LINE
  5
B6
330
29
100
AcDbEntity
  8
1
  6
Continuous
 62
     7
100
AcDbLine
 10
-44.07054101571043
 20
-348.5182819113596
 30
0.0
 11
-44.27971748670143
 21
-347.8537625152829
 31
0.0
  0
LINE
  5
B5
330
29
100
AcDbEntity
  8
1
  6
Continuous
 62
     7
100
AcDbLine
 10
-44.97819261866538
 20
-347.3413651861292
 30
0.0
 11
-45.12869693005131
 21
-347.3413651861292
 31
0.0
  0
LINE
  5
B4
330
29
100
AcDbEntity
  8
1
  6
Continuous
 62
     7
100
AcDbLine
 10
-45.49482809926326
 20
-347.7074963553406
 30
0.0
 11
-45.49482809926326
 21
-353.2517683462576
 31
0.0
  0
LINE
  5
B3
330
29
100
AcDbEntity
  8
1
  6
Continuous
 62
     7
100
AcDbLine
 10
-45.23330583554025
 20
-353.51329060998
 30
0.0
 11
-45.02408802456239
 21
-353.51329060998
 31
0.0
  0
LINE
  5
B2
330
29
100
AcDbEntity
  8
1
  6
Continuous
 62
     7
100
AcDbLine
 10
-44.91947911907345
 20
-353.6178995154691
 30
0.0
 11
-44.91947911907345
 21
-354.036335137425
 31
0.0
  0
LINE
  5
B1
330
29
100
AcDbEntity
  8
1
  6
Continuous
 62
     7
100
AcDbLine
 10
-44.91947911907345
 20
-354.036335137425
 30
0.0
 11
-46.48861270140833
 21
-354.036335137425
 31
0.0
  0
LINE
  5
B0
330
29
100
AcDbEntity
  8
1
  6
Continuous
 62
     7
100
AcDbLine
 10
-49.36535760235539
 20
-346.818320658684
 30
0.0
 11
-46.48861270140833
 21
-346.818320658684
 31
0.0
  0
LINE
  5
AF
330
29
100
AcDbEntity
  8
1
  6
Continuous
 62
     7
100
AcDbLine
 10
-49.41752538213939
 20
-348.4313048564872
 30
0.0
 11
-49.36535760235539
 21
-346.818320658684
 31
0.0
  0
LINE
  5
AE
330
29
100
AcDbEntity
  8
1
  6
Continuous
 62
     7
100
AcDbLine
 10
-48.69750791611637
 20
-347.8537625152829
 30
0.0
 11
-48.90668438710532
 21
-348.5182819113596
 31
0.0
  0
LINE
  5
AD
330
29
100
AcDbEntity
  8
1
  6
Continuous
 62
     7
100
AcDbLine
 10
-47.84852847276534
 20
-347.3413651861292
 30
0.0
 11
-47.9990327841524
 21
-347.3413651861292
 31
0.0
  0
LINE
  5
AC
330
29
100
AcDbEntity
  8
1
  6
Continuous
 62
     7
100
AcDbLine
 10
-47.48239730355432
 20
-353.2517683462576
 30
0.0
 11
-47.48239730355432
 21
-347.7074963553406
 31
0.0
  0
LINE
  5
AB
330
29
100
AcDbEntity
  8
1
  6
Continuous
 62
     7
100
AcDbLine
 10
-47.95313737825438
 20
-353.51329060998
 30
0.0
 11
-47.74391956727639
 21
-353.51329060998
 31
0.0
  0
LINE
  5
AA
330
29
100
AcDbEntity
  8
1
  6
Continuous
 62
     7
100
AcDbLine
 10
-48.05774628374331
 20
-354.036335137425
 30
0.0
 11
-48.05774628374331
 21
-353.6178995154691
 31
0.0
  0
LINE
  5
A9
330
29
100
AcDbEntity
  8
1
  6
Continuous
 62
     7
100
AcDbLine
 10
-46.48861270140833
 20
-354.036335137425
 30
0.0
 11
-48.05774628374331
 21
-354.036335137425
 31
0.0
  0
LINE
  5
A8
330
29
100
AcDbEntity
  8
1
  6
Continuous
 62
     7
100
AcDbLine
 10
-37.14977154066743
 20
-349.2807980681761
 30
0.0
 11
-40.62634586352442
 21
-352.7573723910335
 31
0.0
  0
LINE
  5
A7
330
29
100
AcDbEntity
  8
1
  6
Continuous
 62
     7
100
AcDbLine
 10
-41.80986052662341
 20
-351.5738577279332
 30
0.0
 11
-38.33328620376733
 21
-348.0972834050757
 31
0.0
  0
LINE
  5
A6
330
29
100
AcDbEntity
  8
1
  6
Continuous
 62
     7
100
AcDbLine
 10
-32.10488819667125
 20
-346.818320658684
 30
0.0
 11
-31.26267025973243
 21
-349.9615207903826
 31
0.0
  0
LINE
  5
A5
330
29
100
AcDbEntity
  8
1
  6
Continuous
 62
     7
100
AcDbLine
 10
-30.95953692931835
 20
-349.9615207903826
 30
0.0
 11
-30.11731899238043
 21
-346.818320658684
 31
0.0
  0
LINE
  5
A4
330
29
100
AcDbEntity
  8
1
  6
Continuous
 62
     7
100
AcDbLine
 10
-33.93554404272844
 20
-353.51329060998
 30
0.0
 11
-33.77863068449528
 21
-353.51329060998
 31
0.0
  0
LINE
  5
A3
330
29
100
AcDbEntity
  8
1
  6
Continuous
 62
     7
100
AcDbLine
 10
-33.67402177900544
 20
-353.6178995154691
 30
0.0
 11
-33.67402177900544
 21
-354.036335137425
 31
0.0
  0
LINE
  5
A2
330
29
100
AcDbEntity
  8
1
  6
Continuous
 62
     7
100
AcDbLine
 10
-33.67402177900544
 20
-354.036335137425
 30
0.0
 11
-35.13854645585229
 21
-354.036335137425
 31
0.0
  0
LINE
  5
A1
330
29
100
AcDbEntity
  8
1
  6
Continuous
 62
     7
100
AcDbLine
 10
-35.13854645585229
 20
-354.036335137425
 30
0.0
 11
-35.13854645585229
 21
-353.6178995154691
 31
0.0
  0
LINE
  5
A0
330
29
100
AcDbEntity
  8
1
  6
Continuous
 62
     7
100
AcDbLine
 10
-35.03393755036245
 20
-353.51329060998
 30
0.0
 11
-34.77241528664035
 21
-353.51329060998
 31
0.0
  0
LINE
  5
9F
330
29
100
AcDbEntity
  8
1
  6
Continuous
 62
     7
100
AcDbLine
 10
-34.61550192840741
 20
-353.3563772517465
 30
0.0
 11
-34.61550192840741
 21
-347.4982785443625
 31
0.0
  0
LINE
  5
9E
330
29
100
AcDbEntity
  8
1
  6
Continuous
 62
     7
100
AcDbLine
 10
-34.77241528664035
 20
-347.3413651861292
 30
0.0
 11
-35.03393755036245
 21
-347.3413651861292
 31
0.0
  0
LINE
  5
9D
330
29
100
AcDbEntity
  8
1
  6
Continuous
 62
     7
100
AcDbLine
 10
-35.13854645585229
 20
-347.23675628064
 30
0.0
 11
-35.13854645585229
 21
-346.818320658684
 31
0.0
  0
LINE
  5
9C
330
29
100
AcDbEntity
  8
1
  6
Continuous
 62
     7
100
AcDbLine
 10
-35.13854645585229
 20
-346.818320658684
 30
0.0
 11
-32.10488819667125
 21
-346.818320658684
 31
0.0
  0
LINE
  5
9B
330
29
100
AcDbEntity
  8
1
  6
Continuous
 62
     7
100
AcDbLine
 10
-30.11731899238043
 20
-346.818320658684
 30
0.0
 11
-27.0836607331994
 21
-346.818320658684
 31
0.0
  0
LINE
  5
9A
330
29
100
AcDbEntity
  8
1
  6
Continuous
 62
     7
100
AcDbLine
 10
-27.0836607331994
 20
-346.818320658684
 30
0.0
 11
-27.0836607331994
 21
-347.23675628064
 31
0.0
  0
LINE
  5
99
330
29
100
AcDbEntity
  8
1
  6
Continuous
 62
     7
100
AcDbLine
 10
-27.18826963868833
 20
-347.3413651861292
 30
0.0
 11
-27.39748744966641
 21
-347.3413651861292
 31
0.0
  0
LINE
  5
98
330
29
100
AcDbEntity
  8
1
  6
Continuous
 62
     7
100
AcDbLine
 10
-27.65900971338829
 20
-347.6028874498516
 30
0.0
 11
-27.65900971338829
 21
-353.2517683462576
 31
0.0
  0
LINE
  5
97
330
29
100
AcDbEntity
  8
1
  6
Continuous
 62
     7
100
AcDbLine
 10
-27.39748744966641
 20
-353.51329060998
 30
0.0
 11
-27.18826963868833
 21
-353.51329060998
 31
0.0
  0
LINE
  5
96
330
29
100
AcDbEntity
  8
1
  6
Continuous
 62
     7
100
AcDbLine
 10
-27.0836607331994
 20
-353.6178995154691
 30
0.0
 11
-27.0836607331994
 21
-354.036335137425
 31
0.0
  0
LINE
  5
95
330
29
100
AcDbEntity
  8
1
  6
Continuous
 62
     7
100
AcDbLine
 10
-27.0836607331994
 20
-354.036335137425
 30
0.0
 11
-30.01271008689128
 21
-354.036335137425
 31
0.0
  0
LINE
  5
94
330
29
100
AcDbEntity
  8
1
  6
Continuous
 62
     7
100
AcDbLine
 10
-30.01271008689128
 20
-354.036335137425
 30
0.0
 11
-30.01271008689128
 21
-353.6178995154691
 31
0.0
  0
LINE
  5
93
330
29
100
AcDbEntity
  8
1
  6
Continuous
 62
     7
100
AcDbLine
 10
-29.90810118140234
 20
-353.51329060998
 30
0.0
 11
-29.69888337042426
 21
-353.51329060998
 31
0.0
  0
LINE
  5
92
330
29
100
AcDbEntity
  8
1
  6
Continuous
 62
     7
100
AcDbLine
 10
-31.50988460235727
 20
-354.036335137425
 30
0.0
 11
-32.01191188403142
 21
-354.036335137425
 31
0.0
  0
LINE
  5
91
330
29
100
AcDbEntity
  8
1
  6
Continuous
 62
     7
100
AcDbLine
 10
-34.0924574009623
 20
-353.3563772517465
 30
0.0
 11
-34.0924574009623
 21
-347.4635088469272
 31
0.0
  0
LINE
  5
90
330
29
100
AcDbEntity
  8
1
  6
Continuous
 62
     7
100
AcDbLine
 10
-33.78397737752131
 20
-347.4228966813853
 30
0.0
 11
-32.01191188403142
 21
-354.036335137425
 31
0.0
  0
LINE
  5
8F
330
29
100
AcDbEntity
  8
1
  6
Continuous
 62
     7
100
AcDbLine
 10
-31.50988460235727
 20
-354.036335137425
 30
0.0
 11
-29.74584113014225
 21
-347.4528352723597
 31
0.0
  0
LINE
  5
8E
330
29
100
AcDbEntity
  8
1
  6
Continuous
 62
     7
100
AcDbLine
 10
-29.43736110670147
 20
-347.4934474379016
 30
0.0
 11
-29.43736110670147
 21
-353.2517683462576
 31
0.0
  0
LINE
  5
8D
330
29
100
AcDbEntity
  8
1
  6
Continuous
 62
     5
100
AcDbLine
 10
-40.41628350064843
 20
-337.1843642716324
 30
0.0
 11
-40.41628350064843
 21
-333.1843642716324
 31
0.0
  0
LINE
  5
8C
330
29
100
AcDbEntity
  8
1
  6
Continuous
 62
     5
100
AcDbLine
 10
-40.41628350064843
 20
-333.1843642716324
 30
0.0
 11
-30.58492700900047
 21
-331.1843642716324
 31
0.0
  0
LINE
  5
8B
330
29
100
AcDbEntity
  8
1
  6
Continuous
 62
     5
100
AcDbLine
 10
-30.58492700900047
 20
-331.1843642716324
 30
0.0
 11
-30.58492700900047
 21
-339.1843642716324
 31
0.0
  0
LINE
  5
8A
330
29
100
AcDbEntity
  8
1
  6
Continuous
 62
     5
100
AcDbLine
 10
-30.58492700900047
 20
-339.1843642716324
 30
0.0
 11
-40.41628350064843
 21
-337.1843642716324
 31
0.0
  0
LINE
  5
89
330
29
100
AcDbEntity
  8
1
  6
Continuous
 62
     5
100
AcDbLine
 10
-55.87232549885437
 20
-335.1843642716324
 30
0.0
 11
-51.82499225453932
 21
-335.1843642716324
 31
0.0
  0
LINE
  5
88
330
29
100
AcDbEntity
  8
1
  6
Continuous
 62
     5
100
AcDbLine
 10
-51.27620130615742
 20
-335.1843642716324
 30
0.0
 11
-49.32113355254738
 21
-335.1843642716324
 31
0.0
  0
LINE
  5
87
330
29
100
AcDbEntity
  8
1
  6
Continuous
 62
     5
100
AcDbLine
 10
-48.84094147271333
 20
-335.1843642716324
 30
0.0
 11
-36.76754060831536
 21
-335.1843642716324
 31
0.0
  0
LINE
  5
86
330
29
100
AcDbEntity
  8
1
  6
Continuous
 62
     5
100
AcDbLine
 10
-36.25304909420743
 20
-335.1843642716324
 30
0.0
 11
-35.39556323736042
 21
-335.1843642716324
 31
0.0
  0
LINE
  5
85
330
29
100
AcDbEntity
  8
1
  6
Continuous
 62
     5
100
AcDbLine
 10
-34.64097568333636
 20
-335.1843642716324
 30
0.0
 11
-28.1926820398503
 21
-335.1843642716324
 31
0.0
  0
LINE
  5
84
330
29
100
AcDbEntity
  8
1
  6
Continuous
 62
     5
100
AcDbLine
 10
-50.3911634447304
 20
-329.5883256329591
 30
0.0
 11
-50.3911634447304
 21
-333.9443537857391
 31
0.0
  0
LINE
  5
83
330
29
100
AcDbEntity
  8
1
  6
Continuous
 62
     5
100
AcDbLine
 10
-50.3911634447304
 20
-334.3902464312993
 30
0.0
 11
-50.3911634447304
 21
-335.8994215393491
 31
0.0
  0
LINE
  5
82
330
29
100
AcDbEntity
  8
1
  6
Continuous
 62
     5
100
AcDbLine
 10
-50.3911634447304
 20
-336.3796136191829
 30
0.0
 11
-50.3911634447304
 21
-341.1815344175232
 31
0.0
  0
LINE
  5
81
330
29
100
AcDbEntity
  8
1
  6
Continuous
 62
     5
100
AcDbLine
 10
-58.46660990604732
 20
-261.6843642716333
 30
0.0
 11
-43.46660990604731
 21
-261.6843642716333
 31
0.0
  0
LINE
  5
80
330
29
100
AcDbEntity
  8
1
  6
Continuous
 62
     5
100
AcDbLine
 10
-58.46660990604732
 20
-254.6843642716334
 30
0.0
 11
-43.46660990604731
 21
-254.6843642716334
 31
0.0
  0
LINE
  5
7F
330
29
100
AcDbEntity
  8
1
  6
Continuous
 62
     5
100
AcDbLine
 10
-58.46660990604732
 20
-268.6843642716329
 30
0.0
 11
-58.46660990604732
 21
-261.6843642716333
 31
0.0
  0
LINE
  5
7E
330
29
100
AcDbEntity
  8
1
  6
Continuous
 62
     5
100
AcDbLine
 10
-58.46660990604732
 20
-261.6843642716333
 30
0.0
 11
-58.46660990604732
 21
-254.6843642716334
 31
0.0
  0
LINE
  5
7D
330
29
100
AcDbEntity
  8
1
  6
Continuous
 62
     5
100
AcDbLine
 10
-43.46660990604731
 20
-261.6843642716333
 30
0.0
 11
-43.46660990604731
 21
-268.6843642716329
 31
0.0
  0
LINE
  5
7C
330
29
100
AcDbEntity
  8
1
  6
Continuous
 62
     5
100
AcDbLine
 10
-43.46660990604731
 20
-254.6843642716334
 30
0.0
 11
-43.46660990604731
 21
-261.6843642716333
 31
0.0
  0
LINE
  5
7B
330
29
100
AcDbEntity
  8
1
  6
Continuous
 62
     5
100
AcDbLine
 10
-43.46660990604731
 20
-261.6843642716333
 30
0.0
 11
6.533390093952679
 21
-261.6843642716333
 31
0.0
  0
LINE
  5
7A
330
29
100
AcDbEntity
  8
1
  6
Continuous
 62
     5
100
AcDbLine
 10
-43.46660990604731
 20
-254.6843642716334
 30
0.0
 11
6.533390093952679
 21
-254.6843642716334
 31
0.0
  0
LINE
  5
79
330
29
100
AcDbEntity
  8
1
  6
Continuous
 62
     5
100
AcDbLine
 10
6.533390093952679
 20
-261.6843642716333
 30
0.0
 11
6.533390093952679
 21
-268.6843642716329
 31
0.0
  0
LINE
  5
78
330
29
100
AcDbEntity
  8
1
  6
Continuous
 62
     5
100
AcDbLine
 10
6.533390093952679
 20
-254.6843642716334
 30
0.0
 11
6.533390093952679
 21
-261.6843642716333
 31
0.0
  0
LINE
  5
77
330
29
100
AcDbEntity
  8
1
  6
Continuous
 62
     5
100
AcDbLine
 10
6.533390093952679
 20
-261.6843642716333
 30
0.0
 11
36.53339009395268
 21
-261.6843642716333
 31
0.0
  0
LINE
  5
76
330
29
100
AcDbEntity
  8
1
  6
Continuous
 62
     5
100
AcDbLine
 10
6.533390093952679
 20
-254.6843642716334
 30
0.0
 11
36.53339009395268
 21
-254.6843642716334
 31
0.0
  0
LINE
  5
75
330
29
100
AcDbEntity
  8
1
  6
Continuous
 62
     5
100
AcDbLine
 10
36.53339009395268
 20
-261.6843642716333
 30
0.0
 11
36.53339009395268
 21
-268.6843642716329
 31
0.0
  0
LINE
  5
74
330
29
100
AcDbEntity
  8
1
  6
Continuous
 62
     5
100
AcDbLine
 10
36.53339009395268
 20
-254.6843642716334
 30
0.0
 11
36.53339009395268
 21
-261.6843642716333
 31
0.0
  0
LINE
  5
73
330
29
100
AcDbEntity
  8
1
  6
Continuous
 62
     5
100
AcDbLine
 10
36.53339009395268
 20
-261.6843642716333
 30
0.0
 11
51.53339009395268
 21
-261.6843642716333
 31
0.0
  0
LINE
  5
72
330
29
100
AcDbEntity
  8
1
  6
Continuous
 62
     5
100
AcDbLine
 10
36.53339009395268
 20
-254.6843642716334
 30
0.0
 11
51.53339009395268
 21
-254.6843642716334
 31
0.0
  0
LINE
  5
71
330
29
100
AcDbEntity
  8
1
  6
Continuous
 62
     5
100
AcDbLine
 10
51.53339009395268
 20
-261.6843642716333
 30
0.0
 11
51.53339009395268
 21
-268.6843642716329
 31
0.0
  0
LINE
  5
70
330
29
100
AcDbEntity
  8
1
  6
Continuous
 62
     5
100
AcDbLine
 10
51.53339009395268
 20
-254.6843642716334
 30
0.0
 11
51.53339009395268
 21
-261.6843642716333
 31
0.0
  0
LINE
  5
6F
330
29
100
AcDbEntity
  8
1
  6
Continuous
 62
     5
100
AcDbLine
 10
51.53339009395268
 20
-261.6843642716333
 30
0.0
 11
91.53339009395269
 21
-261.6843642716333
 31
0.0
  0
LINE
  5
6E
330
29
100
AcDbEntity
  8
1
  6
Continuous
 62
     5
100
AcDbLine
 10
51.53339009395268
 20
-254.6843642716334
 30
0.0
 11
91.53339009395269
 21
-254.6843642716334
 31
0.0
  0
LINE
  5
6D
330
29
100
AcDbEntity
  8
1
  6
Continuous
 62
     5
100
AcDbLine
 10
91.53339009395269
 20
-261.6843642716333
 30
0.0
 11
91.53339009395269
 21
-268.6843642716329
 31
0.0
  0
LINE
  5
6C
330
29
100
AcDbEntity
  8
1
  6
Continuous
 62
     5
100
AcDbLine
 10
91.53339009395269
 20
-254.6843642716334
 30
0.0
 11
91.53339009395269
 21
-261.6843642716333
 31
0.0
  0
LINE
  5
6B
330
29
100
AcDbEntity
  8
1
  6
Continuous
 62
     5
100
AcDbLine
 10
91.53339009395269
 20
-261.6843642716333
 30
0.0
 11
121.5333900939527
 21
-261.6843642716333
 31
0.0
  0
LINE
  5
6A
330
29
100
AcDbEntity
  8
1
  6
Continuous
 62
     5
100
AcDbLine
 10
91.53339009395269
 20
-254.6843642716334
 30
0.0
 11
121.5333900939527
 21
-254.6843642716334
 31
0.0
  0
ENDBLK
  5
1C2
330
29
100
AcDbEntity
  8
0
100
AcDbBlockEnd
  0
BLOCK
  5
2C
330
2B
100
AcDbEntity
  8
0
100
AcDbBlockBegin
  2
FORMAT_A3
 70
     0
 10
549.6988949524239
 20
-568.9302451334855
 30
0.0
  3
FORMAT_A3
  1

  0
LINE
  5
1C6
330
2B
100
AcDbEntity
  8
1
  6
Continuous
 62
     7
100
AcDbLine
 10
-253.4666099060474
 20
-92.68436427163235
 30
0.0
 11
-253.4666099060477
 21
-362.6843642716315
 31
0.0
  0
LINE
  5
1C5
330
2B
100
AcDbEntity
  8
1
  6
Continuous
 62
     7
100
AcDbLine
 10
121.5333900939527
 20
-92.68436427163313
 30
0.0
 11
-253.4666099060474
 21
-92.68436427163235
 31
0.0
  0
LINE
  5
1C4
330
2B
100
AcDbEntity
  8
1
  6
Continuous
 62
     7
100
AcDbLine
 10
121.5333900939527
 20
-310.6843642716324
 30
0.0
 11
121.5333900939527
 21
-92.68436427163313
 31
0.0
  0
LINE
  5
1C3
330
2B
100
AcDbEntity
  8
1
  6
Continuous
 62
     7
100
AcDbLine
 10
-58.46660990604732
 20
-362.684364271632
 30
0.0
 11
-253.4666099060477
 21
-362.6843642716315
 31
0.0
  0
INSERT
  5
2D
330
2B
100
AcDbEntity
  8
0
100
AcDbBlockReference
  2
______
 10
168.9533538030109
 20
-590.5559088381084
 30
0.0
  0
ENDBLK
  5
1C7
330
2B
100
AcDbEntity
  8
0
100
AcDbBlockEnd
  0
BLOCK
  5
2F
330
2E
100
AcDbEntity
  8
0
100
AcDbBlockBegin
  2
_6
 70
     0
 10
-479.1959845407371
 20
-527.9695309455798
 30
0.0
  3
_6
  1

  0
INSERT
  5
30
330
2E
100
AcDbEntity
  8
0
100
AcDbBlockReference
  2
FORMAT_A3
 10
-163.613232111501
 20
-632.5924713765062
 30
0.0
  0
ENDBLK
  5
1C8
330
2E
100
AcDbEntity
  8
0
100
AcDbBlockEnd
  0
BLOCK
  5
32
330
31
100
AcDbEntity
  8
0
100
AcDbBlockBegin
  2
_1
 70
     0
 10
-384.1858058057592
 20
-368.2546976195272
 30
0.0
  3
_1
  1

  0
ARC
  5
1DA
330
31
100
AcDbEntity
  8
1
  6
Continuous
 62
     7
100
AcDbCircle
 10
-873.2073711290039
 20
-266.3546976195272
 30
0.0
 40
7.900000000000089
100
AcDbArc
 50
180.0
 51
-90.0
  0
ARC
  5
1D9
330
31
100
AcDbEntity
  8
1
  6
Continuous
 62
     7
100
AcDbCircle
 10
-873.2073711290039
 20
-266.3546976195272
 30
0.0
 40
7.89999999999998
100
AcDbArc
 50
-90.0
 51
0.0
  0
LINE
  5
1D8
330
31
100
AcDbEntity
  8
1
  6
Continuous
 62
     7
100
AcDbLine
 10
-755.6108058057589
 20
-229.2546976195272
 30
0.0
 11
-775.6858058057589
 21
-229.2546976195272
 31
0.0
  0
LINE
  5
1D7
330
31
100
AcDbEntity
  8
1
  6
Continuous
 62
     7
100
AcDbLine
 10
-748.7608058057593
 20
-229.2546976195272
 30
0.0
 11
-755.6108058057589
 21
-229.2546976195272
 31
0.0
  0
LINE
  5
1D6
330
31
100
AcDbEntity
  8
1
  6
Continuous
 62
     7
100
AcDbLine
 10
-865.3073711290039
 20
-229.2546976195272
 30
0.0
 11
-881.1073711290038
 21
-229.2546976195272
 31
0.0
  0
LINE
  5
1D5
330
31
100
AcDbEntity
  8
1
  6
Continuous
 62
     7
100
AcDbLine
 10
-881.1073711290038
 20
-229.2546976195272
 30
0.0
 11
-881.1073711290038
 21
-266.3546976195272
 31
0.0
  0
LINE
  5
1D4
330
31
100
AcDbEntity
  8
1
  6
Continuous
 62
     7
100
AcDbLine
 10
-865.3073711290039
 20
-266.3546976195272
 30
0.0
 11
-865.3073711290039
 21
-229.2546976195272
 31
0.0
  0
LINE
  5
1D3
330
31
100
AcDbEntity
  8
1
  6
DOT_CENTER
 62
     2
100
AcDbLine
 10
-752.1858058057589
 20
-206.9046976195374
 30
0.0
 11
-752.1858058057589
 21
-279.2546976195272
 31
0.0
  0
LINE
  5
1D2
330
31
100
AcDbEntity
  8
1
  6
Continuous
 62
     7
100
AcDbLine
 10
-743.1858058057589
 20
-229.2546976195272
 30
0.0
 11
-744.1858058057589
 21
-229.2546976195272
 31
0.0
  0
LINE
  5
1D1
330
31
100
AcDbEntity
  8
1
  6
Continuous
 62
     7
100
AcDbLine
 10
-775.6858058057589
 20
-229.2546976195272
 30
0.0
 11
-775.6858058057589
 21
-274.2546976195272
 31
0.0
  0
LINE
  5
1D0
330
31
100
AcDbEntity
  8
1
  6
Continuous
 62
     7
100
AcDbLine
 10
-775.6858058057589
 20
-274.2546976195272
 30
0.0
 11
-744.1858058057589
 21
-274.2546976195272
 31
0.0
  0
LINE
  5
1CF
330
31
100
AcDbEntity
  8
1
  6
Continuous
 62
     7
100
AcDbLine
 10
-743.1858058057589
 20
-273.2546976195272
 30
0.0
 11
-743.1858058057589
 21
-229.2546976195272
 31
0.0
  0
LINE
  5
1CE
330
31
100
AcDbEntity
  8
1
  6
Continuous
 62
     7
100
AcDbLine
 10
-743.1858058057589
 20
-273.2546976195272
 30
0.0
 11
-744.1858058057589
 21
-274.2546976195272
 31
0.0
  0
LINE
  5
1CD
330
31
100
AcDbEntity
  8
1
  6
Continuous
 62
     7
100
AcDbLine
 10
-744.1858058057589
 20
-274.2546976195272
 30
0.0
 11
-744.1858058057589
 21
-229.2546976195272
 31
0.0
  0
LINE
  5
1CC
330
31
100
AcDbEntity
  8
1
  6
Continuous
 62
     7
100
AcDbLine
 10
-744.1858058057589
 20
-229.2546976195272
 30
0.0
 11
-748.7608058057593
 21
-229.2546976195272
 31
0.0
  0
LINE
  5
1CB
330
31
100
AcDbEntity
  8
1
  6
DOT_CENTER
 62
     2
100
AcDbLine
 10
-771.1858058057589
 20
-270.7546976195272
 30
0.0
 11
-771.1858058057589
 21
-276.2546976195272
 31
0.0
  0
LINE
  5
1CA
330
31
100
AcDbEntity
  8
1
  6
DOT_CENTER
 62
     2
100
AcDbLine
 10
-749.1858058057589
 20
-276.2546976195272
 30
0.0
 11
-749.1858058057589
 21
-270.7546976195272
 31
0.0
  0
LINE
  5
1C9
330
31
100
AcDbEntity
  8
1
  6
DOT_CENTER
 62
     2
100
AcDbLine
 10
-746.6858058057589
 20
-241.2546976195272
 30
0.0
 11
-741.1858058057589
 21
-241.2546976195272
 31
0.0
  0
ENDBLK
  5
1DB
330
31
100
AcDbEntity
  8
0
100
AcDbBlockEnd
  0
BLOCK
  5
34
330
33
100
AcDbEntity
  8
0
100
AcDbBlockBegin
  2
_2
 70
     0
 10
-454.7253591754262
 20
-367.7546976195272
 30
0.0
  3
_2
  1

  0
LINE
  5
1E2
330
33
100
AcDbEntity
  8
1
  6
Continuous
 62
     7
100
AcDbLine
 10
-775.6858058057589
 20
-229.2546976195272
 30
0.0
 11
-776.1858058057589
 21
-229.2546976195272
 31
0.0
  0
LINE
  5
1E1
330
33
100
AcDbEntity
  8
1
  6
Continuous
 62
     7
100
AcDbLine
 10
-779.6858058057589
 20
-229.2546976195272
 30
0.0
 11
-779.6858058057589
 21
-273.7546976195272
 31
0.0
  0
LINE
  5
1E0
330
33
100
AcDbEntity
  8
1
  6
Continuous
 62
     7
100
AcDbLine
 10
-779.6858058057589
 20
-273.7546976195272
 30
0.0
 11
-776.1858058057589
 21
-273.7546976195272
 31
0.0
  0
LINE
  5
1DF
330
33
100
AcDbEntity
  8
1
  6
Continuous
 62
     7
100
AcDbLine
 10
-775.6858058057589
 20
-273.2546976195272
 30
0.0
 11
-775.6858058057589
 21
-229.2546976195272
 31
0.0
  0
LINE
  5
1DE
330
33
100
AcDbEntity
  8
1
  6
Continuous
 62
     7
100
AcDbLine
 10
-775.6858058057589
 20
-273.2546976195272
 30
0.0
 11
-776.1858058057589
 21
-273.7546976195272
 31
0.0
  0
LINE
  5
1DD
330
33
100
AcDbEntity
  8
1
  6
Continuous
 62
     7
100
AcDbLine
 10
-776.1858058057589
 20
-273.7546976195272
 30
0.0
 11
-776.1858058057589
 21
-229.2546976195272
 31
0.0
  0
LINE
  5
1DC
330
33
100
AcDbEntity
  8
1
  6
Continuous
 62
     7
100
AcDbLine
 10
-776.1858058057589
 20
-229.2546976195272
 30
0.0
 11
-779.6858058057589
 21
-229.2546976195272
 31
0.0
  0
ENDBLK
  5
1E3
330
33
100
AcDbEntity
  8
0
100
AcDbBlockEnd
  0
BLOCK
  5
36
330
35
100
AcDbEntity
  8
0
100
AcDbBlockBegin
  2
AFD-770-B
 70
     0
 10
259.7744651149437
 20
-263.8955216156292
 30
0.0
  3
AFD-770-B
  1

  0
DIMENSION
  5
299
330
35
100
AcDbEntity
  8
1
100
AcDbDimension
  2
*D22
 10
-844.3073711290038
 20
-274.2546976195272
 30
0.0
 11
-847.0573711290038
 21
-251.7546976195272
 31
0.0
  1
<>
 71
     5
 42
-1.0
 53
90.0
  3
ME10_DIM_10
100
AcDbAlignedDimension
 13
-865.3073711290039
 23
-229.2546976195272
 33
0.0
 14
-873.2073711290039
 24
-274.2546976195272
 34
0.0
 50
90.0
100
AcDbRotatedDimension
  0
DIMENSION
  5
28C
330
35
100
AcDbEntity
  8
1
100
AcDbDimension
  2
*D21
 10
-743.1858058057589
 20
-302.2546976195272
 30
0.0
 11
-769.9358058057589
 21
-299.5046976195272
 31
0.0
  1
<>
 71
     5
 42
-1.0
 53
0.00013888888889
  3
ME10_DIM_9
100
AcDbAlignedDimension
 13
-796.685805805759
 23
-273.7546976195272
 33
0.0
 14
-743.1858058057589
 24
-273.2546976195272
 34
0.0
100
AcDbRotatedDimension
  0
DIMENSION
  5
27F
330
35
100
AcDbEntity
  8
1
100
AcDbDimension
  2
*D20
 10
-779.6858058057589
 20
-295.2546976195272
 30
0.0
 11
-788.1858058057589
 21
-292.5046976195272
 31
0.0
 70
     1
  1
<>
 71
     5
 42
-1.0
 53
0.00013888888889
  3
ME10_DIM_8
100
AcDbAlignedDimension
 13
-796.685805805759
 23
-273.7546976195272
 33
0.0
 14
-779.6858058057589
 24
-273.7546976195272
 34
0.0
  0
DIMENSION
  5
272
330
35
100
AcDbEntity
  8
1
100
AcDbDimension
  2
*D19
 10
-865.3073711290039
 20
-295.2546976195272
 30
0.0
 11
-873.2073711290039
 21
-292.5046976195272
 31
0.0
 70
     1
  1
<>
 71
     5
 42
-1.0
 53
0.00013888888889
  3
ME10_DIM_7
100
AcDbAlignedDimension
 13
-881.1073711290038
 23
-266.3546976195272
 33
0.0
 14
-865.3073711290039
 24
-266.3546976195272
 34
0.0
  0
DIMENSION
  5
265
330
35
100
AcDbEntity
  8
1
100
AcDbDimension
  2
*D18
 10
-752.1858058057589
 20
-178.7546976195272
 30
0.0
 11
-765.9358058057589
 21
-176.0046976195272
 31
0.0
  1
<>
 71
     5
 42
-1.0
 53
0.00013888888889
  3
ME10_DIM_6
100
AcDbAlignedDimension
 13
-779.6858058057589
 23
-229.2546976195272
 33
0.0
 14
-752.1858058057589
 24
-206.9046976195374
 34
0.0
100
AcDbRotatedDimension
  0
DIMENSION
  5
258
330
35
100
AcDbEntity
  8
1
100
AcDbDimension
  2
*D17
 10
-722.1858058057589
 20
-229.2546976195272
 30
0.0
 11
-724.9358058057589
 21
-235.2546976195272
 31
0.0
  1
<>
 71
     5
 42
-1.0
 53
90.0
  3
ME10_DIM_5
100
AcDbAlignedDimension
 13
-741.1858058057589
 23
-241.2546976195272
 33
0.0
 14
-743.1858058057589
 24
-229.2546976195272
 34
0.0
 50
90.0
100
AcDbRotatedDimension
  0
DIMENSION
  5
24B
330
35
100
AcDbEntity
  8
1
100
AcDbDimension
  2
*D16
 10
-722.1858058057589
 20
-241.2546976195272
 30
0.0
 11
-724.9358058057589
 21
-257.7546976195272
 31
0.0
  1
<>
 71
     5
 42
-1.0
 53
90.0
  3
ME10_DIM_4
100
AcDbAlignedDimension
 13
-744.1858058057589
 23
-274.2546976195272
 33
0.0
 14
-741.1858058057589
 24
-241.2546976195272
 34
0.0
 50
90.0
100
AcDbRotatedDimension
  0
DIMENSION
  5
23E
330
35
100
AcDbEntity
  8
1
100
AcDbDimension
  2
*D14
 10
-743.1858058057589
 20
-295.2546976195272
 30
0.0
 11
-746.1858058057589
 21
-292.5046976195272
 31
0.0
  1
<>
 71
     5
 42
-1.0
 53
0.00013888888889
  3
ME10_DIM_3
100
AcDbAlignedDimension
 13
-749.1858058057589
 23
-276.2546976195272
 33
0.0
 14
-743.1858058057589
 24
-273.2546976195272
 34
0.0
100
AcDbRotatedDimension
  0
DIMENSION
  5
22E
330
35
100
AcDbEntity
  8
1
100
AcDbDimension
  2
*D12
 10
-749.1858058057589
 20
-295.2546976195272
 30
0.0
 11
-750.6858058057589
 21
-292.5046976195272
 31
0.0
  1
<>
 71
     5
 42
-1.0
 53
0.00013888888889
  3
ME10_DIM_2
100
AcDbAlignedDimension
 13
-752.1858058057589
 23
-279.2546976195272
 33
0.0
 14
-749.1858058057589
 24
-276.2546976195272
 34
0.0
100
AcDbRotatedDimension
  0
DIMENSION
  5
218
330
35
100
AcDbEntity
  8
1
100
AcDbDimension
  2
*D11
 10
-752.1858058057589
 20
-295.2546976195272
 30
0.0
 11
-761.6858058057589
 21
-292.5046976195272
 31
0.0
  1
<>
 71
     5
 42
-1.0
 53
0.00013888888889
  3
ME10_DIM_1
100
AcDbAlignedDimension
 13
-771.1858058057589
 23
-276.2546976195272
 33
0.0
 14
-752.1858058057589
 24
-279.2546976195272
 34
0.0
100
AcDbRotatedDimension
  0
DIMENSION
  5
20B
330
35
100
AcDbEntity
  8
1
100
AcDbDimension
  2
*D9
 10
-771.1858058057589
 20
-295.2546976195272
 30
0.0
 11
-775.4358058057589
 21
-292.5046976195272
 31
0.0
  1
<>
 71
     5
 42
-1.0
 53
0.00013888888889
  3
ME10_DIM_0
100
AcDbAlignedDimension
 13
-779.6858058057589
 23
-273.7546976195272
 33
0.0
 14
-771.1858058057589
 24
-276.2546976195272
 34
0.0
100
AcDbRotatedDimension
  0
MTEXT
  5
1F7
330
35
100
AcDbEntity
  8
1
 62
     3
100
AcDbMText
 10
-818.9253591754262
 20
-214.9163924669872
 30
0.0
 40
7.0
 41
0.0
 71
     5
 72
     1
  1
2
  7
CONVERTER_1
 73
     1
 44
1.0
1001
ACAD
1000
MTEXTBEGIN
1070
    73
1070
     1
1070
    44
1040
1.0
1070
    74
1070
     0
1000
MTEXTEND
  0
MTEXT
  5
1F6
330
35
100
AcDbEntity
  8
1
 62
     3
100
AcDbMText
 10
-818.9253591754262
 20
-198.226325791066
 30
0.0
 40
7.0
 41
0.0
 71
     6
 72
     1
  1
1
  7
CONVERTER_1
 73
     1
 44
1.0
1001
ACAD
1000
MTEXTBEGIN
1070
    73
1070
     1
1070
    44
1040
1.0
1070
    74
1070
     0
1000
MTEXTEND
  0
MTEXT
  5
1F5
330
35
100
AcDbEntity
  8
1
 62
     3
100
AcDbMText
 10
-818.9253591754262
 20
-231.5830591336536
 30
0.0
 40
7.0
 41
0.0
 71
     5
 72
     1
  1
6
  7
CONVERTER_1
 73
     1
 44
1.0
1001
ACAD
1000
MTEXTBEGIN
1070
    73
1070
     1
1070
    44
1040
1.0
1070
    74
1070
     0
1000
MTEXTEND
  0
MTEXT
  5
1F4
330
35
100
AcDbEntity
  8
1
 62
     3
100
AcDbMText
 10
-900.5817146377465
 20
-258.1799063443882
 30
0.0
 40
7.0
 41
0.0
 71
     5
 72
     1
  1
7
  7
CONVERTER_1
 73
     1
 44
1.0
1001
ACAD
1000
MTEXTBEGIN
1070
    73
1070
     1
1070
    44
1040
1.0
1070
    74
1070
     0
1000
MTEXTEND
  0
LEADER
  5
1F3
330
35
100
AcDbEntity
  8
1
  6
Continuous
 62
     2
100
AcDbLeader
  3
STANDARD
 71
     0
 76
     2
 10
-796.685805805759
 20
-250.2442601636884
 30
0.0
 10
-815.0951369598315
 20
-234.7969971820866
 30
0.0
  0
LEADER
  5
1F0
330
35
100
AcDbEntity
  8
1
  6
Continuous
 62
     2
100
AcDbLeader
  3
STANDARD
 71
     0
 76
     2
 10
-778.3289379633282
 20
-248.9808345331763
 30
0.0
 10
-815.0951369598315
 20
-218.1303305154201
 30
0.0
  0
LEADER
  5
1ED
330
35
100
AcDbEntity
  8
1
  6
Continuous
 62
     2
100
AcDbLeader
  3
STANDARD
 71
     0
 76
     2
 10
-769.7857603717237
 20
-239.459345023452
 30
0.0
 10
-815.0951369598315
 20
-201.4402638394986
 30
0.0
  0
LEADER
  5
1EA
330
35
100
AcDbEntity
  8
1
  6
Continuous
 62
     2
100
AcDbLeader
  3
STANDARD
 71
     0
 76
     2
 10
-875.8999041386724
 20
-264.4091251846312
 30
0.0
 10
-895.830689947734
 20
-259.3789744804391
 30
0.0
  0
CIRCLE
  5
1E7
330
35
100
AcDbEntity
  8
1
  6
Continuous
 62
     2
100
AcDbCircle
 10
-900.5817146377465
 20
-258.1799063443882
 30
0.0
 40
4.900000000000009
  0
LWPOLYLINE
  5
1E6
330
35
100
AcDbEntity
  8
1
  6
Continuous
 62
     2
100
AcDbPolyline
 90
        2
 70
     1
 43
0.0
 10
-818.9960576580949
 20
-219.9158926144571
 42
1.0
 10
-818.8546606927573
 20
-209.9168923195173
 42
1.0
  0
LWPOLYLINE
  5
1E5
330
35
100
AcDbEntity
  8
1
  6
Continuous
 62
     2
100
AcDbPolyline
 90
        2
 70
     1
 43
0.0
 10
-818.9960576580949
 20
-203.2258259385355
 42
1.0
 10
-818.8546606927573
 20
-193.2268256435964
 42
1.0
  0
LWPOLYLINE
  5
1E4
330
35
100
AcDbEntity
  8
1
  6
Continuous
 62
     2
100
AcDbPolyline
 90
        2
 70
     1
 43
0.0
 10
-818.9960576580949
 20
-236.5825592811235
 42
1.0
 10
-818.8546606927573
 20
-226.5835589861837
 42
1.0
  0
INSERT
  5
37
330
35
100
AcDbEntity
  8
1
100
AcDbBlockReference
  2
_7
 10
-522.9681070451852
 20
-480.2546976195271
 30
0.0
  0
INSERT
  5
38
330
35
100
AcDbEntity
  8
1
100
AcDbBlockReference
  2
_6
 10
-479.1959845407371
 20
-527.9695309455798
 30
0.0
  0
INSERT
  5
39
330
35
100
AcDbEntity
  8
1
100
AcDbBlockReference
  2
_1
 10
-384.1858058057592
 20
-368.2546976195272
 30
0.0
  0
INSERT
  5
3A
330
35
100
AcDbEntity
  8
1
100
AcDbBlockReference
  2
_2
 10
-454.7253591754262
 20
-367.7546976195272
 30
0.0
  0
LINE
  5
1E8
330
35
100
AcDbEntity
  8
1
 62
     2
100
AcDbLine
 10
-875.8999041386724
 20
-264.4091251846312
 30
0.0
 11
-879.5229855877703
 21
-264.4619573938157
 31
0.0
  0
LINE
  5
1E9
330
35
100
AcDbEntity
  8
1
 62
     2
100
AcDbLine
 10
-875.8999041386724
 20
-264.4091251846312
 30
0.0
 11
-879.0640008181634
 21
-262.643338495374
 31
0.0
  0
LINE
  5
1EB
330
35
100
AcDbEntity
  8
1
 62
     2
100
AcDbLine
 10
-769.7857603717237
 20
-239.459345023452
 30
0.0
 11
-772.1314575318217
 21
-238.3655284739859
 31
0.0
  0
LINE
  5
1EC
330
35
100
AcDbEntity
  8
1
 62
     2
100
AcDbLine
 10
-769.7857603717237
 20
-239.459345023452
 30
0.0
 11
-771.2702854272206
 21
-237.3392235244855
 31
0.0
  0
LINE
  5
1EE
330
35
100
AcDbEntity
  8
1
 62
     2
100
AcDbLine
 10
-778.3289379633282
 20
-248.9808345331763
 30
0.0
 11
-780.6746351234262
 21
-247.8870179837102
 31
0.0
  0
LINE
  5
1EF
330
35
100
AcDbEntity
  8
1
 62
     2
100
AcDbLine
 10
-778.3289379633282
 20
-248.9808345331763
 30
0.0
 11
-779.813463018825
 21
-246.8607130342097
 31
0.0
  0
LINE
  5
1F1
330
35
100
AcDbEntity
  8
1
 62
     2
100
AcDbLine
 10
-796.685805805759
 20
-250.2442601636884
 30
0.0
 11
-799.031502965857
 21
-249.1504436142223
 31
0.0
  0
LINE
  5
1F2
330
35
100
AcDbEntity
  8
1
 62
     2
100
AcDbLine
 10
-796.685805805759
 20
-250.2442601636884
 30
0.0
 11
-798.1703308612559
 21
-248.1241386647219
 31
0.0
  0
ENDBLK
  5
29A
330
35
100
AcDbEntity
  8
0
100
AcDbBlockEnd
  0
BLOCK
  5
3C
330
3B
100
AcDbEntity
  8
0
100
AcDbBlockBegin
  2
TOP__1
 70
     0
 10
-1148.69966721773
 20
129.201656798225
 30
0.0
  3
TOP__1
  1

  0
HATCH
  5
2C7
330
3B
100
AcDbEntity
  8
1
  6
Continuous
 62
     3
100
AcDbHatch
 10
0.0
 20
0.0
 30
0.0
210
0.0
220
0.0
230
1.0
  2
USER
 70
     0
 71
     1
 91
        1
 92
        1
 93
       12
 72
     1
 10
-878.4279924559378
 20
-251.1995252057341
 11
-878.9414961930132
 21
-250.8891803781478
 72
     1
 10
-878.9414961930132
 20
-250.8891803781478
 11
-879.0073711290039
 21
-254.3546976195271
 72
     1
 10
-879.0073711290039
 20
-254.3546976195271
 11
-877.4009849817868
 21
-251.8202148609065
 72
     1
 10
-877.4009849817868
 20
-251.8202148609065
 11
-877.9144887188623
 21
-251.5098700333203
 72
     2
 10
-873.2073711290039
 20
-254.3546976195271
 40
5.5
 50
-148.8526100784916
 51
-90.0
 73
     0
 72
     2
 10
-873.2073711290039
 20
-254.3546976195271
 40
5.499999999999959
 50
-90.0
 51
-31.14738992150777
 73
     0
 72
     1
 10
-868.5002535391452
 20
-251.5098700333203
 11
-869.0137572762205
 21
-251.8202148609065
 72
     1
 10
-869.0137572762205
 20
-251.8202148609065
 11
-867.4073711290041
 21
-254.3546976195271
 72
     1
 10
-867.4073711290041
 20
-254.3546976195271
 11
-867.4732460649941
 21
-250.8891803781478
 72
     1
 10
-867.4732460649941
 20
-250.8891803781478
 11
-867.9867498020696
 21
-251.1995252057341
 72
     2
 10
-873.2073711290039
 20
-254.3546976195271
 40
6.099999999999928
 50
31.14738992150821
 51
90.0
 73
     1
 72
     2
 10
-873.2073711290039
 20
-254.3546976195271
 40
6.09999999999988
 50
90.0
 51
148.8526100784917
 73
     1
 97
       12
330
29B
330
29E
330
29D
330
29C
330
2C0
330
2C1
330
2A0
330
2A1
330
2A2
330
29F
330
2C2
330
2BF
 75
     1
 76
     0
 52
45.0
 41
0.5
 77
     0
 78
     1
 53
45.0
 43
0.0
 44
0.0
 45
-0.3535533905932737
 46
0.3535533905932738
 79
     0
 98
        1
 10
0.0
 20
0.0
  0
HATCH
  5
2C6
330
3B
100
AcDbEntity
  8
1
  6
Continuous
 62
     3
100
AcDbHatch
 10
0.0
 20
0.0
 30
0.0
210
0.0
220
0.0
230
1.0
  2
USER
 70
     0
 71
     1
 91
        1
 92
        1
 93
       12
 72
     1
 10
-876.1073711290039
 20
-244.3546976195271
 11
-880.1073711290039
 21
-244.3546976195271
 72
     1
 10
-880.1073711290039
 20
-244.3546976195271
 11
-880.1073711290039
 21
-244.7546976195272
 72
     1
 10
-880.1073711290039
 20
-244.7546976195272
 11
-878.3073711290036
 21
-244.7546976195272
 72
     1
 10
-878.3073711290036
 20
-244.7546976195272
 11
-878.3073711290036
 21
-248.3546976195271
 72
     1
 10
-878.3073711290036
 20
-248.3546976195271
 11
-877.9073711290036
 21
-248.3546976195271
 72
     1
 10
-877.9073711290036
 20
-248.3546976195271
 11
-877.9073711290036
 21
-246.5546976195271
 72
     1
 10
-877.9073711290036
 20
-246.5546976195271
 11
-876.3073711290036
 21
-246.5546976195271
 72
     1
 10
-876.3073711290036
 20
-246.5546976195271
 11
-876.3073711290036
 21
-246.154697619527
 72
     1
 10
-876.3073711290036
 20
-246.154697619527
 11
-877.9073711290036
 21
-246.154697619527
 72
     1
 10
-877.9073711290036
 20
-246.154697619527
 11
-877.9073711290036
 21
-244.7546976195272
 72
     1
 10
-877.9073711290036
 20
-244.7546976195272
 11
-876.1073711290039
 21
-244.7546976195272
 72
     1
 10
-876.1073711290039
 20
-244.7546976195272
 11
-876.1073711290039
 21
-244.3546976195271
 97
       12
330
2A5
330
2A6
330
2A3
330
2AB
330
2AE
330
2B2
330
2B1
330
2B0
330
2AF
330
2AC
330
2AD
330
2A4
 75
     1
 76
     0
 52
45.0
 41
0.5
 77
     0
 78
     1
 53
45.0
 43
0.0
 44
0.0
 45
-0.3535533905932737
 46
0.3535533905932738
 79
     0
 98
        1
 10
0.0
 20
0.0
  0
HATCH
  5
2C5
330
3B
100
AcDbEntity
  8
1
  6
Continuous
 62
     3
100
AcDbHatch
 10
0.0
 20
0.0
 30
0.0
210
0.0
220
0.0
230
1.0
  2
USER
 70
     0
 71
     1
 91
        1
 92
        1
 93
       12
 72
     1
 10
-868.1073711290039
 20
-244.3546976195271
 11
-868.5073711290039
 21
-244.3546976195271
 72
     1
 10
-868.5073711290039
 20
-244.3546976195271
 11
-868.5073711290039
 21
-247.9546976195272
 72
     1
 10
-868.5073711290039
 20
-247.9546976195272
 11
-870.3073711290036
 21
-247.9546976195272
 72
     1
 10
-870.3073711290036
 20
-247.9546976195272
 11
-870.3073711290036
 21
-248.3546976195271
 72
     1
 10
-870.3073711290036
 20
-248.3546976195271
 11
-866.3073711290037
 21
-248.3546976195271
 72
     1
 10
-866.3073711290037
 20
-248.3546976195271
 11
-866.3073711290037
 21
-247.9546976195272
 72
     1
 10
-866.3073711290037
 20
-247.9546976195272
 11
-868.1073711290039
 21
-247.9546976195272
 72
     1
 10
-868.1073711290039
 20
-247.9546976195272
 11
-868.1073711290039
 21
-246.3546976195271
 72
     1
 10
-868.1073711290039
 20
-246.3546976195271
 11
-866.5073711290039
 21
-246.3546976195271
 72
     1
 10
-866.5073711290039
 20
-246.3546976195271
 11
-866.5073711290039
 21
-245.9546976195272
 72
     1
 10
-866.5073711290039
 20
-245.9546976195272
 11
-868.1073711290039
 21
-245.9546976195272
 72
     1
 10
-868.1073711290039
 20
-245.9546976195272
 11
-868.1073711290039
 21
-244.3546976195271
 97
       12
330
2B5
330
2B3
330
2B4
330
2AA
330
2A7
330
2A8
330
2A9
330
2BA
330
2B9
330
2B8
330
2B7
330
2B6
 75
     1
 76
     0
 52
45.0
 41
0.5
 77
     0
 78
     1
 53
45.0
 43
0.0
 44
0.0
 45
-0.3535533905932737
 46
0.3535533905932738
 79
     0
 98
        1
 10
0.0
 20
0.0
  0
CIRCLE
  5
2C4
330
3B
100
AcDbEntity
  8
1
  6
Continuous
 62
     7
100
AcDbCircle
 10
-873.2073711290039
 20
-254.3546976195271
 30
0.0
 40
3.5
  0
CIRCLE
  5
2C3
330
3B
100
AcDbEntity
  8
1
  6
Continuous
 62
     7
100
AcDbCircle
 10
-873.2073711290039
 20
-265.8546976195271
 30
0.0
 40
4.5
  0
ARC
  5
2C2
102
{ACAD_REACTORS
330
2C7
102
}
330
3B
100
AcDbEntity
  8
1
  6
Continuous
 62
     7
100
AcDbCircle
 10
-873.2073711290039
 20
-254.3546976195271
 30
0.0
 40
6.099999999999929
100
AcDbArc
 50
31.14738992150821
 51
90.0
  0
ARC
  5
2C1
102
{ACAD_REACTORS
330
2C7
102
}
330
3B
100
AcDbEntity
  8
1
  6
Continuous
 62
     7
100
AcDbCircle
 10
-873.2073711290039
 20
-254.3546976195271
 30
0.0
 40
5.499999999999959
100
AcDbArc
 50
31.14738992150777
 51
90.0
  0
ARC
  5
2C0
102
{ACAD_REACTORS
330
2C7
102
}
330
3B
100
AcDbEntity
  8
1
  6
Continuous
 62
     7
100
AcDbCircle
 10
-873.2073711290039
 20
-254.3546976195271
 30
0.0
 40
5.5
100
AcDbArc
 50
90.0
 51
148.8526100784916
  0
ARC
  5
2BF
102
{ACAD_REACTORS
330
2C7
102
}
330
3B
100
AcDbEntity
  8
1
  6
Continuous
 62
     7
100
AcDbCircle
 10
-873.2073711290039
 20
-254.3546976195271
 30
0.0
 40
6.099999999999879
100
AcDbArc
 50
90.0
 51
148.8526100784917
  0
LINE
  5
2BE
330
3B
100
AcDbEntity
  8
1
  6
DOT_CENTER
 62
     2
100
AcDbLine
 10
-873.2073711290039
 20
-250.5046976195272
 30
0.0
 11
-873.2073711290039
 21
-258.2046976195272
 31
0.0
  0
LINE
  5
2BD
330
3B
100
AcDbEntity
  8
1
  6
DOT_CENTER
 62
     2
100
AcDbLine
 10
-869.3573711290039
 20
-254.3546976195271
 30
0.0
 11
-877.0573711290037
 21
-254.3546976195271
 31
0.0
  0
LINE
  5
2BC
330
3B
100
AcDbEntity
  8
1
  6
DOT_CENTER
 62
     2
100
AcDbLine
 10
-873.2073711290039
 20
-260.904697619527
 30
0.0
 11
-873.2073711290039
 21
-270.8046976195271
 31
0.0
  0
LINE
  5
2BB
330
3B
100
AcDbEntity
  8
1
  6
DOT_CENTER
 62
     2
100
AcDbLine
 10
-868.2573711290039
 20
-265.8546976195271
 30
0.0
 11
-878.1573711290036
 21
-265.8546976195271
 31
0.0
  0
LINE
  5
2BA
102
{ACAD_REACTORS
330
2C5
102
}
330
3B
100
AcDbEntity
  8
1
  6
Continuous
 62
     7
100
AcDbLine
 10
-868.1073711290039
 20
-246.3546976195271
 30
0.0
 11
-868.1073711290039
 21
-247.9546976195272
 31
0.0
  0
LINE
  5
2B9
102
{ACAD_REACTORS
330
2C5
102
}
330
3B
100
AcDbEntity
  8
1
  6
Continuous
 62
     7
100
AcDbLine
 10
-866.5073711290039
 20
-246.3546976195271
 30
0.0
 11
-868.1073711290039
 21
-246.3546976195271
 31
0.0
  0
LINE
  5
2B8
102
{ACAD_REACTORS
330
2C5
102
}
330
3B
100
AcDbEntity
  8
1
  6
Continuous
 62
     7
100
AcDbLine
 10
-866.5073711290039
 20
-245.9546976195272
 30
0.0
 11
-866.5073711290039
 21
-246.3546976195271
 31
0.0
  0
LINE
  5
2B7
102
{ACAD_REACTORS
330
2C5
102
}
330
3B
100
AcDbEntity
  8
1
  6
Continuous
 62
     7
100
AcDbLine
 10
-868.1073711290039
 20
-245.9546976195272
 30
0.0
 11
-866.5073711290039
 21
-245.9546976195272
 31
0.0
  0
LINE
  5
2B6
102
{ACAD_REACTORS
330
2C5
102
}
330
3B
100
AcDbEntity
  8
1
  6
Continuous
 62
     7
100
AcDbLine
 10
-868.1073711290039
 20
-244.3546976195271
 30
0.0
 11
-868.1073711290039
 21
-245.9546976195272
 31
0.0
  0
LINE
  5
2B5
102
{ACAD_REACTORS
330
2C5
102
}
330
3B
100
AcDbEntity
  8
1
  6
Continuous
 62
     7
100
AcDbLine
 10
-868.5073711290039
 20
-244.3546976195271
 30
0.0
 11
-868.1073711290039
 21
-244.3546976195271
 31
0.0
  0
LINE
  5
2B4
102
{ACAD_REACTORS
330
2C5
102
}
330
3B
100
AcDbEntity
  8
1
  6
Continuous
 62
     7
100
AcDbLine
 10
-868.5073711290039
 20
-247.9546976195272
 30
0.0
 11
-870.3073711290036
 21
-247.9546976195272
 31
0.0
  0
LINE
  5
2B3
102
{ACAD_REACTORS
330
2C5
102
}
330
3B
100
AcDbEntity
  8
1
  6
Continuous
 62
     7
100
AcDbLine
 10
-868.5073711290039
 20
-247.9546976195272
 30
0.0
 11
-868.5073711290039
 21
-244.3546976195271
 31
0.0
  0
LINE
  5
2B2
102
{ACAD_REACTORS
330
2C6
102
}
330
3B
100
AcDbEntity
  8
1
  6
Continuous
 62
     7
100
AcDbLine
 10
-877.9073711290036
 20
-246.5546976195271
 30
0.0
 11
-877.9073711290036
 21
-248.3546976195271
 31
0.0
  0
LINE
  5
2B1
102
{ACAD_REACTORS
330
2C6
102
}
330
3B
100
AcDbEntity
  8
1
  6
Continuous
 62
     7
100
AcDbLine
 10
-876.3073711290036
 20
-246.5546976195271
 30
0.0
 11
-877.9073711290036
 21
-246.5546976195271
 31
0.0
  0
LINE
  5
2B0
102
{ACAD_REACTORS
330
2C6
102
}
330
3B
100
AcDbEntity
  8
1
  6
Continuous
 62
     7
100
AcDbLine
 10
-876.3073711290036
 20
-246.154697619527
 30
0.0
 11
-876.3073711290036
 21
-246.5546976195271
 31
0.0
  0
LINE
  5
2AF
102
{ACAD_REACTORS
330
2C6
102
}
330
3B
100
AcDbEntity
  8
1
  6
Continuous
 62
     7
100
AcDbLine
 10
-877.9073711290036
 20
-246.154697619527
 30
0.0
 11
-876.3073711290036
 21
-246.154697619527
 31
0.0
  0
LINE
  5
2AE
102
{ACAD_REACTORS
330
2C6
102
}
330
3B
100
AcDbEntity
  8
1
  6
Continuous
 62
     7
100
AcDbLine
 10
-878.3073711290036
 20
-248.3546976195271
 30
0.0
 11
-877.9073711290036
 21
-248.3546976195271
 31
0.0
  0
LINE
  5
2AD
102
{ACAD_REACTORS
330
2C6
102
}
330
3B
100
AcDbEntity
  8
1
  6
Continuous
 62
     7
100
AcDbLine
 10
-877.9073711290036
 20
-244.7546976195272
 30
0.0
 11
-876.1073711290039
 21
-244.7546976195272
 31
0.0
  0
LINE
  5
2AC
102
{ACAD_REACTORS
330
2C6
102
}
330
3B
100
AcDbEntity
  8
1
  6
Continuous
 62
     7
100
AcDbLine
 10
-877.9073711290036
 20
-244.7546976195272
 30
0.0
 11
-877.9073711290036
 21
-246.154697619527
 31
0.0
  0
LINE
  5
2AB
102
{ACAD_REACTORS
330
2C6
102
}
330
3B
100
AcDbEntity
  8
1
  6
Continuous
 62
     7
100
AcDbLine
 10
-878.3073711290036
 20
-244.7546976195272
 30
0.0
 11
-878.3073711290036
 21
-248.3546976195271
 31
0.0
  0
LINE
  5
2AA
102
{ACAD_REACTORS
330
2C5
102
}
330
3B
100
AcDbEntity
  8
1
  6
Continuous
 62
     7
100
AcDbLine
 10
-870.3073711290036
 20
-247.9546976195272
 30
0.0
 11
-870.3073711290036
 21
-248.3546976195271
 31
0.0
  0
LINE
  5
2A9
102
{ACAD_REACTORS
330
2C5
102
}
330
3B
100
AcDbEntity
  8
1
  6
Continuous
 62
     7
100
AcDbLine
 10
-866.3073711290037
 20
-247.9546976195272
 30
0.0
 11
-868.1073711290039
 21
-247.9546976195272
 31
0.0
  0
LINE
  5
2A8
102
{ACAD_REACTORS
330
2C5
102
}
330
3B
100
AcDbEntity
  8
1
  6
Continuous
 62
     7
100
AcDbLine
 10
-866.3073711290037
 20
-248.3546976195271
 30
0.0
 11
-866.3073711290037
 21
-247.9546976195272
 31
0.0
  0
LINE
  5
2A7
102
{ACAD_REACTORS
330
2C5
102
}
330
3B
100
AcDbEntity
  8
1
  6
Continuous
 62
     7
100
AcDbLine
 10
-870.3073711290036
 20
-248.3546976195271
 30
0.0
 11
-866.3073711290037
 21
-248.3546976195271
 31
0.0
  0
LINE
  5
2A6
102
{ACAD_REACTORS
330
2C6
102
}
330
3B
100
AcDbEntity
  8
1
  6
Continuous
 62
     7
100
AcDbLine
 10
-880.1073711290039
 20
-244.3546976195271
 30
0.0
 11
-880.1073711290039
 21
-244.7546976195272
 31
0.0
  0
LINE
  5
2A5
102
{ACAD_REACTORS
330
2C6
102
}
330
3B
100
AcDbEntity
  8
1
  6
Continuous
 62
     7
100
AcDbLine
 10
-876.1073711290039
 20
-244.3546976195271
 30
0.0
 11
-880.1073711290039
 21
-244.3546976195271
 31
0.0
  0
LINE
  5
2A4
102
{ACAD_REACTORS
330
2C6
102
}
330
3B
100
AcDbEntity
  8
1
  6
Continuous
 62
     7
100
AcDbLine
 10
-876.1073711290039
 20
-244.7546976195272
 30
0.0
 11
-876.1073711290039
 21
-244.3546976195271
 31
0.0
  0
LINE
  5
2A3
102
{ACAD_REACTORS
330
2C6
102
}
330
3B
100
AcDbEntity
  8
1
  6
Continuous
 62
     7
100
AcDbLine
 10
-880.1073711290039
 20
-244.7546976195272
 30
0.0
 11
-878.3073711290036
 21
-244.7546976195272
 31
0.0
  0
LINE
  5
2A2
102
{ACAD_REACTORS
330
2C7
102
}
330
3B
100
AcDbEntity
  8
1
  6
Continuous
 62
     7
100
AcDbLine
 10
-867.4073711290041
 20
-254.3546976195271
 30
0.0
 11
-867.4732460649941
 21
-250.8891803781478
 31
0.0
  0
LINE
  5
2A1
102
{ACAD_REACTORS
330
2C7
102
}
330
3B
100
AcDbEntity
  8
1
  6
Continuous
 62
     7
100
AcDbLine
 10
-867.4073711290041
 20
-254.3546976195271
 30
0.0
 11
-869.0137572762205
 21
-251.8202148609065
 31
0.0
  0
LINE
  5
2A0
102
{ACAD_REACTORS
330
2C7
102
}
330
3B
100
AcDbEntity
  8
1
  6
Continuous
 62
     7
100
AcDbLine
 10
-868.5002535391452
 20
-251.5098700333203
 30
0.0
 11
-869.0137572762205
 21
-251.8202148609065
 31
0.0
  0
LINE
  5
29F
102
{ACAD_REACTORS
330
2C7
102
}
330
3B
100
AcDbEntity
  8
1
  6
Continuous
 62
     7
100
AcDbLine
 10
-867.4732460649941
 20
-250.8891803781478
 30
0.0
 11
-867.9867498020696
 21
-251.1995252057341
 31
0.0
  0
LINE
  5
29E
102
{ACAD_REACTORS
330
2C7
102
}
330
3B
100
AcDbEntity
  8
1
  6
Continuous
 62
     7
100
AcDbLine
 10
-878.9414961930132
 20
-250.8891803781478
 30
0.0
 11
-879.0073711290039
 21
-254.3546976195271
 31
0.0
  0
LINE
  5
29D
102
{ACAD_REACTORS
330
2C7
102
}
330
3B
100
AcDbEntity
  8
1
  6
Continuous
 62
     7
100
AcDbLine
 10
-877.4009849817868
 20
-251.8202148609065
 30
0.0
 11
-879.0073711290039
 21
-254.3546976195271
 31
0.0
  0
LINE
  5
29C
102
{ACAD_REACTORS
330
2C7
102
}
330
3B
100
AcDbEntity
  8
1
  6
Continuous
 62
     7
100
AcDbLine
 10
-877.4009849817868
 20
-251.8202148609065
 30
0.0
 11
-877.9144887188623
 21
-251.5098700333203
 31
0.0
  0
LINE
  5
29B
102
{ACAD_REACTORS
330
2C7
102
}
330
3B
100
AcDbEntity
  8
1
  6
Continuous
 62
     7
100
AcDbLine
 10
-878.4279924559378
 20
-251.1995252057341
 30
0.0
 11
-878.9414961930132
 21
-250.8891803781478
 31
0.0
  0
INSERT
  5
3D
330
3B
100
AcDbEntity
  8
1
100
AcDbBlockReference
  2
_______T________________M4
 10
-482.2073711290033
 20
-269.8546976195271
 30
0.0
  0
INSERT
  5
3E
330
3B
100
AcDbEntity
  8
0
100
AcDbBlockReference
  2
AFD-770-B
 10
259.7744651149437
 20
-263.8955216156292
 30
0.0
  0
ENDBLK
  5
2C8
330
3B
100
AcDbEntity
  8
0
100
AcDbBlockEnd
  0
BLOCK
  5
1F9
330
1F8
100
AcDbEntity
  8
0
100
AcDbBlockBegin
  2
*D9
 70
     1
 10
0.0
 20
0.0
 30
0.0
  3
*D9
  1

  0
LINE
  5
1FA
330
1F8
100
AcDbEntity
  8
0
  6
Continuous
 62
     2
100
AcDbLine
 10
-779.6858058057589
 20
-295.2546976195272
 30
0.0
 11
-771.1858058057589
 21
-295.2546976195272
 31
0.0
  0
LINE
  5
1FB
330
1F8
100
AcDbEntity
  8
0
  6
Continuous
 62
     2
100
AcDbLine
 10
-779.6858058057589
 20
-274.7546976195272
 30
0.0
 11
-779.6858058057589
 21
-296.2546976195272
 31
0.0
  0
LINE
  5
1FC
330
1F8
100
AcDbEntity
  8
0
  6
Continuous
 62
     2
100
AcDbLine
 10
-771.1858058057589
 20
-277.2546976195272
 30
0.0
 11
-771.1858058057589
 21
-296.2546976195272
 31
0.0
  0
LINE
  5
1FD
330
1F8
100
AcDbEntity
  8
0
 62
     2
100
AcDbLine
 10
-771.1858058057589
 20
-295.2546976195272
 30
0.0
 11
-773.6358058057593
 21
-295.9111731409834
 31
0.0
  0
LINE
  5
1FE
330
1F8
100
AcDbEntity
  8
0
 62
     2
100
AcDbLine
 10
-771.1858058057589
 20
-295.2546976195272
 30
0.0
 11
-773.6358058057593
 21
-294.598222098071
 31
0.0
  0
LINE
  5
1FF
330
1F8
100
AcDbEntity
  8
0
 62
     2
100
AcDbLine
 10
-779.6858058057589
 20
-295.2546976195272
 30
0.0
 11
-777.235805805759
 21
-294.598222098071
 31
0.0
  0
LINE
  5
200
330
1F8
100
AcDbEntity
  8
0
 62
     2
100
AcDbLine
 10
-779.6858058057589
 20
-295.2546976195272
 30
0.0
 11
-777.235805805759
 21
-295.9111731409834
 31
0.0
  0
MTEXT
  5
202
330
1F8
100
AcDbEntity
  8
0
 62
     3
100
AcDbMText
 10
-777.824555805759
 20
-294.2546976195272
 30
0.0
 40
3.5
 41
0.0
 71
     7
 72
     1
  1
8.5
  7
CONVERTER_6
 11
0.999999999997062
 21
0.00000242406841
 31
0.0
 73
     1
 44
1.0
1001
ACAD
1000
MTEXTBEGIN
1070
    73
1070
     1
1070
    44
1040
1.0
1070
    74
1070
     0
1000
MTEXTEND
  0
ENDBLK
  5
203
330
1F8
100
AcDbEntity
  8
0
100
AcDbBlockEnd
  0
BLOCK
  5
205
330
204
100
AcDbEntity
  8
0
 62
     0
100
AcDbBlockBegin
  2
_OPEN30
 70
     0
 10
0.0
 20
0.0
 30
0.0
  3
_OPEN30
  1

  0
LINE
  5
206
330
204
100
AcDbEntity
  8
0
  6
ByBlock
 62
     0
100
AcDbLine
 10
-1.0
 20
0.267949
 30
0.0
 11
0.0
 21
0.0
 31
0.0
  0
LINE
  5
207
330
204
100
AcDbEntity
  8
0
  6
ByBlock
 62
     0
100
AcDbLine
 10
0.0
 20
0.0
 30
0.0
 11
-1.0
 21
-0.267949
 31
0.0
  0
LINE
  5
208
330
204
100
AcDbEntity
  8
0
  6
ByBlock
 62
     0
100
AcDbLine
 10
0.0
 20
0.0
 30
0.0
 11
-1.0
 21
0.0
 31
0.0
  0
ENDBLK
  5
209
330
204
100
AcDbEntity
  8
0
 62
     0
100
AcDbBlockEnd
  0
BLOCK
  5
20D
330
20C
100
AcDbEntity
  8
0
100
AcDbBlockBegin
  2
*D11
 70
     1
 10
0.0
 20
0.0
 30
0.0
  3
*D11
  1

  0
LINE
  5
20E
330
20C
100
AcDbEntity
  8
0
  6
Continuous
 62
     2
100
AcDbLine
 10
-771.1858058057589
 20
-295.2546976195272
 30
0.0
 11
-752.1858058057589
 21
-295.2546976195272
 31
0.0
  0
LINE
  5
20F
330
20C
100
AcDbEntity
  8
0
  6
Continuous
 62
     2
100
AcDbLine
 10
-771.1858058057589
 20
-277.2546976195272
 30
0.0
 11
-771.1858058057589
 21
-296.2546976195272
 31
0.0
  0
LINE
  5
210
330
20C
100
AcDbEntity
  8
0
  6
Continuous
 62
     2
100
AcDbLine
 10
-752.1858058057589
 20
-280.2546976195272
 30
0.0
 11
-752.1858058057589
 21
-296.2546976195272
 31
0.0
  0
LINE
  5
211
330
20C
100
AcDbEntity
  8
0
 62
     2
100
AcDbLine
 10
-752.1858058057589
 20
-295.2546976195272
 30
0.0
 11
-754.6358058057593
 21
-295.9111731409834
 31
0.0
  0
LINE
  5
212
330
20C
100
AcDbEntity
  8
0
 62
     2
100
AcDbLine
 10
-752.1858058057589
 20
-295.2546976195272
 30
0.0
 11
-754.6358058057593
 21
-294.598222098071
 31
0.0
  0
LINE
  5
213
330
20C
100
AcDbEntity
  8
0
 62
     2
100
AcDbLine
 10
-771.1858058057589
 20
-295.2546976195272
 30
0.0
 11
-768.735805805759
 21
-294.598222098071
 31
0.0
  0
LINE
  5
214
330
20C
100
AcDbEntity
  8
0
 62
     2
100
AcDbLine
 10
-771.1858058057589
 20
-295.2546976195272
 30
0.0
 11
-768.735805805759
 21
-295.9111731409834
 31
0.0
  0
MTEXT
  5
215
330
20C
100
AcDbEntity
  8
0
 62
     3
100
AcDbMText
 10
-763.1558058057593
 20
-294.2546976195272
 30
0.0
 40
3.5
 41
0.0
 71
     7
 72
     1
  1
19
  7
CONVERTER_6
 11
0.999999999997062
 21
0.00000242406841
 31
0.0
 73
     1
 44
1.0
1001
ACAD
1000
MTEXTBEGIN
1070
    73
1070
     1
1070
    44
1040
1.0
1070
    74
1070
     0
1000
MTEXTEND
  0
ENDBLK
  5
216
330
20C
100
AcDbEntity
  8
0
100
AcDbBlockEnd
  0
BLOCK
  5
21A
330
219
100
AcDbEntity
  8
0
100
AcDbBlockBegin
  2
*D12
 70
     1
 10
0.0
 20
0.0
 30
0.0
  3
*D12
  1

  0
LINE
  5
21B
330
219
100
AcDbEntity
  8
0
  6
Continuous
 62
     2
100
AcDbLine
 10
-752.1858058057589
 20
-295.2546976195272
 30
0.0
 11
-749.1858058057589
 21
-295.2546976195272
 31
0.0
  0
LINE
  5
21C
330
219
100
AcDbEntity
  8
0
  6
Continuous
 62
     2
100
AcDbLine
 10
-752.1858058057589
 20
-295.2546976195272
 30
0.0
 11
-757.0858058057589
 21
-295.2546976195272
 31
0.0
  0
LINE
  5
21D
330
219
100
AcDbEntity
  8
0
  6
Continuous
 62
     2
100
AcDbLine
 10
-752.1858058057589
 20
-280.2546976195272
 30
0.0
 11
-752.1858058057589
 21
-296.2546976195272
 31
0.0
  0
LINE
  5
21E
330
219
100
AcDbEntity
  8
0
  6
Continuous
 62
     2
100
AcDbLine
 10
-749.1858058057589
 20
-277.2546976195272
 30
0.0
 11
-749.1858058057589
 21
-296.2546976195272
 31
0.0
  0
CIRCLE
  5
21F
330
219
100
AcDbEntity
  8
0
 62
     2
100
AcDbCircle
 10
-749.1858058057589
 20
-295.2546976195272
 30
0.0
 40
0.5
  0
HATCH
  5
220
330
219
100
AcDbEntity
  8
0
 62
     2
100
AcDbHatch
 10
0.0
 20
0.0
 30
0.0
210
0.0
220
0.0
230
1.0
  2
SOLID
 70
     1
 71
     1
 91
        1
 92
        1
 93
        1
 72
     2
 10
-749.1858058057589
 20
-295.2546976195272
 40
0.5
 50
-180.0
 51
180.0
 73
     1
 97
        1
330
21F
 75
     0
 76
     1
 98
        1
 10
0.0
 20
0.0
  0
LINE
  5
221
330
219
100
AcDbEntity
  8
0
 62
     2
100
AcDbLine
 10
-752.1858058057589
 20
-295.2546976195272
 30
0.0
 11
-754.6358058057593
 21
-295.9111731409834
 31
0.0
  0
LINE
  5
222
330
219
100
AcDbEntity
  8
0
 62
     2
100
AcDbLine
 10
-752.1858058057589
 20
-295.2546976195272
 30
0.0
 11
-754.6358058057593
 21
-294.598222098071
 31
0.0
  0
MTEXT
  5
223
330
219
100
AcDbEntity
  8
0
 62
     3
100
AcDbMText
 10
-751.4208058057593
 20
-294.2546976195272
 30
0.0
 40
3.5
 41
0.0
 71
     7
 72
     1
  1
3
  7
CONVERTER_6
 11
0.999999999997062
 21
0.00000242406841
 31
0.0
 73
     1
 44
1.0
1001
ACAD
1000
MTEXTBEGIN
1070
    73
1070
     1
1070
    44
1040
1.0
1070
    74
1070
     0
1000
MTEXTEND
  0
ENDBLK
  5
224
330
219
100
AcDbEntity
  8
0
100
AcDbBlockEnd
  0
BLOCK
  5
226
330
225
100
AcDbEntity
  8
0
 62
     0
100
AcDbBlockBegin
  2
_DOT
 70
     0
 10
0.0
 20
0.0
 30
0.0
  3
_DOT
  1

  0
LWPOLYLINE
  5
227
330
225
100
AcDbEntity
  8
0
  6
ByBlock
 62
     0
100
AcDbPolyline
 90
        2
 70
     1
 43
0.5
 10
-0.25
 20
0.0
 42
1.0
 10
0.25
 20
0.0
 42
1.0
  0
LINE
  5
22B
330
225
100
AcDbEntity
  8
0
  6
ByBlock
 62
     0
100
AcDbLine
 10
-0.5
 20
0.0
 30
0.0
 11
-1.0
 21
0.0
 31
0.0
  0
ENDBLK
  5
22C
330
225
100
AcDbEntity
  8
0
 62
     0
100
AcDbBlockEnd
  0
BLOCK
  5
230
330
22F
100
AcDbEntity
  8
0
100
AcDbBlockBegin
  2
*D14
 70
     1
 10
0.0
 20
0.0
 30
0.0
  3
*D14
  1

  0
LINE
  5
231
330
22F
100
AcDbEntity
  8
0
  6
Continuous
 62
     2
100
AcDbLine
 10
-743.1858058057589
 20
-295.2546976195272
 30
0.0
 11
-738.2858058057593
 21
-295.2546976195272
 31
0.0
  0
LINE
  5
232
330
22F
100
AcDbEntity
  8
0
  6
Continuous
 62
     2
100
AcDbLine
 10
-749.1858058057589
 20
-295.2546976195272
 30
0.0
 11
-749.1858058057589
 21
-295.2546976195272
 31
0.0
  0
LINE
  5
233
330
22F
100
AcDbEntity
  8
0
  6
Continuous
 62
     2
100
AcDbLine
 10
-749.1858058057589
 20
-295.2546976195272
 30
0.0
 11
-743.1858058057589
 21
-295.2546976195272
 31
0.0
  0
LINE
  5
234
330
22F
100
AcDbEntity
  8
0
  6
Continuous
 62
     2
100
AcDbLine
 10
-743.1858058057589
 20
-274.2546976195272
 30
0.0
 11
-743.1858058057589
 21
-296.2546976195272
 31
0.0
  0
LINE
  5
235
330
22F
100
AcDbEntity
  8
0
  6
Continuous
 62
     2
100
AcDbLine
 10
-749.1858058057589
 20
-277.2546976195272
 30
0.0
 11
-749.1858058057589
 21
-296.2546976195272
 31
0.0
  0
LINE
  5
236
330
22F
100
AcDbEntity
  8
0
 62
     2
100
AcDbLine
 10
-743.1858058057589
 20
-295.2546976195272
 30
0.0
 11
-740.735805805759
 21
-294.598222098071
 31
0.0
  0
LINE
  5
237
330
22F
100
AcDbEntity
  8
0
 62
     2
100
AcDbLine
 10
-743.1858058057589
 20
-295.2546976195272
 30
0.0
 11
-740.735805805759
 21
-295.9111731409834
 31
0.0
  0
MTEXT
  5
238
330
22F
100
AcDbEntity
  8
0
 62
     3
100
AcDbMText
 10
-746.9208058057593
 20
-294.2546976195272
 30
0.0
 40
3.5
 41
0.0
 71
     7
 72
     1
  1
6
  7
CONVERTER_6
 11
0.999999999997062
 21
0.00000242406841
 31
0.0
 73
     1
 44
1.0
1001
ACAD
1000
MTEXTBEGIN
1070
    73
1070
     1
1070
    44
1040
1.0
1070
    74
1070
     0
1000
MTEXTEND
  0
ENDBLK
  5
239
330
22F
100
AcDbEntity
  8
0
100
AcDbBlockEnd
  0
BLOCK
  5
23B
330
23A
100
AcDbEntity
  8
0
 62
     0
100
AcDbBlockBegin
  2
_NONE
 70
     0
 10
0.0
 20
0.0
 30
0.0
  3
_NONE
  1

  0
ENDBLK
  5
23C
330
23A
100
AcDbEntity
  8
0
 62
     0
100
AcDbBlockEnd
  0
BLOCK
  5
240
330
23F
100
AcDbEntity
  8
0
100
AcDbBlockBegin
  2
*D16
 70
     1
 10
0.0
 20
0.0
 30
0.0
  3
*D16
  1

  0
LINE
  5
241
330
23F
100
AcDbEntity
  8
0
  6
Continuous
 62
     2
100
AcDbLine
 10
-722.1858058057589
 20
-274.2546976195272
 30
0.0
 11
-722.1858058057589
 21
-241.2546976195272
 31
0.0
  0
LINE
  5
242
330
23F
100
AcDbEntity
  8
0
  6
Continuous
 62
     2
100
AcDbLine
 10
-743.1858058057589
 20
-274.2546976195272
 30
0.0
 11
-721.1858058057589
 21
-274.2546976195272
 31
0.0
  0
LINE
  5
243
330
23F
100
AcDbEntity
  8
0
  6
Continuous
 62
     2
100
AcDbLine
 10
-740.1858058057589
 20
-241.2546976195272
 30
0.0
 11
-721.1858058057589
 21
-241.2546976195272
 31
0.0
  0
LINE
  5
244
330
23F
100
AcDbEntity
  8
0
 62
     2
100
AcDbLine
 10
-722.1858058057589
 20
-241.2546976195272
 30
0.0
 11
-721.5293302843027
 21
-243.7046976195272
 31
0.0
  0
LINE
  5
245
330
23F
100
AcDbEntity
  8
0
 62
     2
100
AcDbLine
 10
-722.1858058057589
 20
-241.2546976195272
 30
0.0
 11
-722.8422813272154
 21
-243.7046976195272
 31
0.0
  0
LINE
  5
246
330
23F
100
AcDbEntity
  8
0
 62
     2
100
AcDbLine
 10
-722.1858058057589
 20
-274.2546976195272
 30
0.0
 11
-722.8422813272154
 21
-271.8046976195272
 31
0.0
  0
LINE
  5
247
330
23F
100
AcDbEntity
  8
0
 62
     2
100
AcDbLine
 10
-722.1858058057589
 20
-274.2546976195272
 30
0.0
 11
-721.5293302843027
 21
-271.8046976195272
 31
0.0
  0
MTEXT
  5
248
330
23F
100
AcDbEntity
  8
0
 62
     3
100
AcDbMText
 10
-723.1858058057589
 20
-259.5921976195272
 30
0.0
 40
3.5
 41
0.0
 71
     7
 72
     1
  1
33
  7
CONVERTER_6
 11
0.0
 21
1.0
 31
0.0
 73
     1
 44
1.0
1001
ACAD
1000
MTEXTBEGIN
1070
    73
1070
     1
1070
    44
1040
1.0
1070
    74
1070
     0
1000
MTEXTEND
  0
ENDBLK
  5
249
330
23F
100
AcDbEntity
  8
0
100
AcDbBlockEnd
  0
BLOCK
  5
24D
330
24C
100
AcDbEntity
  8
0
100
AcDbBlockBegin
  2
*D17
 70
     1
 10
0.0
 20
0.0
 30
0.0
  3
*D17
  1

  0
LINE
  5
24E
330
24C
100
AcDbEntity
  8
0
  6
Continuous
 62
     2
100
AcDbLine
 10
-722.1858058057589
 20
-241.2546976195272
 30
0.0
 11
-722.1858058057589
 21
-229.2546976195272
 31
0.0
  0
LINE
  5
24F
330
24C
100
AcDbEntity
  8
0
  6
Continuous
 62
     2
100
AcDbLine
 10
-740.1858058057589
 20
-241.2546976195272
 30
0.0
 11
-721.1858058057589
 21
-241.2546976195272
 31
0.0
  0
LINE
  5
250
330
24C
100
AcDbEntity
  8
0
  6
Continuous
 62
     2
100
AcDbLine
 10
-742.1858058057589
 20
-229.2546976195272
 30
0.0
 11
-721.1858058057589
 21
-229.2546976195272
 31
0.0
  0
LINE
  5
251
330
24C
100
AcDbEntity
  8
0
 62
     2
100
AcDbLine
 10
-722.1858058057589
 20
-229.2546976195272
 30
0.0
 11
-721.5293302843027
 21
-231.7046976195272
 31
0.0
  0
LINE
  5
252
330
24C
100
AcDbEntity
  8
0
 62
     2
100
AcDbLine
 10
-722.1858058057589
 20
-229.2546976195272
 30
0.0
 11
-722.8422813272154
 21
-231.7046976195272
 31
0.0
  0
LINE
  5
253
330
24C
100
AcDbEntity
  8
0
 62
     2
100
AcDbLine
 10
-722.1858058057589
 20
-241.2546976195272
 30
0.0
 11
-722.8422813272154
 21
-238.8046976195272
 31
0.0
  0
LINE
  5
254
330
24C
100
AcDbEntity
  8
0
 62
     2
100
AcDbLine
 10
-722.1858058057589
 20
-241.2546976195272
 30
0.0
 11
-721.5293302843027
 21
-238.8046976195272
 31
0.0
  0
MTEXT
  5
255
330
24C
100
AcDbEntity
  8
0
 62
     3
100
AcDbMText
 10
-723.1858058057589
 20
-236.7246976195272
 30
0.0
 40
3.5
 41
0.0
 71
     7
 72
     1
  1
12
  7
CONVERTER_6
 11
0.0
 21
1.0
 31
0.0
 73
     1
 44
1.0
1001
ACAD
1000
MTEXTBEGIN
1070
    73
1070
     1
1070
    44
1040
1.0
1070
    74
1070
     0
1000
MTEXTEND
  0
ENDBLK
  5
256
330
24C
100
AcDbEntity
  8
0
100
AcDbBlockEnd
  0
BLOCK
  5
25A
330
259
100
AcDbEntity
  8
0
100
AcDbBlockBegin
  2
*D18
 70
     1
 10
0.0
 20
0.0
 30
0.0
  3
*D18
  1

  0
LINE
  5
25B
330
259
100
AcDbEntity
  8
0
  6
Continuous
 62
     2
100
AcDbLine
 10
-779.6858058057589
 20
-178.7546976195272
 30
0.0
 11
-752.1858058057589
 21
-178.7546976195272
 31
0.0
  0
LINE
  5
25C
330
259
100
AcDbEntity
  8
0
  6
Continuous
 62
     2
100
AcDbLine
 10
-779.6858058057589
 20
-228.2546976195272
 30
0.0
 11
-779.6858058057589
 21
-177.7546976195272
 31
0.0
  0
LINE
  5
25D
330
259
100
AcDbEntity
  8
0
  6
Continuous
 62
     2
100
AcDbLine
 10
-752.1858058057589
 20
-205.9046976195374
 30
0.0
 11
-752.1858058057589
 21
-177.7546976195272
 31
0.0
  0
LINE
  5
25E
330
259
100
AcDbEntity
  8
0
 62
     2
100
AcDbLine
 10
-752.1858058057589
 20
-178.7546976195272
 30
0.0
 11
-754.6358058057593
 21
-179.4111731409834
 31
0.0
  0
LINE
  5
25F
330
259
100
AcDbEntity
  8
0
 62
     2
100
AcDbLine
 10
-752.1858058057589
 20
-178.7546976195272
 30
0.0
 11
-754.6358058057593
 21
-178.098222098071
 31
0.0
  0
LINE
  5
260
330
259
100
AcDbEntity
  8
0
 62
     2
100
AcDbLine
 10
-779.6858058057589
 20
-178.7546976195272
 30
0.0
 11
-777.235805805759
 21
-178.098222098071
 31
0.0
  0
LINE
  5
261
330
259
100
AcDbEntity
  8
0
 62
     2
100
AcDbLine
 10
-779.6858058057589
 20
-178.7546976195272
 30
0.0
 11
-777.235805805759
 21
-179.4111731409834
 31
0.0
  0
MTEXT
  5
262
330
259
100
AcDbEntity
  8
0
 62
     3
100
AcDbMText
 10
-769.3045558057589
 20
-177.7546976195272
 30
0.0
 40
3.5
 41
0.0
 71
     7
 72
     1
  1
27.5
  7
CONVERTER_6
 11
0.999999999997062
 21
0.00000242406841
 31
0.0
 73
     1
 44
1.0
1001
ACAD
1000
MTEXTBEGIN
1070
    73
1070
     1
1070
    44
1040
1.0
1070
    74
1070
     0
1000
MTEXTEND
  0
ENDBLK
  5
263
330
259
100
AcDbEntity
  8
0
100
AcDbBlockEnd
  0
BLOCK
  5
267
330
266
100
AcDbEntity
  8
0
100
AcDbBlockBegin
  2
*D19
 70
     1
 10
0.0
 20
0.0
 30
0.0
  3
*D19
  1

  0
LINE
  5
268
330
266
100
AcDbEntity
  8
0
  6
Continuous
 62
     2
100
AcDbLine
 10
-881.1073711290038
 20
-295.2546976195272
 30
0.0
 11
-865.3073711290039
 21
-295.2546976195272
 31
0.0
  0
LINE
  5
269
330
266
100
AcDbEntity
  8
0
  6
Continuous
 62
     2
100
AcDbLine
 10
-881.1073711290038
 20
-267.3546976195272
 30
0.0
 11
-881.1073711290038
 21
-296.2546976195272
 31
0.0
  0
LINE
  5
26A
330
266
100
AcDbEntity
  8
0
  6
Continuous
 62
     2
100
AcDbLine
 10
-865.3073711290039
 20
-267.3546976195272
 30
0.0
 11
-865.3073711290039
 21
-296.2546976195272
 31
0.0
  0
LINE
  5
26B
330
266
100
AcDbEntity
  8
0
 62
     2
100
AcDbLine
 10
-865.3073711290039
 20
-295.2546976195272
 30
0.0
 11
-867.7573711290039
 21
-295.9111731409834
 31
0.0
  0
LINE
  5
26C
330
266
100
AcDbEntity
  8
0
 62
     2
100
AcDbLine
 10
-865.3073711290039
 20
-295.2546976195272
 30
0.0
 11
-867.7573711290039
 21
-294.598222098071
 31
0.0
  0
LINE
  5
26D
330
266
100
AcDbEntity
  8
0
 62
     2
100
AcDbLine
 10
-881.1073711290038
 20
-295.2546976195272
 30
0.0
 11
-878.6573711290037
 21
-294.598222098071
 31
0.0
  0
LINE
  5
26E
330
266
100
AcDbEntity
  8
0
 62
     2
100
AcDbLine
 10
-881.1073711290038
 20
-295.2546976195272
 30
0.0
 11
-878.6573711290037
 21
-295.9111731409834
 31
0.0
  0
MTEXT
  5
26F
330
266
100
AcDbEntity
  8
0
 62
     3
100
AcDbMText
 10
-876.2086211290037
 20
-294.2546976195272
 30
0.0
 40
3.5
 41
0.0
 71
     7
 72
     1
  1
15.8
  7
CONVERTER_6
 11
0.999999999997062
 21
0.00000242406841
 31
0.0
 73
     1
 44
1.0
1001
ACAD
1000
MTEXTBEGIN
1070
    73
1070
     1
1070
    44
1040
1.0
1070
    74
1070
     0
1000
MTEXTEND
  0
ENDBLK
  5
270
330
266
100
AcDbEntity
  8
0
100
AcDbBlockEnd
  0
BLOCK
  5
274
330
273
100
AcDbEntity
  8
0
100
AcDbBlockBegin
  2
*D20
 70
     1
 10
0.0
 20
0.0
 30
0.0
  3
*D20
  1

  0
LINE
  5
275
330
273
100
AcDbEntity
  8
0
  6
Continuous
 62
     2
100
AcDbLine
 10
-796.685805805759
 20
-295.2546976195272
 30
0.0
 11
-779.6858058057589
 21
-295.2546976195272
 31
0.0
  0
LINE
  5
276
330
273
100
AcDbEntity
  8
0
  6
Continuous
 62
     2
100
AcDbLine
 10
-779.6858058057589
 20
-274.7546976195272
 30
0.0
 11
-779.6858058057589
 21
-296.2546976195272
 31
0.0
  0
LINE
  5
277
330
273
100
AcDbEntity
  8
0
  6
Continuous
 62
     2
100
AcDbLine
 10
-796.685805805759
 20
-274.7546976195272
 30
0.0
 11
-796.685805805759
 21
-296.2546976195272
 31
0.0
  0
LINE
  5
278
330
273
100
AcDbEntity
  8
0
 62
     2
100
AcDbLine
 10
-779.6858058057589
 20
-295.2546976195272
 30
0.0
 11
-782.1358058057589
 21
-295.9111731409834
 31
0.0
  0
LINE
  5
279
330
273
100
AcDbEntity
  8
0
 62
     2
100
AcDbLine
 10
-779.6858058057589
 20
-295.2546976195272
 30
0.0
 11
-782.1358058057589
 21
-294.598222098071
 31
0.0
  0
LINE
  5
27A
330
273
100
AcDbEntity
  8
0
 62
     2
100
AcDbLine
 10
-796.685805805759
 20
-295.2546976195272
 30
0.0
 11
-794.235805805759
 21
-294.598222098071
 31
0.0
  0
LINE
  5
27B
330
273
100
AcDbEntity
  8
0
 62
     2
100
AcDbLine
 10
-796.685805805759
 20
-295.2546976195272
 30
0.0
 11
-794.235805805759
 21
-295.9111731409834
 31
0.0
  0
MTEXT
  5
27C
330
273
100
AcDbEntity
  8
0
 62
     3
100
AcDbMText
 10
-789.6558058057593
 20
-294.2546976195272
 30
0.0
 40
3.5
 41
0.0
 71
     7
 72
     1
  1
17
  7
CONVERTER_6
 11
0.999999999997062
 21
0.00000242406841
 31
0.0
 73
     1
 44
1.0
1001
ACAD
1000
MTEXTBEGIN
1070
    73
1070
     1
1070
    44
1040
1.0
1070
    74
1070
     0
1000
MTEXTEND
  0
ENDBLK
  5
27D
330
273
100
AcDbEntity
  8
0
100
AcDbBlockEnd
  0
BLOCK
  5
281
330
280
100
AcDbEntity
  8
0
100
AcDbBlockBegin
  2
*D21
 70
     1
 10
0.0
 20
0.0
 30
0.0
  3
*D21
  1

  0
LINE
  5
282
330
280
100
AcDbEntity
  8
0
  6
Continuous
 62
     2
100
AcDbLine
 10
-796.685805805759
 20
-302.2546976195272
 30
0.0
 11
-743.1858058057589
 21
-302.2546976195272
 31
0.0
  0
LINE
  5
283
330
280
100
AcDbEntity
  8
0
  6
Continuous
 62
     2
100
AcDbLine
 10
-743.1858058057589
 20
-274.2546976195272
 30
0.0
 11
-743.1858058057589
 21
-303.2546976195272
 31
0.0
  0
LINE
  5
284
330
280
100
AcDbEntity
  8
0
  6
Continuous
 62
     2
100
AcDbLine
 10
-796.685805805759
 20
-274.7546976195272
 30
0.0
 11
-796.685805805759
 21
-303.2546976195272
 31
0.0
  0
LINE
  5
285
330
280
100
AcDbEntity
  8
0
 62
     2
100
AcDbLine
 10
-743.1858058057589
 20
-302.2546976195272
 30
0.0
 11
-745.6358058057593
 21
-302.9111731409834
 31
0.0
  0
LINE
  5
286
330
280
100
AcDbEntity
  8
0
 62
     2
100
AcDbLine
 10
-743.1858058057589
 20
-302.2546976195272
 30
0.0
 11
-745.6358058057593
 21
-301.5982220980709
 31
0.0
  0
LINE
  5
287
330
280
100
AcDbEntity
  8
0
 62
     2
100
AcDbLine
 10
-796.685805805759
 20
-302.2546976195272
 30
0.0
 11
-794.235805805759
 21
-301.5982220980709
 31
0.0
  0
LINE
  5
288
330
280
100
AcDbEntity
  8
0
 62
     2
100
AcDbLine
 10
-796.685805805759
 20
-302.2546976195272
 30
0.0
 11
-794.235805805759
 21
-302.9111731409834
 31
0.0
  0
MTEXT
  5
289
330
280
100
AcDbEntity
  8
0
 62
     3
100
AcDbMText
 10
-773.3045558057589
 20
-301.2546976195272
 30
0.0
 40
3.5
 41
0.0
 71
     7
 72
     1
  1
53.5
  7
CONVERTER_6
 11
0.999999999997062
 21
0.00000242406841
 31
0.0
 73
     1
 44
1.0
1001
ACAD
1000
MTEXTBEGIN
1070
    73
1070
     1
1070
    44
1040
1.0
1070
    74
1070
     0
1000
MTEXTEND
  0
ENDBLK
  5
28A
330
280
100
AcDbEntity
  8
0
100
AcDbBlockEnd
  0
BLOCK
  5
28E
330
28D
100
AcDbEntity
  8
0
100
AcDbBlockBegin
  2
*D22
 70
     1
 10
0.0
 20
0.0
 30
0.0
  3
*D22
  1

  0
LINE
  5
28F
330
28D
100
AcDbEntity
  8
0
  6
Continuous
 62
     2
100
AcDbLine
 10
-844.3073711290038
 20
-274.2546976195272
 30
0.0
 11
-844.3073711290038
 21
-229.2546976195272
 31
0.0
  0
LINE
  5
290
330
28D
100
AcDbEntity
  8
0
  6
Continuous
 62
     2
100
AcDbLine
 10
-872.207371129004
 20
-274.2546976195272
 30
0.0
 11
-843.3073711290038
 21
-274.2546976195272
 31
0.0
  0
LINE
  5
291
330
28D
100
AcDbEntity
  8
0
  6
Continuous
 62
     2
100
AcDbLine
 10
-864.3073711290039
 20
-229.2546976195272
 30
0.0
 11
-843.3073711290038
 21
-229.2546976195272
 31
0.0
  0
LINE
  5
292
330
28D
100
AcDbEntity
  8
0
 62
     2
100
AcDbLine
 10
-844.3073711290038
 20
-274.2546976195272
 30
0.0
 11
-844.96384665046
 21
-271.8046976195272
 31
0.0
  0
LINE
  5
293
330
28D
100
AcDbEntity
  8
0
 62
     2
100
AcDbLine
 10
-844.3073711290038
 20
-274.2546976195272
 30
0.0
 11
-843.6508956075474
 21
-271.8046976195272
 31
0.0
  0
LINE
  5
294
330
28D
100
AcDbEntity
  8
0
 62
     2
100
AcDbLine
 10
-844.3073711290038
 20
-229.2546976195272
 30
0.0
 11
-843.6508956075474
 21
-231.7046976195272
 31
0.0
  0
LINE
  5
295
330
28D
100
AcDbEntity
  8
0
 62
     2
100
AcDbLine
 10
-844.3073711290038
 20
-229.2546976195272
 30
0.0
 11
-844.96384665046
 21
-231.7046976195272
 31
0.0
  0
MTEXT
  5
296
330
28D
100
AcDbEntity
  8
0
 62
     3
100
AcDbMText
 10
-845.3073711290038
 20
-253.5921976195272
 30
0.0
 40
3.5
 41
0.0
 71
     7
 72
     1
  1
45
  7
CONVERTER_6
 11
0.0
 21
1.0
 31
0.0
 73
     1
 44
1.0
1001
ACAD
1000
MTEXTBEGIN
1070
    73
1070
     1
1070
    44
1040
1.0
1070
    74
1070
     0
1000
MTEXTEND
  0
ENDBLK
  5
297
330
28D
100
AcDbEntity
  8
0
100
AcDbBlockEnd
  0
BLOCK
  5
320
330
31F
100
AcDbEntity
  8
0
100
AcDbBlockBegin
  2
*D23
 70
     1
 10
0.0
 20
0.0
 30
0.0
  3
*D23
  1

  0
LINE
  5
321
330
31F
100
AcDbEntity
  8
0
  6
Continuous
 62
     2
100
AcDbLine
 10
-884.707371129004
 20
-192.7546976195272
 30
0.0
 11
-861.7073711290039
 21
-192.7546976195272
 31
0.0
  0
LINE
  5
322
330
31F
100
AcDbEntity
  8
0
  6
Continuous
 62
     2
100
AcDbLine
 10
-884.707371129004
 20
-202.6546976195272
 30
0.0
 11
-884.707371129004
 21
-191.7546976195272
 31
0.0
  0
LINE
  5
323
330
31F
100
AcDbEntity
  8
0
  6
Continuous
 62
     2
100
AcDbLine
 10
-861.7073711290039
 20
-202.6546976195272
 30
0.0
 11
-861.7073711290039
 21
-191.7546976195272
 31
0.0
  0
LINE
  5
324
330
31F
100
AcDbEntity
  8
0
 62
     2
100
AcDbLine
 10
-884.707371129004
 20
-192.7546976195272
 30
0.0
 11
-882.2573711290038
 21
-192.0982220980709
 31
0.0
  0
LINE
  5
325
330
31F
100
AcDbEntity
  8
0
 62
     2
100
AcDbLine
 10
-884.707371129004
 20
-192.7546976195272
 30
0.0
 11
-882.2573711290038
 21
-193.4111731409834
 31
0.0
  0
LINE
  5
326
330
31F
100
AcDbEntity
  8
0
 62
     2
100
AcDbLine
 10
-861.7073711290039
 20
-192.7546976195272
 30
0.0
 11
-864.1573711290039
 21
-193.4111731409834
 31
0.0
  0
LINE
  5
327
330
31F
100
AcDbEntity
  8
0
 62
     2
100
AcDbLine
 10
-861.7073711290039
 20
-192.7546976195272
 30
0.0
 11
-864.1573711290039
 21
-192.0982220980709
 31
0.0
  0
MTEXT
  5
328
330
31F
100
AcDbEntity
  8
0
 62
     3
100
AcDbMText
 10
-875.0448711290038
 20
-191.7546976195272
 30
0.0
 40
3.5
 41
0.0
 71
     7
 72
     1
  1
23
  7
CONVERTER_6
 11
0.999999999997062
 21
0.00000242406841
 31
0.0
 73
     1
 44
1.0
1001
ACAD
1000
MTEXTBEGIN
1070
    73
1070
     1
1070
    44
1040
1.0
1070
    74
1070
     0
1000
MTEXTEND
  0
ENDBLK
  5
329
330
31F
100
AcDbEntity
  8
0
100
AcDbBlockEnd
  0
BLOCK
  5
32D
330
32C
100
AcDbEntity
  8
0
100
AcDbBlockBegin
  2
*D24
 70
     1
 10
0.0
 20
0.0
 30
0.0
  3
*D24
  1

  0
LINE
  5
32E
330
32C
100
AcDbEntity
  8
0
  6
Continuous
 62
     2
100
AcDbLine
 10
-844.6428629487829
 20
-220.8546976195272
 30
0.0
 11
-844.6428629487829
 21
-202.6546976195272
 31
0.0
  0
LINE
  5
32F
330
32C
100
AcDbEntity
  8
0
  6
Continuous
 62
     2
100
AcDbLine
 10
-861.7073711290039
 20
-220.8546976195272
 30
0.0
 11
-843.642862948783
 21
-220.8546976195272
 31
0.0
  0
LINE
  5
330
330
32C
100
AcDbEntity
  8
0
  6
Continuous
 62
     2
100
AcDbLine
 10
-861.7073711290039
 20
-202.6546976195272
 30
0.0
 11
-843.642862948783
 21
-202.6546976195272
 31
0.0
  0
LINE
  5
331
330
32C
100
AcDbEntity
  8
0
 62
     2
100
AcDbLine
 10
-844.6428629487829
 20
-202.6546976195272
 30
0.0
 11
-843.9863874273267
 21
-205.1046976195272
 31
0.0
  0
LINE
  5
332
330
32C
100
AcDbEntity
  8
0
 62
     2
100
AcDbLine
 10
-844.6428629487829
 20
-202.6546976195272
 30
0.0
 11
-845.2993384702391
 21
-205.1046976195272
 31
0.0
  0
LINE
  5
333
330
32C
100
AcDbEntity
  8
0
 62
     2
100
AcDbLine
 10
-844.6428629487829
 20
-220.8546976195272
 30
0.0
 11
-845.2993384702391
 21
-218.4046976195272
 31
0.0
  0
LINE
  5
334
330
32C
100
AcDbEntity
  8
0
 62
     2
100
AcDbLine
 10
-844.6428629487829
 20
-220.8546976195272
 30
0.0
 11
-843.9863874273267
 21
-218.4046976195272
 31
0.0
  0
MTEXT
  5
335
330
32C
100
AcDbEntity
  8
0
 62
     3
100
AcDbMText
 10
-845.6428629487829
 20
-218.8859476195272
 30
0.0
 40
3.5
 41
0.0
 71
     7
 72
     1
  1
\C3;{\Fgdt;n}\C3;18.2
  7
CONVERTER_6
 11
0.0
 21
1.0
 31
0.0
 73
     1
 44
1.0
1001
ACAD
1000
MTEXTBEGIN
1070
    73
1070
     1
1070
    44
1040
1.0
1070
    74
1070
     0
1000
MTEXTEND
  0
ENDBLK
  5
336
330
32C
100
AcDbEntity
  8
0
100
AcDbBlockEnd
  0
BLOCK
  5
33A
330
339
100
AcDbEntity
  8
0
100
AcDbBlockBegin
  2
*D25
 70
     1
 10
0.0
 20
0.0
 30
0.0
  3
*D25
  1

  0
LINE
  5
33B
330
339
100
AcDbEntity
  8
0
  6
Continuous
 62
     2
100
AcDbLine
 10
-768.1858058057589
 20
-192.7546976195272
 30
0.0
 11
-736.1858058057589
 21
-192.7546976195272
 31
0.0
  0
LINE
  5
33C
330
339
100
AcDbEntity
  8
0
  6
Continuous
 62
     2
100
AcDbLine
 10
-768.1858058057589
 20
-200.7446976195272
 30
0.0
 11
-768.1858058057589
 21
-191.7546976195272
 31
0.0
  0
LINE
  5
33D
330
339
100
AcDbEntity
  8
0
  6
Continuous
 62
     2
100
AcDbLine
 10
-736.1858058057589
 20
-200.7446976195272
 30
0.0
 11
-736.1858058057589
 21
-191.7546976195272
 31
0.0
  0
LINE
  5
33E
330
339
100
AcDbEntity
  8
0
 62
     2
100
AcDbLine
 10
-768.1858058057589
 20
-192.7546976195272
 30
0.0
 11
-765.735805805759
 21
-192.0982220980709
 31
0.0
  0
LINE
  5
33F
330
339
100
AcDbEntity
  8
0
 62
     2
100
AcDbLine
 10
-768.1858058057589
 20
-192.7546976195272
 30
0.0
 11
-765.735805805759
 21
-193.4111731409834
 31
0.0
  0
LINE
  5
340
330
339
100
AcDbEntity
  8
0
 62
     2
100
AcDbLine
 10
-736.1858058057589
 20
-192.7546976195272
 30
0.0
 11
-738.6358058057593
 21
-193.4111731409834
 31
0.0
  0
LINE
  5
341
330
339
100
AcDbEntity
  8
0
 62
     2
100
AcDbLine
 10
-736.1858058057589
 20
-192.7546976195272
 30
0.0
 11
-738.6358058057593
 21
-192.0982220980709
 31
0.0
  0
MTEXT
  5
342
330
339
100
AcDbEntity
  8
0
 62
     3
100
AcDbMText
 10
-748.7411858860779
 20
-191.7546976195272
 30
0.0
 40
3.5
 41
0.0
 71
     7
 72
     1
  1
32
  7
CONVERTER_6
 11
0.999999999997062
 21
0.00000242406841
 31
0.0
 73
     1
 44
1.0
1001
ACAD
1000
MTEXTBEGIN
1070
    73
1070
     1
1070
    44
1040
1.0
1070
    74
1070
     0
1000
MTEXTEND
  0
ENDBLK
  5
343
330
339
100
AcDbEntity
  8
0
100
AcDbBlockEnd
  0
BLOCK
  5
347
330
346
100
AcDbEntity
  8
0
100
AcDbBlockBegin
  2
*D26
 70
     1
 10
0.0
 20
0.0
 30
0.0
  3
*D26
  1

  0
LINE
  5
348
330
346
100
AcDbEntity
  8
0
  6
Continuous
 62
     2
100
AcDbLine
 10
-778.1858058057589
 20
-185.7546976195272
 30
0.0
 11
-726.1858058057589
 21
-185.7546976195272
 31
0.0
  0
LINE
  5
349
330
346
100
AcDbEntity
  8
0
  6
Continuous
 62
     2
100
AcDbLine
 10
-778.1858058057589
 20
-198.7546976195272
 30
0.0
 11
-778.1858058057589
 21
-184.7546976195272
 31
0.0
  0
LINE
  5
34A
330
346
100
AcDbEntity
  8
0
  6
Continuous
 62
     2
100
AcDbLine
 10
-726.1858058057589
 20
-198.7546976195272
 30
0.0
 11
-726.1858058057589
 21
-184.7546976195272
 31
0.0
  0
LINE
  5
34B
330
346
100
AcDbEntity
  8
0
 62
     2
100
AcDbLine
 10
-778.1858058057589
 20
-185.7546976195272
 30
0.0
 11
-775.735805805759
 21
-185.0982220980709
 31
0.0
  0
LINE
  5
34C
330
346
100
AcDbEntity
  8
0
 62
     2
100
AcDbLine
 10
-778.1858058057589
 20
-185.7546976195272
 30
0.0
 11
-775.735805805759
 21
-186.4111731409834
 31
0.0
  0
LINE
  5
34D
330
346
100
AcDbEntity
  8
0
 62
     2
100
AcDbLine
 10
-726.1858058057589
 20
-185.7546976195272
 30
0.0
 11
-728.6358058057593
 21
-186.4111731409834
 31
0.0
  0
LINE
  5
34E
330
346
100
AcDbEntity
  8
0
 62
     2
100
AcDbLine
 10
-726.1858058057589
 20
-185.7546976195272
 30
0.0
 11
-728.6358058057593
 21
-185.0982220980709
 31
0.0
  0
MTEXT
  5
34F
330
346
100
AcDbEntity
  8
0
 62
     3
100
AcDbMText
 10
-749.0737190098229
 20
-184.7546976195272
 30
0.0
 40
3.5
 41
0.0
 71
     7
 72
     1
  1
52
  7
CONVERTER_6
 11
0.999999999997062
 21
0.00000242406841
 31
0.0
 73
     1
 44
1.0
1001
ACAD
1000
MTEXTBEGIN
1070
    73
1070
     1
1070
    44
1040
1.0
1070
    74
1070
     0
1000
MTEXTEND
  0
ENDBLK
  5
350
330
346
100
AcDbEntity
  8
0
100
AcDbBlockEnd
  0
BLOCK
  5
402
330
401
100
AcDbEntity
  8
0
100
AcDbBlockBegin
  2
*D27
 70
     1
 10
0.0
 20
0.0
 30
0.0
  3
*D27
  1

  0
LINE
  5
491
330
401
100
AcDbEntity
  8
1
 62
     2
370
    -2
100
AcDbLine
 10
-796.685805805759
 20
-274.7546976195272
 30
0.0
 11
-796.685805805759
 21
-296.2546976195272
 31
0.0
  0
LINE
  5
492
330
401
100
AcDbEntity
  8
1
 62
     2
370
    -2
100
AcDbLine
 10
-779.6858058057589
 20
-274.7546976195272
 30
0.0
 11
-779.6858058057589
 21
-296.2546976195272
 31
0.0
  0
LINE
  5
493
330
401
100
AcDbEntity
  8
1
 62
     2
370
    -2
100
AcDbLine
 10
-794.2358058057589
 20
-295.2546976195272
 30
0.0
 11
-790.4733058057656
 21
-295.2546976195272
 31
0.0
  0
LINE
  5
494
330
401
100
AcDbEntity
  8
1
 62
     2
370
    -2
100
AcDbLine
 10
-782.1358058057589
 20
-295.2546976195272
 30
0.0
 11
-785.8983058057522
 21
-295.2546976195272
 31
0.0
  0
INSERT
  5
495
330
401
100
AcDbEntity
  8
1
 62
     2
370
    -2
100
AcDbBlockReference
  2
_OPEN30
 10
-796.685805805759
 20
-295.2546976195272
 30
0.0
 41
2.45
 42
2.45
 43
2.45
 50
180.0
  0
INSERT
  5
496
330
401
100
AcDbEntity
  8
1
 62
     2
370
    -2
100
AcDbBlockReference
  2
_OPEN30
 10
-779.6858058057589
 20
-295.2546976195272
 30
0.0
 41
2.45
 42
2.45
 43
2.45
  0
MTEXT
  5
497
330
401
100
AcDbEntity
  8
1
 62
     3
100
AcDbMText
 10
-788.1858058057589
 20
-295.2546976195272
 30
0.0
 40
3.5
 41
0.0
 71
     5
 72
     1
  1
\A1;17
  7
CONVERTER_6
 11
0.999999999997062
 21
0.0000024240684056
 31
0.0
 73
     1
 44
1.0
1001
ACAD
1000
MTEXTBEGIN
1070
    73
1070
     1
1070
    44
1040
1.0
1070
    74
1070
     0
1000
MTEXTEND
  0
POINT
  5
498
330
401
100
AcDbEntity
  8
Defpoints
 62
     0
100
AcDbPoint
 10
-796.685805805759
 20
-273.7546976195272
 30
0.0
  0
POINT
  5
499
330
401
100
AcDbEntity
  8
Defpoints
 62
     0
100
AcDbPoint
 10
-779.6858058057589
 20
-273.7546976195272
 30
0.0
  0
POINT
  5
49A
330
401
100
AcDbEntity
  8
Defpoints
 62
     0
100
AcDbPoint
 10
-779.6858058057589
 20
-295.2546976195272
 30
0.0
  0
ENDBLK
  5
403
330
401
100
AcDbEntity
  8
0
100
AcDbBlockEnd
  0
BLOCK
  5
40F
330
40E
100
AcDbEntity
  8
0
100
AcDbBlockBegin
  2
*D28
 70
     1
 10
0.0
 20
0.0
 30
0.0
  3
*D28
  1

  0
LINE
  5
49B
330
40E
100
AcDbEntity
  8
1
 62
     2
370
    -2
100
AcDbLine
 10
-796.685805805759
 20
-274.7546976195272
 30
0.0
 11
-796.685805805759
 21
-303.2546976195272
 31
0.0
  0
LINE
  5
49C
330
40E
100
AcDbEntity
  8
1
 62
     2
370
    -2
100
AcDbLine
 10
-743.1858058057589
 20
-274.2546976195272
 30
0.0
 11
-743.1858058057589
 21
-303.2546976195272
 31
0.0
  0
LINE
  5
49D
330
40E
100
AcDbEntity
  8
1
 62
     2
370
    -2
100
AcDbLine
 10
-794.2358058057589
 20
-302.2546976195272
 30
0.0
 11
-774.1074724724378
 21
-302.2546976195272
 31
0.0
  0
LINE
  5
49E
330
40E
100
AcDbEntity
  8
1
 62
     2
370
    -2
100
AcDbLine
 10
-745.6358058057589
 20
-302.2546976195272
 30
0.0
 11
-765.76413913908
 21
-302.2546976195272
 31
0.0
  0
INSERT
  5
49F
330
40E
100
AcDbEntity
  8
1
 62
     2
370
    -2
100
AcDbBlockReference
  2
_OPEN30
 10
-796.685805805759
 20
-302.2546976195272
 30
0.0
 41
2.45
 42
2.45
 43
2.45
 50
180.0
  0
INSERT
  5
4A0
330
40E
100
AcDbEntity
  8
1
 62
     2
370
    -2
100
AcDbBlockReference
  2
_OPEN30
 10
-743.1858058057589
 20
-302.2546976195272
 30
0.0
 41
2.45
 42
2.45
 43
2.45
  0
MTEXT
  5
4A1
330
40E
100
AcDbEntity
  8
1
 62
     3
100
AcDbMText
 10
-769.9358058057589
 20
-302.2546976195272
 30
0.0
 40
3.5
 41
0.0
 71
     5
 72
     1
  1
\A1;53.5
  7
CONVERTER_6
 11
0.999999999997062
 21
0.0000024240684056
 31
0.0
 73
     1
 44
1.0
1001
ACAD
1000
MTEXTBEGIN
1070
    73
1070
     1
1070
    44
1040
1.0
1070
    74
1070
     0
1000
MTEXTEND
  0
POINT
  5
4A2
330
40E
100
AcDbEntity
  8
Defpoints
 62
     0
100
AcDbPoint
 10
-796.685805805759
 20
-273.7546976195272
 30
0.0
  0
POINT
  5
4A3
330
40E
100
AcDbEntity
  8
Defpoints
 62
     0
100
AcDbPoint
 10
-743.1858058057589
 20
-273.2546976195272
 30
0.0
  0
POINT
  5
4A4
330
40E
100
AcDbEntity
  8
Defpoints
 62
     0
100
AcDbPoint
 10
-743.1858058057589
 20
-302.2546976195272
 30
0.0
  0
ENDBLK
  5
410
330
40E
100
AcDbEntity
  8
0
100
AcDbBlockEnd
  0
BLOCK
  5
41C
330
41B
100
AcDbEntity
  8
0
100
AcDbBlockBegin
  2
*D29
 70
     1
 10
0.0
 20
0.0
 30
0.0
  3
*D29
  1

  0
LINE
  5
4A5
330
41B
100
AcDbEntity
  8
1
 62
     2
370
    -2
100
AcDbLine
 10
-864.3073711290039
 20
-229.2546976195272
 30
0.0
 11
-843.3073711290036
 21
-229.2546976195272
 31
0.0
  0
LINE
  5
4A6
330
41B
100
AcDbEntity
  8
1
 62
     2
370
    -2
100
AcDbLine
 10
-872.207371129004
 20
-274.2546976195272
 30
0.0
 11
-843.3073711290038
 21
-274.2546976195272
 31
0.0
  0
LINE
  5
4A7
330
41B
100
AcDbEntity
  8
1
 62
     2
370
    -2
100
AcDbLine
 10
-844.3073711290036
 20
-231.7046976195272
 30
0.0
 11
-844.3073711290036
 21
-249.2455309528605
 31
0.0
  0
LINE
  5
4A8
330
41B
100
AcDbEntity
  8
1
 62
     2
370
    -2
100
AcDbLine
 10
-844.3073711290038
 20
-271.8046976195272
 30
0.0
 11
-844.3073711290036
 21
-254.2638642861938
 31
0.0
  0
INSERT
  5
4A9
330
41B
100
AcDbEntity
  8
1
 62
     2
370
    -2
100
AcDbBlockReference
  2
_OPEN30
 10
-844.3073711290036
 20
-229.2546976195272
 30
0.0
 41
2.45
 42
2.45
 43
2.45
 50
90.0
  0
INSERT
  5
4AA
330
41B
100
AcDbEntity
  8
1
 62
     2
370
    -2
100
AcDbBlockReference
  2
_OPEN30
 10
-844.3073711290038
 20
-274.2546976195272
 30
0.0
 41
2.45
 42
2.45
 43
2.45
 50
270.0
  0
MTEXT
  5
4AB
330
41B
100
AcDbEntity
  8
1
 62
     3
100
AcDbMText
 10
-844.3073711290036
 20
-251.7546976195273
 30
0.0
 40
3.5
 41
0.0
 71
     5
 72
     1
  1
\A1;45
  7
CONVERTER_6
 11
0.0000000000000001
 21
1.0
 31
0.0
 73
     1
 44
1.0
1001
ACAD
1000
MTEXTBEGIN
1070
    73
1070
     1
1070
    44
1040
1.0
1070
    74
1070
     0
1000
MTEXTEND
  0
POINT
  5
4AC
330
41B
100
AcDbEntity
  8
Defpoints
 62
     0
100
AcDbPoint
 10
-865.3073711290039
 20
-229.2546976195272
 30
0.0
  0
POINT
  5
4AD
330
41B
100
AcDbEntity
  8
Defpoints
 62
     0
100
AcDbPoint
 10
-873.2073711290039
 20
-274.2546976195272
 30
0.0
  0
POINT
  5
4AE
330
41B
100
AcDbEntity
  8
Defpoints
 62
     0
100
AcDbPoint
 10
-844.3073711290038
 20
-274.2546976195272
 30
0.0
  0
ENDBLK
  5
41D
330
41B
100
AcDbEntity
  8
0
100
AcDbBlockEnd
  0
BLOCK
  5
429
330
428
100
AcDbEntity
  8
0
100
AcDbBlockBegin
  2
*D30
 70
     1
 10
0.0
 20
0.0
 30
0.0
  3
*D30
  1

  0
LINE
  5
4AF
330
428
100
AcDbEntity
  8
1
 62
     2
370
    -2
100
AcDbLine
 10
-771.1858058057589
 20
-277.2546976195272
 30
0.0
 11
-771.1858058057589
 21
-296.2546976195272
 31
0.0
  0
LINE
  5
4B0
330
428
100
AcDbEntity
  8
1
 62
     2
370
    -2
100
AcDbLine
 10
-752.1858058057589
 20
-280.2546976195272
 30
0.0
 11
-752.1858058057589
 21
-296.2546976195272
 31
0.0
  0
LINE
  5
4B1
330
428
100
AcDbEntity
  8
1
 62
     2
370
    -2
100
AcDbLine
 10
-768.7358058057589
 20
-295.2546976195272
 30
0.0
 11
-763.9178891390988
 21
-295.2546976195272
 31
0.0
  0
LINE
  5
4B2
330
428
100
AcDbEntity
  8
1
 62
     2
370
    -2
100
AcDbLine
 10
-754.635805805759
 20
-295.2546976195272
 30
0.0
 11
-759.453722472419
 21
-295.2546976195272
 31
0.0
  0
INSERT
  5
4B3
330
428
100
AcDbEntity
  8
1
 62
     2
370
    -2
100
AcDbBlockReference
  2
_OPEN30
 10
-771.1858058057589
 20
-295.2546976195272
 30
0.0
 41
2.45
 42
2.45
 43
2.45
 50
180.0
  0
INSERT
  5
4B4
330
428
100
AcDbEntity
  8
1
 62
     2
370
    -2
100
AcDbBlockReference
  2
_OPEN30
 10
-752.1858058057589
 20
-295.2546976195272
 30
0.0
 41
2.45
 42
2.45
 43
2.45
  0
MTEXT
  5
4B5
330
428
100
AcDbEntity
  8
1
 62
     3
100
AcDbMText
 10
-761.6858058057589
 20
-295.2546976195272
 30
0.0
 40
3.5
 41
0.0
 71
     5
 72
     1
  1
\A1;19
  7
CONVERTER_6
 11
0.999999999997062
 21
0.0000024240684056
 31
0.0
 73
     1
 44
1.0
1001
ACAD
1000
MTEXTBEGIN
1070
    73
1070
     1
1070
    44
1040
1.0
1070
    74
1070
     0
1000
MTEXTEND
  0
POINT
  5
4B6
330
428
100
AcDbEntity
  8
Defpoints
 62
     0
100
AcDbPoint
 10
-771.1858058057589
 20
-276.2546976195272
 30
0.0
  0
POINT
  5
4B7
330
428
100
AcDbEntity
  8
Defpoints
 62
     0
100
AcDbPoint
 10
-752.1858058057589
 20
-279.2546976195272
 30
0.0
  0
POINT
  5
4B8
330
428
100
AcDbEntity
  8
Defpoints
 62
     0
100
AcDbPoint
 10
-752.1858058057589
 20
-295.2546976195272
 30
0.0
  0
ENDBLK
  5
42A
330
428
100
AcDbEntity
  8
0
100
AcDbBlockEnd
  0
BLOCK
  5
436
330
435
100
AcDbEntity
  8
0
100
AcDbBlockBegin
  2
*D31
 70
     1
 10
0.0
 20
0.0
 30
0.0
  3
*D31
  1

  0
LINE
  5
4B9
330
435
100
AcDbEntity
  8
1
 62
     2
370
    -2
100
AcDbLine
 10
-740.1858058057589
 20
-241.2546976195272
 30
0.0
 11
-721.1858058057589
 21
-241.2546976195272
 31
0.0
  0
LINE
  5
4BA
330
435
100
AcDbEntity
  8
1
 62
     2
370
    -2
100
AcDbLine
 10
-742.1858058057589
 20
-229.2546976195272
 30
0.0
 11
-721.1858058057589
 21
-229.2546976195272
 31
0.0
  0
LINE
  5
4BB
330
435
100
AcDbEntity
  8
1
 62
     2
370
    -2
100
AcDbLine
 10
-722.1858058057589
 20
-238.8046976195272
 30
0.0
 11
-722.1858058057589
 21
-237.5421976195272
 31
0.0
  0
LINE
  5
4BC
330
435
100
AcDbEntity
  8
1
 62
     2
370
    -2
100
AcDbLine
 10
-722.1858058057589
 20
-231.7046976195272
 30
0.0
 11
-722.1858058057589
 21
-232.9671976195272
 31
0.0
  0
INSERT
  5
4BD
330
435
100
AcDbEntity
  8
1
 62
     2
370
    -2
100
AcDbBlockReference
  2
_OPEN30
 10
-722.1858058057589
 20
-241.2546976195272
 30
0.0
 41
2.45
 42
2.45
 43
2.45
 50
270.0
  0
INSERT
  5
4BE
330
435
100
AcDbEntity
  8
1
 62
     2
370
    -2
100
AcDbBlockReference
  2
_OPEN30
 10
-722.1858058057589
 20
-229.2546976195272
 30
0.0
 41
2.45
 42
2.45
 43
2.45
 50
90.0
  0
MTEXT
  5
4BF
330
435
100
AcDbEntity
  8
1
 62
     3
100
AcDbMText
 10
-722.1858058057589
 20
-235.2546976195273
 30
0.0
 40
3.5
 41
0.0
 71
     5
 72
     1
  1
\A1;12
  7
CONVERTER_6
 11
0.0000000000000001
 21
1.0
 31
0.0
 73
     1
 44
1.0
1001
ACAD
1000
MTEXTBEGIN
1070
    73
1070
     1
1070
    44
1040
1.0
1070
    74
1070
     0
1000
MTEXTEND
  0
POINT
  5
4C0
330
435
100
AcDbEntity
  8
Defpoints
 62
     0
100
AcDbPoint
 10
-741.1858058057589
 20
-241.2546976195272
 30
0.0
  0
POINT
  5
4C1
330
435
100
AcDbEntity
  8
Defpoints
 62
     0
100
AcDbPoint
 10
-743.1858058057589
 20
-229.2546976195272
 30
0.0
  0
POINT
  5
4C2
330
435
100
AcDbEntity
  8
Defpoints
 62
     0
100
AcDbPoint
 10
-722.1858058057589
 20
-229.2546976195272
 30
0.0
  0
ENDBLK
  5
437
330
435
100
AcDbEntity
  8
0
100
AcDbBlockEnd
  0
BLOCK
  5
443
330
442
100
AcDbEntity
  8
0
100
AcDbBlockBegin
  2
*D32
 70
     1
 10
0.0
 20
0.0
 30
0.0
  3
*D32
  1

  0
LINE
  5
4C3
330
442
100
AcDbEntity
  8
1
 62
     2
370
    -2
100
AcDbLine
 10
-779.6858058057589
 20
-274.7546976195272
 30
0.0
 11
-779.6858058057589
 21
-296.2546976195272
 31
0.0
  0
LINE
  5
4C4
330
442
100
AcDbEntity
  8
1
 62
     2
370
    -2
100
AcDbLine
 10
-771.1858058057589
 20
-277.2546976195272
 30
0.0
 11
-771.1858058057589
 21
-296.2546976195272
 31
0.0
  0
LINE
  5
4C5
330
442
100
AcDbEntity
  8
1
 62
     2
370
    -2
100
AcDbLine
 10
-777.2358058057589
 20
-295.2546976195272
 30
0.0
 11
-773.6358058057589
 21
-295.2546976195272
 31
0.0
  0
LINE
  5
4C6
330
442
100
AcDbEntity
  8
1
 62
     2
370
    -2
100
AcDbLine
 10
-771.1858058057589
 20
-295.2546976195272
 30
0.0
 11
-768.735805805759
 21
-295.2546976195272
 31
0.0
  0
INSERT
  5
4C7
330
442
100
AcDbEntity
  8
1
 62
     2
370
    -2
100
AcDbBlockReference
  2
_OPEN30
 10
-779.6858058057589
 20
-295.2546976195272
 30
0.0
 41
2.45
 42
2.45
 43
2.45
 50
180.0
  0
INSERT
  5
4C8
330
442
100
AcDbEntity
  8
1
 62
     2
370
    -2
100
AcDbBlockReference
  2
_OPEN30
 10
-771.1858058057589
 20
-295.2546976195272
 30
0.0
 41
2.45
 42
2.45
 43
2.45
  0
MTEXT
  5
4C9
330
442
100
AcDbEntity
  8
1
 62
     3
100
AcDbMText
 10
-765.6724724724166
 20
-295.2546976195272
 30
0.0
 40
3.5
 41
0.0
 71
     5
 72
     1
  1
\A1;8.5
  7
CONVERTER_6
 11
0.999999999997062
 21
0.0000024240684056
 31
0.0
 73
     1
 44
1.0
1001
ACAD
1000
MTEXTBEGIN
1070
    73
1070
     1
1070
    44
1040
1.0
1070
    74
1070
     0
1000
MTEXTEND
  0
POINT
  5
4CA
330
442
100
AcDbEntity
  8
Defpoints
 62
     0
100
AcDbPoint
 10
-779.6858058057589
 20
-273.7546976195272
 30
0.0
  0
POINT
  5
4CB
330
442
100
AcDbEntity
  8
Defpoints
 62
     0
100
AcDbPoint
 10
-771.1858058057589
 20
-276.2546976195272
 30
0.0
  0
POINT
  5
4CC
330
442
100
AcDbEntity
  8
Defpoints
 62
     0
100
AcDbPoint
 10
-771.1858058057589
 20
-295.2546976195272
 30
0.0
  0
ENDBLK
  5
444
330
442
100
AcDbEntity
  8
0
100
AcDbBlockEnd
  0
BLOCK
  5
450
330
44F
100
AcDbEntity
  8
0
100
AcDbBlockBegin
  2
*D33
 70
     1
 10
0.0
 20
0.0
 30
0.0
  3
*D33
  1

  0
LINE
  5
4CD
330
44F
100
AcDbEntity
  8
1
 62
     2
370
    -2
100
AcDbLine
 10
-752.1858058057589
 20
-280.2546976195272
 30
0.0
 11
-752.1858058057589
 21
-296.2546976195272
 31
0.0
  0
LINE
  5
4CE
330
44F
100
AcDbEntity
  8
1
 62
     2
370
    -2
100
AcDbLine
 10
-749.1858058057589
 20
-277.2546976195272
 30
0.0
 11
-749.1858058057589
 21
-296.2546976195272
 31
0.0
  0
LINE
  5
4CF
330
44F
100
AcDbEntity
  8
1
 62
     2
370
    -2
100
AcDbLine
 10
-753.1858058057589
 20
-295.2546976195272
 30
0.0
 11
-754.1858058057589
 21
-295.2546976195272
 31
0.0
  0
LINE
  5
4D0
330
44F
100
AcDbEntity
  8
1
 62
     2
370
    -2
100
AcDbLine
 10
-748.1858058057589
 20
-295.2546976195272
 30
0.0
 11
-747.1858058057589
 21
-295.2546976195272
 31
0.0
  0
LINE
  5
4D1
330
44F
100
AcDbEntity
  8
1
 62
     2
370
    -2
100
AcDbLine
 10
-752.1858058057589
 20
-295.2546976195272
 30
0.0
 11
-752.0866391390963
 21
-295.2546976195272
 31
0.0
  0
LINE
  5
4D2
330
44F
100
AcDbEntity
  8
1
 62
     2
370
    -2
100
AcDbLine
 10
-749.1858058057589
 20
-295.2546976195272
 30
0.0
 11
-749.2849724724215
 21
-295.2546976195272
 31
0.0
  0
INSERT
  5
4D3
330
44F
100
AcDbEntity
  8
1
 62
     2
370
    -2
100
AcDbBlockReference
  2
_OPEN30
 10
-752.1858058057589
 20
-295.2546976195272
 30
0.0
  0
INSERT
  5
4D4
330
44F
100
AcDbEntity
  8
1
 62
     2
370
    -2
100
AcDbBlockReference
  2
_DOT
 10
-749.1858058057589
 20
-295.2546976195272
 30
0.0
 50
180.0
  0
MTEXT
  5
4D5
330
44F
100
AcDbEntity
  8
1
 62
     3
100
AcDbMText
 10
-750.6858058057589
 20
-295.2546976195272
 30
0.0
 40
3.5
 41
0.0
 71
     5
 72
     1
  1
\A1;3
  7
CONVERTER_6
 11
0.999999999997062
 21
0.0000024240684056
 31
0.0
 73
     1
 44
1.0
1001
ACAD
1000
MTEXTBEGIN
1070
    73
1070
     1
1070
    44
1040
1.0
1070
    74
1070
     0
1000
MTEXTEND
  0
POINT
  5
4D6
330
44F
100
AcDbEntity
  8
Defpoints
 62
     0
100
AcDbPoint
 10
-752.1858058057589
 20
-279.2546976195272
 30
0.0
  0
POINT
  5
4D7
330
44F
100
AcDbEntity
  8
Defpoints
 62
     0
100
AcDbPoint
 10
-749.1858058057589
 20
-276.2546976195272
 30
0.0
  0
POINT
  5
4D8
330
44F
100
AcDbEntity
  8
Defpoints
 62
     0
100
AcDbPoint
 10
-749.1858058057589
 20
-295.2546976195272
 30
0.0
  0
ENDBLK
  5
451
330
44F
100
AcDbEntity
  8
0
100
AcDbBlockEnd
  0
BLOCK
  5
45F
330
45E
100
AcDbEntity
  8
0
100
AcDbBlockBegin
  2
*D34
 70
     1
 10
0.0
 20
0.0
 30
0.0
  3
*D34
  1

  0
LINE
  5
4D9
330
45E
100
AcDbEntity
  8
1
 62
     2
370
    -2
100
AcDbLine
 10
-749.1858058057589
 20
-277.2546976195272
 30
0.0
 11
-749.1858058057589
 21
-296.2546976195272
 31
0.0
  0
LINE
  5
4DA
330
45E
100
AcDbEntity
  8
1
 62
     2
370
    -2
100
AcDbLine
 10
-743.1858058057589
 20
-274.2546976195272
 30
0.0
 11
-743.1858058057589
 21
-296.2546976195272
 31
0.0
  0
LINE
  5
4DB
330
45E
100
AcDbEntity
  8
1
 62
     2
370
    -2
100
AcDbLine
 10
-749.1858058057589
 20
-295.2546976195272
 30
0.0
 11
-745.6358058057589
 21
-295.2546976195272
 31
0.0
  0
LINE
  5
4DC
330
45E
100
AcDbEntity
  8
1
 62
     2
370
    -2
100
AcDbLine
 10
-743.1858058057589
 20
-295.2546976195272
 30
0.0
 11
-740.735805805759
 21
-295.2546976195272
 31
0.0
  0
INSERT
  5
4DD
330
45E
100
AcDbEntity
  8
1
 62
     2
370
    -2
100
AcDbBlockReference
  2
_OPEN30
 10
-743.1858058057589
 20
-295.2546976195272
 30
0.0
 41
2.45
 42
2.45
 43
2.45
  0
MTEXT
  5
4DE
330
45E
100
AcDbEntity
  8
1
 62
     3
100
AcDbMText
 10
-739.3903891390883
 20
-295.2546976195272
 30
0.0
 40
3.5
 41
0.0
 71
     5
 72
     1
  1
\A1;6
  7
CONVERTER_6
 11
0.999999999997062
 21
0.0000024240684056
 31
0.0
 73
     1
 44
1.0
1001
ACAD
1000
MTEXTBEGIN
1070
    73
1070
     1
1070
    44
1040
1.0
1070
    74
1070
     0
1000
MTEXTEND
  0
POINT
  5
4DF
330
45E
100
AcDbEntity
  8
Defpoints
 62
     0
100
AcDbPoint
 10
-749.1858058057589
 20
-276.2546976195272
 30
0.0
  0
POINT
  5
4E0
330
45E
100
AcDbEntity
  8
Defpoints
 62
     0
100
AcDbPoint
 10
-743.1858058057589
 20
-273.2546976195272
 30
0.0
  0
POINT
  5
4E1
330
45E
100
AcDbEntity
  8
Defpoints
 62
     0
100
AcDbPoint
 10
-743.1858058057589
 20
-295.2546976195272
 30
0.0
  0
ENDBLK
  5
460
330
45E
100
AcDbEntity
  8
0
100
AcDbBlockEnd
  0
BLOCK
  5
46B
330
46A
100
AcDbEntity
  8
0
100
AcDbBlockBegin
  2
*D35
 70
     1
 10
0.0
 20
0.0
 30
0.0
  3
*D35
  1

  0
LINE
  5
4E2
330
46A
100
AcDbEntity
  8
1
 62
     2
370
    -2
100
AcDbLine
 10
-743.1858058057589
 20
-274.2546976195272
 30
0.0
 11
-721.1858058057591
 21
-274.2546976195272
 31
0.0
  0
LINE
  5
4E3
330
46A
100
AcDbEntity
  8
1
 62
     2
370
    -2
100
AcDbLine
 10
-740.1858058057589
 20
-241.2546976195272
 30
0.0
 11
-721.1858058057589
 21
-241.2546976195272
 31
0.0
  0
LINE
  5
4E4
330
46A
100
AcDbEntity
  8
1
 62
     2
370
    -2
100
AcDbLine
 10
-722.185805805759
 20
-271.8046976195272
 30
0.0
 11
-722.185805805759
 21
-260.2638642861939
 31
0.0
  0
LINE
  5
4E5
330
46A
100
AcDbEntity
  8
1
 62
     2
370
    -2
100
AcDbLine
 10
-722.1858058057589
 20
-243.7046976195272
 30
0.0
 11
-722.1858058057589
 21
-255.2455309528605
 31
0.0
  0
INSERT
  5
4E6
330
46A
100
AcDbEntity
  8
1
 62
     2
370
    -2
100
AcDbBlockReference
  2
_OPEN30
 10
-722.185805805759
 20
-274.2546976195272
 30
0.0
 41
2.45
 42
2.45
 43
2.45
 50
270.0
  0
INSERT
  5
4E7
330
46A
100
AcDbEntity
  8
1
 62
     2
370
    -2
100
AcDbBlockReference
  2
_OPEN30
 10
-722.1858058057589
 20
-241.2546976195272
 30
0.0
 41
2.45
 42
2.45
 43
2.45
 50
90.0
  0
MTEXT
  5
4E8
330
46A
100
AcDbEntity
  8
1
 62
     3
100
AcDbMText
 10
-722.1858058057589
 20
-257.7546976195273
 30
0.0
 40
3.5
 41
0.0
 71
     5
 72
     1
  1
\A1;33
  7
CONVERTER_6
 11
0.0000000000000001
 21
1.0
 31
0.0
 73
     1
 44
1.0
1001
ACAD
1000
MTEXTBEGIN
1070
    73
1070
     1
1070
    44
1040
1.0
1070
    74
1070
     0
1000
MTEXTEND
  0
POINT
  5
4E9
330
46A
100
AcDbEntity
  8
Defpoints
 62
     0
100
AcDbPoint
 10
-744.1858058057589
 20
-274.2546976195272
 30
0.0
  0
POINT
  5
4EA
330
46A
100
AcDbEntity
  8
Defpoints
 62
     0
100
AcDbPoint
 10
-741.1858058057589
 20
-241.2546976195272
 30
0.0
  0
POINT
  5
4EB
330
46A
100
AcDbEntity
  8
Defpoints
 62
     0
100
AcDbPoint
 10
-722.1858058057589
 20
-241.2546976195272
 30
0.0
  0
ENDBLK
  5
46C
330
46A
100
AcDbEntity
  8
0
100
AcDbBlockEnd
  0
BLOCK
  5
478
330
477
100
AcDbEntity
  8
0
100
AcDbBlockBegin
  2
*D36
 70
     1
 10
0.0
 20
0.0
 30
0.0
  3
*D36
  1

  0
LINE
  5
4EC
330
477
100
AcDbEntity
  8
1
 62
     2
370
    -2
100
AcDbLine
 10
-779.6858058057589
 20
-228.2546976195272
 30
0.0
 11
-779.6858058057589
 21
-177.7546976195272
 31
0.0
  0
LINE
  5
4ED
330
477
100
AcDbEntity
  8
1
 62
     2
370
    -2
100
AcDbLine
 10
-752.1858058057589
 20
-205.9046976195374
 30
0.0
 11
-752.1858058057589
 21
-177.7546976195272
 31
0.0
  0
LINE
  5
4EE
330
477
100
AcDbEntity
  8
1
 62
     2
370
    -2
100
AcDbLine
 10
-777.2358058057589
 20
-178.7546976195272
 30
0.0
 11
-770.1074724724378
 21
-178.7546976195272
 31
0.0
  0
LINE
  5
4EF
330
477
100
AcDbEntity
  8
1
 62
     2
370
    -2
100
AcDbLine
 10
-754.635805805759
 20
-178.7546976195272
 30
0.0
 11
-761.76413913908
 21
-178.7546976195272
 31
0.0
  0
INSERT
  5
4F0
330
477
100
AcDbEntity
  8
1
 62
     2
370
    -2
100
AcDbBlockReference
  2
_OPEN30
 10
-779.6858058057589
 20
-178.7546976195272
 30
0.0
 41
2.45
 42
2.45
 43
2.45
 50
180.0
  0
INSERT
  5
4F1
330
477
100
AcDbEntity
  8
1
 62
     2
370
    -2
100
AcDbBlockReference
  2
_OPEN30
 10
-752.1858058057589
 20
-178.7546976195272
 30
0.0
 41
2.45
 42
2.45
 43
2.45
  0
MTEXT
  5
4F2
330
477
100
AcDbEntity
  8
1
 62
     3
100
AcDbMText
 10
-765.9358058057589
 20
-178.7546976195272
 30
0.0
 40
3.5
 41
0.0
 71
     5
 72
     1
  1
\A1;27.5
  7
CONVERTER_6
 11
0.999999999997062
 21
0.0000024240684056
 31
0.0
 73
     1
 44
1.0
1001
ACAD
1000
MTEXTBEGIN
1070
    73
1070
     1
1070
    44
1040
1.0
1070
    74
1070
     0
1000
MTEXTEND
  0
POINT
  5
4F3
330
477
100
AcDbEntity
  8
Defpoints
 62
     0
100
AcDbPoint
 10
-779.6858058057589
 20
-229.2546976195272
 30
0.0
  0
POINT
  5
4F4
330
477
100
AcDbEntity
  8
Defpoints
 62
     0
100
AcDbPoint
 10
-752.1858058057589
 20
-206.9046976195374
 30
0.0
  0
POINT
  5
4F5
330
477
100
AcDbEntity
  8
Defpoints
 62
     0
100
AcDbPoint
 10
-752.1858058057589
 20
-178.7546976195272
 30
0.0
  0
ENDBLK
  5
479
330
477
100
AcDbEntity
  8
0
100
AcDbBlockEnd
  0
BLOCK
  5
485
330
484
100
AcDbEntity
  8
0
100
AcDbBlockBegin
  2
*D37
 70
     1
 10
0.0
 20
0.0
 30
0.0
  3
*D37
  1

  0
LINE
  5
4F6
330
484
100
AcDbEntity
  8
1
 62
     2
370
    -2
100
AcDbLine
 10
-881.1073711290038
 20
-267.3546976195272
 30
0.0
 11
-881.1073711290038
 21
-296.2546976195272
 31
0.0
  0
LINE
  5
4F7
330
484
100
AcDbEntity
  8
1
 62
     2
370
    -2
100
AcDbLine
 10
-865.3073711290039
 20
-267.3546976195272
 30
0.0
 11
-865.3073711290039
 21
-296.2546976195272
 31
0.0
  0
LINE
  5
4F8
330
484
100
AcDbEntity
  8
1
 62
     2
370
    -2
100
AcDbLine
 10
-878.6573711290039
 20
-295.2546976195272
 30
0.0
 11
-877.1573711290155
 21
-295.2546976195272
 31
0.0
  0
LINE
  5
4F9
330
484
100
AcDbEntity
  8
1
 62
     2
370
    -2
100
AcDbLine
 10
-867.7573711290039
 20
-295.2546976195272
 30
0.0
 11
-869.2573711289922
 21
-295.2546976195272
 31
0.0
  0
INSERT
  5
4FA
330
484
100
AcDbEntity
  8
1
 62
     2
370
    -2
100
AcDbBlockReference
  2
_OPEN30
 10
-881.1073711290038
 20
-295.2546976195272
 30
0.0
 41
2.45
 42
2.45
 43
2.45
 50
180.0
  0
INSERT
  5
4FB
330
484
100
AcDbEntity
  8
1
 62
     2
370
    -2
100
AcDbBlockReference
  2
_OPEN30
 10
-865.3073711290039
 20
-295.2546976195272
 30
0.0
 41
2.45
 42
2.45
 43
2.45
  0
MTEXT
  5
4FC
330
484
100
AcDbEntity
  8
1
 62
     3
100
AcDbMText
 10
-873.2073711290038
 20
-295.2546976195272
 30
0.0
 40
3.5
 41
0.0
 71
     5
 72
     1
  1
\A1;15.8
  7
CONVERTER_6
 11
0.999999999997062
 21
0.0000024240684056
 31
0.0
 73
     1
 44
1.0
1001
ACAD
1000
MTEXTBEGIN
1070
    73
1070
     1
1070
    44
1040
1.0
1070
    74
1070
     0
1000
MTEXTEND
  0
POINT
  5
4FD
330
484
100
AcDbEntity
  8
Defpoints
 62
     0
100
AcDbPoint
 10
-881.1073711290038
 20
-266.3546976195272
 30
0.0
  0
POINT
  5
4FE
330
484
100
AcDbEntity
  8
Defpoints
 62
     0
100
AcDbPoint
 10
-865.3073711290039
 20
-266.3546976195272
 30
0.0
  0
POINT
  5
4FF
330
484
100
AcDbEntity
  8
Defpoints
 62
     0
100
AcDbPoint
 10
-865.3073711290039
 20
-295.2546976195272
 30
0.0
  0
ENDBLK
  5
486
330
484
100
AcDbEntity
  8
0
100
AcDbBlockEnd
  0
ENDSEC
  0
SECTION
  2
ENTITIES
  0
ARC
  5
312
330
A
100
AcDbEntity
  8
1
  6
Continuous
 62
     7
100
AcDbCircle
 10
-862.7073711290039
 20
-219.8546976195272
 30
0.0
 40
1.0
100
AcDbArc
 50
-90.0
 51
0.0
  0
ARC
  5
311
330
A
100
AcDbEntity
  8
1
  6
Continuous
 62
     7
100
AcDbCircle
 10
-862.7073711290039
 20
-203.6546976195272
 30
0.0
 40
1.0
100
AcDbArc
 50
0.0
 51
90.0
  0
ARC
  5
310
330
A
100
AcDbEntity
  8
1
  6
Continuous
 62
     7
100
AcDbCircle
 10
-866.707371129004
 20
-203.6546976195272
 30
0.0
 40
1.0
100
AcDbArc
 50
90.0
 51
180.0
  0
ARC
  5
30F
330
A
100
AcDbEntity
  8
1
  6
Continuous
 62
     7
100
AcDbCircle
 10
-866.707371129004
 20
-219.8546976195272
 30
0.0
 40
1.0
100
AcDbArc
 50
180.0
 51
-90.0
  0
ARC
  5
30E
330
A
100
AcDbEntity
  8
1
  6
Continuous
 62
     7
100
AcDbCircle
 10
-883.707371129004
 20
-219.8546976195272
 30
0.0
 40
1.0
100
AcDbArc
 50
180.0
 51
-90.0
  0
ARC
  5
30D
330
A
100
AcDbEntity
  8
1
  6
Continuous
 62
     7
100
AcDbCircle
 10
-883.707371129004
 20
-203.6546976195272
 30
0.0
 40
1.0
100
AcDbArc
 50
90.0
 51
180.0
  0
ARC
  5
30C
330
A
100
AcDbEntity
  8
1
  6
Continuous
 62
     7
100
AcDbCircle
 10
-879.7073711290039
 20
-203.6546976195272
 30
0.0
 40
1.0
100
AcDbArc
 50
0.0
 51
90.0
  0
ARC
  5
30B
330
A
100
AcDbEntity
  8
1
  6
Continuous
 62
     7
100
AcDbCircle
 10
-879.7073711290039
 20
-219.8546976195272
 30
0.0
 40
1.0
100
AcDbArc
 50
-90.0
 51
0.0
  0
CIRCLE
  5
307
330
A
100
AcDbEntity
  8
1
  6
Continuous
 62
     7
100
AcDbCircle
 10
-736.1858058057589
 20
-211.7546976195272
 30
0.0
 40
3.35000000000002
  0
CIRCLE
  5
306
330
A
100
AcDbEntity
  8
1
  6
Continuous
 62
     7
100
AcDbCircle
 10
-736.1858058057589
 20
-211.7546976195272
 30
0.0
 40
3.79999999999995
  0
CIRCLE
  5
305
330
A
100
AcDbEntity
  8
1
  6
Continuous
 62
     7
100
AcDbCircle
 10
-736.1858058057589
 20
-211.7546976195272
 30
0.0
 40
5.5
  0
CIRCLE
  5
304
330
A
100
AcDbEntity
  8
1
  6
Continuous
 62
     7
100
AcDbCircle
 10
-736.1858058057589
 20
-211.7546976195272
 30
0.0
 40
9.100000000000019
  0
CIRCLE
  5
303
330
A
100
AcDbEntity
  8
1
  6
Continuous
 62
     7
100
AcDbCircle
 10
-768.1858058057589
 20
-211.7546976195272
 30
0.0
 40
3.35000000000002
  0
CIRCLE
  5
302
330
A
100
AcDbEntity
  8
1
  6
Continuous
 62
     7
100
AcDbCircle
 10
-768.1858058057589
 20
-211.7546976195272
 30
0.0
 40
3.79999999999995
  0
CIRCLE
  5
301
330
A
100
AcDbEntity
  8
1
  6
Continuous
 62
     7
100
AcDbCircle
 10
-768.1858058057589
 20
-211.7546976195272
 30
0.0
 40
5.5
  0
CIRCLE
  5
300
330
A
100
AcDbEntity
  8
1
  6
Continuous
 62
     7
100
AcDbCircle
 10
-768.1858058057589
 20
-211.7546976195272
 30
0.0
 40
9.100000000000019
  0
CIRCLE
  5
2FF
330
A
100
AcDbEntity
  8
1
  6
Continuous
 62
     7
100
AcDbCircle
 10
-752.1858058057589
 20
-202.2546976195272
 30
0.0
 40
1.25
  0
ARC
  5
2FE
330
A
100
AcDbEntity
  8
1
  6
Continuous
 62
     7
100
AcDbCircle
 10
-736.1858058057589
 20
-211.7546976195272
 30
0.0
 40
10.50000000000004
100
AcDbArc
 50
122.2309526355021
 51
180.0
  0
ARC
  5
2FD
330
A
100
AcDbEntity
  8
1
  6
Continuous
 62
     7
100
AcDbCircle
 10
-768.1858058057589
 20
-211.7546976195272
 30
0.0
 40
10.5
100
AcDbArc
 50
0.0
 51
57.76904736449788
  0
LINE
  5
2FC
330
A
100
AcDbEntity
  8
1
  6
Continuous
 62
     7
100
AcDbLine
 10
-870.7073711290039
 20
-224.2546976195272
 30
0.0
 11
-868.2073711290039
 21
-224.2546976195272
 31
0.0
  0
LINE
  5
2FB
330
A
100
AcDbEntity
  8
1
  6
Continuous
 62
     7
100
AcDbLine
 10
-870.7073711290039
 20
-224.2546976195272
 30
0.0
 11
-870.7073711290039
 21
-229.2546976195272
 31
0.0
  0
LINE
  5
2FA
330
A
100
AcDbEntity
  8
1
  6
Continuous
 62
     7
100
AcDbLine
 10
-875.707371129004
 20
-224.2546976195272
 30
0.0
 11
-870.7073711290039
 21
-224.2546976195272
 31
0.0
  0
LINE
  5
2F9
330
A
100
AcDbEntity
  8
1
  6
Continuous
 62
     7
100
AcDbLine
 10
-875.707371129004
 20
-224.2546976195272
 30
0.0
 11
-875.707371129004
 21
-229.2546976195272
 31
0.0
  0
LINE
  5
2F8
330
A
100
AcDbEntity
  8
1
  6
DOT_CENTER
 62
     2
100
AcDbLine
 10
-736.1858058057589
 20
-201.7446976195272
 30
0.0
 11
-736.1858058057589
 21
-221.7646976195272
 31
0.0
  0
LINE
  5
2F7
330
A
100
AcDbEntity
  8
1
  6
DOT_CENTER
 62
     2
100
AcDbLine
 10
-726.1758058057589
 20
-211.7546976195272
 30
0.0
 11
-746.1958058057589
 21
-211.7546976195272
 31
0.0
  0
LINE
  5
2F6
330
A
100
AcDbEntity
  8
1
  6
DOT_CENTER
 62
     2
100
AcDbLine
 10
-768.1858058057589
 20
-201.7446976195272
 30
0.0
 11
-768.1858058057589
 21
-221.7646976195272
 31
0.0
  0
LINE
  5
2F5
330
A
100
AcDbEntity
  8
1
  6
DOT_CENTER
 62
     2
100
AcDbLine
 10
-758.1758058057589
 20
-211.7546976195272
 30
0.0
 11
-778.1958058057589
 21
-211.7546976195272
 31
0.0
  0
LINE
  5
2F4
330
A
100
AcDbEntity
  8
1
  6
Continuous
 62
     7
100
AcDbLine
 10
-749.1858058057589
 20
-224.2546976195272
 30
0.0
 11
-748.2608058057593
 21
-224.2546976195272
 31
0.0
  0
LINE
  5
2F3
330
A
100
AcDbEntity
  8
1
  6
Continuous
 62
     7
100
AcDbLine
 10
-749.1858058057589
 20
-224.2546976195272
 30
0.0
 11
-749.1858058057589
 21
-229.2546976195272
 31
0.0
  0
LINE
  5
2F2
330
A
100
AcDbEntity
  8
1
  6
Continuous
 62
     7
100
AcDbLine
 10
-755.2116321391762
 20
-224.2546976195272
 30
0.0
 11
-749.1858058057589
 21
-224.2546976195272
 31
0.0
  0
LINE
  5
2F1
330
A
100
AcDbEntity
  8
1
  6
Continuous
 62
     7
100
AcDbLine
 10
-755.2116321391762
 20
-224.2546976195272
 30
0.0
 11
-755.2116321391763
 21
-229.2546976195272
 31
0.0
  0
LINE
  5
2F0
330
A
100
AcDbEntity
  8
1
  6
Continuous
 62
     7
100
AcDbLine
 10
-756.110805805759
 20
-224.2546976195272
 30
0.0
 11
-755.2116321391762
 21
-224.2546976195272
 31
0.0
  0
LINE
  5
2EF
330
A
100
AcDbEntity
  8
1
  6
Continuous
 62
     7
100
AcDbLine
 10
-756.110805805759
 20
-229.2546976195272
 30
0.0
 11
-756.110805805759
 21
-224.2546976195272
 31
0.0
  0
LINE
  5
2EE
330
A
100
AcDbEntity
  8
1
  6
Continuous
 62
     7
100
AcDbLine
 10
-748.2608058057593
 20
-224.2546976195272
 30
0.0
 11
-726.1858058057589
 21
-224.2546976195272
 31
0.0
  0
LINE
  5
2ED
330
A
100
AcDbEntity
  8
1
  6
Continuous
 62
     7
100
AcDbLine
 10
-748.2608058057593
 20
-224.2546976195272
 30
0.0
 11
-748.2608058057593
 21
-229.2546976195272
 31
0.0
  0
LINE
  5
2EC
330
A
100
AcDbEntity
  8
1
  6
Continuous
 62
     7
100
AcDbLine
 10
-878.2073711290038
 20
-224.2546976195272
 30
0.0
 11
-875.707371129004
 21
-224.2546976195272
 31
0.0
  0
LINE
  5
2EB
330
A
100
AcDbEntity
  8
1
  6
Continuous
 62
     7
100
AcDbLine
 10
-878.2073711290038
 20
-199.7546976195272
 30
0.0
 11
-878.2073711290038
 21
-224.2546976195272
 31
0.0
  0
LINE
  5
2EA
330
A
100
AcDbEntity
  8
1
  6
Continuous
 62
     7
100
AcDbLine
 10
-868.2073711290039
 20
-199.7546976195272
 30
0.0
 11
-878.2073711290038
 21
-199.7546976195272
 31
0.0
  0
LINE
  5
2E9
330
A
100
AcDbEntity
  8
1
  6
Continuous
 62
     7
100
AcDbLine
 10
-868.2073711290039
 20
-199.7546976195272
 30
0.0
 11
-868.2073711290039
 21
-224.2546976195272
 31
0.0
  0
LINE
  5
2E8
330
A
100
AcDbEntity
  8
1
  6
Continuous
 62
     7
100
AcDbLine
 10
-861.7073711290039
 20
-219.8546976195272
 30
0.0
 11
-861.7073711290039
 21
-203.6546976195272
 31
0.0
  0
LINE
  5
2E7
330
A
100
AcDbEntity
  8
1
  6
DOT_CENTER
 62
     2
100
AcDbLine
 10
-869.2073711290039
 20
-211.7546976195272
 30
0.0
 11
-860.2073711290039
 21
-211.7546976195272
 31
0.0
  0
LINE
  5
2E6
330
A
100
AcDbEntity
  8
1
  6
Continuous
 62
     7
100
AcDbLine
 10
-867.707371129004
 20
-206.5546976195272
 30
0.0
 11
-867.707371129004
 21
-216.9546976195272
 31
0.0
  0
LINE
  5
2E5
330
A
100
AcDbEntity
  8
1
  6
Continuous
 62
     7
100
AcDbLine
 10
-867.707371129004
 20
-216.9546976195272
 30
0.0
 11
-868.2073711290039
 21
-216.9546976195272
 31
0.0
  0
LINE
  5
2E4
330
A
100
AcDbEntity
  8
1
  6
Continuous
 62
     7
100
AcDbLine
 10
-867.707371129004
 20
-203.6546976195272
 30
0.0
 11
-867.707371129004
 21
-206.5546976195272
 31
0.0
  0
LINE
  5
2E3
330
A
100
AcDbEntity
  8
1
  6
Continuous
 62
     7
100
AcDbLine
 10
-868.2073711290039
 20
-206.5546976195272
 30
0.0
 11
-867.707371129004
 21
-206.5546976195272
 31
0.0
  0
LINE
  5
2E2
330
A
100
AcDbEntity
  8
1
  6
Continuous
 62
     7
100
AcDbLine
 10
-862.7073711290039
 20
-202.6546976195272
 30
0.0
 11
-866.707371129004
 21
-202.6546976195272
 31
0.0
  0
LINE
  5
2E1
330
A
100
AcDbEntity
  8
1
  6
Continuous
 62
     7
100
AcDbLine
 10
-867.707371129004
 20
-216.9546976195272
 30
0.0
 11
-867.707371129004
 21
-219.8546976195272
 31
0.0
  0
LINE
  5
2E0
330
A
100
AcDbEntity
  8
1
  6
Continuous
 62
     7
100
AcDbLine
 10
-866.707371129004
 20
-220.8546976195272
 30
0.0
 11
-862.7073711290039
 21
-220.8546976195272
 31
0.0
  0
LINE
  5
2DF
330
A
100
AcDbEntity
  8
1
  6
Continuous
 62
     7
100
AcDbLine
 10
-884.707371129004
 20
-203.6546976195272
 30
0.0
 11
-884.707371129004
 21
-219.8546976195272
 31
0.0
  0
LINE
  5
2DE
330
A
100
AcDbEntity
  8
1
  6
DOT_CENTER
 62
     2
100
AcDbLine
 10
-886.2073711290038
 20
-211.7546976195272
 30
0.0
 11
-869.2073711290039
 21
-211.7546976195272
 31
0.0
  0
LINE
  5
2DD
330
A
100
AcDbEntity
  8
1
  6
Continuous
 62
     7
100
AcDbLine
 10
-878.7073711290039
 20
-216.9546976195272
 30
0.0
 11
-878.7073711290039
 21
-206.5546976195272
 31
0.0
  0
LINE
  5
2DC
330
A
100
AcDbEntity
  8
1
  6
Continuous
 62
     7
100
AcDbLine
 10
-878.2073711290038
 20
-216.9546976195272
 30
0.0
 11
-878.7073711290039
 21
-216.9546976195272
 31
0.0
  0
LINE
  5
2DB
330
A
100
AcDbEntity
  8
1
  6
Continuous
 62
     7
100
AcDbLine
 10
-878.7073711290039
 20
-206.5546976195272
 30
0.0
 11
-878.7073711290039
 21
-203.6546976195272
 31
0.0
  0
LINE
  5
2DA
330
A
100
AcDbEntity
  8
1
  6
Continuous
 62
     7
100
AcDbLine
 10
-878.7073711290039
 20
-206.5546976195272
 30
0.0
 11
-878.2073711290038
 21
-206.5546976195272
 31
0.0
  0
LINE
  5
2D9
330
A
100
AcDbEntity
  8
1
  6
Continuous
 62
     7
100
AcDbLine
 10
-879.7073711290039
 20
-202.6546976195272
 30
0.0
 11
-883.707371129004
 21
-202.6546976195272
 31
0.0
  0
LINE
  5
2D8
330
A
100
AcDbEntity
  8
1
  6
Continuous
 62
     7
100
AcDbLine
 10
-878.7073711290039
 20
-219.8546976195272
 30
0.0
 11
-878.7073711290039
 21
-216.9546976195272
 31
0.0
  0
LINE
  5
2D7
330
A
100
AcDbEntity
  8
1
  6
Continuous
 62
     7
100
AcDbLine
 10
-883.707371129004
 20
-220.8546976195272
 30
0.0
 11
-879.7073711290039
 21
-220.8546976195272
 31
0.0
  0
LINE
  5
2D6
330
A
100
AcDbEntity
  8
1
  6
DOT_CENTER
 62
     2
100
AcDbLine
 10
-873.2073711290039
 20
-198.7546976195272
 30
0.0
 11
-873.2073711290039
 21
-225.2546976195272
 31
0.0
  0
LINE
  5
2D4
330
A
100
AcDbEntity
  8
1
  6
Continuous
 62
     7
100
AcDbLine
 10
-746.6858058057589
 20
-217.2546976195272
 30
0.0
 11
-746.6858058057589
 21
-211.7546976195272
 31
0.0
  0
LINE
  5
2D3
330
A
100
AcDbEntity
  8
1
  6
Continuous
 62
     7
100
AcDbLine
 10
-752.1858058057589
 20
-217.2546976195272
 30
0.0
 11
-746.6858058057589
 21
-217.2546976195272
 31
0.0
  0
LINE
  5
2D2
330
A
100
AcDbEntity
  8
1
  6
Continuous
 62
     7
100
AcDbLine
 10
-741.7858058057593
 20
-202.8726933412125
 30
0.0
 11
-741.7858058057593
 21
-199.7546976195272
 31
0.0
  0
LINE
  5
2D1
330
A
100
AcDbEntity
  8
1
  6
Continuous
 62
     7
100
AcDbLine
 10
-762.5858058057588
 20
-199.7546976195272
 30
0.0
 11
-778.1858058057589
 21
-199.7546976195272
 31
0.0
  0
LINE
  5
2D0
330
A
100
AcDbEntity
  8
1
  6
Continuous
 62
     7
100
AcDbLine
 10
-762.5858058057588
 20
-199.7546976195272
 30
0.0
 11
-762.5858058057588
 21
-202.8726933412125
 31
0.0
  0
LINE
  5
2CF
330
A
100
AcDbEntity
  8
1
  6
Continuous
 62
     7
100
AcDbLine
 10
-757.6858058057589
 20
-217.2546976195272
 30
0.0
 11
-752.1858058057589
 21
-217.2546976195272
 31
0.0
  0
LINE
  5
2CE
330
A
100
AcDbEntity
  8
1
  6
Continuous
 62
     7
100
AcDbLine
 10
-757.6858058057589
 20
-211.7546976195272
 30
0.0
 11
-757.6858058057589
 21
-217.2546976195272
 31
0.0
  0
LINE
  5
2CD
330
A
100
AcDbEntity
  8
1
  6
Continuous
 62
     7
100
AcDbLine
 10
-778.1858058057589
 20
-199.7546976195272
 30
0.0
 11
-778.1858058057589
 21
-224.2546976195272
 31
0.0
  0
LINE
  5
2CC
330
A
100
AcDbEntity
  8
1
  6
Continuous
 62
     7
100
AcDbLine
 10
-726.1858058057589
 20
-199.7546976195272
 30
0.0
 11
-762.5858058057588
 21
-199.7546976195272
 31
0.0
  0
LINE
  5
2CB
330
A
100
AcDbEntity
  8
1
  6
Continuous
 62
     7
100
AcDbLine
 10
-726.1858058057589
 20
-224.2546976195272
 30
0.0
 11
-726.1858058057589
 21
-199.7546976195272
 31
0.0
  0
LINE
  5
2CA
330
A
100
AcDbEntity
  8
1
  6
Continuous
 62
     7
100
AcDbLine
 10
-778.1858058057589
 20
-224.2546976195272
 30
0.0
 11
-756.110805805759
 21
-224.2546976195272
 31
0.0
  0
CIRCLE
  5
3AF
330
A
100
AcDbEntity
  8
1
  6
Continuous
 62
     7
100
AcDbCircle
 10
-873.2073711290039
 20
-254.3546976195271
 30
0.0
 40
3.5
  0
CIRCLE
  5
3B0
330
A
100
AcDbEntity
  8
1
  6
Continuous
 62
     7
100
AcDbCircle
 10
-873.2073711290039
 20
-265.8546976195271
 30
0.0
 40
4.5
  0
ARC
  5
3B1
330
A
100
AcDbEntity
  8
1
  6
Continuous
 62
     7
100
AcDbCircle
 10
-873.2073711290039
 20
-254.3546976195271
 30
0.0
 40
6.099999999999929
100
AcDbArc
 50
31.14738992150821
 51
90.0
  0
ARC
  5
3B2
330
A
100
AcDbEntity
  8
1
  6
Continuous
 62
     7
100
AcDbCircle
 10
-873.2073711290039
 20
-254.3546976195271
 30
0.0
 40
5.499999999999959
100
AcDbArc
 50
31.14738992150778
 51
90.0
  0
ARC
  5
3B3
330
A
100
AcDbEntity
  8
1
  6
Continuous
 62
     7
100
AcDbCircle
 10
-873.2073711290039
 20
-254.3546976195271
 30
0.0
 40
5.5
100
AcDbArc
 50
90.0
 51
148.8526100784916
  0
ARC
  5
3B4
330
A
100
AcDbEntity
  8
1
  6
Continuous
 62
     7
100
AcDbCircle
 10
-873.2073711290039
 20
-254.3546976195271
 30
0.0
 40
6.099999999999879
100
AcDbArc
 50
90.0
 51
148.8526100784917
  0
LINE
  5
3B5
330
A
100
AcDbEntity
  8
1
  6
DOT_CENTER
 62
     2
100
AcDbLine
 10
-873.2073711290039
 20
-250.5046976195272
 30
0.0
 11
-873.2073711290039
 21
-258.2046976195272
 31
0.0
  0
LINE
  5
3B6
330
A
100
AcDbEntity
  8
1
  6
DOT_CENTER
 62
     2
100
AcDbLine
 10
-869.3573711290039
 20
-254.3546976195271
 30
0.0
 11
-877.0573711290037
 21
-254.3546976195271
 31
0.0
  0
LINE
  5
3B7
330
A
100
AcDbEntity
  8
1
  6
DOT_CENTER
 62
     2
100
AcDbLine
 10
-873.2073711290039
 20
-260.904697619527
 30
0.0
 11
-873.2073711290039
 21
-270.8046976195271
 31
0.0
  0
LINE
  5
3B8
330
A
100
AcDbEntity
  8
1
  6
DOT_CENTER
 62
     2
100
AcDbLine
 10
-868.2573711290039
 20
-265.8546976195271
 30
0.0
 11
-878.1573711290036
 21
-265.8546976195271
 31
0.0
  0
LINE
  5
3B9
330
A
100
AcDbEntity
  8
1
  6
Continuous
 62
     7
100
AcDbLine
 10
-868.1073711290039
 20
-246.3546976195271
 30
0.0
 11
-868.1073711290039
 21
-247.9546976195272
 31
0.0
  0
LINE
  5
3BA
330
A
100
AcDbEntity
  8
1
  6
Continuous
 62
     7
100
AcDbLine
 10
-866.5073711290039
 20
-246.3546976195271
 30
0.0
 11
-868.1073711290039
 21
-246.3546976195271
 31
0.0
  0
LINE
  5
3BB
330
A
100
AcDbEntity
  8
1
  6
Continuous
 62
     7
100
AcDbLine
 10
-866.5073711290039
 20
-245.9546976195272
 30
0.0
 11
-866.5073711290039
 21
-246.3546976195271
 31
0.0
  0
LINE
  5
3BC
330
A
100
AcDbEntity
  8
1
  6
Continuous
 62
     7
100
AcDbLine
 10
-868.1073711290039
 20
-245.9546976195272
 30
0.0
 11
-866.5073711290039
 21
-245.9546976195272
 31
0.0
  0
LINE
  5
3BD
330
A
100
AcDbEntity
  8
1
  6
Continuous
 62
     7
100
AcDbLine
 10
-868.1073711290039
 20
-244.3546976195271
 30
0.0
 11
-868.1073711290039
 21
-245.9546976195272
 31
0.0
  0
LINE
  5
3BE
330
A
100
AcDbEntity
  8
1
  6
Continuous
 62
     7
100
AcDbLine
 10
-868.5073711290039
 20
-244.3546976195271
 30
0.0
 11
-868.1073711290039
 21
-244.3546976195271
 31
0.0
  0
LINE
  5
3BF
330
A
100
AcDbEntity
  8
1
  6
Continuous
 62
     7
100
AcDbLine
 10
-868.5073711290039
 20
-247.9546976195272
 30
0.0
 11
-870.3073711290036
 21
-247.9546976195272
 31
0.0
  0
LINE
  5
3C0
330
A
100
AcDbEntity
  8
1
  6
Continuous
 62
     7
100
AcDbLine
 10
-868.5073711290039
 20
-247.9546976195272
 30
0.0
 11
-868.5073711290039
 21
-244.3546976195271
 31
0.0
  0
LINE
  5
3C1
330
A
100
AcDbEntity
  8
1
  6
Continuous
 62
     7
100
AcDbLine
 10
-877.9073711290036
 20
-246.5546976195271
 30
0.0
 11
-877.9073711290036
 21
-248.3546976195271
 31
0.0
  0
LINE
  5
3C2
330
A
100
AcDbEntity
  8
1
  6
Continuous
 62
     7
100
AcDbLine
 10
-876.3073711290036
 20
-246.5546976195271
 30
0.0
 11
-877.9073711290036
 21
-246.5546976195271
 31
0.0
  0
LINE
  5
3C3
330
A
100
AcDbEntity
  8
1
  6
Continuous
 62
     7
100
AcDbLine
 10
-876.3073711290036
 20
-246.154697619527
 30
0.0
 11
-876.3073711290036
 21
-246.5546976195271
 31
0.0
  0
LINE
  5
3C4
330
A
100
AcDbEntity
  8
1
  6
Continuous
 62
     7
100
AcDbLine
 10
-877.9073711290036
 20
-246.154697619527
 30
0.0
 11
-876.3073711290036
 21
-246.154697619527
 31
0.0
  0
LINE
  5
3C5
330
A
100
AcDbEntity
  8
1
  6
Continuous
 62
     7
100
AcDbLine
 10
-878.3073711290036
 20
-248.3546976195271
 30
0.0
 11
-877.9073711290036
 21
-248.3546976195271
 31
0.0
  0
LINE
  5
3C6
330
A
100
AcDbEntity
  8
1
  6
Continuous
 62
     7
100
AcDbLine
 10
-877.9073711290036
 20
-244.7546976195272
 30
0.0
 11
-876.1073711290039
 21
-244.7546976195272
 31
0.0
  0
LINE
  5
3C7
330
A
100
AcDbEntity
  8
1
  6
Continuous
 62
     7
100
AcDbLine
 10
-877.9073711290036
 20
-244.7546976195272
 30
0.0
 11
-877.9073711290036
 21
-246.154697619527
 31
0.0
  0
LINE
  5
3C8
330
A
100
AcDbEntity
  8
1
  6
Continuous
 62
     7
100
AcDbLine
 10
-878.3073711290036
 20
-244.7546976195272
 30
0.0
 11
-878.3073711290036
 21
-248.3546976195271
 31
0.0
  0
LINE
  5
3C9
330
A
100
AcDbEntity
  8
1
  6
Continuous
 62
     7
100
AcDbLine
 10
-870.3073711290036
 20
-247.9546976195272
 30
0.0
 11
-870.3073711290036
 21
-248.3546976195271
 31
0.0
  0
LINE
  5
3CA
330
A
100
AcDbEntity
  8
1
  6
Continuous
 62
     7
100
AcDbLine
 10
-866.3073711290037
 20
-247.9546976195272
 30
0.0
 11
-868.1073711290039
 21
-247.9546976195272
 31
0.0
  0
LINE
  5
3CB
330
A
100
AcDbEntity
  8
1
  6
Continuous
 62
     7
100
AcDbLine
 10
-866.3073711290037
 20
-248.3546976195271
 30
0.0
 11
-866.3073711290037
 21
-247.9546976195272
 31
0.0
  0
LINE
  5
3CC
330
A
100
AcDbEntity
  8
1
  6
Continuous
 62
     7
100
AcDbLine
 10
-870.3073711290036
 20
-248.3546976195271
 30
0.0
 11
-866.3073711290037
 21
-248.3546976195271
 31
0.0
  0
LINE
  5
3CD
330
A
100
AcDbEntity
  8
1
  6
Continuous
 62
     7
100
AcDbLine
 10
-880.1073711290039
 20
-244.3546976195271
 30
0.0
 11
-880.1073711290039
 21
-244.7546976195272
 31
0.0
  0
LINE
  5
3CE
330
A
100
AcDbEntity
  8
1
  6
Continuous
 62
     7
100
AcDbLine
 10
-876.1073711290039
 20
-244.3546976195271
 30
0.0
 11
-880.1073711290039
 21
-244.3546976195271
 31
0.0
  0
LINE
  5
3CF
330
A
100
AcDbEntity
  8
1
  6
Continuous
 62
     7
100
AcDbLine
 10
-876.1073711290039
 20
-244.7546976195272
 30
0.0
 11
-876.1073711290039
 21
-244.3546976195271
 31
0.0
  0
LINE
  5
3D0
330
A
100
AcDbEntity
  8
1
  6
Continuous
 62
     7
100
AcDbLine
 10
-880.1073711290039
 20
-244.7546976195272
 30
0.0
 11
-878.3073711290036
 21
-244.7546976195272
 31
0.0
  0
LINE
  5
3D1
330
A
100
AcDbEntity
  8
1
  6
Continuous
 62
     7
100
AcDbLine
 10
-867.4073711290041
 20
-254.3546976195271
 30
0.0
 11
-867.4732460649941
 21
-250.8891803781478
 31
0.0
  0
LINE
  5
3D2
330
A
100
AcDbEntity
  8
1
  6
Continuous
 62
     7
100
AcDbLine
 10
-867.4073711290041
 20
-254.3546976195271
 30
0.0
 11
-869.0137572762205
 21
-251.8202148609065
 31
0.0
  0
LINE
  5
3D3
330
A
100
AcDbEntity
  8
1
  6
Continuous
 62
     7
100
AcDbLine
 10
-868.5002535391452
 20
-251.5098700333203
 30
0.0
 11
-869.0137572762205
 21
-251.8202148609065
 31
0.0
  0
LINE
  5
3D4
330
A
100
AcDbEntity
  8
1
  6
Continuous
 62
     7
100
AcDbLine
 10
-867.4732460649941
 20
-250.8891803781478
 30
0.0
 11
-867.9867498020696
 21
-251.1995252057341
 31
0.0
  0
LINE
  5
3D5
330
A
100
AcDbEntity
  8
1
  6
Continuous
 62
     7
100
AcDbLine
 10
-878.9414961930132
 20
-250.8891803781478
 30
0.0
 11
-879.0073711290039
 21
-254.3546976195271
 31
0.0
  0
LINE
  5
3D6
330
A
100
AcDbEntity
  8
1
  6
Continuous
 62
     7
100
AcDbLine
 10
-877.4009849817868
 20
-251.8202148609065
 30
0.0
 11
-879.0073711290039
 21
-254.3546976195271
 31
0.0
  0
LINE
  5
3D7
330
A
100
AcDbEntity
  8
1
  6
Continuous
 62
     7
100
AcDbLine
 10
-877.4009849817868
 20
-251.8202148609065
 30
0.0
 11
-877.9144887188623
 21
-251.5098700333203
 31
0.0
  0
LINE
  5
3D8
330
A
100
AcDbEntity
  8
1
  6
Continuous
 62
     7
100
AcDbLine
 10
-878.4279924559378
 20
-251.1995252057341
 30
0.0
 11
-878.9414961930132
 21
-250.8891803781478
 31
0.0
  0
ARC
  5
500
330
A
100
AcDbEntity
  8
1
  6
Continuous
 62
     7
100
AcDbCircle
 10
-873.2073711290039
 20
-266.3546976195272
 30
0.0
 40
7.900000000000089
100
AcDbArc
 50
180.0
 51
270.0
  0
ARC
  5
501
330
A
100
AcDbEntity
  8
1
  6
Continuous
 62
     7
100
AcDbCircle
 10
-873.2073711290039
 20
-266.3546976195272
 30
0.0
 40
7.89999999999998
100
AcDbArc
 50
270.0
 51
0.0
  0
LINE
  5
502
330
A
100
AcDbEntity
  8
1
  6
Continuous
 62
     7
100
AcDbLine
 10
-755.6108058057589
 20
-229.2546976195272
 30
0.0
 11
-775.6858058057589
 21
-229.2546976195272
 31
0.0
  0
LINE
  5
503
330
A
100
AcDbEntity
  8
1
  6
Continuous
 62
     7
100
AcDbLine
 10
-748.7608058057593
 20
-229.2546976195272
 30
0.0
 11
-755.6108058057589
 21
-229.2546976195272
 31
0.0
  0
LINE
  5
504
330
A
100
AcDbEntity
  8
1
  6
Continuous
 62
     7
100
AcDbLine
 10
-865.3073711290039
 20
-229.2546976195272
 30
0.0
 11
-881.1073711290038
 21
-229.2546976195272
 31
0.0
  0
LINE
  5
505
330
A
100
AcDbEntity
  8
1
  6
Continuous
 62
     7
100
AcDbLine
 10
-881.1073711290038
 20
-229.2546976195272
 30
0.0
 11
-881.1073711290038
 21
-266.3546976195272
 31
0.0
  0
LINE
  5
506
330
A
100
AcDbEntity
  8
1
  6
Continuous
 62
     7
100
AcDbLine
 10
-865.3073711290039
 20
-266.3546976195272
 30
0.0
 11
-865.3073711290039
 21
-229.2546976195272
 31
0.0
  0
LINE
  5
508
330
A
100
AcDbEntity
  8
1
  6
Continuous
 62
     7
100
AcDbLine
 10
-743.1858058057589
 20
-229.2546976195272
 30
0.0
 11
-744.1858058057589
 21
-229.2546976195272
 31
0.0
  0
LINE
  5
509
330
A
100
AcDbEntity
  8
1
  6
Continuous
 62
     7
100
AcDbLine
 10
-775.6858058057589
 20
-229.2546976195272
 30
0.0
 11
-775.6858058057589
 21
-274.2546976195272
 31
0.0
  0
LINE
  5
50A
330
A
100
AcDbEntity
  8
1
  6
Continuous
 62
     7
100
AcDbLine
 10
-775.6858058057589
 20
-274.2546976195272
 30
0.0
 11
-744.1858058057589
 21
-274.2546976195272
 31
0.0
  0
LINE
  5
50B
330
A
100
AcDbEntity
  8
1
  6
Continuous
 62
     7
100
AcDbLine
 10
-743.1858058057589
 20
-273.2546976195272
 30
0.0
 11
-743.1858058057589
 21
-229.2546976195272
 31
0.0
  0
LINE
  5
50C
330
A
100
AcDbEntity
  8
1
  6
Continuous
 62
     7
100
AcDbLine
 10
-743.1858058057589
 20
-273.2546976195272
 30
0.0
 11
-744.1858058057589
 21
-274.2546976195272
 31
0.0
  0
LINE
  5
50D
330
A
100
AcDbEntity
  8
1
  6
Continuous
 62
     7
100
AcDbLine
 10
-744.1858058057589
 20
-274.2546976195272
 30
0.0
 11
-744.1858058057589
 21
-229.2546976195272
 31
0.0
  0
LINE
  5
50E
330
A
100
AcDbEntity
  8
1
  6
Continuous
 62
     7
100
AcDbLine
 10
-744.1858058057589
 20
-229.2546976195272
 30
0.0
 11
-748.7608058057593
 21
-229.2546976195272
 31
0.0
  0
LINE
  5
538
330
A
100
AcDbEntity
  8
1
  6
Continuous
 62
     7
100
AcDbLine
 10
-775.6858058057589
 20
-229.2546976195272
 30
0.0
 11
-776.1858058057589
 21
-229.2546976195272
 31
0.0
  0
LINE
  5
539
330
A
100
AcDbEntity
  8
1
  6
Continuous
 62
     7
100
AcDbLine
 10
-779.6858058057589
 20
-229.2546976195272
 30
0.0
 11
-779.6858058057589
 21
-273.7546976195272
 31
0.0
  0
LINE
  5
53A
330
A
100
AcDbEntity
  8
1
  6
Continuous
 62
     7
100
AcDbLine
 10
-779.6858058057589
 20
-273.7546976195272
 30
0.0
 11
-776.1858058057589
 21
-273.7546976195272
 31
0.0
  0
LINE
  5
53B
330
A
100
AcDbEntity
  8
1
  6
Continuous
 62
     7
100
AcDbLine
 10
-775.6858058057589
 20
-273.2546976195272
 30
0.0
 11
-775.6858058057589
 21
-229.2546976195272
 31
0.0
  0
LINE
  5
53C
330
A
100
AcDbEntity
  8
1
  6
Continuous
 62
     7
100
AcDbLine
 10
-775.6858058057589
 20
-273.2546976195272
 30
0.0
 11
-776.1858058057589
 21
-273.7546976195272
 31
0.0
  0
LINE
  5
53D
330
A
100
AcDbEntity
  8
1
  6
Continuous
 62
     7
100
AcDbLine
 10
-776.1858058057589
 20
-273.7546976195272
 30
0.0
 11
-776.1858058057589
 21
-229.2546976195272
 31
0.0
  0
LINE
  5
53E
330
A
100
AcDbEntity
  8
1
  6
Continuous
 62
     7
100
AcDbLine
 10
-776.1858058057589
 20
-229.2546976195272
 30
0.0
 11
-779.6858058057589
 21
-229.2546976195272
 31
0.0
  0
ARC
  5
53F
330
A
100
AcDbEntity
  8
1
  6
Continuous
 62
     7
100
AcDbCircle
 10
-873.2073711290039
 20
-265.8546976195272
 30
0.0
 40
7.900000000000089
100
AcDbArc
 50
180.0
 51
0.0
  0
LINE
  5
540
330
A
100
AcDbEntity
  8
1
  6
DOT_CENTER
 62
     2
100
AcDbLine
 10
-873.2073711290039
 20
-206.9046976195265
 30
0.0
 11
-873.2073711290039
 21
-279.2546976195272
 31
0.0
  0
LINE
  5
541
330
A
100
AcDbEntity
  8
1
  6
Continuous
 62
     7
100
AcDbLine
 10
-865.3073711290039
 20
-265.8546976195272
 30
0.0
 11
-865.3073711290039
 21
-229.2546976195272
 31
0.0
  0
LINE
  5
542
330
A
100
AcDbEntity
  8
1
  6
Continuous
 62
     7
100
AcDbLine
 10
-865.3073711290039
 20
-229.2546976195272
 30
0.0
 11
-881.1073711290038
 21
-229.2546976195272
 31
0.0
  0
LINE
  5
543
330
A
100
AcDbEntity
  8
1
  6
Continuous
 62
     7
100
AcDbLine
 10
-881.1073711290038
 20
-229.2546976195272
 30
0.0
 11
-881.1073711290038
 21
-265.8546976195272
 31
0.0
  0
LINE
  5
545
330
A
100
AcDbEntity
  8
1
  6
Continuous
 62
     7
100
AcDbLine
 10
-780.185805805759
 20
-229.2546976195272
 30
0.0
 11
-796.685805805759
 21
-229.2546976195272
 31
0.0
  0
LINE
  5
546
330
A
100
AcDbEntity
  8
1
  6
Continuous
 62
     7
100
AcDbLine
 10
-780.185805805759
 20
-273.7546976195272
 30
0.0
 11
-780.185805805759
 21
-229.2546976195272
 31
0.0
  0
LINE
  5
547
330
A
100
AcDbEntity
  8
1
  6
Continuous
 62
     7
100
AcDbLine
 10
-779.6858058057589
 20
-273.2546976195272
 30
0.0
 11
-780.185805805759
 21
-273.7546976195272
 31
0.0
  0
LINE
  5
548
330
A
100
AcDbEntity
  8
1
  6
Continuous
 62
     7
100
AcDbLine
 10
-779.6858058057589
 20
-273.2546976195272
 30
0.0
 11
-779.6858058057589
 21
-229.2546976195272
 31
0.0
  0
LINE
  5
549
330
A
100
AcDbEntity
  8
1
  6
Continuous
 62
     7
100
AcDbLine
 10
-796.685805805759
 20
-273.7546976195272
 30
0.0
 11
-780.185805805759
 21
-273.7546976195272
 31
0.0
  0
LINE
  5
54A
330
A
100
AcDbEntity
  8
1
  6
Continuous
 62
     7
100
AcDbLine
 10
-796.685805805759
 20
-229.2546976195272
 30
0.0
 11
-796.685805805759
 21
-273.7546976195272
 31
0.0
  0
LINE
  5
54B
330
A
100
AcDbEntity
  8
1
  6
Continuous
 62
     7
100
AcDbLine
 10
-779.6858058057589
 20
-229.2546976195272
 30
0.0
 11
-780.185805805759
 21
-229.2546976195272
 31
0.0
  0
CIRCLE
  5
5A8
330
A
100
AcDbEntity
  8
1
  6
Continuous
 62
     7
100
AcDbCircle
 10
-873.2073711290039
 20
-265.8546976195271
 30
0.0
 40
4.0
  0
LINE
  5
5A9
330
A
100
AcDbEntity
  8
1
  6
Continuous
 62
     7
100
AcDbLine
 10
-873.6673711290038
 20
-263.5546976195271
 30
0.0
 11
-872.7473711290038
 21
-263.5546976195271
 31
0.0
  0
LINE
  5
5AA
330
A
100
AcDbEntity
  8
1
  6
Continuous
 62
     7
100
AcDbLine
 10
-872.7473711290038
 20
-263.5546976195271
 30
0.0
 11
-872.4407044623372
 21
-265.0880309528604
 31
0.0
  0
LINE
  5
5AB
330
A
100
AcDbEntity
  8
1
  6
Continuous
 62
     7
100
AcDbLine
 10
-872.4407044623372
 20
-265.0880309528604
 30
0.0
 11
-870.9073711290036
 21
-265.3946976195271
 31
0.0
  0
LINE
  5
5AC
330
A
100
AcDbEntity
  8
1
  6
Continuous
 62
     7
100
AcDbLine
 10
-870.9073711290036
 20
-265.3946976195271
 30
0.0
 11
-870.9073711290036
 21
-266.3146976195271
 31
0.0
  0
LINE
  5
5AD
330
A
100
AcDbEntity
  8
1
  6
Continuous
 62
     7
100
AcDbLine
 10
-870.9073711290036
 20
-266.3146976195271
 30
0.0
 11
-872.4407044623372
 21
-266.6213642861937
 31
0.0
  0
LINE
  5
5AE
330
A
100
AcDbEntity
  8
1
  6
Continuous
 62
     7
100
AcDbLine
 10
-872.4407044623372
 20
-266.6213642861937
 30
0.0
 11
-872.7473711290038
 21
-268.154697619527
 31
0.0
  0
LINE
  5
5AF
330
A
100
AcDbEntity
  8
1
  6
Continuous
 62
     7
100
AcDbLine
 10
-872.7473711290038
 20
-268.154697619527
 30
0.0
 11
-873.6673711290038
 21
-268.154697619527
 31
0.0
  0
LINE
  5
5B0
330
A
100
AcDbEntity
  8
1
  6
Continuous
 62
     7
100
AcDbLine
 10
-873.6673711290038
 20
-268.154697619527
 30
0.0
 11
-873.9740377956703
 21
-266.6213642861937
 31
0.0
  0
LINE
  5
5B1
330
A
100
AcDbEntity
  8
1
  6
Continuous
 62
     7
100
AcDbLine
 10
-873.9740377956703
 20
-266.6213642861937
 30
0.0
 11
-875.5073711290039
 21
-266.3146976195271
 31
0.0
  0
LINE
  5
5B2
330
A
100
AcDbEntity
  8
1
  6
Continuous
 62
     7
100
AcDbLine
 10
-875.5073711290039
 20
-266.3146976195271
 30
0.0
 11
-875.5073711290039
 21
-265.3946976195271
 31
0.0
  0
LINE
  5
5B3
330
A
100
AcDbEntity
  8
1
  6
Continuous
 62
     7
100
AcDbLine
 10
-875.5073711290039
 20
-265.3946976195271
 30
0.0
 11
-873.9740377956703
 21
-265.0880309528604
 31
0.0
  0
LINE
  5
5B4
330
A
100
AcDbEntity
  8
1
  6
Continuous
 62
     7
100
AcDbLine
 10
-873.9740377956703
 20
-265.0880309528604
 30
0.0
 11
-873.6673711290038
 21
-263.5546976195271
 31
0.0
  0
LINE
  5
5B5
330
A
100
AcDbEntity
  8
1
  6
Continuous
 62
     7
100
AcDbLine
 10
-873.6673711290038
 20
-252.0546976195271
 30
0.0
 11
-872.7473711290038
 21
-252.0546976195271
 31
0.0
  0
LINE
  5
5B6
330
A
100
AcDbEntity
  8
1
  6
Continuous
 62
     7
100
AcDbLine
 10
-872.7473711290038
 20
-252.0546976195271
 30
0.0
 11
-872.4407044623372
 21
-253.5880309528604
 31
0.0
  0
LINE
  5
5B7
330
A
100
AcDbEntity
  8
1
  6
Continuous
 62
     7
100
AcDbLine
 10
-872.4407044623372
 20
-253.5880309528604
 30
0.0
 11
-870.9073711290036
 21
-253.8946976195271
 31
0.0
  0
LINE
  5
5B8
330
A
100
AcDbEntity
  8
1
  6
Continuous
 62
     7
100
AcDbLine
 10
-870.9073711290036
 20
-253.8946976195271
 30
0.0
 11
-870.9073711290036
 21
-254.8146976195271
 31
0.0
  0
LINE
  5
5B9
330
A
100
AcDbEntity
  8
1
  6
Continuous
 62
     7
100
AcDbLine
 10
-870.9073711290036
 20
-254.8146976195271
 30
0.0
 11
-872.4407044623372
 21
-255.1213642861937
 31
0.0
  0
LINE
  5
5BA
330
A
100
AcDbEntity
  8
1
  6
Continuous
 62
     7
100
AcDbLine
 10
-872.4407044623372
 20
-255.1213642861937
 30
0.0
 11
-872.7473711290038
 21
-256.654697619527
 31
0.0
  0
LINE
  5
5BB
330
A
100
AcDbEntity
  8
1
  6
Continuous
 62
     7
100
AcDbLine
 10
-872.7473711290038
 20
-256.654697619527
 30
0.0
 11
-873.6673711290038
 21
-256.654697619527
 31
0.0
  0
LINE
  5
5BC
330
A
100
AcDbEntity
  8
1
  6
Continuous
 62
     7
100
AcDbLine
 10
-873.6673711290038
 20
-256.654697619527
 30
0.0
 11
-873.9740377956703
 21
-255.1213642861937
 31
0.0
  0
LINE
  5
5BD
330
A
100
AcDbEntity
  8
1
  6
Continuous
 62
     7
100
AcDbLine
 10
-873.9740377956703
 20
-255.1213642861937
 30
0.0
 11
-875.5073711290039
 21
-254.8146976195271
 31
0.0
  0
LINE
  5
5BE
330
A
100
AcDbEntity
  8
1
  6
Continuous
 62
     7
100
AcDbLine
 10
-875.5073711290039
 20
-254.8146976195271
 30
0.0
 11
-875.5073711290039
 21
-253.8946976195271
 31
0.0
  0
LINE
  5
5BF
330
A
100
AcDbEntity
  8
1
  6
Continuous
 62
     7
100
AcDbLine
 10
-875.5073711290039
 20
-253.8946976195271
 30
0.0
 11
-873.9740377956703
 21
-253.5880309528604
 31
0.0
  0
LINE
  5
5C0
330
A
100
AcDbEntity
  8
1
  6
Continuous
 62
     7
100
AcDbLine
 10
-873.9740377956703
 20
-253.5880309528604
 30
0.0
 11
-873.6673711290038
 21
-252.0546976195271
 31
0.0
  0
LINE
  5
5C1
330
A
100
AcDbEntity
  8
1
  6
Continuous
 62
     3
100
AcDbLine
 10
-868.5073711290037
 20
-244.8391901224688
 30
0.0
 11
-868.1073711290039
 21
-244.4391901224689
 31
0.0
  0
LINE
  5
5C2
330
A
100
AcDbEntity
  8
1
  6
Continuous
 62
     3
100
AcDbLine
 10
-868.5073711290037
 20
-245.5462969036554
 30
0.0
 11
-868.1073711290039
 21
-245.1462969036555
 31
0.0
  0
LINE
  5
5C3
330
A
100
AcDbEntity
  8
1
  6
Continuous
 62
     3
100
AcDbLine
 10
-870.3073711290034
 20
-248.0534036848417
 30
0.0
 11
-870.2086650636891
 21
-247.9546976195272
 31
0.0
  0
LINE
  5
5C4
330
A
100
AcDbEntity
  8
1
  6
Continuous
 62
     3
100
AcDbLine
 10
-868.5073711290037
 20
-246.253403684842
 30
0.0
 11
-868.1073711290038
 21
-245.853403684842
 31
0.0
  0
LINE
  5
5C5
330
A
100
AcDbEntity
  8
1
  6
Continuous
 62
     3
100
AcDbLine
 10
-869.9015582825024
 20
-248.354697619527
 30
0.0
 11
-869.5015582825025
 21
-247.9546976195272
 31
0.0
  0
LINE
  5
5C6
330
A
100
AcDbEntity
  8
1
  6
Continuous
 62
     3
100
AcDbLine
 10
-867.9015582825023
 20
-246.354697619527
 30
0.0
 11
-867.5015582825025
 21
-245.9546976195272
 31
0.0
  0
LINE
  5
5C7
330
A
100
AcDbEntity
  8
1
  6
Continuous
 62
     3
100
AcDbLine
 10
-868.5073711290037
 20
-246.9605104660285
 30
0.0
 11
-868.1073711290039
 21
-246.5605104660286
 31
0.0
  0
LINE
  5
5C8
330
A
100
AcDbEntity
  8
1
  6
Continuous
 62
     3
100
AcDbLine
 10
-869.1944515013158
 20
-248.3546976195271
 30
0.0
 11
-868.7944515013159
 21
-247.9546976195272
 31
0.0
  0
LINE
  5
5C9
330
A
100
AcDbEntity
  8
1
  6
Continuous
 62
     3
100
AcDbLine
 10
-867.1944515013159
 20
-246.3546976195271
 30
0.0
 11
-866.7944515013159
 21
-245.9546976195272
 31
0.0
  0
LINE
  5
5CA
330
A
100
AcDbEntity
  8
1
  6
Continuous
 62
     3
100
AcDbLine
 10
-868.5073711290037
 20
-247.6676172472151
 30
0.0
 11
-868.1073711290039
 21
-247.2676172472151
 31
0.0
  0
LINE
  5
5CB
330
A
100
AcDbEntity
  8
1
  6
Continuous
 62
     3
100
AcDbLine
 10
-868.4873447201292
 20
-248.354697619527
 30
0.0
 11
-868.0873447201294
 21
-247.9546976195272
 31
0.0
  0
LINE
  5
5CC
330
A
100
AcDbEntity
  8
1
  6
Continuous
 62
     3
100
AcDbLine
 10
-867.7802379389428
 20
-248.3546976195271
 30
0.0
 11
-867.3802379389428
 21
-247.9546976195271
 31
0.0
  0
LINE
  5
5CD
330
A
100
AcDbEntity
  8
1
  6
Continuous
 62
     3
100
AcDbLine
 10
-867.0731311577563
 20
-248.354697619527
 30
0.0
 11
-866.6731311577564
 21
-247.9546976195272
 31
0.0
  0
LINE
  5
5CE
330
A
100
AcDbEntity
  8
1
  6
Continuous
 62
     3
100
AcDbLine
 10
-866.3660243765697
 20
-248.3546976195271
 30
0.0
 11
-866.3073711290037
 21
-248.296044371961
 31
0.0
  0
LINE
  5
5CF
330
A
100
AcDbEntity
  8
1
  6
Continuous
 62
     3
100
AcDbLine
 10
-880.1073711290039
 20
-244.4183748422977
 30
0.0
 11
-880.0436939062333
 21
-244.3546976195271
 31
0.0
  0
LINE
  5
5D0
330
A
100
AcDbEntity
  8
1
  6
Continuous
 62
     3
100
AcDbLine
 10
-879.736587125047
 20
-244.7546976195273
 30
0.0
 11
-879.3365871250468
 21
-244.354697619527
 31
0.0
  0
LINE
  5
5D1
330
A
100
AcDbEntity
  8
1
  6
Continuous
 62
     3
100
AcDbLine
 10
-879.0294803438603
 20
-244.7546976195272
 30
0.0
 11
-878.6294803438602
 21
-244.3546976195271
 31
0.0
  0
LINE
  5
5D2
330
A
100
AcDbEntity
  8
1
  6
Continuous
 62
     3
100
AcDbLine
 10
-878.3223735626739
 20
-244.7546976195273
 30
0.0
 11
-877.9223735626736
 21
-244.354697619527
 31
0.0
  0
LINE
  5
5D3
330
A
100
AcDbEntity
  8
1
  6
Continuous
 62
     3
100
AcDbLine
 10
-878.3073711290036
 20
-245.4468019670435
 30
0.0
 11
-877.9073711290036
 21
-245.0468019670435
 31
0.0
  0
LINE
  5
5D4
330
A
100
AcDbEntity
  8
1
  6
Continuous
 62
     3
100
AcDbLine
 10
-877.6152667814873
 20
-244.7546976195272
 30
0.0
 11
-877.2152667814872
 21
-244.3546976195271
 31
0.0
  0
LINE
  5
5D5
330
A
100
AcDbEntity
  8
1
  6
Continuous
 62
     3
100
AcDbLine
 10
-878.3073711290038
 20
-246.1539087482301
 30
0.0
 11
-877.9073711290036
 21
-245.7539087482301
 31
0.0
  0
LINE
  5
5D6
330
A
100
AcDbEntity
  8
1
  6
Continuous
 62
     3
100
AcDbLine
 10
-876.9081600003007
 20
-244.7546976195273
 30
0.0
 11
-876.5081600003007
 21
-244.354697619527
 31
0.0
  0
LINE
  5
5D7
330
A
100
AcDbEntity
  8
1
  6
Continuous
 62
     3
100
AcDbLine
 10
-878.3073711290036
 20
-246.8610155294165
 30
0.0
 11
-877.601053219114
 21
-246.154697619527
 31
0.0
  0
LINE
  5
5D8
330
A
100
AcDbEntity
  8
1
  6
Continuous
 62
     3
100
AcDbLine
 10
-876.2010532191142
 20
-244.7546976195273
 30
0.0
 11
-876.1073711290039
 21
-244.6610155294168
 31
0.0
  0
LINE
  5
5D9
330
A
100
AcDbEntity
  8
1
  6
Continuous
 62
     3
100
AcDbLine
 10
-878.3073711290038
 20
-247.5681223106032
 30
0.0
 11
-877.9073711290036
 21
-247.1681223106032
 31
0.0
  0
LINE
  5
5DA
330
A
100
AcDbEntity
  8
1
  6
Continuous
 62
     3
100
AcDbLine
 10
-877.2939464379275
 20
-246.554697619527
 30
0.0
 11
-876.8939464379275
 21
-246.1546976195269
 31
0.0
  0
LINE
  5
5DB
330
A
100
AcDbEntity
  8
1
  6
Continuous
 62
     3
100
AcDbLine
 10
-878.3073711290036
 20
-248.2752290917896
 30
0.0
 11
-877.9073711290036
 21
-247.8752290917898
 31
0.0
  0
LINE
  5
5DC
330
A
100
AcDbEntity
  8
1
  6
Continuous
 62
     3
100
AcDbLine
 10
-876.5868396567411
 20
-246.5546976195271
 30
0.0
 11
-876.3073711290035
 21
-246.2752290917896
 31
0.0
  0
LINE
  5
5DD
330
A
100
AcDbEntity
  8
1
  6
Continuous
 62
     3
100
AcDbLine
 10
-878.9442379273904
 20
-251.0334162337359
 30
0.0
 11
-878.8533030915955
 21
-250.9424813979411
 31
0.0
  0
LINE
  5
5DE
330
A
100
AcDbEntity
  8
1
  6
Continuous
 62
     3
100
AcDbLine
 10
-878.957939549433
 20
-251.7542246369653
 30
0.0
 11
-876.3012140266308
 21
-249.097499114163
 31
0.0
  0
LINE
  5
5DF
330
A
100
AcDbEntity
  8
1
  6
Continuous
 62
     3
100
AcDbLine
 10
-878.9716411714758
 20
-252.4750330401946
 30
0.0
 11
-877.7487589528156
 21
-251.2521508215345
 31
0.0
  0
LINE
  5
5E0
330
A
100
AcDbEntity
  8
1
  6
Continuous
 62
     3
100
AcDbLine
 10
-876.3099179269966
 20
-249.8133097957153
 30
0.0
 11
-875.0299470639133
 21
-248.5333389326322
 31
0.0
  0
LINE
  5
5E1
330
A
100
AcDbEntity
  8
1
  6
Continuous
 62
     3
100
AcDbLine
 10
-878.9853427935186
 20
-253.1958414434239
 30
0.0
 11
-877.5310868850292
 21
-251.7415855349345
 31
0.0
  0
LINE
  5
5E2
330
A
100
AcDbEntity
  8
1
  6
Continuous
 62
     3
100
AcDbLine
 10
-874.9164940337593
 20
-249.1269926836647
 30
0.0
 11
-874.1115883178965
 21
-248.3220869678018
 31
0.0
  0
LINE
  5
5E3
330
A
100
AcDbEntity
  8
1
  6
Continuous
 62
     3
100
AcDbLine
 10
-878.9990444155614
 20
-253.9166498466533
 30
0.0
 11
-878.2635930044461
 21
-253.181198435538
 31
0.0
  0
LINE
  5
5E4
330
A
100
AcDbEntity
  8
1
  6
Continuous
 62
     3
100
AcDbLine
 10
-873.9935745606436
 20
-248.9111799917355
 30
0.0
 11
-873.3385017982229
 21
-248.2561072293149
 31
0.0
  0
LINE
  5
5E5
330
A
100
AcDbEntity
  8
1
  6
Continuous
 62
     3
100
AcDbLine
 10
-873.2300320910104
 20
-248.8547443032888
 30
0.0
 11
-872.6550423672717
 21
-248.2797545795504
 31
0.0
  0
LINE
  5
5E6
330
A
100
AcDbEntity
  8
1
  6
Continuous
 62
     3
100
AcDbLine
 10
-872.5609929408864
 20
-248.8928119343516
 30
0.0
 11
-872.0363371098043
 21
-248.3681561032695
 31
0.0
  0
LINE
  5
5E7
330
A
100
AcDbEntity
  8
1
  6
Continuous
 62
     3
100
AcDbLine
 10
-871.9592600404745
 20
-248.998185815126
 30
0.0
 11
-871.4687808402713
 21
-248.5077066149228
 31
0.0
  0
LINE
  5
5E8
330
A
100
AcDbEntity
  8
1
  6
Continuous
 62
     3
100
AcDbLine
 10
-871.4104761176892
 20
-249.1565086735276
 30
0.0
 11
-870.9440806734715
 21
-248.6901132293096
 31
0.0
  0
LINE
  5
5E9
330
A
100
AcDbEntity
  8
1
  6
Continuous
 62
     3
100
AcDbLine
 10
-870.906130990825
 20
-249.3592703278499
 30
0.0
 11
-870.4568631029273
 21
-248.9100024399521
 31
0.0
  0
LINE
  5
5EA
330
A
100
AcDbEntity
  8
1
  6
Continuous
 62
     3
100
AcDbLine
 10
-870.4408743607546
 20
-249.601120478966
 30
0.0
 11
-870.0035457248768
 21
-249.163791843088
 31
0.0
  0
LINE
  5
5EB
330
A
100
AcDbEntity
  8
1
  6
Continuous
 62
     3
100
AcDbLine
 10
-870.0112900287251
 20
-249.8786429281229
 30
0.0
 11
-869.5817493042751
 21
-249.4491022036729
 31
0.0
  0
LINE
  5
5EC
330
A
100
AcDbEntity
  8
1
  6
Continuous
 62
     3
100
AcDbLine
 10
-869.6152795689233
 20
-250.1897392495075
 30
0.0
 11
-869.1899741580735
 21
-249.764433838658
 31
0.0
  0
LINE
  5
5ED
330
A
100
AcDbEntity
  8
1
  6
Continuous
 62
     3
100
AcDbLine
 10
-869.2517430866146
 20
-250.5333095483855
 30
0.0
 11
-868.8274220362243
 21
-250.1089884979952
 31
0.0
  0
LINE
  5
5EE
330
A
100
AcDbEntity
  8
1
  6
Continuous
 62
     3
100
AcDbLine
 10
-868.9204290204633
 20
-250.9091022634208
 30
0.0
 11
-868.4939091590472
 21
-250.4825824020045
 31
0.0
  0
LINE
  5
5EF
330
A
100
AcDbEntity
  8
1
  6
Continuous
 62
     3
100
AcDbLine
 10
-868.621901400435
 20
-251.3176814245789
 30
0.0
 11
-868.189846951741
 21
-250.8856269758847
 31
0.0
  0
LINE
  5
5F0
330
A
100
AcDbEntity
  8
1
  6
Continuous
 62
     3
100
AcDbLine
 10
-868.7823817703483
 20
-252.1852685756788
 30
0.0
 11
-867.5062248993636
 21
-250.909111704694
 31
0.0
  0
LINE
  5
5F1
330
A
100
AcDbEntity
  8
1
  6
Continuous
 62
     3
100
AcDbLine
 10
-868.5080706139869
 20
-252.6180642005039
 30
0.0
 11
-867.4602990152445
 21
-251.5702926017615
 31
0.0
  0
LINE
  5
5F2
330
A
100
AcDbEntity
  8
1
  6
Continuous
 62
     3
100
AcDbLine
 10
-868.2337594576257
 20
-253.0508598253291
 30
0.0
 11
-867.4471085760043
 21
-252.2642089437078
 31
0.0
  0
LINE
  5
5F3
330
A
100
AcDbEntity
  8
1
  6
Continuous
 62
     3
100
AcDbLine
 10
-867.9594483012643
 20
-253.4836554501544
 30
0.0
 11
-867.433918136764
 21
-252.9581252856542
 31
0.0
  0
LINE
  5
5F4
330
A
100
AcDbEntity
  8
1
  6
Continuous
 62
     3
100
AcDbLine
 10
-867.685137144903
 20
-253.9164510749797
 30
0.0
 11
-867.420727697524
 21
-253.6520416276005
 31
0.0
  0
LINE
  5
5F5
330
A
100
AcDbEntity
  8
1
  6
Continuous
 62
     3
100
AcDbLine
 10
-867.4108259885414
 20
-254.3492466998048
 30
0.0
 11
-867.4075372582837
 21
-254.3459579695471
 31
0.0
  0
ENDSEC
  0
SECTION
  2
OBJECTS
  0
DICTIONARY
  5
19
330
0
100
AcDbDictionary
281
     1
  3
ACAD_CIP_PREVIOUS_PRODUCT_INFO
350
3A8
  3
ACAD_COLOR
350
38A
  3
ACAD_GROUP
350
1A
  3
ACAD_LAYOUT
350
3A1
  3
ACAD_MATERIAL
350
358
  3
ACAD_MLEADERSTYLE
350
39F
  3
ACAD_MLINESTYLE
350
1B
  3
ACAD_PLOTSETTINGS
350
3A2
  3
ACAD_PLOTSTYLENAME
350
356
  3
ACAD_SCALELIST
350
38D
  3
ACAD_TABLESTYLE
350
38B
  3
ACAD_VISUALSTYLE
350
371
  3
ACDB_RECOMPOSE_DATA
350
60F
  3
AcDbVariableDictionary
350
604
  3
ASE_INDEX_DICTIONARY
350
601
  3
DWGPROPS
350
610
  0
DICTIONARY
  5
5FC
330
14
100
AcDbDictionary
280
     1
281
     1
  3
ADSK_XREC_LAYER_RECONCILED
360
5FD
  0
DICTIONARY
  5
5FE
330
24
100
AcDbDictionary
280
     1
281
     1
  3
ADSK_XREC_LAYER_RECONCILED
360
5FF
  0
DICTIONARY
  5
3DB
330
A
100
AcDbDictionary
280
     1
281
     1
  3
ACAD_SORTENTS
360
3DC
  0
DICTIONARY
  5
667
330
1C0
100
AcDbDictionary
280
     1
281
     1
  3
ACAD_MTEXT_RT
360
668
  0
DICTIONARY
  5
665
330
1BF
100
AcDbDictionary
280
     1
281
     1
  3
ACAD_MTEXT_RT
360
666
  0
DICTIONARY
  5
663
330
1BD
100
AcDbDictionary
280
     1
281
     1
  3
ACAD_MTEXT_RT
360
664
  0
DICTIONARY
  5
661
330
1BC
100
AcDbDictionary
280
     1
281
     1
  3
ACAD_MTEXT_RT
360
662
  0
DICTIONARY
  5
65F
330
1BB
100
AcDbDictionary
280
     1
281
     1
  3
ACAD_MTEXT_RT
360
660
  0
DICTIONARY
  5
65D
330
1BA
100
AcDbDictionary
280
     1
281
     1
  3
ACAD_MTEXT_RT
360
65E
  0
DICTIONARY
  5
65B
330
1B5
100
AcDbDictionary
280
     1
281
     1
  3
ACAD_MTEXT_RT
360
65C
  0
DICTIONARY
  5
659
330
1B3
100
AcDbDictionary
280
     1
281
     1
  3
ACAD_MTEXT_RT
360
65A
  0
DICTIONARY
  5
657
330
1B1
100
AcDbDictionary
280
     1
281
     1
  3
ACAD_MTEXT_RT
360
658
  0
DICTIONARY
  5
655
330
1AF
100
AcDbDictionary
280
     1
281
     1
  3
ACAD_MTEXT_RT
360
656
  0
DICTIONARY
  5
653
330
1AE
100
AcDbDictionary
280
     1
281
     1
  3
ACAD_MTEXT_RT
360
654
  0
DICTIONARY
  5
651
330
1AD
100
AcDbDictionary
280
     1
281
     1
  3
ACAD_MTEXT_RT
360
652
  0
DICTIONARY
  5
64F
330
1AC
100
AcDbDictionary
280
     1
281
     1
  3
ACAD_MTEXT_RT
360
650
  0
DICTIONARY
  5
64D
330
1A7
100
AcDbDictionary
280
     1
281
     1
  3
ACAD_MTEXT_RT
360
64E
  0
DICTIONARY
  5
64B
330
1A5
100
AcDbDictionary
280
     1
281
     1
  3
ACAD_MTEXT_RT
360
64C
  0
DICTIONARY
  5
649
330
1A4
100
AcDbDictionary
280
     1
281
     1
  3
ACAD_MTEXT_RT
360
64A
  0
DICTIONARY
  5
647
330
1A1
100
AcDbDictionary
280
     1
281
     1
  3
ACAD_MTEXT_RT
360
648
  0
DICTIONARY
  5
645
330
1A0
100
AcDbDictionary
280
     1
281
     1
  3
ACAD_MTEXT_RT
360
646
  0
DICTIONARY
  5
643
330
19D
100
AcDbDictionary
280
     1
281
     1
  3
ACAD_MTEXT_RT
360
644
  0
DICTIONARY
  5
641
330
199
100
AcDbDictionary
280
     1
281
     1
  3
ACAD_MTEXT_RT
360
642
  0
DICTIONARY
  5
63F
330
198
100
AcDbDictionary
280
     1
281
     1
  3
ACAD_MTEXT_RT
360
640
  0
DICTIONARY
  5
63D
330
197
100
AcDbDictionary
280
     1
281
     1
  3
ACAD_MTEXT_RT
360
63E
  0
DICTIONARY
  5
63B
330
196
100
AcDbDictionary
280
     1
281
     1
  3
ACAD_MTEXT_RT
360
63C
  0
DICTIONARY
  5
639
330
195
100
AcDbDictionary
280
     1
281
     1
  3
ACAD_MTEXT_RT
360
63A
  0
DICTIONARY
  5
637
330
194
100
AcDbDictionary
280
     1
281
     1
  3
ACAD_MTEXT_RT
360
638
  0
DICTIONARY
  5
635
330
193
100
AcDbDictionary
280
     1
281
     1
  3
ACAD_MTEXT_RT
360
636
  0
DICTIONARY
  5
633
330
192
100
AcDbDictionary
280
     1
281
     1
  3
ACAD_MTEXT_RT
360
634
  0
DICTIONARY
  5
631
330
191
100
AcDbDictionary
280
     1
281
     1
  3
ACAD_MTEXT_RT
360
632
  0
DICTIONARY
  5
62F
330
190
100
AcDbDictionary
280
     1
281
     1
  3
ACAD_MTEXT_RT
360
630
  0
DICTIONARY
  5
62D
330
18F
100
AcDbDictionary
280
     1
281
     1
  3
ACAD_MTEXT_RT
360
62E
  0
DICTIONARY
  5
62B
330
18E
100
AcDbDictionary
280
     1
281
     1
  3
ACAD_MTEXT_RT
360
62C
  0
DICTIONARY
  5
629
330
18D
100
AcDbDictionary
280
     1
281
     1
  3
ACAD_MTEXT_RT
360
62A
  0
DICTIONARY
  5
627
330
18C
100
AcDbDictionary
280
     1
281
     1
  3
ACAD_MTEXT_RT
360
628
  0
DICTIONARY
  5
625
330
18B
100
AcDbDictionary
280
     1
281
     1
  3
ACAD_MTEXT_RT
360
626
  0
DICTIONARY
  5
623
330
18A
100
AcDbDictionary
280
     1
281
     1
  3
ACAD_MTEXT_RT
360
624
  0
DICTIONARY
  5
621
330
187
100
AcDbDictionary
280
     1
281
     1
  3
ACAD_MTEXT_RT
360
622
  0
DICTIONARY
  5
61F
330
180
100
AcDbDictionary
280
     1
281
     1
  3
ACAD_MTEXT_RT
360
620
  0
DICTIONARY
  5
61D
330
17F
100
AcDbDictionary
280
     1
281
     1
  3
ACAD_MTEXT_RT
360
61E
  0
DICTIONARY
  5
61B
330
17E
100
AcDbDictionary
280
     1
281
     1
  3
ACAD_MTEXT_RT
360
61C
  0
DICTIONARY
  5
619
330
17B
100
AcDbDictionary
280
     1
281
     1
  3
ACAD_MTEXT_RT
360
61A
  0
DICTIONARY
  5
617
330
17A
100
AcDbDictionary
280
     1
281
     1
  3
ACAD_MTEXT_RT
360
618
  0
DICTIONARY
  5
615
330
179
100
AcDbDictionary
280
     1
281
     1
  3
ACAD_MTEXT_RT
360
616
  0
DICTIONARY
  5
613
330
178
100
AcDbDictionary
280
     1
281
     1
  3
ACAD_MTEXT_RT
360
614
  0
DICTIONARY
  5
611
330
177
100
AcDbDictionary
280
     1
281
     1
  3
ACAD_MTEXT_RT
360
612
  0
XRECORD
  5
3A8
102
{ACAD_REACTORS
330
19
102
}
330
19
100
AcDbXrecord
280
     1
300
ACD
300
2012
300
ACD_F_S
  0
DICTIONARY
  5
38A
102
{ACAD_REACTORS
330
19
102
}
330
19
100
AcDbDictionary
281
     1
  0
DICTIONARY
  5
1A
102
{ACAD_REACTORS
330
19
102
}
330
19
100
AcDbDictionary
281
     1
  0
DICTIONARY
  5
3A1
102
{ACAD_REACTORS
330
19
102
}
330
19
100
AcDbDictionary
281
     1
  3
Model
350
3A3
  3
レイアウト1
350
3A4
  0
DICTIONARY
  5
358
102
{ACAD_REACTORS
330
19
102
}
330
19
100
AcDbDictionary
281
     1
  3
ByBlock
350
361
  3
ByLayer
350
359
  3
Global
350
369
  0
DICTIONARY
  5
39F
102
{ACAD_REACTORS
330
19
102
}
330
19
100
AcDbDictionary
281
     1
  3
Standard
350
3A0
  0
DICTIONARY
  5
1B
102
{ACAD_REACTORS
330
19
102
}
330
19
100
AcDbDictionary
281
     1
  3
STANDARD
350
1C
  0
DICTIONARY
  5
3A2
102
{ACAD_REACTORS
330
19
102
}
330
19
100
AcDbDictionary
281
     1
  0
ACDBDICTIONARYWDFLT
  5
356
102
{ACAD_REACTORS
330
19
102
}
330
19
100
AcDbDictionary
281
     1
  3
Normal
350
357
100
AcDbDictionaryWithDefault
340
357
  0
DICTIONARY
  5
38D
102
{ACAD_REACTORS
330
19
102
}
330
19
100
AcDbDictionary
281
     1
  3
A0
350
38E
  3
A1
350
38F
  3
A2
350
390
  3
A3
350
391
  3
A4
350
392
  3
A5
350
393
  3
A6
350
394
  3
A7
350
395
  3
A8
350
396
  3
A9
350
397
  3
B0
350
398
  3
B1
350
399
  3
B2
350
39A
  3
B3
350
39B
  3
B4
350
39C
  3
B5
350
39D
  3
B6
350
39E
  0
DICTIONARY
  5
38B
102
{ACAD_REACTORS
330
19
102
}
330
19
100
AcDbDictionary
281
     1
  3
Standard
350
38C
  0
DICTIONARY
  5
371
102
{ACAD_REACTORS
330
19
102
}
330
19
100
AcDbDictionary
281
     1
  3
2dWireframe
350
377
  3
Basic
350
376
  3
Brighten
350
37D
  3
ColorChange
350
381
  3
Conceptual
350
37A
  3
Dim
350
37C
  3
EdgeColorOff
350
389
  3
Facepattern
350
380
  3
Flat
350
372
  3
FlatWithEdges
350
373
  3
Gouraud
350
374
  3
GouraudWithEdges
350
375
  3
Hidden
350
379
  3
JitterOff
350
387
  3
Linepattern
350
37F
  3
OverhangOff
350
388
  3
Realistic
350
37B
  3
Shaded
350
386
  3
Shaded with edges
350
385
  3
Shades of Gray
350
382
  3
Sketchy
350
383
  3
Thicken
350
37E
  3
Wireframe
350
378
  3
X-Ray
350
384
  0
XRECORD
  5
60F
102
{ACAD_REACTORS
330
19
102
}
330
19
100
AcDbXrecord
280
     1
 90
        1
330
38C
  0
DICTIONARY
  5
604
102
{ACAD_REACTORS
330
19
102
}
330
19
100
AcDbDictionary
281
     1
  3
CANNOSCALE
350
607
  3
CMLEADERSTYLE
350
606
  3
CTABLESTYLE
350
605
  3
DIMASSOC
350
60A
  3
INDEXCTL
350
609
  3
SORTENTS
350
608
  3
XCLIPFRAME
350
60B
  0
DICTIONARY
  5
601
102
{ACAD_REACTORS
330
19
102
}
330
19
100
AcDbDictionary
281
     1
  3
ASEBlockHierarchyIndexRecord
350
603
1001
DCO15
1040
1882588982.534
  0
XRECORD
  5
610
102
{ACAD_REACTORS
330
19
102
}
330
19
100
AcDbXrecord
280
     1
  1
DWGPROPS COOKIE
  2

  3

  4

  6

  7

  8
0035sekine
  9

300
=
301
=
302
=
303
=
304
=
305
=
306
=
307
=
308
=
309
=
 40
0.0023978703703704
 41
2305814.417110764
 42
2457592.436186736
  1

 90
        0
  0
XRECORD
  5
5FD
102
{ACAD_REACTORS
330
5FC
102
}
330
5FC
100
AcDbXrecord
280
     1
290
     1
  0
XRECORD
  5
5FF
102
{ACAD_REACTORS
330
5FE
102
}
330
5FE
100
AcDbXrecord
280
     1
290
     1
  0
SORTENTSTABLE
  5
3DC
102
{ACAD_REACTORS
330
3DB
102
}
330
3DB
100
AcDbSortentsTable
330
A
331
2F7
  5
5AE
331
5AB
  5
3D4
331
3BA
  5
3B2
331
5CD
  5
31B
331
500
  5
560
331
3D2
  5
3CA
331
5EF
  5
2DF
331
306
  5
5BD
331
2D8
  5
58F
331
5BC
  5
3E7
331
5DE
  5
2CE
331
53C
  5
576
331
2F5
  5
5AC
331
54B
  5
55F
331
2D7
  5
58E
331
5A9
  5
3D2
331
3B8
  5
3B0
331
5CB
  5
319
331
3D0
  5
3C8
331
304
  5
5BB
331
53A
  5
574
331
5ED
  5
2DD
331
2E6
  5
59D
331
5BA
  5
3E5
331
5DC
  5
2F3
331
311
  5
5C8
331
2F3
  5
5AA
331
549
  5
55D
331
3B6
  5
3AD
331
5C9
  5
317
331
3CE
  5
3C6
331
302
  5
5B9
331
538
  5
572
331
5EB
  5
2DB
331
2E4
  5
59B
331
5B8
  5
3E3
331
3C7
  5
3BF
331
50D
  5
56D
331
5DA
  5
2F1
331
2F1
  5
5A8
331
2D3
  5
58A
331
3B4
  5
352
331
5C7
  5
315
331
3CC
  5
3C4
331
5E9
  5
2D9
331
2E2
  5
599
331
5B6
  5
3E1
331
3C5
  5
3BD
331
50B
  5
56B
331
5D8
  5
2EF
331
547
  5
55B
331
300
  5
5B7
331
2D1
  5
588
331
3B2
  5
338
331
5C5
  5
313
331
3CA
  5
3C2
331
5E7
  5
2D7
331
2E0
  5
597
331
5B4
  5
3DF
331
3C3
  5
3BB
331
509
  5
569
331
5D6
  5
2ED
331
2FF
  5
5B6
331
545
  5
559
331
30E
  5
5C5
331
3B0
  5
31E
331
5C3
  5
2F6
331
3C8
  5
3C0
331
5E5
  5
2D5
331
30C
  5
5C3
331
2EE
  5
5A5
331
5B2
  5
3DD
331
3C1
  5
3B9
331
5D4
  5
2EB
331
2FD
  5
5B4
331
2DF
  5
596
331
543
  5
557
331
5C1
  5
2F4
331
2CE
  5
585
331
5E3
  5
2D3
331
2EC
  5
5A3
331
5B0
  5
3D9
331
3BF
  5
3B7
331
5D2
  5
2E9
331
505
  5
565
331
3D7
  5
3CF
331
5F4
  5
2E4
331
2FB
  5
5B2
331
2DD
  5
594
331
541
  5
555
331
2CC
  5
583
331
5E1
  5
2D1
331
2EA
  5
5A1
331
5AE
  5
3D7
331
3BD
  5
3B5
331
5D0
  5
2E7
331
503
  5
563
331
3D5
  5
3CD
331
2F9
  5
5B0
331
53F
  5
553
331
5F2
  5
2E2
331
2DB
  5
592
331
5BF
  5
3EA
331
2CA
  5
581
331
2E8
  5
59F
331
5AC
  5
3D5
331
3BB
  5
3B3
331
5CE
  5
31C
331
501
  5
561
331
3D3
  5
3CB
331
5F0
  5
2E0
331
307
  5
5BE
331
2D9
  5
590
331
5BD
  5
3E8
331
5DF
  5
2CF
331
53D
  5
577
331
2F6
  5
5AD
331
5AA
  5
3D3
331
3B9
  5
3B1
331
5CC
  5
31A
331
3D1
  5
3C9
331
305
  5
5BC
331
53B
  5
575
331
5EE
  5
2DE
331
2E7
  5
59E
331
5BB
  5
3E6
331
5DD
  5
2CD
331
312
  5
5C9
331
2F4
  5
5AB
331
54A
  5
55E
331
2D6
  5
58D
331
5A8
  5
3D1
331
3B7
  5
3AF
331
5CA
  5
318
331
3CF
  5
3C7
331
303
  5
5BA
331
539
  5
573
331
5EC
  5
2DC
331
2E5
  5
59C
331
5B9
  5
3E4
331
50E
  5
56E
331
5DB
  5
2F2
331
310
  5
5C7
331
2F2
  5
5A9
331
548
  5
55C
331
2D4
  5
58B
331
3B5
  5
3AC
331
5C8
  5
316
331
3CD
  5
3C5
331
5EA
  5
2DA
331
2E3
  5
59A
331
5B7
  5
3E2
331
3C6
  5
3BE
331
50C
  5
56C
331
5D9
  5
2F0
331
301
  5
5B8
331
2F0
  5
5A7
331
2D2
  5
589
331
3B3
  5
345
331
5C6
  5
314
331
3CB
  5
3C3
331
5E8
  5
2D8
331
2E1
  5
598
331
5B5
  5
3E0
331
3C4
  5
3BC
331
50A
  5
56A
331
5D7
  5
2EE
331
546
  5
55A
331
30F
  5
5C6
331
2D0
  5
587
331
3B1
  5
32B
331
5C4
  5
30C
331
3C9
  5
3C1
331
5E6
  5
2D6
331
2EF
  5
5A6
331
5B3
  5
3DE
331
3C2
  5
3BA
331
508
  5
568
331
5D5
  5
2EC
331
2FE
  5
5B5
331
30D
  5
5C4
331
5C2
  5
2F5
331
2CF
  5
586
331
5E4
  5
2D4
331
30B
  5
5C2
331
2ED
  5
5A4
331
5B1
  5
3DA
331
3C0
  5
3B8
331
5D3
  5
2EA
331
506
  5
566
331
3D8
  5
3D0
331
2FC
  5
5B3
331
542
  5
556
331
5F5
  5
2E5
331
2DE
  5
595
331
3AF
  5
31D
331
5C0
  5
3EB
331
2CD
  5
584
331
5E2
  5
2D2
331
2EB
  5
5A2
331
5AF
  5
3D8
331
3BE
  5
3B6
331
5D1
  5
2E8
331
504
  5
564
331
3D6
  5
3CE
331
5F3
  5
2E3
331
2FA
  5
5B1
331
2DC
  5
593
331
540
  5
554
331
2CB
  5
582
331
5E0
  5
2D0
331
2E9
  5
5A0
331
5AD
  5
3D6
331
3BC
  5
3B4
331
5CF
  5
2E6
331
502
  5
562
331
3D4
  5
3CC
331
2F8
  5
5AF
331
53E
  5
578
331
5F1
  5
2E1
331
2DA
  5
591
331
5BE
  5
3E9
  0
XRECORD
  5
668
102
{ACAD_REACTORS
330
667
102
}
330
667
100
AcDbXrecord
280
     1
 40
19222.0
  1
\U+0192J\U+0192o\U+0081[
  0
XRECORD
  5
666
102
{ACAD_REACTORS
330
665
102
}
330
665
100
AcDbXrecord
280
     1
 40
30173.0
  1
ABS\U+017D\U+00BC\U+017D\U+2030
  0
XRECORD
  5
664
102
{ACAD_REACTORS
330
663
102
}
330
663
100
AcDbXrecord
280
     1
 40
39912.0
  1
\U+201D\U+2019\U+0081A\U+2018\U+00A5
  0
XRECORD
  5
662
102
{ACAD_REACTORS
330
661
102
}
330
661
100
AcDbXrecord
280
     1
 40
45028.0
  1
\U+0192`\U+0192\U+2021\U+0192R\U+0090F
  0
XRECORD
  5
660
102
{ACAD_REACTORS
330
65F
102
}
330
65F
100
AcDbXrecord
280
     1
 40
171887.0
  1
\U+0192\U+2020\U+0192j\U+0192N\U+0192\U+008D\U+0192\U+0081\U+0192b\U+0192L
  0
XRECORD
  5
65E
102
{ACAD_REACTORS
330
65D
102
}
330
65D
100
AcDbXrecord
280
     1
 40
45028.0
  1
\U+0192`\U+0192\U+2021\U+0192R\U+0090F
  0
XRECORD
  5
65C
102
{ACAD_REACTORS
330
65B
102
}
330
65B
100
AcDbXrecord
280
     1
 40
692201.0
  1
\U+0192W\U+0192\U+2026\U+0192\U+2030\U+0192R\U+0192\U+201C\U+0081A\U+0192X\U+0192`\U+0081[\U+0192\U+2039\U+0192{\U+0081[\U+0192\U+2039,\U+2018\U+00A5
  0
XRECORD
  5
65A
102
{ACAD_REACTORS
330
659
102
}
330
659
100
AcDbXrecord
280
     1
 40
241192.0
  1
66\U+0192i\U+0192C\U+0192\U+008D\U+0192\U+201C\U+2022\U+00C0\U+008D\U+2021\U+008D\U+00DF
  0
XRECORD
  5
658
102
{ACAD_REACTORS
330
657
102
}
330
657
100
AcDbXrecord
280
     1
 40
324919.0
  1
6\U+0192i\U+0192C\U+0192\U+008D\U+0192\U+201C(\U+0192t\U+0192B\U+0192\U+2030\U+0081[\U+201C*\U+201A%%c)
  0
XRECORD
  5
656
102
{ACAD_REACTORS
330
655
102
}
330
655
100
AcDbXrecord
280
     1
 40
273102.0
  1
\U+0192x\U+0192A\U+0192\U+0160\U+0192\U+201C\U+0192O\U+201C*\U+201A%%c\U+017D\U+00E5%%d\U+00F8
  0
XRECORD
  5
654
102
{ACAD_REACTORS
330
653
102
}
330
653
100
AcDbXrecord
280
     1
 40
139780.0
  1
\U+0192\U+2030\U+0192\U+201C\U+0192i\U+0081[\U+00B2{\U+2018\U+00E4
  0
XRECORD
  5
652
102
{ACAD_REACTORS
330
651
102
}
330
651
100
AcDbXrecord
280
     1
 40
46092.0
  1
\U+2019\U+00EF\U+201A%%c\U+017D\U+00FD
  0
XRECORD
  5
650
102
{ACAD_REACTORS
330
64F
102
}
330
64F
100
AcDbXrecord
280
     1
 40
114981.0
  1
\U+2019\U+2026\U+2019E\U+0192z\U+0192\U+2039\U+0192_\U+0081[
  0
XRECORD
  5
64E
102
{ACAD_REACTORS
330
64D
102
}
330
64D
100
AcDbXrecord
280
     1
 40
74943.0
  1
\U+0152\U+00E9\U+2019%%c\U+0192J\U+0192b\U+0192v
  0
XRECORD
  5
64C
102
{ACAD_REACTORS
330
64B
102
}
330
64B
100
AcDbXrecord
280
     1
 40
86044.0
  1
\U+0192N\U+0192\U+008D\U+0192\U+0081\U+0081[\U+0192g
  0
XRECORD
  5
64A
102
{ACAD_REACTORS
330
649
102
}
330
649
100
AcDbXrecord
280
     1
 40
23171.0
  1
\U+2018g%%d\U+00CF\U+0090}
  0
XRECORD
  5
648
102
{ACAD_REACTORS
330
647
102
}
330
647
100
AcDbXrecord
280
     1
 40
16080.0
  1
\U+0160\U+00F8\U+008D^ 
  0
XRECORD
  5
646
102
{ACAD_REACTORS
330
645
102
}
330
645
100
AcDbXrecord
280
     1
 40
23804.0
  1
\U+2019\U+2020\U+201C\U+2021
  0
XRECORD
  5
644
102
{ACAD_REACTORS
330
643
102
}
330
643
100
AcDbXrecord
280
     1
 40
25044.0
  1
\U+02C6\U+00CF\U+008D\U+00E3
  0
XRECORD
  5
642
102
{ACAD_REACTORS
330
641
102
}
330
641
100
AcDbXrecord
280
     1
 40
18800.0
  1
\U+2022i\P\U+00B2\U+00A5
  0
XRECORD
  5
640
102
{ACAD_REACTORS
330
63F
102
}
330
63F
100
AcDbXrecord
280
     1
 40
18980.0
  1
\U+0090}\P\U+00B2\U+00A5
  0
XRECORD
  5
63E
102
{ACAD_REACTORS
330
63D
102
}
330
63D
100
AcDbXrecord
280
     1
 40
19134.0
  1
\U+0090}\P\U+201D\U+00E5
  0
XRECORD
  5
63C
102
{ACAD_REACTORS
330
63B
102
}
330
63B
100
AcDbXrecord
280
     1
 40
16741.0
  1
\U+2022i \U+201D\U+00E5
  0
XRECORD
  5
63A
102
{ACAD_REACTORS
330
639
102
}
330
639
100
AcDbXrecord
280
     1
 40
25568.0
  1
\U+2022i        \U+00B2\U+00A5
  0
XRECORD
  5
638
102
{ACAD_REACTORS
330
637
102
}
330
637
100
AcDbXrecord
280
     1
 40
29091.0
  1
\U+008D\U+00DF   \U+017D\U+00A2
  0
XRECORD
  5
636
102
{ACAD_REACTORS
330
635
102
}
330
635
100
AcDbXrecord
280
     1
 40
13191.0
  1
\U+0090\U+201D %%d%%d
  0
XRECORD
  5
634
102
{ACAD_REACTORS
330
633
102
}
330
633
100
AcDbXrecord
280
     1
 40
53004.0
  1
\U+017Dd   \U+008F\U+00D0   \U+201A\U+00AF
  0
XRECORD
  5
632
102
{ACAD_REACTORS
330
631
102
}
330
631
100
AcDbXrecord
280
     1
 40
18923.0
  1
\U+2039L   \U+017D\U+00B2
  0
XRECORD
  5
630
102
{ACAD_REACTORS
330
62F
102
}
330
62F
100
AcDbXrecord
280
     1
 40
17447.0
  1
\U+008F\U+00B0  \U+201DF
  0
XRECORD
  5
62E
102
{ACAD_REACTORS
330
62D
102
}
330
62D
100
AcDbXrecord
280
     1
 40
18174.0
  1
\U+0152\U+0081  \U+0090}
  0
XRECORD
  5
62C
102
{ACAD_REACTORS
330
62B
102
}
330
62B
100
AcDbXrecord
280
     1
 40
17643.0
  1
\U+2019S  \U+201C\U+00B2
  0
XRECORD
  5
62A
102
{ACAD_REACTORS
330
629
102
}
330
629
100
AcDbXrecord
280
     1
 40
16619.0
  1
\U+017D\U+00D6\U+201Cx
  0
XRECORD
  5
628
102
{ACAD_REACTORS
330
627
102
}
330
627
100
AcDbXrecord
280
     1
 40
391180.0
  1
\U+008D\U+201A\U+2039\U+00C7\U+2039\U+00C1\U+2022\U+00B4\U+0160\U+201D\U+017D\U+00DB\U+2030\U+00FF\U+017D\U+00C5
  0
XRECORD
  5
626
102
{ACAD_REACTORS
330
625
102
}
330
625
100
AcDbXrecord
280
     1
 40
15843.0
  1
\U+00B2{\U+017D\U+00C5
  0
XRECORD
  5
624
102
{ACAD_REACTORS
330
623
102
}
330
623
100
AcDbXrecord
280
     1
 40
274718.0
  1
\U+201C\U+0152\U+2039\U+20AC\U+201Cs\U+2018\U+00F0\U+201C\U+0152\U+2039\U+00CC\U+201C*\U+2019J
  0
XRECORD
  5
622
102
{ACAD_REACTORS
330
621
102
}
330
621
100
AcDbXrecord
280
     1
 40
6388.0
  1
\U+0081\U+00CF
  0
XRECORD
  5
620
102
{ACAD_REACTORS
330
61F
102
}
330
61F
100
AcDbXrecord
280
     1
 40
638878.0
  1
\U+0192J\U+0192o\U+0081[\U+0081E\U+2019\U+2026\U+2019E\U+0192z\U+0192\U+2039\U+0192_\U+0081[\U+017D\U+00CC\U+2022t\U+201A\U+00F9\U+201A\U+00D1
  0
XRECORD
  5
61E
102
{ACAD_REACTORS
330
61D
102
}
330
61D
100
AcDbXrecord
280
     1
 40
226025.0
  1
\U+017D\U+00CC\U+2022t\U+201A\U+00A3%%dp\U+201CY\U+2022t\U+201A\U+00F9\U+201A\U+00D1
  0
XRECORD
  5
61C
102
{ACAD_REACTORS
330
61B
102
}
330
61B
100
AcDbXrecord
280
     1
 40
110596.0
  1
\U+017Ds\U+201D\U+00E4\U+2022i \U+02C6\U+00F5\U+017D\U+00DA
  0
XRECORD
  5
61A
102
{ACAD_REACTORS
330
619
102
}
330
619
100
AcDbXrecord
280
     1
 40
32646.0
  1
GB\U+0192\U+0081\U+0192b\U+0192L
  0
XRECORD
  5
618
102
{ACAD_REACTORS
330
617
102
}
330
617
100
AcDbXrecord
280
     1
 40
86044.0
  1
\U+0192N\U+0192\U+008D\U+0192\U+0081\U+0081[\U+0192g
  0
XRECORD
  5
616
102
{ACAD_REACTORS
330
615
102
}
330
615
100
AcDbXrecord
280
     1
 40
26437.0
  1
\U+017DM\U+0081{M4\U+0081~40
  0
XRECORD
  5
614
102
{ACAD_REACTORS
330
613
102
}
330
613
100
AcDbXrecord
280
     1
 40
191404.0
  1
\U+201A\U+00E0\U+201A\U+00E6\U+0192\U+0152b\U+0192s\U+0192\U+201C3.5\U+0081~30
  0
XRECORD
  5
612
102
{ACAD_REACTORS
330
611
102
}
330
611
100
AcDbXrecord
280
     1
 40
45028.0
  1
\U+0192`\U+0192\U+2021\U+0192R\U+0090F
  0
LAYOUT
  5
3A3
102
{ACAD_XDICTIONARY
360
69E
102
}
102
{ACAD_REACTORS
330
3A1
102
}
330
3A1
100
AcDbPlotSettings
  1

  2
\\asrv0030\DocuCentre 230 - 本社９階　開発部
  4

  6

 40
0.0
 41
0.0
 42
0.0
 43
0.0
 44
0.0
 45
0.0
 46
0.0
 47
0.0
 48
0.0
 49
0.0
140
0.0
141
0.0
142
1.0
143
1.0
 70
  1712
 72
     0
 73
     0
 74
     0
  7

 75
     0
147
1.0
148
0.0
149
0.0
100
AcDbLayout
  1
Model
 70
     1
 71
     0
 10
0.0
 20
0.0
 11
12.0
 21
9.0
 12
0.0
 22
0.0
 32
0.0
 14
0.0
 24
0.0
 34
0.0
 15
0.0
 25
0.0
 35
0.0
146
0.0
 13
0.0
 23
0.0
 33
0.0
 16
1.0
 26
0.0
 36
0.0
 17
0.0
 27
1.0
 37
0.0
 76
     0
330
A
331
15
  0
LAYOUT
  5
3A4
102
{ACAD_XDICTIONARY
360
6A0
102
}
102
{ACAD_REACTORS
330
3A1
102
}
330
3A1
100
AcDbPlotSettings
  1

  2
\\asrv0030\DocuCentre 230 - 本社９階　開発部
  4

  6

 40
0.0
 41
0.0
 42
0.0
 43
0.0
 44
0.0
 45
0.0
 46
0.0
 47
0.0
 48
0.0
 49
0.0
140
0.0
141
0.0
142
1.0
143
1.0
 70
   688
 72
     0
 73
     0
 74
     5
  7

 75
    16
147
1.0
148
0.0
149
0.0
100
AcDbLayout
  1
レイアウト1
 70
     0
 71
     1
 10
0.0
 20
0.0
 11
12.0
 21
9.0
 12
0.0
 22
0.0
 32
0.0
 14
1.000000000000000E+20
 24
1.000000000000000E+20
 34
1.000000000000000E+20
 15
-1.000000000000000E+20
 25
-1.000000000000000E+20
 35
-1.000000000000000E+20
146
0.0
 13
0.0
 23
0.0
 33
0.0
 16
1.0
 26
0.0
 36
0.0
 17
0.0
 27
1.0
 37
0.0
 76
     0
330
B
  0
MATERIAL
  5
361
102
{ACAD_XDICTIONARY
360
362
102
}
102
{ACAD_REACTORS
330
358
102
}
330
358
100
AcDbMaterial
  1
ByBlock
 72
     0
 43
0.0208333333333333
 43
0.0
 43
0.0
 43
0.0
 43
0.0
 43
0.0208333333333333
 43
0.0
 43
0.0
 43
0.0
 43
0.0
 43
1.0
 43
0.0
 43
0.0
 43
0.0
 43
0.0
 43
1.0
 77
     0
 47
0.0208333333333333
 47
0.0
 47
0.0
 47
0.0
 47
0.0
 47
0.0208333333333333
 47
0.0
 47
0.0
 47
0.0
 47
0.0
 47
1.0
 47
0.0
 47
0.0
 47
0.0
 47
0.0
 47
1.0
171
     0
 49
0.0208333333333333
 49
0.0
 49
0.0
 49
0.0
 49
0.0
 49
0.0208333333333333
 49
0.0
 49
0.0
 49
0.0
 49
0.0
 49
1.0
 49
0.0
 49
0.0
 49
0.0
 49
0.0
 49
1.0
175
     0
142
0.0208333333333333
142
0.0
142
0.0
142
0.0
142
0.0
142
0.0208333333333333
142
0.0
142
0.0
142
0.0
142
0.0
142
1.0
142
0.0
142
0.0
142
0.0
142
0.0
142
1.0
179
     0
144
0.0208333333333333
144
0.0
144
0.0
144
0.0
144
0.0
144
0.0208333333333333
144
0.0
144
0.0
144
0.0
144
0.0
144
1.0
144
0.0
144
0.0
144
0.0
144
0.0
144
1.0
147
0.0208333333333333
147
0.0
147
0.0
147
0.0
147
0.0
147
0.0208333333333333
147
0.0
147
0.0
147
0.0
147
0.0
147
1.0
147
0.0
147
0.0
147
0.0
147
0.0
147
1.0
  0
MATERIAL
  5
359
102
{ACAD_XDICTIONARY
360
35A
102
}
102
{ACAD_REACTORS
330
358
102
}
330
358
100
AcDbMaterial
  1
ByLayer
 72
     0
 43
0.0208333333333333
 43
0.0
 43
0.0
 43
0.0
 43
0.0
 43
0.0208333333333333
 43
0.0
 43
0.0
 43
0.0
 43
0.0
 43
1.0
 43
0.0
 43
0.0
 43
0.0
 43
0.0
 43
1.0
 77
     0
 47
0.0208333333333333
 47
0.0
 47
0.0
 47
0.0
 47
0.0
 47
0.0208333333333333
 47
0.0
 47
0.0
 47
0.0
 47
0.0
 47
1.0
 47
0.0
 47
0.0
 47
0.0
 47
0.0
 47
1.0
171
     0
 49
0.0208333333333333
 49
0.0
 49
0.0
 49
0.0
 49
0.0
 49
0.0208333333333333
 49
0.0
 49
0.0
 49
0.0
 49
0.0
 49
1.0
 49
0.0
 49
0.0
 49
0.0
 49
0.0
 49
1.0
175
     0
142
0.0208333333333333
142
0.0
142
0.0
142
0.0
142
0.0
142
0.0208333333333333
142
0.0
142
0.0
142
0.0
142
0.0
142
1.0
142
0.0
142
0.0
142
0.0
142
0.0
142
1.0
179
     0
144
0.0208333333333333
144
0.0
144
0.0
144
0.0
144
0.0
144
0.0208333333333333
144
0.0
144
0.0
144
0.0
144
0.0
144
1.0
144
0.0
144
0.0
144
0.0
144
0.0
144
1.0
147
0.0208333333333333
147
0.0
147
0.0
147
0.0
147
0.0
147
0.0208333333333333
147
0.0
147
0.0
147
0.0
147
0.0
147
1.0
147
0.0
147
0.0
147
0.0
147
0.0
147
1.0
  0
MATERIAL
  5
369
102
{ACAD_XDICTIONARY
360
36A
102
}
102
{ACAD_REACTORS
330
358
102
}
330
358
100
AcDbMaterial
  1
Global
 72
     0
 43
0.0208333333333333
 43
0.0
 43
0.0
 43
0.0
 43
0.0
 43
0.0208333333333333
 43
0.0
 43
0.0
 43
0.0
 43
0.0
 43
1.0
 43
0.0
 43
0.0
 43
0.0
 43
0.0
 43
1.0
 77
     0
 47
0.0208333333333333
 47
0.0
 47
0.0
 47
0.0
 47
0.0
 47
0.0208333333333333
 47
0.0
 47
0.0
 47
0.0
 47
0.0
 47
1.0
 47
0.0
 47
0.0
 47
0.0
 47
0.0
 47
1.0
171
     0
 49
0.0208333333333333
 49
0.0
 49
0.0
 49
0.0
 49
0.0
 49
0.0208333333333333
 49
0.0
 49
0.0
 49
0.0
 49
0.0
 49
1.0
 49
0.0
 49
0.0
 49
0.0
 49
0.0
 49
1.0
175
     0
142
0.0208333333333333
142
0.0
142
0.0
142
0.0
142
0.0
142
0.0208333333333333
142
0.0
142
0.0
142
0.0
142
0.0
142
1.0
142
0.0
142
0.0
142
0.0
142
0.0
142
1.0
179
     0
144
0.0208333333333333
144
0.0
144
0.0
144
0.0
144
0.0
144
0.0208333333333333
144
0.0
144
0.0
144
0.0
144
0.0
144
1.0
144
0.0
144
0.0
144
0.0
144
0.0
144
1.0
147
0.0208333333333333
147
0.0
147
0.0
147
0.0
147
0.0
147
0.0208333333333333
147
0.0
147
0.0
147
0.0
147
0.0
147
1.0
147
0.0
147
0.0
147
0.0
147
0.0
147
1.0
  0
MLEADERSTYLE
  5
3A0
102
{ACAD_REACTORS
330
39F
102
}
330
39F
100
AcDbMLeaderStyle
170
     2
171
     1
172
     0
 90
        2
 40
0.0
 41
0.0
173
     1
 91
-1056964608
340
11
 92
       -2
290
     1
 42
2.0
291
     1
 43
0.36
  3
Standard
 44
4.0
300

342
17
174
     1
178
     6
175
     1
176
     0
 93
-1056964608
 45
4.0
292
     0
297
     0
 46
4.0
 94
-1056964608
 47
1.0
 49
1.0
140
1.0
293
     1
141
0.0
294
     1
177
     0
142
1.0
295
     0
296
     0
143
0.125
1001
ACAD_MLEADERVER
1070
     2
  0
MLINESTYLE
  5
1C
102
{ACAD_REACTORS
330
1B
102
}
330
1B
100
AcDbMlineStyle
  2
STANDARD
 70
     0
  3

 62
     0
 51
90.0
 52
90.0
 71
     2
 49
0.5
 62
   256
  6
BYLAYER
 49
-0.5
 62
   256
  6
BYLAYER
  0
ACDBPLACEHOLDER
  5
357
102
{ACAD_REACTORS
330
356
102
}
330
356
  0
SCALE
  5
38E
102
{ACAD_REACTORS
330
38D
102
}
330
38D
100
AcDbScale
 70
     0
300
1:1
140
1.0
141
1.0
290
     1
  0
SCALE
  5
38F
102
{ACAD_REACTORS
330
38D
102
}
330
38D
100
AcDbScale
 70
     0
300
1:2
140
1.0
141
2.0
290
     0
  0
SCALE
  5
390
102
{ACAD_REACTORS
330
38D
102
}
330
38D
100
AcDbScale
 70
     0
300
1:4
140
1.0
141
4.0
290
     0
  0
SCALE
  5
391
102
{ACAD_REACTORS
330
38D
102
}
330
38D
100
AcDbScale
 70
     0
300
1:5
140
1.0
141
5.0
290
     0
  0
SCALE
  5
392
102
{ACAD_REACTORS
330
38D
102
}
330
38D
100
AcDbScale
 70
     0
300
1:8
140
1.0
141
8.0
290
     0
  0
SCALE
  5
393
102
{ACAD_REACTORS
330
38D
102
}
330
38D
100
AcDbScale
 70
     0
300
1:10
140
1.0
141
10.0
290
     0
  0
SCALE
  5
394
102
{ACAD_REACTORS
330
38D
102
}
330
38D
100
AcDbScale
 70
     0
300
1:16
140
1.0
141
16.0
290
     0
  0
SCALE
  5
395
102
{ACAD_REACTORS
330
38D
102
}
330
38D
100
AcDbScale
 70
     0
300
1:20
140
1.0
141
20.0
290
     0
  0
SCALE
  5
396
102
{ACAD_REACTORS
330
38D
102
}
330
38D
100
AcDbScale
 70
     0
300
1:30
140
1.0
141
30.0
290
     0
  0
SCALE
  5
397
102
{ACAD_REACTORS
330
38D
102
}
330
38D
100
AcDbScale
 70
     0
300
1:40
140
1.0
141
40.0
290
     0
  0
SCALE
  5
398
102
{ACAD_REACTORS
330
38D
102
}
330
38D
100
AcDbScale
 70
     0
300
1:50
140
1.0
141
50.0
290
     0
  0
SCALE
  5
399
102
{ACAD_REACTORS
330
38D
102
}
330
38D
100
AcDbScale
 70
     0
300
1:100
140
1.0
141
100.0
290
     0
  0
SCALE
  5
39A
102
{ACAD_REACTORS
330
38D
102
}
330
38D
100
AcDbScale
 70
     0
300
2:1
140
2.0
141
1.0
290
     0
  0
SCALE
  5
39B
102
{ACAD_REACTORS
330
38D
102
}
330
38D
100
AcDbScale
 70
     0
300
4:1
140
4.0
141
1.0
290
     0
  0
SCALE
  5
39C
102
{ACAD_REACTORS
330
38D
102
}
330
38D
100
AcDbScale
 70
     0
300
8:1
140
8.0
141
1.0
290
     0
  0
SCALE
  5
39D
102
{ACAD_REACTORS
330
38D
102
}
330
38D
100
AcDbScale
 70
     0
300
10:1
140
10.0
141
1.0
290
     0
  0
SCALE
  5
39E
102
{ACAD_REACTORS
330
38D
102
}
330
38D
100
AcDbScale
 70
     0
300
100:1
140
100.0
141
1.0
290
     0
  0
TABLESTYLE
  5
38C
102
{ACAD_XDICTIONARY
360
60D
102
}
102
{ACAD_REACTORS
330
38B
102
}
330
38B
100
AcDbTableStyle
  3
Standard
 70
     0
 71
     0
 40
1.5
 41
1.5
280
     0
281
     0
  7
STANDARD
140
4.5
170
     2
 62
     0
 63
     7
283
     0
274
    -2
284
     1
 64
     0
275
    -2
285
     1
 65
     0
276
    -2
286
     1
 66
     0
277
    -2
287
     1
 67
     0
278
    -2
288
     1
 68
     0
279
    -2
289
     1
 69
     0
  7
STANDARD
140
6.0
170
     5
 62
     0
 63
     7
283
     0
274
    -2
284
     1
 64
     0
275
    -2
285
     1
 65
     0
276
    -2
286
     1
 66
     0
277
    -2
287
     1
 67
     0
278
    -2
288
     1
 68
     0
279
    -2
289
     1
 69
     0
  7
STANDARD
140
4.5
170
     5
 62
     0
 63
     7
283
     0
274
    -2
284
     1
 64
     0
275
    -2
285
     1
 65
     0
276
    -2
286
     1
 66
     0
277
    -2
287
     1
 67
     0
278
    -2
288
     1
 68
     0
279
    -2
289
     1
 69
     0
  0
VISUALSTYLE
  5
377
102
{ACAD_XDICTIONARY
360
676
102
}
102
{ACAD_REACTORS
330
371
102
}
330
371
100
AcDbVisualStyle
  2
2dWireframe
 70
     4
 71
     0
 72
     2
 73
     0
 90
        0
 40
-0.6
 41
-30.0
 62
     5
 63
     7
 74
     1
 91
        4
 64
     7
 65
   257
 75
     1
175
     1
 42
1.0
 92
        0
 66
   257
 43
1.0
 76
     1
 77
     6
 78
     2
 67
     7
 79
     5
170
     0
171
     0
290
     0
174
     0
 93
        1
 44
0.0
173
     0
291
     0
 45
0.0
1001
ACAD
1000
AcDbSavedByObjectVersion
1070
     0
  0
VISUALSTYLE
  5
376
102
{ACAD_XDICTIONARY
360
674
102
}
102
{ACAD_REACTORS
330
371
102
}
330
371
100
AcDbVisualStyle
  2
Basic
 70
     7
 71
     1
 72
     0
 73
     1
 90
        0
 40
-0.6
 41
-30.0
 62
     5
 63
     7
 74
     0
 91
        4
 64
     7
 65
   257
 75
     1
175
     1
 42
1.0
 92
        8
 66
     7
 43
1.0
 76
     1
 77
     6
 78
     2
 67
     7
 79
     5
170
     0
171
     0
290
     0
174
     0
 93
        1
 44
0.0
173
     0
291
     1
 45
0.0
1001
ACAD
1000
AcDbSavedByObjectVersion
1070
     0
  0
VISUALSTYLE
  5
37D
102
{ACAD_XDICTIONARY
360
682
102
}
102
{ACAD_REACTORS
330
371
102
}
330
371
100
AcDbVisualStyle
  2
Brighten
 70
    12
 71
     2
 72
     2
 73
     0
 90
        0
 40
-0.6
 41
-30.0
 62
     5
 63
     7
 74
     1
 91
        4
 64
     7
 65
   257
 75
     1
175
     1
 42
1.0
 92
        8
 66
     7
 43
1.0
 76
     1
 77
     6
 78
     2
 67
     7
 79
     5
170
     0
171
     0
290
     0
174
     0
 93
        1
 44
50.0
173
     0
291
     1
 45
0.0
1001
ACAD
1000
AcDbSavedByObjectVersion
1070
     0
  0
VISUALSTYLE
  5
381
102
{ACAD_XDICTIONARY
360
68A
102
}
102
{ACAD_REACTORS
330
371
102
}
330
371
100
AcDbVisualStyle
  2
ColorChange
 70
    16
 71
     2
 72
     2
 73
     3
 90
        0
 40
-0.6
 41
-30.0
 62
     5
 63
     8
 74
     1
 91
        4
 64
     7
 65
   257
 75
     1
175
     1
 42
1.0
 92
        8
 66
     8
 43
1.0
 76
     1
 77
     6
 78
     2
 67
     7
 79
     5
170
     0
171
     0
290
     0
174
     0
 93
        1
 44
0.0
173
     0
291
     1
 45
0.0
1001
ACAD
1000
AcDbSavedByObjectVersion
1070
     0
  0
VISUALSTYLE
  5
37A
102
{ACAD_XDICTIONARY
360
67C
102
}
102
{ACAD_REACTORS
330
371
102
}
330
371
100
AcDbVisualStyle
  2
Conceptual
 70
     9
 71
     3
 72
     2
 73
     0
 90
        0
 40
-0.6
 41
-30.0
 62
     5
 63
     7
 74
     2
 91
        2
 64
     7
 65
   257
 75
     1
175
     1
 42
179.0
 92
        8
 66
     7
 43
1.0
 76
     1
 77
     6
 78
     2
 67
     7
 79
     3
170
     0
171
     0
290
     0
174
     0
 93
        1
 44
0.0
173
     0
291
     0
 45
0.0
1001
ACAD
1000
AcDbSavedByObjectVersion
1070
     0
  0
VISUALSTYLE
  5
37C
102
{ACAD_XDICTIONARY
360
680
102
}
102
{ACAD_REACTORS
330
371
102
}
330
371
100
AcDbVisualStyle
  2
Dim
 70
    11
 71
     2
 72
     2
 73
     0
 90
        0
 40
-0.6
 41
-30.0
 62
     5
 63
     7
 74
     1
 91
        4
 64
     7
 65
   257
 75
     1
175
     1
 42
1.0
 92
        8
 66
     7
 43
1.0
 76
     1
 77
     6
 78
     2
 67
     7
 79
     5
170
     0
171
     0
290
     0
174
     0
 93
        1
 44
-50.0
173
     0
291
     1
 45
0.0
1001
ACAD
1000
AcDbSavedByObjectVersion
1070
     0
  0
VISUALSTYLE
  5
389
102
{ACAD_XDICTIONARY
360
69A
102
}
102
{ACAD_REACTORS
330
371
102
}
330
371
100
AcDbVisualStyle
  2
EdgeColorOff
 70
    22
 71
     2
 72
     2
 73
     0
 90
        0
 40
-0.6
 41
-30.0
 62
     5
 63
     7
 74
     1
 91
        4
 64
     7
 65
   257
 75
     1
175
     1
 42
1.0
 92
        8
 66
     7
 43
1.0
 76
     1
 77
     6
 78
     2
 67
     7
 79
     5
170
     0
171
     0
290
     0
174
     0
 93
        1
 44
0.0
173
     0
291
     1
 45
0.0
1001
ACAD
1000
AcDbSavedByObjectVersion
1070
     0
  0
VISUALSTYLE
  5
380
102
{ACAD_XDICTIONARY
360
688
102
}
102
{ACAD_REACTORS
330
371
102
}
330
371
100
AcDbVisualStyle
  2
Facepattern
 70
    15
 71
     2
 72
     2
 73
     0
 90
        0
 40
-0.6
 41
-30.0
 62
     5
 63
     7
 74
     1
 91
        4
 64
     7
 65
   257
 75
     1
175
     1
 42
1.0
 92
        8
 66
     7
 43
1.0
 76
     1
 77
     6
 78
     2
 67
     7
 79
     5
170
     0
171
     0
290
     0
174
     0
 93
        1
 44
0.0
173
     0
291
     1
 45
0.0
1001
ACAD
1000
AcDbSavedByObjectVersion
1070
     0
  0
VISUALSTYLE
  5
372
102
{ACAD_XDICTIONARY
360
66C
102
}
102
{ACAD_REACTORS
330
371
102
}
330
371
100
AcDbVisualStyle
  2
Flat
 70
     0
 71
     2
 72
     1
 73
     1
 90
        2
 40
-0.6
 41
30.0
 62
     5
 63
     7
 74
     0
 91
        0
 64
     7
 65
   257
 75
     1
175
     1
 42
1.0
 92
        8
 66
     7
 43
1.0
 76
     1
 77
     6
 78
     2
 67
     7
 79
     5
170
     0
171
     0
290
     0
174
     0
 93
       13
 44
0.0
173
     0
291
     1
 45
0.0
1001
ACAD
1000
AcDbSavedByObjectVersion
1070
     0
  0
VISUALSTYLE
  5
373
102
{ACAD_XDICTIONARY
360
66E
102
}
102
{ACAD_REACTORS
330
371
102
}
330
371
100
AcDbVisualStyle
  2
FlatWithEdges
 70
     1
 71
     2
 72
     1
 73
     1
 90
        2
 40
-0.6
 41
30.0
 62
     5
 63
     7
 74
     1
 91
        0
 64
     7
 65
   257
 75
     1
175
     1
 42
1.0
 92
        0
 66
   257
 43
1.0
 76
     1
 77
     6
 78
     2
 67
     7
 79
     5
170
     0
171
     0
290
     0
174
     0
 93
       13
 44
0.0
173
     0
291
     1
 45
0.0
1001
ACAD
1000
AcDbSavedByObjectVersion
1070
     0
  0
VISUALSTYLE
  5
374
102
{ACAD_XDICTIONARY
360
670
102
}
102
{ACAD_REACTORS
330
371
102
}
330
371
100
AcDbVisualStyle
  2
Gouraud
 70
     2
 71
     2
 72
     2
 73
     1
 90
        2
 40
-0.6
 41
30.0
 62
     5
 63
     7
 74
     0
 91
        0
 64
     7
 65
   257
 75
     1
175
     1
 42
1.0
 92
        0
 66
     7
 43
1.0
 76
     1
 77
     6
 78
     2
 67
     7
 79
     5
170
     0
171
     0
290
     0
174
     0
 93
       13
 44
0.0
173
     0
291
     1
 45
0.0
1001
ACAD
1000
AcDbSavedByObjectVersion
1070
     0
  0
VISUALSTYLE
  5
375
102
{ACAD_XDICTIONARY
360
672
102
}
102
{ACAD_REACTORS
330
371
102
}
330
371
100
AcDbVisualStyle
  2
GouraudWithEdges
 70
     3
 71
     2
 72
     2
 73
     1
 90
        2
 40
-0.6
 41
30.0
 62
     5
 63
     7
 74
     1
 91
        0
 64
     7
 65
   257
 75
     1
175
     1
 42
1.0
 92
        0
 66
   257
 43
1.0
 76
     1
 77
     6
 78
     2
 67
     7
 79
     5
170
     0
171
     0
290
     0
174
     0
 93
       13
 44
0.0
173
     0
291
     1
 45
0.0
1001
ACAD
1000
AcDbSavedByObjectVersion
1070
     0
  0
VISUALSTYLE
  5
379
102
{ACAD_XDICTIONARY
360
67A
102
}
102
{ACAD_REACTORS
330
371
102
}
330
371
100
AcDbVisualStyle
  2
Hidden
 70
     6
 71
     1
 72
     2
 73
     2
 90
        0
 40
-0.6
 41
-30.0
 62
     5
 63
     7
 74
     2
 91
        2
 64
     7
 65
   257
 75
     2
175
     1
 42
40.0
 92
        0
 66
   257
 43
1.0
 76
     1
 77
     6
 78
     2
 67
     7
 79
     3
170
     0
171
     0
290
     0
174
     0
 93
        1
 44
0.0
173
     0
291
     0
 45
0.0
1001
ACAD
1000
AcDbSavedByObjectVersion
1070
     0
  0
VISUALSTYLE
  5
387
102
{ACAD_XDICTIONARY
360
696
102
}
102
{ACAD_REACTORS
330
371
102
}
330
371
100
AcDbVisualStyle
  2
JitterOff
 70
    20
 71
     2
 72
     2
 73
     0
 90
        0
 40
-0.6
 41
-30.0
 62
     5
 63
     7
 74
     1
 91
        4
 64
     7
 65
   257
 75
     1
175
     1
 42
1.0
 92
       10
 66
     7
 43
1.0
 76
     1
 77
     6
 78
     2
 67
     7
 79
     5
170
     0
171
     0
290
     0
174
     0
 93
        1
 44
0.0
173
     0
291
     1
 45
0.0
1001
ACAD
1000
AcDbSavedByObjectVersion
1070
     0
  0
VISUALSTYLE
  5
37F
102
{ACAD_XDICTIONARY
360
686
102
}
102
{ACAD_REACTORS
330
371
102
}
330
371
100
AcDbVisualStyle
  2
Linepattern
 70
    14
 71
     2
 72
     2
 73
     0
 90
        0
 40
-0.6
 41
-30.0
 62
     5
 63
     7
 74
     1
 91
        4
 64
     7
 65
   257
 75
     7
175
     7
 42
1.0
 92
        8
 66
     7
 43
1.0
 76
     1
 77
     6
 78
     2
 67
     7
 79
     5
170
     0
171
     0
290
     0
174
     0
 93
        1
 44
0.0
173
     0
291
     1
 45
0.0
1001
ACAD
1000
AcDbSavedByObjectVersion
1070
     0
  0
VISUALSTYLE
  5
388
102
{ACAD_XDICTIONARY
360
698
102
}
102
{ACAD_REACTORS
330
371
102
}
330
371
100
AcDbVisualStyle
  2
OverhangOff
 70
    21
 71
     2
 72
     2
 73
     0
 90
        0
 40
-0.6
 41
-30.0
 62
     5
 63
     7
 74
     1
 91
        4
 64
     7
 65
   257
 75
     1
175
     1
 42
1.0
 92
        9
 66
     7
 43
1.0
 76
     1
 77
     6
 78
     2
 67
     7
 79
     5
170
     0
171
     0
290
     0
174
     0
 93
        1
 44
0.0
173
     0
291
     1
 45
0.0
1001
ACAD
1000
AcDbSavedByObjectVersion
1070
     0
  0
VISUALSTYLE
  5
37B
102
{ACAD_XDICTIONARY
360
67E
102
}
102
{ACAD_REACTORS
330
371
102
}
330
371
100
AcDbVisualStyle
  2
Realistic
 70
     8
 71
     2
 72
     3
 73
     0
 90
        2
 40
-0.6
 41
30.0
 62
     5
 63
     7
 74
     0
 91
        0
 64
     7
 65
   257
 75
     1
175
     1
 42
1.0
 92
        8
 66
   257
 43
1.0
 76
     1
 77
     6
 78
     2
 67
     7
 79
     3
170
     0
171
     0
290
     0
174
     0
 93
       13
 44
0.0
173
     0
291
     0
 45
0.0
1001
ACAD
1000
AcDbSavedByObjectVersion
1070
     0
  0
VISUALSTYLE
  5
386
102
{ACAD_XDICTIONARY
360
694
102
}
102
{ACAD_REACTORS
330
371
102
}
330
371
100
AcDbVisualStyle
  2
Shaded
 70
    27
 71
     2
 72
     2
 73
     1
 90
        2
 40
-0.6
 41
30.0
 62
     5
 63
     7
 74
     0
 91
        4
 64
     7
 65
   257
 75
     1
175
     1
 42
1.0
 92
        8
 66
   257
 43
1.0
 76
     1
 77
     6
 78
     2
 67
     8
 79
     3
170
     0
171
     0
290
     0
174
     0
 93
        5
 44
0.0
173
     0
291
     0
 45
0.0
1001
ACAD
1000
AcDbSavedByObjectVersion
1070
     0
  0
VISUALSTYLE
  5
385
102
{ACAD_XDICTIONARY
360
692
102
}
102
{ACAD_REACTORS
330
371
102
}
330
371
100
AcDbVisualStyle
  2
Shaded with edges
 70
    26
 71
     2
 72
     2
 73
     1
 90
        2
 40
-0.6
 41
30.0
 62
     5
 63
     7
 74
     1
 91
       10
 64
     7
 65
   257
 75
     2
175
     1
 42
1.0
 92
        8
 66
   257
 43
1.0
 76
     1
 77
     6
 78
     2
 67
     7
 79
     3
170
     0
171
     0
290
     0
174
     0
 93
        5
 44
0.0
173
     0
291
     0
 45
0.0
1001
ACAD
1000
AcDbSavedByObjectVersion
1070
     0
  0
VISUALSTYLE
  5
382
102
{ACAD_XDICTIONARY
360
68C
102
}
102
{ACAD_REACTORS
330
371
102
}
330
371
100
AcDbVisualStyle
  2
Shades of Gray
 70
    23
 71
     2
 72
     2
 73
     3
 90
        0
 40
-0.6
 41
-30.0
 62
     5
 63
     7
 74
     2
 91
        2
 64
     7
 65
     7
 75
     1
175
     1
 42
40.0
 92
        8
 66
     7
 43
1.0
 76
     1
 77
     6
 78
     2
 67
     7
 79
     3
170
     0
171
     0
290
     0
174
     0
 93
        1
 44
0.0
173
     0
291
     0
 45
0.0
1001
ACAD
1000
AcDbSavedByObjectVersion
1070
     0
  0
VISUALSTYLE
  5
383
102
{ACAD_XDICTIONARY
360
68E
102
}
102
{ACAD_REACTORS
330
371
102
}
330
371
100
AcDbVisualStyle
  2
Sketchy
 70
    24
 71
     1
 72
     2
 73
     2
 90
        0
 40
-0.6
 41
-30.0
 62
     5
 63
     7
 74
     2
 91
        2
 64
     7
 65
     7
 75
     1
175
     1
 42
40.0
 92
       11
 66
     7
 43
1.0
 76
     1
 77
     6
 78
     2
 67
     7
 79
     6
170
     0
171
     0
290
     0
174
     0
 93
        1
 44
0.0
173
     0
291
     0
 45
0.0
1001
ACAD
1000
AcDbSavedByObjectVersion
1070
     0
  0
VISUALSTYLE
  5
37E
102
{ACAD_XDICTIONARY
360
684
102
}
102
{ACAD_REACTORS
330
371
102
}
330
371
100
AcDbVisualStyle
  2
Thicken
 70
    13
 71
     2
 72
     2
 73
     0
 90
        0
 40
-0.6
 41
-30.0
 62
     5
 63
     7
 74
     1
 91
        4
 64
     7
 65
   257
 75
     1
175
     1
 42
1.0
 92
       12
 66
     7
 43
1.0
 76
     1
 77
     6
 78
     2
 67
     7
 79
     5
170
     0
171
     0
290
     0
174
     0
 93
        1
 44
0.0
173
     0
291
     1
 45
0.0
1001
ACAD
1000
AcDbSavedByObjectVersion
1070
     0
  0
VISUALSTYLE
  5
378
102
{ACAD_XDICTIONARY
360
678
102
}
102
{ACAD_REACTORS
330
371
102
}
330
371
100
AcDbVisualStyle
  2
Wireframe
 70
     5
 71
     0
 72
     2
 73
     0
 90
        0
 40
-0.6
 41
-30.0
 62
     5
 63
     7
 74
     1
 91
        4
 64
     7
 65
   257
 75
     1
175
     1
 42
1.0
 92
        0
 66
   257
 43
1.0
 76
     1
 77
     6
 78
     2
 67
     7
 79
     3
170
     0
171
     0
290
     0
174
     0
 93
        1
 44
0.0
173
     0
291
     0
 45
0.0
1001
ACAD
1000
AcDbSavedByObjectVersion
1070
     0
  0
VISUALSTYLE
  5
384
102
{ACAD_XDICTIONARY
360
690
102
}
102
{ACAD_REACTORS
330
371
102
}
330
371
100
AcDbVisualStyle
  2
X-Ray
 70
    25
 71
     2
 72
     2
 73
     1
 90
        1
 40
0.5
 41
-30.0
 62
     5
 63
     7
 74
     1
 91
        0
 64
     7
 65
   257
 75
     1
175
     1
 42
1.0
 92
        8
 66
     7
 43
1.0
 76
     1
 77
     6
 78
     2
 67
     7
 79
     3
170
     0
171
     0
290
     0
174
     0
 93
       13
 44
0.0
173
     0
291
     0
 45
0.0
1001
ACAD
1000
AcDbSavedByObjectVersion
1070
     0
  0
DICTIONARYVAR
  5
607
102
{ACAD_REACTORS
330
604
102
}
330
604
100
DictionaryVariables
280
     0
  1
1:1
  0
DICTIONARYVAR
  5
606
102
{ACAD_REACTORS
330
604
102
}
330
604
100
DictionaryVariables
280
     0
  1
STANDARD
  0
DICTIONARYVAR
  5
605
102
{ACAD_REACTORS
330
604
102
}
330
604
100
DictionaryVariables
280
     0
  1
STANDARD
  0
DICTIONARYVAR
  5
60A
102
{ACAD_REACTORS
330
604
102
}
330
604
100
DictionaryVariables
280
     0
  1
1
  0
DICTIONARYVAR
  5
609
102
{ACAD_REACTORS
330
604
102
}
330
604
100
DictionaryVariables
280
     0
  1
0
  0
DICTIONARYVAR
  5
608
102
{ACAD_REACTORS
330
604
102
}
330
604
100
DictionaryVariables
280
     0
  1
127
  0
DICTIONARYVAR
  5
60B
102
{ACAD_REACTORS
330
604
102
}
330
604
100
DictionaryVariables
280
     0
  1
2
  0
XRECORD
  5
603
102
{ACAD_REACTORS
330
601
102
}
330
601
100
AcDbXrecord
280
     1
330
2D
330
30
330
37
330
38
330
39
330
3A
330
3D
330
3E
330
495
330
496
330
49F
330
4A0
330
4A9
330
4AA
330
4B3
330
4B4
330
4BD
330
4BE
330
4C7
330
4C8
330
4D3
330
4D4
330
4DD
330
4E6
330
4E7
330
4F0
330
4F1
330
4FA
330
4FB
  0
DICTIONARY
  5
69E
330
3A3
100
AcDbDictionary
280
     1
281
     1
  3
ACAD_XREC_ROUNDTRIP
360
69F
  0
DICTIONARY
  5
6A0
330
3A4
100
AcDbDictionary
280
     1
281
     1
  3
ACAD_XREC_ROUNDTRIP
360
6A1
  0
DICTIONARY
  5
362
330
361
100
AcDbDictionary
280
     1
281
     1
  3
ACAD_XREC_ROUNDTRIP
360
66A
  3
BUMPTILE
360
364
  3
DIFFUSETILE
360
363
  3
OPACITYTILE
360
367
  3
REFLECTIONTILE
360
366
  3
REFRACTIONTILE
360
368
  3
SPECULARTILE
360
365
  0
DICTIONARY
  5
35A
330
359
100
AcDbDictionary
280
     1
281
     1
  3
ACAD_XREC_ROUNDTRIP
360
669
  3
BUMPTILE
360
35C
  3
DIFFUSETILE
360
35B
  3
OPACITYTILE
360
35F
  3
REFLECTIONTILE
360
35E
  3
REFRACTIONTILE
360
360
  3
SPECULARTILE
360
35D
  0
DICTIONARY
  5
36A
330
369
100
AcDbDictionary
280
     1
281
     1
  3
ACAD_XREC_ROUNDTRIP
360
66B
  3
BUMPTILE
360
36C
  3
DIFFUSETILE
360
36B
  3
OPACITYTILE
360
36F
  3
REFLECTIONTILE
360
36E
  3
REFRACTIONTILE
360
370
  3
SPECULARTILE
360
36D
  0
DICTIONARY
  5
60D
330
38C
100
AcDbDictionary
280
     1
281
     1
  3
ACAD_ROUNDTRIP_2008_TABLESTYLE_CELLSTYLEMAP
360
60E
  3
ACAD_XREC_ROUNDTRIP
360
69C
  0
DICTIONARY
  5
676
330
377
100
AcDbDictionary
280
     1
281
     1
  3
ACAD_XREC_ROUNDTRIP
360
677
  0
DICTIONARY
  5
674
330
376
100
AcDbDictionary
280
     1
281
     1
  3
ACAD_XREC_ROUNDTRIP
360
675
  0
DICTIONARY
  5
682
330
37D
100
AcDbDictionary
280
     1
281
     1
  3
ACAD_XREC_ROUNDTRIP
360
683
  0
DICTIONARY
  5
68A
330
381
100
AcDbDictionary
280
     1
281
     1
  3
ACAD_XREC_ROUNDTRIP
360
68B
  0
DICTIONARY
  5
67C
330
37A
100
AcDbDictionary
280
     1
281
     1
  3
ACAD_XREC_ROUNDTRIP
360
67D
  0
DICTIONARY
  5
680
330
37C
100
AcDbDictionary
280
     1
281
     1
  3
ACAD_XREC_ROUNDTRIP
360
681
  0
DICTIONARY
  5
69A
330
389
100
AcDbDictionary
280
     1
281
     1
  3
ACAD_XREC_ROUNDTRIP
360
69B
  0
DICTIONARY
  5
688
330
380
100
AcDbDictionary
280
     1
281
     1
  3
ACAD_XREC_ROUNDTRIP
360
689
  0
DICTIONARY
  5
66C
330
372
100
AcDbDictionary
280
     1
281
     1
  3
ACAD_XREC_ROUNDTRIP
360
66D
  0
DICTIONARY
  5
66E
330
373
100
AcDbDictionary
280
     1
281
     1
  3
ACAD_XREC_ROUNDTRIP
360
66F
  0
DICTIONARY
  5
670
330
374
100
AcDbDictionary
280
     1
281
     1
  3
ACAD_XREC_ROUNDTRIP
360
671
  0
DICTIONARY
  5
672
330
375
100
AcDbDictionary
280
     1
281
     1
  3
ACAD_XREC_ROUNDTRIP
360
673
  0
DICTIONARY
  5
67A
330
379
100
AcDbDictionary
280
     1
281
     1
  3
ACAD_XREC_ROUNDTRIP
360
67B
  0
DICTIONARY
  5
696
330
387
100
AcDbDictionary
280
     1
281
     1
  3
ACAD_XREC_ROUNDTRIP
360
697
  0
DICTIONARY
  5
686
330
37F
100
AcDbDictionary
280
     1
281
     1
  3
ACAD_XREC_ROUNDTRIP
360
687
  0
DICTIONARY
  5
698
330
388
100
AcDbDictionary
280
     1
281
     1
  3
ACAD_XREC_ROUNDTRIP
360
699
  0
DICTIONARY
  5
67E
330
37B
100
AcDbDictionary
280
     1
281
     1
  3
ACAD_XREC_ROUNDTRIP
360
67F
  0
DICTIONARY
  5
694
330
386
100
AcDbDictionary
280
     1
281
     1
  3
ACAD_XREC_ROUNDTRIP
360
695
  0
DICTIONARY
  5
692
330
385
100
AcDbDictionary
280
     1
281
     1
  3
ACAD_XREC_ROUNDTRIP
360
693
  0
DICTIONARY
  5
68C
330
382
100
AcDbDictionary
280
     1
281
     1
  3
ACAD_XREC_ROUNDTRIP
360
68D
  0
DICTIONARY
  5
68E
330
383
100
AcDbDictionary
280
     1
281
     1
  3
ACAD_XREC_ROUNDTRIP
360
68F
  0
DICTIONARY
  5
684
330
37E
100
AcDbDictionary
280
     1
281
     1
  3
ACAD_XREC_ROUNDTRIP
360
685
  0
DICTIONARY
  5
678
330
378
100
AcDbDictionary
280
     1
281
     1
  3
ACAD_XREC_ROUNDTRIP
360
679
  0
DICTIONARY
  5
690
330
384
100
AcDbDictionary
280
     1
281
     1
  3
ACAD_XREC_ROUNDTRIP
360
691
  0
XRECORD
  5
69F
102
{ACAD_REACTORS
330
69E
102
}
330
69E
100
AcDbXrecord
280
     1
102
SHADEPLOT
 70
     0
102
SHADEPLOTRESLEVEL
 70
     2
102
SHADEPLOTCUSTOMDPI
 70
   300
  0
XRECORD
  5
6A1
102
{ACAD_REACTORS
330
6A0
102
}
330
6A0
100
AcDbXrecord
280
     1
102
SHADEPLOT
 70
     0
102
SHADEPLOTRESLEVEL
 70
     2
102
SHADEPLOTCUSTOMDPI
 70
   300
  0
XRECORD
  5
66A
102
{ACAD_REACTORS
330
362
102
}
330
362
100
AcDbXrecord
280
     1
102
MATERIAL
148
0.0
149
0.0
149
0.0
 93
        0
 94
      127
282
     0
 72
     0
 77
     0
171
     0
175
     0
179
     0
273
     0
  0
XRECORD
  5
364
102
{ACAD_REACTORS
330
362
102
}
330
362
100
AcDbXrecord
280
     1
270
     1
271
     1
  0
XRECORD
  5
363
102
{ACAD_REACTORS
330
362
102
}
330
362
100
AcDbXrecord
280
     1
270
     1
271
     1
  0
XRECORD
  5
367
102
{ACAD_REACTORS
330
362
102
}
330
362
100
AcDbXrecord
280
     1
270
     1
271
     1
  0
XRECORD
  5
366
102
{ACAD_REACTORS
330
362
102
}
330
362
100
AcDbXrecord
280
     1
270
     1
271
     1
  0
XRECORD
  5
368
102
{ACAD_REACTORS
330
362
102
}
330
362
100
AcDbXrecord
280
     1
270
     1
271
     1
  0
XRECORD
  5
365
102
{ACAD_REACTORS
330
362
102
}
330
362
100
AcDbXrecord
280
     1
270
     1
271
     1
  0
XRECORD
  5
669
102
{ACAD_REACTORS
330
35A
102
}
330
35A
100
AcDbXrecord
280
     1
102
MATERIAL
148
0.0
149
0.0
149
0.0
 93
        0
 94
      127
282
     0
 72
     0
 77
     0
171
     0
175
     0
179
     0
273
     0
  0
XRECORD
  5
35C
102
{ACAD_REACTORS
330
35A
102
}
330
35A
100
AcDbXrecord
280
     1
270
     1
271
     1
  0
XRECORD
  5
35B
102
{ACAD_REACTORS
330
35A
102
}
330
35A
100
AcDbXrecord
280
     1
270
     1
271
     1
  0
XRECORD
  5
35F
102
{ACAD_REACTORS
330
35A
102
}
330
35A
100
AcDbXrecord
280
     1
270
     1
271
     1
  0
XRECORD
  5
35E
102
{ACAD_REACTORS
330
35A
102
}
330
35A
100
AcDbXrecord
280
     1
270
     1
271
     1
  0
XRECORD
  5
360
102
{ACAD_REACTORS
330
35A
102
}
330
35A
100
AcDbXrecord
280
     1
270
     1
271
     1
  0
XRECORD
  5
35D
102
{ACAD_REACTORS
330
35A
102
}
330
35A
100
AcDbXrecord
280
     1
270
     1
271
     1
  0
XRECORD
  5
66B
102
{ACAD_REACTORS
330
36A
102
}
330
36A
100
AcDbXrecord
280
     1
102
MATERIAL
148
0.0
149
0.0
149
0.0
 93
        0
 94
      127
282
     0
 72
     0
 77
     0
171
     0
175
     0
179
     0
273
     0
  0
XRECORD
  5
36C
102
{ACAD_REACTORS
330
36A
102
}
330
36A
100
AcDbXrecord
280
     1
270
     1
271
     1
  0
XRECORD
  5
36B
102
{ACAD_REACTORS
330
36A
102
}
330
36A
100
AcDbXrecord
280
     1
270
     1
271
     1
  0
XRECORD
  5
36F
102
{ACAD_REACTORS
330
36A
102
}
330
36A
100
AcDbXrecord
280
     1
270
     1
271
     1
  0
XRECORD
  5
36E
102
{ACAD_REACTORS
330
36A
102
}
330
36A
100
AcDbXrecord
280
     1
270
     1
271
     1
  0
XRECORD
  5
370
102
{ACAD_REACTORS
330
36A
102
}
330
36A
100
AcDbXrecord
280
     1
270
     1
271
     1
  0
XRECORD
  5
36D
102
{ACAD_REACTORS
330
36A
102
}
330
36A
100
AcDbXrecord
280
     1
270
     1
271
     1
  0
CELLSTYLEMAP
  5
60E
102
{ACAD_REACTORS
330
60D
102
}
330
60D
100
AcDbCellStyleMap
 90
        3
300
CELLSTYLE
  1
TABLEFORMAT_BEGIN
 90
        5
170
     1
 91
        0
 92
    32768
 62
   257
 93
        1
300
CONTENTFORMAT
  1
CONTENTFORMAT_BEGIN
 90
        0
 91
        0
 92
      512
 93
        0
300

 40
0.0
140
1.0
 94
        5
 62
     0
340
17
144
6.0
309
CONTENTFORMAT_END
171
     1
301
MARGIN
  1
CELLMARGIN_BEGIN
 40
1.5
 40
1.5
 40
1.5
 40
1.5
 40
4.5
 40
4.5
309
CELLMARGIN_END
 94
        6
 95
        1
302
GRIDFORMAT
  1
GRIDFORMAT_BEGIN
 90
        0
 91
        1
 62
     0
 92
       -2
340
0
 93
        0
 40
1.125
309
GRIDFORMAT_END
 95
        2
302
GRIDFORMAT
  1
GRIDFORMAT_BEGIN
 90
        0
 91
        1
 62
     0
 92
       -2
340
0
 93
        0
 40
1.125
309
GRIDFORMAT_END
 95
        4
302
GRIDFORMAT
  1
GRIDFORMAT_BEGIN
 90
        0
 91
        1
 62
     0
 92
       -2
340
0
 93
        0
 40
1.125
309
GRIDFORMAT_END
 95
        8
302
GRIDFORMAT
  1
GRIDFORMAT_BEGIN
 90
        0
 91
        1
 62
     0
 92
       -2
340
0
 93
        0
 40
1.125
309
GRIDFORMAT_END
 95
       16
302
GRIDFORMAT
  1
GRIDFORMAT_BEGIN
 90
        0
 91
        1
 62
     0
 92
       -2
340
0
 93
        0
 40
1.125
309
GRIDFORMAT_END
 95
       32
302
GRIDFORMAT
  1
GRIDFORMAT_BEGIN
 90
        0
 91
        1
 62
     0
 92
       -2
340
0
 93
        0
 40
1.125
309
GRIDFORMAT_END
309
TABLEFORMAT_END
  1
CELLSTYLE_BEGIN
 90
        1
 91
        1
300
_TITLE
309
CELLSTYLE_END
300
CELLSTYLE
  1
TABLEFORMAT_BEGIN
 90
        5
170
     1
 91
        0
 92
        0
 62
   257
 93
        1
300
CONTENTFORMAT
  1
CONTENTFORMAT_BEGIN
 90
        0
 91
        0
 92
      512
 93
        0
300

 40
0.0
140
1.0
 94
        5
 62
     0
340
17
144
4.5
309
CONTENTFORMAT_END
171
     1
301
MARGIN
  1
CELLMARGIN_BEGIN
 40
1.5
 40
1.5
 40
1.5
 40
1.5
 40
4.5
 40
4.5
309
CELLMARGIN_END
 94
        6
 95
        1
302
GRIDFORMAT
  1
GRIDFORMAT_BEGIN
 90
        0
 91
        1
 62
     0
 92
       -2
340
0
 93
        0
 40
1.125
309
GRIDFORMAT_END
 95
        2
302
GRIDFORMAT
  1
GRIDFORMAT_BEGIN
 90
        0
 91
        1
 62
     0
 92
       -2
340
0
 93
        0
 40
1.125
309
GRIDFORMAT_END
 95
        4
302
GRIDFORMAT
  1
GRIDFORMAT_BEGIN
 90
        0
 91
        1
 62
     0
 92
       -2
340
0
 93
        0
 40
1.125
309
GRIDFORMAT_END
 95
        8
302
GRIDFORMAT
  1
GRIDFORMAT_BEGIN
 90
        0
 91
        1
 62
     0
 92
       -2
340
0
 93
        0
 40
1.125
309
GRIDFORMAT_END
 95
       16
302
GRIDFORMAT
  1
GRIDFORMAT_BEGIN
 90
        0
 91
        1
 62
     0
 92
       -2
340
0
 93
        0
 40
1.125
309
GRIDFORMAT_END
 95
       32
302
GRIDFORMAT
  1
GRIDFORMAT_BEGIN
 90
        0
 91
        1
 62
     0
 92
       -2
340
0
 93
        0
 40
1.125
309
GRIDFORMAT_END
309
TABLEFORMAT_END
  1
CELLSTYLE_BEGIN
 90
        2
 91
        1
300
_HEADER
309
CELLSTYLE_END
300
CELLSTYLE
  1
TABLEFORMAT_BEGIN
 90
        5
170
     1
 91
        0
 92
        0
 62
   257
 93
        1
300
CONTENTFORMAT
  1
CONTENTFORMAT_BEGIN
 90
        0
 91
        0
 92
      512
 93
        0
300

 40
0.0
140
1.0
 94
        2
 62
     0
340
17
144
4.5
309
CONTENTFORMAT_END
171
     1
301
MARGIN
  1
CELLMARGIN_BEGIN
 40
1.5
 40
1.5
 40
1.5
 40
1.5
 40
4.5
 40
4.5
309
CELLMARGIN_END
 94
        6
 95
        1
302
GRIDFORMAT
  1
GRIDFORMAT_BEGIN
 90
        0
 91
        1
 62
     0
 92
       -2
340
0
 93
        0
 40
1.125
309
GRIDFORMAT_END
 95
        2
302
GRIDFORMAT
  1
GRIDFORMAT_BEGIN
 90
        0
 91
        1
 62
     0
 92
       -2
340
0
 93
        0
 40
1.125
309
GRIDFORMAT_END
 95
        4
302
GRIDFORMAT
  1
GRIDFORMAT_BEGIN
 90
        0
 91
        1
 62
     0
 92
       -2
340
0
 93
        0
 40
1.125
309
GRIDFORMAT_END
 95
        8
302
GRIDFORMAT
  1
GRIDFORMAT_BEGIN
 90
        0
 91
        1
 62
     0
 92
       -2
340
0
 93
        0
 40
1.125
309
GRIDFORMAT_END
 95
       16
302
GRIDFORMAT
  1
GRIDFORMAT_BEGIN
 90
        0
 91
        1
 62
     0
 92
       -2
340
0
 93
        0
 40
1.125
309
GRIDFORMAT_END
 95
       32
302
GRIDFORMAT
  1
GRIDFORMAT_BEGIN
 90
        0
 91
        1
 62
     0
 92
       -2
340
0
 93
        0
 40
1.125
309
GRIDFORMAT_END
309
TABLEFORMAT_END
  1
CELLSTYLE_BEGIN
 90
        3
 91
        2
300
_DATA
309
CELLSTYLE_END
  0
XRECORD
  5
69C
102
{ACAD_REACTORS
330
60D
102
}
330
60D
100
AcDbXrecord
280
     1
102
ACAD_ROUNDTRIP_PRE2007_TABLESTYLE
 90
      512
 91
        0
  1

 92
      512
 93
        0
  2

 94
      512
 95
        0
  3

  0
XRECORD
  5
677
102
{ACAD_REACTORS
330
676
102
}
330
676
100
AcDbXrecord
280
     1
102
RTVSPropertyOp0
 70
     1
102
RTVSPropertyOp1
 70
     1
102
RTVSPropertyOp2
 70
     1
102
RTVSPropertyOp3
 70
     1
102
RTVSPropertyOp4
 70
     1
102
RTVSPropertyOp5
 70
     1
102
RTVSPropertyOp6
 70
     1
102
RTVSPropertyOp7
 70
     1
102
RTVSPropertyOp8
 70
     1
102
RTVSPropertyOp9
 70
     1
102
RTVSPropertyOp10
 70
     1
102
RTVSPropertyOp11
 70
     1
102
RTVSPropertyOp12
 70
     1
102
RTVSPropertyOp13
 70
     1
102
RTVSPropertyOp14
 70
     1
102
RTVSPropertyOp15
 70
     1
102
RTVSPropertyOp16
 70
     1
102
RTVSPropertyOp17
 70
     1
102
RTVSPropertyOp18
 70
     1
102
RTVSPropertyOp19
 70
     1
102
RTVSPropertyOp20
 70
     1
102
RTVSPropertyOp21
 70
     1
102
RTVSPropertyOp22
 70
     1
102
RTVSPropertyOp23
 70
     1
102
RTVSPropertyOp24
 70
     1
102
RTVSPropertyOp25
 70
     1
102
RTVSPropertyOp26
 70
     1
102
RTVSPropertyOp27
 70
     1
102
RTVSPropertyOp28
 70
     1
102
RTVSPropertyOp29
 70
     1
102
RTVSPropertyOp30
 70
     1
102
RTVSPropertyOp31
 70
     1
102
RTVSPropertyOp32
 70
     1
  0
XRECORD
  5
675
102
{ACAD_REACTORS
330
674
102
}
330
674
100
AcDbXrecord
280
     1
102
RTVSPropertyOp0
 70
     1
102
RTVSPropertyOp1
 70
     1
102
RTVSPropertyOp2
 70
     1
102
RTVSPropertyOp3
 70
     1
102
RTVSPropertyOp4
 70
     1
102
RTVSPropertyOp5
 70
     1
102
RTVSPropertyOp6
 70
     1
102
RTVSPropertyOp7
 70
     1
102
RTVSPropertyOp8
 70
     1
102
RTVSPropertyOp9
 70
     1
102
RTVSPropertyOp10
 70
     1
102
RTVSPropertyOp11
 70
     1
102
RTVSPropertyOp12
 70
     1
102
RTVSPropertyOp13
 70
     1
102
RTVSPropertyOp14
 70
     1
102
RTVSPropertyOp15
 70
     1
102
RTVSPropertyOp16
 70
     1
102
RTVSPropertyOp17
 70
     1
102
RTVSPropertyOp18
 70
     1
102
RTVSPropertyOp19
 70
     1
102
RTVSPropertyOp20
 70
     1
102
RTVSPropertyOp21
 70
     1
102
RTVSPropertyOp22
 70
     1
102
RTVSPropertyOp23
 70
     1
102
RTVSPropertyOp24
 70
     1
102
RTVSPropertyOp25
 70
     1
102
RTVSPropertyOp26
 70
     1
102
RTVSPropertyOp27
 70
     1
102
RTVSPropertyOp28
 70
     1
102
RTVSPropertyOp29
 70
     1
102
RTVSPropertyOp30
 70
     1
102
RTVSPropertyOp31
 70
     1
102
RTVSPropertyOp32
 70
     1
  0
XRECORD
  5
683
102
{ACAD_REACTORS
330
682
102
}
330
682
100
AcDbXrecord
280
     1
102
RTVSPropertyOp0
 70
     1
102
RTVSPropertyOp1
 70
     1
102
RTVSPropertyOp2
 70
     1
102
RTVSPropertyOp3
 70
     1
102
RTVSPropertyOp4
 70
     1
102
RTVSPropertyOp5
 70
     1
102
RTVSPropertyOp6
 70
     1
102
RTVSPropertyOp7
 70
     1
102
RTVSPropertyOp8
 70
     1
102
RTVSPropertyOp9
 70
     1
102
RTVSPropertyOp10
 70
     1
102
RTVSPropertyOp11
 70
     1
102
RTVSPropertyOp12
 70
     1
102
RTVSPropertyOp13
 70
     1
102
RTVSPropertyOp14
 70
     1
102
RTVSPropertyOp15
 70
     1
102
RTVSPropertyOp16
 70
     1
102
RTVSPropertyOp17
 70
     1
102
RTVSPropertyOp18
 70
     1
102
RTVSPropertyOp19
 70
     1
102
RTVSPropertyOp20
 70
     1
102
RTVSPropertyOp21
 70
     1
102
RTVSPropertyOp22
 70
     1
102
RTVSPropertyOp23
 70
     1
102
RTVSPropertyOp24
 70
     1
102
RTVSPropertyOp25
 70
     1
102
RTVSPropertyOp26
 70
     1
102
RTVSPropertyOp27
 70
     1
102
RTVSPropertyOp28
 70
     1
102
RTVSPropertyOp29
 70
     1
102
RTVSPropertyOp30
 70
     1
102
RTVSPropertyOp31
 70
     1
102
RTVSPropertyOp32
 70
     1
  0
XRECORD
  5
68B
102
{ACAD_REACTORS
330
68A
102
}
330
68A
100
AcDbXrecord
280
     1
102
RTVSPropertyOp0
 70
     1
102
RTVSPropertyOp1
 70
     1
102
RTVSPropertyOp2
 70
     1
102
RTVSPropertyOp3
 70
     1
102
RTVSPropertyOp4
 70
     1
102
RTVSPropertyOp5
 70
     1
102
RTVSPropertyOp6
 70
     1
102
RTVSPropertyOp7
 70
     1
102
RTVSPropertyOp8
 70
     1
102
RTVSPropertyOp9
 70
     1
102
RTVSPropertyOp10
 70
     1
102
RTVSPropertyOp11
 70
     1
102
RTVSPropertyOp12
 70
     1
102
RTVSPropertyOp13
 70
     1
102
RTVSPropertyOp14
 70
     1
102
RTVSPropertyOp15
 70
     1
102
RTVSPropertyOp16
 70
     1
102
RTVSPropertyOp17
 70
     1
102
RTVSPropertyOp18
 70
     1
102
RTVSPropertyOp19
 70
     1
102
RTVSPropertyOp20
 70
     1
102
RTVSPropertyOp21
 70
     1
102
RTVSPropertyOp22
 70
     1
102
RTVSPropertyOp23
 70
     1
102
RTVSPropertyOp24
 70
     1
102
RTVSPropertyOp25
 70
     1
102
RTVSPropertyOp26
 70
     1
102
RTVSPropertyOp27
 70
     1
102
RTVSPropertyOp28
 70
     1
102
RTVSPropertyOp29
 70
     1
102
RTVSPropertyOp30
 70
     1
102
RTVSPropertyOp31
 70
     1
102
RTVSPropertyOp32
 70
     1
  0
XRECORD
  5
67D
102
{ACAD_REACTORS
330
67C
102
}
330
67C
100
AcDbXrecord
280
     1
102
RTVSPropertyOp0
 70
     1
102
RTVSPropertyOp1
 70
     1
102
RTVSPropertyOp2
 70
     1
102
RTVSPropertyOp3
 70
     1
102
RTVSPropertyOp4
 70
     1
102
RTVSPropertyOp5
 70
     1
102
RTVSPropertyOp6
 70
     1
102
RTVSPropertyOp7
 70
     1
102
RTVSPropertyOp8
 70
     1
102
RTVSPropertyOp9
 70
     1
102
RTVSPropertyOp10
 70
     1
102
RTVSPropertyOp11
 70
     1
102
RTVSPropertyOp12
 70
     1
102
RTVSPropertyOp13
 70
     1
102
RTVSPropertyOp14
 70
     1
102
RTVSPropertyOp15
 70
     1
102
RTVSPropertyOp16
 70
     1
102
RTVSPropertyOp17
 70
     1
102
RTVSPropertyOp18
 70
     1
102
RTVSPropertyOp19
 70
     1
102
RTVSPropertyOp20
 70
     1
102
RTVSPropertyOp21
 70
     1
102
RTVSPropertyOp22
 70
     1
102
RTVSPropertyOp23
 70
     1
102
RTVSPropertyOp24
 70
     1
102
RTVSPropertyOp25
 70
     1
102
RTVSPropertyOp26
 70
     1
102
RTVSPropertyOp27
 70
     1
102
RTVSPropertyOp28
 70
     1
102
RTVSPropertyOp29
 70
     1
102
RTVSPropertyOp30
 70
     1
102
RTVSPropertyOp31
 70
     1
102
RTVSPropertyOp32
 70
     1
  0
XRECORD
  5
681
102
{ACAD_REACTORS
330
680
102
}
330
680
100
AcDbXrecord
280
     1
102
RTVSPropertyOp0
 70
     1
102
RTVSPropertyOp1
 70
     1
102
RTVSPropertyOp2
 70
     1
102
RTVSPropertyOp3
 70
     1
102
RTVSPropertyOp4
 70
     1
102
RTVSPropertyOp5
 70
     1
102
RTVSPropertyOp6
 70
     1
102
RTVSPropertyOp7
 70
     1
102
RTVSPropertyOp8
 70
     1
102
RTVSPropertyOp9
 70
     1
102
RTVSPropertyOp10
 70
     1
102
RTVSPropertyOp11
 70
     1
102
RTVSPropertyOp12
 70
     1
102
RTVSPropertyOp13
 70
     1
102
RTVSPropertyOp14
 70
     1
102
RTVSPropertyOp15
 70
     1
102
RTVSPropertyOp16
 70
     1
102
RTVSPropertyOp17
 70
     1
102
RTVSPropertyOp18
 70
     1
102
RTVSPropertyOp19
 70
     1
102
RTVSPropertyOp20
 70
     1
102
RTVSPropertyOp21
 70
     1
102
RTVSPropertyOp22
 70
     1
102
RTVSPropertyOp23
 70
     1
102
RTVSPropertyOp24
 70
     1
102
RTVSPropertyOp25
 70
     1
102
RTVSPropertyOp26
 70
     1
102
RTVSPropertyOp27
 70
     1
102
RTVSPropertyOp28
 70
     1
102
RTVSPropertyOp29
 70
     1
102
RTVSPropertyOp30
 70
     1
102
RTVSPropertyOp31
 70
     1
102
RTVSPropertyOp32
 70
     1
  0
XRECORD
  5
69B
102
{ACAD_REACTORS
330
69A
102
}
330
69A
100
AcDbXrecord
280
     1
102
RTVSPropertyOp0
 70
     0
102
RTVSPropertyOp1
 70
     0
102
RTVSPropertyOp2
 70
     0
102
RTVSPropertyOp3
 70
     0
102
RTVSPropertyOp4
 70
     0
102
RTVSPropertyOp5
 70
     0
102
RTVSPropertyOp6
 70
     0
102
RTVSPropertyOp7
 70
     0
102
RTVSPropertyOp8
 70
     0
102
RTVSPropertyOp9
 70
     0
102
RTVSPropertyOp10
 70
     0
102
RTVSPropertyOp11
 70
     0
102
RTVSPropertyOp12
 70
     0
102
RTVSPropertyOp13
 70
     0
102
RTVSPropertyOp14
 70
     2
102
RTVSPropertyOp15
 70
     0
102
RTVSPropertyOp16
 70
     0
102
RTVSPropertyOp17
 70
     0
102
RTVSPropertyOp18
 70
     0
102
RTVSPropertyOp19
 70
     0
102
RTVSPropertyOp20
 70
     0
102
RTVSPropertyOp21
 70
     0
102
RTVSPropertyOp22
 70
     0
102
RTVSPropertyOp23
 70
     0
102
RTVSPropertyOp24
 70
     0
102
RTVSPropertyOp25
 70
     0
102
RTVSPropertyOp26
 70
     0
102
RTVSPropertyOp27
 70
     0
102
RTVSPropertyOp28
 70
     0
102
RTVSPropertyOp29
 70
     0
102
RTVSPropertyOp30
 70
     0
102
RTVSPropertyOp31
 70
     0
102
RTVSPropertyOp32
 70
     0
  0
XRECORD
  5
689
102
{ACAD_REACTORS
330
688
102
}
330
688
100
AcDbXrecord
280
     1
102
RTVSPropertyOp0
 70
     1
102
RTVSPropertyOp1
 70
     1
102
RTVSPropertyOp2
 70
     1
102
RTVSPropertyOp3
 70
     1
102
RTVSPropertyOp4
 70
     1
102
RTVSPropertyOp5
 70
     1
102
RTVSPropertyOp6
 70
     1
102
RTVSPropertyOp7
 70
     1
102
RTVSPropertyOp8
 70
     1
102
RTVSPropertyOp9
 70
     1
102
RTVSPropertyOp10
 70
     1
102
RTVSPropertyOp11
 70
     1
102
RTVSPropertyOp12
 70
     1
102
RTVSPropertyOp13
 70
     1
102
RTVSPropertyOp14
 70
     1
102
RTVSPropertyOp15
 70
     1
102
RTVSPropertyOp16
 70
     1
102
RTVSPropertyOp17
 70
     1
102
RTVSPropertyOp18
 70
     1
102
RTVSPropertyOp19
 70
     1
102
RTVSPropertyOp20
 70
     1
102
RTVSPropertyOp21
 70
     1
102
RTVSPropertyOp22
 70
     1
102
RTVSPropertyOp23
 70
     1
102
RTVSPropertyOp24
 70
     1
102
RTVSPropertyOp25
 70
     1
102
RTVSPropertyOp26
 70
     1
102
RTVSPropertyOp27
 70
     1
102
RTVSPropertyOp28
 70
     1
102
RTVSPropertyOp29
 70
     1
102
RTVSPropertyOp30
 70
     1
102
RTVSPropertyOp31
 70
     1
102
RTVSPropertyOp32
 70
     1
  0
XRECORD
  5
66D
102
{ACAD_REACTORS
330
66C
102
}
330
66C
100
AcDbXrecord
280
     1
102
RTVSPropertyOp0
 70
     1
102
RTVSPropertyOp1
 70
     1
102
RTVSPropertyOp2
 70
     1
102
RTVSPropertyOp3
 70
     1
102
RTVSPropertyOp4
 70
     1
102
RTVSPropertyOp5
 70
     1
102
RTVSPropertyOp6
 70
     1
102
RTVSPropertyOp7
 70
     1
102
RTVSPropertyOp8
 70
     1
102
RTVSPropertyOp9
 70
     1
102
RTVSPropertyOp10
 70
     1
102
RTVSPropertyOp11
 70
     1
102
RTVSPropertyOp12
 70
     1
102
RTVSPropertyOp13
 70
     1
102
RTVSPropertyOp14
 70
     1
102
RTVSPropertyOp15
 70
     1
102
RTVSPropertyOp16
 70
     1
102
RTVSPropertyOp17
 70
     1
102
RTVSPropertyOp18
 70
     1
102
RTVSPropertyOp19
 70
     1
102
RTVSPropertyOp20
 70
     1
102
RTVSPropertyOp21
 70
     1
102
RTVSPropertyOp22
 70
     1
102
RTVSPropertyOp23
 70
     1
102
RTVSPropertyOp24
 70
     1
102
RTVSPropertyOp25
 70
     1
102
RTVSPropertyOp26
 70
     1
102
RTVSPropertyOp27
 70
     1
102
RTVSPropertyOp28
 70
     1
102
RTVSPropertyOp29
 70
     1
102
RTVSPropertyOp30
 70
     1
102
RTVSPropertyOp31
 70
     1
102
RTVSPropertyOp32
 70
     1
  0
XRECORD
  5
66F
102
{ACAD_REACTORS
330
66E
102
}
330
66E
100
AcDbXrecord
280
     1
102
RTVSPropertyOp0
 70
     1
102
RTVSPropertyOp1
 70
     1
102
RTVSPropertyOp2
 70
     1
102
RTVSPropertyOp3
 70
     1
102
RTVSPropertyOp4
 70
     1
102
RTVSPropertyOp5
 70
     1
102
RTVSPropertyOp6
 70
     1
102
RTVSPropertyOp7
 70
     1
102
RTVSPropertyOp8
 70
     1
102
RTVSPropertyOp9
 70
     1
102
RTVSPropertyOp10
 70
     1
102
RTVSPropertyOp11
 70
     1
102
RTVSPropertyOp12
 70
     1
102
RTVSPropertyOp13
 70
     1
102
RTVSPropertyOp14
 70
     1
102
RTVSPropertyOp15
 70
     1
102
RTVSPropertyOp16
 70
     1
102
RTVSPropertyOp17
 70
     1
102
RTVSPropertyOp18
 70
     1
102
RTVSPropertyOp19
 70
     1
102
RTVSPropertyOp20
 70
     1
102
RTVSPropertyOp21
 70
     1
102
RTVSPropertyOp22
 70
     1
102
RTVSPropertyOp23
 70
     1
102
RTVSPropertyOp24
 70
     1
102
RTVSPropertyOp25
 70
     1
102
RTVSPropertyOp26
 70
     1
102
RTVSPropertyOp27
 70
     1
102
RTVSPropertyOp28
 70
     1
102
RTVSPropertyOp29
 70
     1
102
RTVSPropertyOp30
 70
     1
102
RTVSPropertyOp31
 70
     1
102
RTVSPropertyOp32
 70
     1
  0
XRECORD
  5
671
102
{ACAD_REACTORS
330
670
102
}
330
670
100
AcDbXrecord
280
     1
102
RTVSPropertyOp0
 70
     1
102
RTVSPropertyOp1
 70
     1
102
RTVSPropertyOp2
 70
     1
102
RTVSPropertyOp3
 70
     1
102
RTVSPropertyOp4
 70
     1
102
RTVSPropertyOp5
 70
     1
102
RTVSPropertyOp6
 70
     1
102
RTVSPropertyOp7
 70
     1
102
RTVSPropertyOp8
 70
     1
102
RTVSPropertyOp9
 70
     1
102
RTVSPropertyOp10
 70
     1
102
RTVSPropertyOp11
 70
     1
102
RTVSPropertyOp12
 70
     1
102
RTVSPropertyOp13
 70
     1
102
RTVSPropertyOp14
 70
     1
102
RTVSPropertyOp15
 70
     1
102
RTVSPropertyOp16
 70
     1
102
RTVSPropertyOp17
 70
     1
102
RTVSPropertyOp18
 70
     1
102
RTVSPropertyOp19
 70
     1
102
RTVSPropertyOp20
 70
     1
102
RTVSPropertyOp21
 70
     1
102
RTVSPropertyOp22
 70
     1
102
RTVSPropertyOp23
 70
     1
102
RTVSPropertyOp24
 70
     1
102
RTVSPropertyOp25
 70
     1
102
RTVSPropertyOp26
 70
     1
102
RTVSPropertyOp27
 70
     1
102
RTVSPropertyOp28
 70
     1
102
RTVSPropertyOp29
 70
     1
102
RTVSPropertyOp30
 70
     1
102
RTVSPropertyOp31
 70
     1
102
RTVSPropertyOp32
 70
     1
  0
XRECORD
  5
673
102
{ACAD_REACTORS
330
672
102
}
330
672
100
AcDbXrecord
280
     1
102
RTVSPropertyOp0
 70
     1
102
RTVSPropertyOp1
 70
     1
102
RTVSPropertyOp2
 70
     1
102
RTVSPropertyOp3
 70
     1
102
RTVSPropertyOp4
 70
     1
102
RTVSPropertyOp5
 70
     1
102
RTVSPropertyOp6
 70
     1
102
RTVSPropertyOp7
 70
     1
102
RTVSPropertyOp8
 70
     1
102
RTVSPropertyOp9
 70
     1
102
RTVSPropertyOp10
 70
     1
102
RTVSPropertyOp11
 70
     1
102
RTVSPropertyOp12
 70
     1
102
RTVSPropertyOp13
 70
     1
102
RTVSPropertyOp14
 70
     1
102
RTVSPropertyOp15
 70
     1
102
RTVSPropertyOp16
 70
     1
102
RTVSPropertyOp17
 70
     1
102
RTVSPropertyOp18
 70
     1
102
RTVSPropertyOp19
 70
     1
102
RTVSPropertyOp20
 70
     1
102
RTVSPropertyOp21
 70
     1
102
RTVSPropertyOp22
 70
     1
102
RTVSPropertyOp23
 70
     1
102
RTVSPropertyOp24
 70
     1
102
RTVSPropertyOp25
 70
     1
102
RTVSPropertyOp26
 70
     1
102
RTVSPropertyOp27
 70
     1
102
RTVSPropertyOp28
 70
     1
102
RTVSPropertyOp29
 70
     1
102
RTVSPropertyOp30
 70
     1
102
RTVSPropertyOp31
 70
     1
102
RTVSPropertyOp32
 70
     1
  0
XRECORD
  5
67B
102
{ACAD_REACTORS
330
67A
102
}
330
67A
100
AcDbXrecord
280
     1
102
RTVSPropertyOp0
 70
     1
102
RTVSPropertyOp1
 70
     1
102
RTVSPropertyOp2
 70
     1
102
RTVSPropertyOp3
 70
     1
102
RTVSPropertyOp4
 70
     1
102
RTVSPropertyOp5
 70
     1
102
RTVSPropertyOp6
 70
     1
102
RTVSPropertyOp7
 70
     1
102
RTVSPropertyOp8
 70
     1
102
RTVSPropertyOp9
 70
     1
102
RTVSPropertyOp10
 70
     1
102
RTVSPropertyOp11
 70
     1
102
RTVSPropertyOp12
 70
     1
102
RTVSPropertyOp13
 70
     1
102
RTVSPropertyOp14
 70
     1
102
RTVSPropertyOp15
 70
     1
102
RTVSPropertyOp16
 70
     1
102
RTVSPropertyOp17
 70
     1
102
RTVSPropertyOp18
 70
     1
102
RTVSPropertyOp19
 70
     1
102
RTVSPropertyOp20
 70
     1
102
RTVSPropertyOp21
 70
     1
102
RTVSPropertyOp22
 70
     1
102
RTVSPropertyOp23
 70
     1
102
RTVSPropertyOp24
 70
     1
102
RTVSPropertyOp25
 70
     1
102
RTVSPropertyOp26
 70
     1
102
RTVSPropertyOp27
 70
     1
102
RTVSPropertyOp28
 70
     1
102
RTVSPropertyOp29
 70
     1
102
RTVSPropertyOp30
 70
     1
102
RTVSPropertyOp31
 70
     1
102
RTVSPropertyOp32
 70
     1
  0
XRECORD
  5
697
102
{ACAD_REACTORS
330
696
102
}
330
696
100
AcDbXrecord
280
     1
102
RTVSPropertyOp0
 70
     0
102
RTVSPropertyOp1
 70
     0
102
RTVSPropertyOp2
 70
     0
102
RTVSPropertyOp3
 70
     0
102
RTVSPropertyOp4
 70
     0
102
RTVSPropertyOp5
 70
     0
102
RTVSPropertyOp6
 70
     0
102
RTVSPropertyOp7
 70
     0
102
RTVSPropertyOp8
 70
     0
102
RTVSPropertyOp9
 70
     0
102
RTVSPropertyOp10
 70
     0
102
RTVSPropertyOp11
 70
     0
102
RTVSPropertyOp12
 70
     0
102
RTVSPropertyOp13
 70
     0
102
RTVSPropertyOp14
 70
     2
102
RTVSPropertyOp15
 70
     0
102
RTVSPropertyOp16
 70
     0
102
RTVSPropertyOp17
 70
     0
102
RTVSPropertyOp18
 70
     0
102
RTVSPropertyOp19
 70
     0
102
RTVSPropertyOp20
 70
     0
102
RTVSPropertyOp21
 70
     0
102
RTVSPropertyOp22
 70
     0
102
RTVSPropertyOp23
 70
     0
102
RTVSPropertyOp24
 70
     0
102
RTVSPropertyOp25
 70
     0
102
RTVSPropertyOp26
 70
     0
102
RTVSPropertyOp27
 70
     0
102
RTVSPropertyOp28
 70
     0
102
RTVSPropertyOp29
 70
     0
102
RTVSPropertyOp30
 70
     0
102
RTVSPropertyOp31
 70
     0
102
RTVSPropertyOp32
 70
     0
  0
XRECORD
  5
687
102
{ACAD_REACTORS
330
686
102
}
330
686
100
AcDbXrecord
280
     1
102
RTVSPropertyOp0
 70
     1
102
RTVSPropertyOp1
 70
     1
102
RTVSPropertyOp2
 70
     1
102
RTVSPropertyOp3
 70
     1
102
RTVSPropertyOp4
 70
     1
102
RTVSPropertyOp5
 70
     1
102
RTVSPropertyOp6
 70
     1
102
RTVSPropertyOp7
 70
     1
102
RTVSPropertyOp8
 70
     1
102
RTVSPropertyOp9
 70
     1
102
RTVSPropertyOp10
 70
     1
102
RTVSPropertyOp11
 70
     1
102
RTVSPropertyOp12
 70
     1
102
RTVSPropertyOp13
 70
     1
102
RTVSPropertyOp14
 70
     1
102
RTVSPropertyOp15
 70
     1
102
RTVSPropertyOp16
 70
     1
102
RTVSPropertyOp17
 70
     1
102
RTVSPropertyOp18
 70
     1
102
RTVSPropertyOp19
 70
     1
102
RTVSPropertyOp20
 70
     1
102
RTVSPropertyOp21
 70
     1
102
RTVSPropertyOp22
 70
     1
102
RTVSPropertyOp23
 70
     1
102
RTVSPropertyOp24
 70
     1
102
RTVSPropertyOp25
 70
     1
102
RTVSPropertyOp26
 70
     1
102
RTVSPropertyOp27
 70
     1
102
RTVSPropertyOp28
 70
     1
102
RTVSPropertyOp29
 70
     1
102
RTVSPropertyOp30
 70
     1
102
RTVSPropertyOp31
 70
     1
102
RTVSPropertyOp32
 70
     1
  0
XRECORD
  5
699
102
{ACAD_REACTORS
330
698
102
}
330
698
100
AcDbXrecord
280
     1
102
RTVSPropertyOp0
 70
     0
102
RTVSPropertyOp1
 70
     0
102
RTVSPropertyOp2
 70
     0
102
RTVSPropertyOp3
 70
     0
102
RTVSPropertyOp4
 70
     0
102
RTVSPropertyOp5
 70
     0
102
RTVSPropertyOp6
 70
     0
102
RTVSPropertyOp7
 70
     0
102
RTVSPropertyOp8
 70
     0
102
RTVSPropertyOp9
 70
     0
102
RTVSPropertyOp10
 70
     0
102
RTVSPropertyOp11
 70
     0
102
RTVSPropertyOp12
 70
     0
102
RTVSPropertyOp13
 70
     0
102
RTVSPropertyOp14
 70
     2
102
RTVSPropertyOp15
 70
     0
102
RTVSPropertyOp16
 70
     0
102
RTVSPropertyOp17
 70
     0
102
RTVSPropertyOp18
 70
     0
102
RTVSPropertyOp19
 70
     0
102
RTVSPropertyOp20
 70
     0
102
RTVSPropertyOp21
 70
     0
102
RTVSPropertyOp22
 70
     0
102
RTVSPropertyOp23
 70
     0
102
RTVSPropertyOp24
 70
     0
102
RTVSPropertyOp25
 70
     0
102
RTVSPropertyOp26
 70
     0
102
RTVSPropertyOp27
 70
     0
102
RTVSPropertyOp28
 70
     0
102
RTVSPropertyOp29
 70
     0
102
RTVSPropertyOp30
 70
     0
102
RTVSPropertyOp31
 70
     0
102
RTVSPropertyOp32
 70
     0
  0
XRECORD
  5
67F
102
{ACAD_REACTORS
330
67E
102
}
330
67E
100
AcDbXrecord
280
     1
102
RTVSPropertyOp0
 70
     1
102
RTVSPropertyOp1
 70
     1
102
RTVSPropertyOp2
 70
     1
102
RTVSPropertyOp3
 70
     1
102
RTVSPropertyOp4
 70
     1
102
RTVSPropertyOp5
 70
     1
102
RTVSPropertyOp6
 70
     1
102
RTVSPropertyOp7
 70
     1
102
RTVSPropertyOp8
 70
     1
102
RTVSPropertyOp9
 70
     1
102
RTVSPropertyOp10
 70
     1
102
RTVSPropertyOp11
 70
     1
102
RTVSPropertyOp12
 70
     1
102
RTVSPropertyOp13
 70
     1
102
RTVSPropertyOp14
 70
     1
102
RTVSPropertyOp15
 70
     1
102
RTVSPropertyOp16
 70
     1
102
RTVSPropertyOp17
 70
     1
102
RTVSPropertyOp18
 70
     1
102
RTVSPropertyOp19
 70
     1
102
RTVSPropertyOp20
 70
     1
102
RTVSPropertyOp21
 70
     1
102
RTVSPropertyOp22
 70
     1
102
RTVSPropertyOp23
 70
     1
102
RTVSPropertyOp24
 70
     1
102
RTVSPropertyOp25
 70
     1
102
RTVSPropertyOp26
 70
     1
102
RTVSPropertyOp27
 70
     1
102
RTVSPropertyOp28
 70
     1
102
RTVSPropertyOp29
 70
     1
102
RTVSPropertyOp30
 70
     1
102
RTVSPropertyOp31
 70
     1
102
RTVSPropertyOp32
 70
     1
  0
XRECORD
  5
695
102
{ACAD_REACTORS
330
694
102
}
330
694
100
AcDbXrecord
280
     1
102
RTVSPropertyOp0
 70
     1
102
RTVSPropertyOp1
 70
     1
102
RTVSPropertyOp2
 70
     1
102
RTVSPropertyOp3
 70
     1
102
RTVSPropertyOp4
 70
     1
102
RTVSPropertyOp5
 70
     1
102
RTVSPropertyOp6
 70
     1
102
RTVSPropertyOp7
 70
     1
102
RTVSPropertyOp8
 70
     1
102
RTVSPropertyOp9
 70
     1
102
RTVSPropertyOp10
 70
     1
102
RTVSPropertyOp11
 70
     1
102
RTVSPropertyOp12
 70
     1
102
RTVSPropertyOp13
 70
     1
102
RTVSPropertyOp14
 70
     1
102
RTVSPropertyOp15
 70
     1
102
RTVSPropertyOp16
 70
     1
102
RTVSPropertyOp17
 70
     1
102
RTVSPropertyOp18
 70
     1
102
RTVSPropertyOp19
 70
     1
102
RTVSPropertyOp20
 70
     1
102
RTVSPropertyOp21
 70
     1
102
RTVSPropertyOp22
 70
     1
102
RTVSPropertyOp23
 70
     1
102
RTVSPropertyOp24
 70
     1
102
RTVSPropertyOp25
 70
     1
102
RTVSPropertyOp26
 70
     1
102
RTVSPropertyOp27
 70
     1
102
RTVSPropertyOp28
 70
     1
102
RTVSPropertyOp29
 70
     1
102
RTVSPropertyOp30
 70
     1
102
RTVSPropertyOp31
 70
     1
102
RTVSPropertyOp32
 70
     1
  0
XRECORD
  5
693
102
{ACAD_REACTORS
330
692
102
}
330
692
100
AcDbXrecord
280
     1
102
RTVSPropertyOp0
 70
     1
102
RTVSPropertyOp1
 70
     1
102
RTVSPropertyOp2
 70
     1
102
RTVSPropertyOp3
 70
     1
102
RTVSPropertyOp4
 70
     1
102
RTVSPropertyOp5
 70
     1
102
RTVSPropertyOp6
 70
     1
102
RTVSPropertyOp7
 70
     1
102
RTVSPropertyOp8
 70
     1
102
RTVSPropertyOp9
 70
     1
102
RTVSPropertyOp10
 70
     1
102
RTVSPropertyOp11
 70
     1
102
RTVSPropertyOp12
 70
     1
102
RTVSPropertyOp13
 70
     1
102
RTVSPropertyOp14
 70
     1
102
RTVSPropertyOp15
 70
     1
102
RTVSPropertyOp16
 70
     1
102
RTVSPropertyOp17
 70
     1
102
RTVSPropertyOp18
 70
     1
102
RTVSPropertyOp19
 70
     1
102
RTVSPropertyOp20
 70
     1
102
RTVSPropertyOp21
 70
     1
102
RTVSPropertyOp22
 70
     1
102
RTVSPropertyOp23
 70
     1
102
RTVSPropertyOp24
 70
     1
102
RTVSPropertyOp25
 70
     1
102
RTVSPropertyOp26
 70
     1
102
RTVSPropertyOp27
 70
     1
102
RTVSPropertyOp28
 70
     1
102
RTVSPropertyOp29
 70
     1
102
RTVSPropertyOp30
 70
     1
102
RTVSPropertyOp31
 70
     1
102
RTVSPropertyOp32
 70
     1
  0
XRECORD
  5
68D
102
{ACAD_REACTORS
330
68C
102
}
330
68C
100
AcDbXrecord
280
     1
102
RTVSPropertyOp0
 70
     1
102
RTVSPropertyOp1
 70
     1
102
RTVSPropertyOp2
 70
     1
102
RTVSPropertyOp3
 70
     1
102
RTVSPropertyOp4
 70
     1
102
RTVSPropertyOp5
 70
     1
102
RTVSPropertyOp6
 70
     1
102
RTVSPropertyOp7
 70
     1
102
RTVSPropertyOp8
 70
     1
102
RTVSPropertyOp9
 70
     1
102
RTVSPropertyOp10
 70
     1
102
RTVSPropertyOp11
 70
     1
102
RTVSPropertyOp12
 70
     1
102
RTVSPropertyOp13
 70
     1
102
RTVSPropertyOp14
 70
     1
102
RTVSPropertyOp15
 70
     1
102
RTVSPropertyOp16
 70
     1
102
RTVSPropertyOp17
 70
     1
102
RTVSPropertyOp18
 70
     1
102
RTVSPropertyOp19
 70
     1
102
RTVSPropertyOp20
 70
     1
102
RTVSPropertyOp21
 70
     1
102
RTVSPropertyOp22
 70
     1
102
RTVSPropertyOp23
 70
     1
102
RTVSPropertyOp24
 70
     1
102
RTVSPropertyOp25
 70
     1
102
RTVSPropertyOp26
 70
     1
102
RTVSPropertyOp27
 70
     1
102
RTVSPropertyOp28
 70
     1
102
RTVSPropertyOp29
 70
     1
102
RTVSPropertyOp30
 70
     1
102
RTVSPropertyOp31
 70
     1
102
RTVSPropertyOp32
 70
     1
  0
XRECORD
  5
68F
102
{ACAD_REACTORS
330
68E
102
}
330
68E
100
AcDbXrecord
280
     1
102
RTVSPropertyOp0
 70
     1
102
RTVSPropertyOp1
 70
     1
102
RTVSPropertyOp2
 70
     1
102
RTVSPropertyOp3
 70
     1
102
RTVSPropertyOp4
 70
     1
102
RTVSPropertyOp5
 70
     1
102
RTVSPropertyOp6
 70
     1
102
RTVSPropertyOp7
 70
     1
102
RTVSPropertyOp8
 70
     1
102
RTVSPropertyOp9
 70
     1
102
RTVSPropertyOp10
 70
     1
102
RTVSPropertyOp11
 70
     1
102
RTVSPropertyOp12
 70
     1
102
RTVSPropertyOp13
 70
     1
102
RTVSPropertyOp14
 70
     1
102
RTVSPropertyOp15
 70
     1
102
RTVSPropertyOp16
 70
     1
102
RTVSPropertyOp17
 70
     1
102
RTVSPropertyOp18
 70
     1
102
RTVSPropertyOp19
 70
     1
102
RTVSPropertyOp20
 70
     1
102
RTVSPropertyOp21
 70
     1
102
RTVSPropertyOp22
 70
     1
102
RTVSPropertyOp23
 70
     1
102
RTVSPropertyOp24
 70
     1
102
RTVSPropertyOp25
 70
     1
102
RTVSPropertyOp26
 70
     1
102
RTVSPropertyOp27
 70
     1
102
RTVSPropertyOp28
 70
     1
102
RTVSPropertyOp29
 70
     1
102
RTVSPropertyOp30
 70
     1
102
RTVSPropertyOp31
 70
     1
102
RTVSPropertyOp32
 70
     1
  0
XRECORD
  5
685
102
{ACAD_REACTORS
330
684
102
}
330
684
100
AcDbXrecord
280
     1
102
RTVSPropertyOp0
 70
     1
102
RTVSPropertyOp1
 70
     1
102
RTVSPropertyOp2
 70
     1
102
RTVSPropertyOp3
 70
     1
102
RTVSPropertyOp4
 70
     1
102
RTVSPropertyOp5
 70
     1
102
RTVSPropertyOp6
 70
     1
102
RTVSPropertyOp7
 70
     1
102
RTVSPropertyOp8
 70
     1
102
RTVSPropertyOp9
 70
     1
102
RTVSPropertyOp10
 70
     1
102
RTVSPropertyOp11
 70
     1
102
RTVSPropertyOp12
 70
     1
102
RTVSPropertyOp13
 70
     1
102
RTVSPropertyOp14
 70
     1
102
RTVSPropertyOp15
 70
     1
102
RTVSPropertyOp16
 70
     1
102
RTVSPropertyOp17
 70
     1
102
RTVSPropertyOp18
 70
     1
102
RTVSPropertyOp19
 70
     1
102
RTVSPropertyOp20
 70
     1
102
RTVSPropertyOp21
 70
     1
102
RTVSPropertyOp22
 70
     1
102
RTVSPropertyOp23
 70
     1
102
RTVSPropertyOp24
 70
     1
102
RTVSPropertyOp25
 70
     1
102
RTVSPropertyOp26
 70
     1
102
RTVSPropertyOp27
 70
     1
102
RTVSPropertyOp28
 70
     1
102
RTVSPropertyOp29
 70
     1
102
RTVSPropertyOp30
 70
     1
102
RTVSPropertyOp31
 70
     1
102
RTVSPropertyOp32
 70
     1
  0
XRECORD
  5
679
102
{ACAD_REACTORS
330
678
102
}
330
678
100
AcDbXrecord
280
     1
102
RTVSPropertyOp0
 70
     1
102
RTVSPropertyOp1
 70
     1
102
RTVSPropertyOp2
 70
     1
102
RTVSPropertyOp3
 70
     1
102
RTVSPropertyOp4
 70
     1
102
RTVSPropertyOp5
 70
     1
102
RTVSPropertyOp6
 70
     1
102
RTVSPropertyOp7
 70
     1
102
RTVSPropertyOp8
 70
     1
102
RTVSPropertyOp9
 70
     1
102
RTVSPropertyOp10
 70
     1
102
RTVSPropertyOp11
 70
     1
102
RTVSPropertyOp12
 70
     1
102
RTVSPropertyOp13
 70
     1
102
RTVSPropertyOp14
 70
     1
102
RTVSPropertyOp15
 70
     1
102
RTVSPropertyOp16
 70
     1
102
RTVSPropertyOp17
 70
     1
102
RTVSPropertyOp18
 70
     1
102
RTVSPropertyOp19
 70
     1
102
RTVSPropertyOp20
 70
     1
102
RTVSPropertyOp21
 70
     1
102
RTVSPropertyOp22
 70
     1
102
RTVSPropertyOp23
 70
     1
102
RTVSPropertyOp24
 70
     1
102
RTVSPropertyOp25
 70
     1
102
RTVSPropertyOp26
 70
     1
102
RTVSPropertyOp27
 70
     1
102
RTVSPropertyOp28
 70
     1
102
RTVSPropertyOp29
 70
     1
102
RTVSPropertyOp30
 70
     1
102
RTVSPropertyOp31
 70
     1
102
RTVSPropertyOp32
 70
     1
  0
XRECORD
  5
691
102
{ACAD_REACTORS
330
690
102
}
330
690
100
AcDbXrecord
280
     1
102
RTVSPropertyOp0
 70
     1
102
RTVSPropertyOp1
 70
     1
102
RTVSPropertyOp2
 70
     1
102
RTVSPropertyOp3
 70
     1
102
RTVSPropertyOp4
 70
     1
102
RTVSPropertyOp5
 70
     1
102
RTVSPropertyOp6
 70
     1
102
RTVSPropertyOp7
 70
     1
102
RTVSPropertyOp8
 70
     1
102
RTVSPropertyOp9
 70
     1
102
RTVSPropertyOp10
 70
     1
102
RTVSPropertyOp11
 70
     1
102
RTVSPropertyOp12
 70
     1
102
RTVSPropertyOp13
 70
     1
102
RTVSPropertyOp14
 70
     1
102
RTVSPropertyOp15
 70
     1
102
RTVSPropertyOp16
 70
     1
102
RTVSPropertyOp17
 70
     1
102
RTVSPropertyOp18
 70
     1
102
RTVSPropertyOp19
 70
     1
102
RTVSPropertyOp20
 70
     1
102
RTVSPropertyOp21
 70
     1
102
RTVSPropertyOp22
 70
     1
102
RTVSPropertyOp23
 70
     1
102
RTVSPropertyOp24
 70
     1
102
RTVSPropertyOp25
 70
     1
102
RTVSPropertyOp26
 70
     1
102
RTVSPropertyOp27
 70
     1
102
RTVSPropertyOp28
 70
     1
102
RTVSPropertyOp29
 70
     1
102
RTVSPropertyOp30
 70
     1
102
RTVSPropertyOp31
 70
     1
102
RTVSPropertyOp32
 70
     1
  0
ENDSEC
  0
EOF
