  0
SECTION
  2
HEADER
  9
$ACADVER
  1
AC1015
  9
$ACADMAINTVER
 70
    20
  9
$DWGCODEPAGE
  3
ANSI_932
  9
$INSBASE
 10
0.0
 20
0.0
 30
0.0
  9
$EXTMIN
 10
-1760.483566921389
 20
-303.1470192140631
 30
0.0
  9
$EXTMAX
 10
-1379.976892296559
 20
-33.1470192140631
 30
0.0
  9
$LIMMIN
 10
0.0
 20
0.0
  9
$LIMMAX
 10
0.0
 20
0.0
  9
$ORTHOMODE
 70
     0
  9
$REGENMODE
 70
     1
  9
$FILLMODE
 70
     1
  9
$QTEXTMODE
 70
     0
  9
$MIRRTEXT
 70
     1
  9
$LTSCALE
 40
1.0
  9
$ATTMODE
 70
     1
  9
$TEXTSIZE
 40
0.0
  9
$TRACEWID
 40
0.05
  9
$TEXTSTYLE
  7
STANDARD
  9
$CLAYER
  8
0
  9
$CELTYPE
  6
CONTINUOUS
  9
$CECOLOR
 62
   256
  9
$CELTSCALE
 40
1.0
  9
$DISPSILH
 70
     0
  9
$DIMSCALE
 40
1.0
  9
$DIMASZ
 40
0.18
  9
$DIMEXO
 40
0.0625
  9
$DIMDLI
 40
0.38
  9
$DIMRND
 40
0.0
  9
$DIMDLE
 40
0.0
  9
$DIMEXE
 40
0.18
  9
$DIMTP
 40
0.0
  9
$DIMTM
 40
0.0
  9
$DIMTXT
 40
0.18
  9
$DIMCEN
 40
0.09
  9
$DIMTSZ
 40
0.0
  9
$DIMTOL
 70
     0
  9
$DIMLIM
 70
     0
  9
$DIMTIH
 70
     1
  9
$DIMTOH
 70
     1
  9
$DIMSE1
 70
     0
  9
$DIMSE2
 70
     0
  9
$DIMTAD
 70
     0
  9
$DIMZIN
 70
     0
  9
$DIMBLK
  1

  9
$DIMASO
 70
     1
  9
$DIMSHO
 70
     1
  9
$DIMPOST
  1

  9
$DIMAPOST
  1

  9
$DIMALT
 70
     0
  9
$DIMALTD
 70
     2
  9
$DIMALTF
 40
25.4
  9
$DIMLFAC
 40
1.0
  9
$DIMTOFL
 70
     0
  9
$DIMTVP
 40
0.0
  9
$DIMTIX
 70
     0
  9
$DIMSOXD
 70
     0
  9
$DIMSAH
 70
     0
  9
$DIMBLK1
  1

  9
$DIMBLK2
  1

  9
$DIMSTYLE
  2
STANDARD
  9
$DIMCLRD
 70
     0
  9
$DIMCLRE
 70
     0
  9
$DIMCLRT
 70
     0
  9
$DIMTFAC
 40
1.0
  9
$DIMGAP
 40
0.09
  9
$DIMJUST
 70
     0
  9
$DIMSD1
 70
     0
  9
$DIMSD2
 70
     0
  9
$DIMTOLJ
 70
     1
  9
$DIMTZIN
 70
     0
  9
$DIMALTZ
 70
     0
  9
$DIMALTTZ
 70
     0
  9
$DIMUPT
 70
     0
  9
$DIMDEC
 70
     4
  9
$DIMTDEC
 70
     4
  9
$DIMALTU
 70
     2
  9
$DIMALTTD
 70
     2
  9
$DIMTXSTY
  7
STANDARD
  9
$DIMAUNIT
 70
     0
  9
$DIMADEC
 70
     0
  9
$DIMALTRND
 40
0.0
  9
$DIMAZIN
 70
     0
  9
$DIMDSEP
 70
    46
  9
$DIMATFIT
 70
     3
  9
$DIMFRAC
 70
     0
  9
$DIMLDRBLK
  1

  9
$DIMLUNIT
 70
     2
  9
$DIMLWD
 70
    -2
  9
$DIMLWE
 70
    -2
  9
$DIMTMOVE
 70
     0
  9
$LUNITS
 70
     2
  9
$LUPREC
 70
     4
  9
$SKETCHINC
 40
0.1
  9
$FILLETRAD
 40
0.0
  9
$AUNITS
 70
     0
  9
$AUPREC
 70
     0
  9
$MENU
  1
acad
  9
$ELEVATION
 40
0.0
  9
$PELEVATION
 40
0.0
  9
$THICKNESS
 40
0.0
  9
$LIMCHECK
 70
     0
  9
$CHAMFERA
 40
0.0
  9
$CHAMFERB
 40
0.0
  9
$CHAMFERC
 40
0.0
  9
$CHAMFERD
 40
0.0
  9
$SKPOLY
 70
     0
  9
$TDCREATE
 40
12367012.42918502
  9
$TDUCREATE
 40
6.0000000000
  9
$TDUPDATE
 40
2457592.456476933
  9
$TDUUPDATE
 40
2457592.081476933
  9
$TDINDWG
 40
0.0014771991
  9
$TDUSRTIMER
 40
0.0014770255
  9
$USRTIMER
 70
     1
  9
$ANGBASE
 50
0.0
  9
$ANGDIR
 70
     0
  9
$PDMODE
 70
     0
  9
$PDSIZE
 40
0.0
  9
$PLINEWID
 40
0.0
  9
$SPLFRAME
 70
     0
  9
$SPLINETYPE
 70
     6
  9
$SPLINESEGS
 70
     8
  9
$HANDSEED
  5
746
  9
$SURFTAB1
 70
     6
  9
$SURFTAB2
 70
     6
  9
$SURFTYPE
 70
     6
  9
$SURFU
 70
     6
  9
$SURFV
 70
     6
  9
$UCSBASE
  2

  9
$UCSNAME
  2

  9
$UCSORG
 10
0.0
 20
0.0
 30
0.0
  9
$UCSXDIR
 10
1.0
 20
0.0
 30
0.0
  9
$UCSYDIR
 10
0.0
 20
1.0
 30
0.0
  9
$UCSORTHOREF
  2

  9
$UCSORTHOVIEW
 70
     0
  9
$UCSORGTOP
 10
0.0
 20
0.0
 30
0.0
  9
$UCSORGBOTTOM
 10
0.0
 20
0.0
 30
0.0
  9
$UCSORGLEFT
 10
0.0
 20
0.0
 30
0.0
  9
$UCSORGRIGHT
 10
0.0
 20
0.0
 30
0.0
  9
$UCSORGFRONT
 10
0.0
 20
0.0
 30
0.0
  9
$UCSORGBACK
 10
0.0
 20
0.0
 30
0.0
  9
$PUCSBASE
  2

  9
$PUCSNAME
  2

  9
$PUCSORG
 10
0.0
 20
0.0
 30
0.0
  9
$PUCSXDIR
 10
1.0
 20
0.0
 30
0.0
  9
$PUCSYDIR
 10
0.0
 20
1.0
 30
0.0
  9
$PUCSORTHOREF
  2

  9
$PUCSORTHOVIEW
 70
     0
  9
$PUCSORGTOP
 10
0.0
 20
0.0
 30
0.0
  9
$PUCSORGBOTTOM
 10
0.0
 20
0.0
 30
0.0
  9
$PUCSORGLEFT
 10
0.0
 20
0.0
 30
0.0
  9
$PUCSORGRIGHT
 10
0.0
 20
0.0
 30
0.0
  9
$PUCSORGFRONT
 10
0.0
 20
0.0
 30
0.0
  9
$PUCSORGBACK
 10
0.0
 20
0.0
 30
0.0
  9
$USERI1
 70
     0
  9
$USERI2
 70
     0
  9
$USERI3
 70
     0
  9
$USERI4
 70
     0
  9
$USERI5
 70
     0
  9
$USERR1
 40
12.01
  9
$USERR2
 40
0.0
  9
$USERR3
 40
0.0
  9
$USERR4
 40
0.0
  9
$USERR5
 40
0.0
  9
$WORLDVIEW
 70
     1
  9
$SHADEDGE
 70
     3
  9
$SHADEDIF
 70
    70
  9
$TILEMODE
 70
     1
  9
$MAXACTVP
 70
    16
  9
$PINSBASE
 10
0.0
 20
0.0
 30
0.0
  9
$PLIMCHECK
 70
     0
  9
$PEXTMIN
 10
1.000000000000000E+20
 20
1.000000000000000E+20
 30
1.000000000000000E+20
  9
$PEXTMAX
 10
-1.000000000000000E+20
 20
-1.000000000000000E+20
 30
-1.000000000000000E+20
  9
$PLIMMIN
 10
0.0
 20
0.0
  9
$PLIMMAX
 10
12.0
 20
9.0
  9
$UNITMODE
 70
     0
  9
$VISRETAIN
 70
     0
  9
$PLINEGEN
 70
     1
  9
$PSLTSCALE
 70
     0
  9
$TREEDEPTH
 70
  3020
  9
$CMLSTYLE
  2
STANDARD
  9
$CMLJUST
 70
     0
  9
$CMLSCALE
 40
1.0
  9
$PROXYGRAPHICS
 70
     0
  9
$MEASUREMENT
 70
     1
  9
$CELWEIGHT
370
    -1
  9
$ENDCAPS
280
     0
  9
$JOINSTYLE
280
     0
  9
$LWDISPLAY
290
     0
  9
$INSUNITS
 70
     0
  9
$HYPERLINKBASE
  1

  9
$STYLESHEET
  1

  9
$XEDIT
290
     1
  9
$CEPSNTYPE
380
     0
  9
$PSTYLEMODE
290
     1
  9
$FINGERPRINTGUID
  2
{CCBBF06F-537E-417E-A2CA-1D45BD0F3F99}
  9
$VERSIONGUID
  2
{4D5992A6-C3F6-4E15-A007-8E124799DF37}
  9
$EXTNAMES
290
     1
  9
$PSVPSCALE
 40
0.0
  9
$OLESTARTUP
290
     0
  0
ENDSEC
  0
SECTION
  2
CLASSES
  0
CLASS
  1
IMAGE
  2
AcDbRasterImage
  3
ISM
 90
    34943
280
     0
281
     1
  0
CLASS
  1
DICTIONARYVAR
  2
AcDbDictionaryVar
  3
ObjectDBX Classes
 90
        0
280
     0
281
     0
  0
CLASS
  1
RASTERVARIABLES
  2
AcDbRasterVariables
  3
ISM
 90
    32768
280
     0
281
     0
  0
CLASS
  1
IMAGEDEF
  2
AcDbRasterImageDef
  3
ISM
 90
    32768
280
     0
281
     0
  0
CLASS
  1
IMAGEDEF_REACTOR
  2
AcDbRasterImageDefReactor
  3
ISM
 90
    32769
280
     0
281
     0
  0
CLASS
  1
IDBUFFER
  2
AcDbIdBuffer
  3
ObjectDBX Classes
 90
    32768
280
     0
281
     0
  0
CLASS
  1
SPATIAL_FILTER
  2
AcDbSpatialFilter
  3
ObjectDBX Classes
 90
    32768
280
     0
281
     0
  0
CLASS
  1
SORTENTSTABLE
  2
AcDbSortentsTable
  3
ObjectDBX Classes
 90
        0
280
     0
281
     0
  0
CLASS
  1
LAYER_INDEX
  2
AcDbLayerIndex
  3
ObjectDBX Classes
 90
    32768
280
     0
281
     0
  0
CLASS
  1
SPATIAL_INDEX
  2
AcDbSpatialIndex
  3
ObjectDBX Classes
 90
    32768
280
     0
281
     0
  0
CLASS
  1
OBJECT_PTR
  2
CAseDLPNTableRecord
  3
ASE-LPNTableRecord
 90
    32769
280
     0
281
     0
  0
CLASS
  1
LAYOUT
  2
AcDbLayout
  3
ObjectDBX Classes
 90
        0
280
     0
281
     0
  0
CLASS
  1
PLOTSETTINGS
  2
AcDbPlotSettings
  3
ObjectDBX Classes
 90
    32768
280
     0
281
     0
  0
CLASS
  1
ACDBDICTIONARYWDFLT
  2
AcDbDictionaryWithDefault
  3
ObjectDBX Classes
 90
        0
280
     0
281
     0
  0
CLASS
  1
ACDBPLACEHOLDER
  2
AcDbPlaceHolder
  3
ObjectDBX Classes
 90
        0
280
     0
281
     0
  0
CLASS
  1
MATERIAL
  2
AcDbMaterial
  3
ObjectDBX Classes
 90
     1153
280
     0
281
     0
  0
CLASS
  1
VISUALSTYLE
  2
AcDbVisualStyle
  3
ObjectDBX Classes
 90
     4095
280
     0
281
     0
  0
CLASS
  1
TABLESTYLE
  2
AcDbTableStyle
  3
ObjectDBX Classes
 90
     4095
280
     0
281
     0
  0
CLASS
  1
SCALE
  2
AcDbScale
  3
ObjectDBX Classes
 90
     1153
280
     0
281
     0
  0
CLASS
  1
MLEADERSTYLE
  2
AcDbMLeaderStyle
  3
ACDB_MLEADERSTYLE_CLASS
 90
     4095
280
     0
281
     0
  0
CLASS
  1
CELLSTYLEMAP
  2
AcDbCellStyleMap
  3
ObjectDBX Classes
 90
     1152
280
     0
281
     0
  0
ENDSEC
  0
SECTION
  2
TABLES
  0
TABLE
  2
VPORT
  5
7
330
0
100
AcDbSymbolTable
 70
     1
  0
VPORT
  5
15
330
7
100
AcDbSymbolTableRecord
100
AcDbViewportTableRecord
  2
*ACTIVE
 70
     0
 10
0.0
 20
0.0
 11
1.0
 21
1.0
 12
-1614.054824489135
 22
-112.4802836859673
 13
0.0
 23
0.0
 14
1.0
 24
1.0
 15
0.0
 25
0.0
 16
0.0
 26
0.0
 36
1.0
 17
0.0
 27
0.0
 37
0.0
 40
193.0122967979922
 41
2.026347305389221
 42
50.0
 43
0.0
 44
0.0
 50
0.0
 51
0.0
 71
     0
 72
   100
 73
     1
 74
     1
 75
     0
 76
     0
 77
     0
 78
     0
281
     0
 65
     1
110
0.0
120
0.0
130
0.0
111
1.0
121
0.0
131
0.0
112
0.0
122
1.0
132
0.0
 79
     0
146
0.0
1001
ACAD_NAV_VCDISPLAY
1070
     3
  0
ENDTAB
  0
TABLE
  2
LTYPE
  5
4
330
0
100
AcDbSymbolTable
 70
     8
  0
LTYPE
  5
11
330
4
100
AcDbSymbolTableRecord
100
AcDbLinetypeTableRecord
  2
BYBLOCK
 70
     0
  3

 72
    65
 73
     0
 40
0.0
  0
LTYPE
  5
12
330
4
100
AcDbSymbolTableRecord
100
AcDbLinetypeTableRecord
  2
BYLAYER
 70
     0
  3

 72
    65
 73
     0
 40
0.0
  0
LTYPE
  5
13
330
4
100
AcDbSymbolTableRecord
100
AcDbLinetypeTableRecord
  2
CONTINUOUS
 70
     0
  3
Solid line
 72
    65
 73
     0
 40
0.0
  0
LTYPE
  5
1D
330
4
100
AcDbSymbolTableRecord
100
AcDbLinetypeTableRecord
  2
DASHED
 70
     0
  3
Dashed
 72
    65
 73
     2
 40
15.0
 49
7.0
 74
     0
 49
-8.0
 74
     0
  0
LTYPE
  5
1E
330
4
100
AcDbSymbolTableRecord
100
AcDbLinetypeTableRecord
  2
DOTTED
 70
     0
  3
Dotted
 72
    65
 73
     2
 40
1.0
 49
0.0
 74
     0
 49
-1.0
 74
     0
  0
LTYPE
  5
1F
330
4
100
AcDbSymbolTableRecord
100
AcDbLinetypeTableRecord
  2
DOT_CENTER
 70
     0
  3
Dot_Center
 72
    65
 73
     4
 40
14.0
 49
12.0
 74
     0
 49
-1.0
 74
     0
 49
0.0
 74
     0
 49
-1.0
 74
     0
  0
LTYPE
  5
20
330
4
100
AcDbSymbolTableRecord
100
AcDbLinetypeTableRecord
  2
LONG_DASHED
 70
     0
  3
Long_Dashed
 72
    65
 73
     2
 40
15.0
 49
10.0
 74
     0
 49
-5.0
 74
     0
  0
LTYPE
  5
21
330
4
100
AcDbSymbolTableRecord
100
AcDbLinetypeTableRecord
  2
DASH_CENTER
 70
     0
  3
Dash_Center
 72
    65
 73
     4
 40
14.0
 49
11.0
 74
     0
 49
-1.0
 74
     0
 49
1.0
 74
     0
 49
-1.0
 74
     0
  0
LTYPE
  5
22
330
4
100
AcDbSymbolTableRecord
100
AcDbLinetypeTableRecord
  2
PHANTOM
 70
     0
  3
Phantom
 72
    65
 73
     6
 40
13.0
 49
10.0
 74
     0
 49
-1.0
 74
     0
 49
0.0
 74
     0
 49
-1.0
 74
     0
 49
0.0
 74
     0
 49
-1.0
 74
     0
  0
LTYPE
  5
23
330
4
100
AcDbSymbolTableRecord
100
AcDbLinetypeTableRecord
  2
CENTER_DASH_DASH
 70
     0
  3
Center_Dash_Dash
 72
    65
 73
     6
 40
14.0
 49
9.0
 74
     0
 49
-1.0
 74
     0
 49
1.0
 74
     0
 49
-1.0
 74
     0
 49
1.0
 74
     0
 49
-1.0
 74
     0
  0
ENDTAB
  0
TABLE
  2
LAYER
  5
2
330
0
100
AcDbSymbolTable
 70
     3
  0
LAYER
  5
14
102
{ACAD_XDICTIONARY
360
698
102
}
330
2
100
AcDbSymbolTableRecord
100
AcDbLayerTableRecord
  2
0
 70
     0
 62
     7
  6
CONTINUOUS
370
    -3
390
3F7
  0
LAYER
  5
24
102
{ACAD_XDICTIONARY
360
69A
102
}
330
2
100
AcDbSymbolTableRecord
100
AcDbLayerTableRecord
  2
1
 70
     0
 62
     7
  6
CONTINUOUS
370
    -3
390
3F7
  0
LAYER
  5
477
330
2
100
AcDbSymbolTableRecord
100
AcDbLayerTableRecord
  2
Defpoints
 70
     0
 62
     7
  6
CONTINUOUS
290
     0
370
    -3
390
3F7
  0
ENDTAB
  0
TABLE
  2
STYLE
  5
3
330
0
100
AcDbSymbolTable
 70
     7
  0
STYLE
  5
17
330
3
100
AcDbSymbolTableRecord
100
AcDbTextStyleTableRecord
  2
STANDARD
 70
     0
 40
0.0
 41
1.0
 50
0.0
 71
     0
 42
0.0
  3
txt
  4

  0
STYLE
  5
151
330
3
100
AcDbSymbolTableRecord
100
AcDbTextStyleTableRecord
  2
CONVERTER_1
 70
     0
 40
0.0
 41
0.63
 50
0.0
 71
     0
 42
0.0
  3
txt.shx
  4

  0
STYLE
  5
167
330
3
100
AcDbSymbolTableRecord
100
AcDbTextStyleTableRecord
  2
CONVERTER_2
 70
     0
 40
0.0
 41
0.45
 50
0.0
 71
     0
 42
0.0
  3
txt.shx
  4

  0
STYLE
  5
16B
330
3
100
AcDbSymbolTableRecord
100
AcDbTextStyleTableRecord
  2
CONVERTER_3
 70
     0
 40
0.0
 41
0.603
 50
0.0
 71
     0
 42
0.0
  3
txt.shx
  4

  0
STYLE
  5
183
330
3
100
AcDbSymbolTableRecord
100
AcDbTextStyleTableRecord
  2
CONVERTER_4
 70
     0
 40
0.0
 41
0.9
 50
0.0
 71
     0
 42
0.0
  3
txt.shx
  4

  0
STYLE
  5
197
330
3
100
AcDbSymbolTableRecord
100
AcDbTextStyleTableRecord
  2
CONVERTER_5
 70
     0
 40
0.0
 41
0.76
 50
0.0
 71
     0
 42
0.0
  3
complex.shx
  4

  0
STYLE
  5
276
330
3
100
AcDbSymbolTableRecord
100
AcDbTextStyleTableRecord
  2
CONVERTER_6
 70
     0
 40
0.0
 41
0.6650000000000001
 50
0.0
 71
     0
 42
0.0
  3
simplex.shx
  4

  0
ENDTAB
  0
TABLE
  2
VIEW
  5
5
330
0
100
AcDbSymbolTable
 70
     0
  0
ENDTAB
  0
TABLE
  2
UCS
  5
6
330
0
100
AcDbSymbolTable
 70
     0
  0
ENDTAB
  0
TABLE
  2
APPID
  5
8
330
0
100
AcDbSymbolTable
 70
     4
  0
APPID
  5
16
330
8
100
AcDbSymbolTableRecord
100
AcDbRegAppTableRecord
  2
ACAD
 70
     0
  0
APPID
  5
69E
330
8
100
AcDbSymbolTableRecord
100
AcDbRegAppTableRecord
  2
DCO15
 70
     0
  0
APPID
  5
6A8
330
8
100
AcDbSymbolTableRecord
100
AcDbRegAppTableRecord
  2
ACAD_NAV_VCDISPLAY
 70
     0
  0
APPID
  5
741
330
8
100
AcDbSymbolTableRecord
100
AcDbRegAppTableRecord
  2
ACAD_MLEADERVER
 70
     0
  0
ENDTAB
  0
TABLE
  2
DIMSTYLE
  5
9
330
0
100
AcDbSymbolTable
 70
    19
100
AcDbDimStyleTable
 71
     0
  0
DIMSTYLE
105
18
330
9
100
AcDbSymbolTableRecord
100
AcDbDimStyleTableRecord
  2
STANDARD
 70
     0
340
17
  0
DIMSTYLE
105
27F
102
{ACAD_REACTORS
330
280
102
}
330
9
100
AcDbSymbolTableRecord
100
AcDbDimStyleTableRecord
  2
ME10_DIM_0
 70
     0
 41
2.45
 42
1.0
 44
1.0
 73
     0
 74
     0
 77
     1
 78
     8
140
3.5
147
0.625
172
     1
173
     1
176
     2
177
     2
178
     3
271
     2
340
276
341
279
343
279
344
279
  0
DIMSTYLE
105
28E
102
{ACAD_REACTORS
330
28F
102
}
330
9
100
AcDbSymbolTableRecord
100
AcDbDimStyleTableRecord
  2
ME10_DIM_1
 70
     0
 41
2.45
 42
1.0
 44
1.0
 73
     0
 74
     0
 77
     1
 78
     8
140
3.5
147
0.625
172
     1
173
     1
176
     2
177
     2
178
     3
271
     2
340
276
341
279
343
279
344
279
  0
DIMSTYLE
105
29D
102
{ACAD_REACTORS
330
29E
102
}
330
9
100
AcDbSymbolTableRecord
100
AcDbDimStyleTableRecord
  2
ME10_DIM_2
 70
     0
 41
2.45
 42
1.0
 44
1.0
 73
     0
 74
     0
 77
     1
 78
     8
140
3.5
147
0.625
172
     1
173
     1
176
     2
177
     2
178
     3
271
     2
340
276
341
279
343
279
344
279
  0
DIMSTYLE
105
2AA
102
{ACAD_REACTORS
330
2AB
102
}
330
9
100
AcDbSymbolTableRecord
100
AcDbDimStyleTableRecord
  2
ME10_DIM_3
 70
     0
 41
2.45
 42
1.0
 44
1.0
 73
     0
 74
     0
 77
     1
 78
     8
140
3.5
147
0.625
172
     1
173
     1
176
     2
177
     2
178
     3
271
     2
340
276
341
279
343
279
344
279
  0
DIMSTYLE
105
2B7
102
{ACAD_REACTORS
330
2B8
102
}
330
9
100
AcDbSymbolTableRecord
100
AcDbDimStyleTableRecord
  2
ME10_DIM_4
 70
     0
 41
2.45
 42
1.0
 44
1.0
 73
     0
 74
     0
 77
     1
 78
     8
140
3.5
147
0.625
172
     1
173
     1
176
     2
177
     2
178
     3
271
     2
340
276
341
279
343
279
344
279
  0
DIMSTYLE
105
2C4
102
{ACAD_REACTORS
330
2C5
102
}
330
9
100
AcDbSymbolTableRecord
100
AcDbDimStyleTableRecord
  2
ME10_DIM_5
 70
     0
 41
2.45
 42
1.0
 44
1.0
 73
     0
 74
     0
 77
     1
 78
     8
140
3.5
147
0.625
172
     1
173
     1
176
     2
177
     2
178
     3
271
     2
340
276
341
279
343
279
344
279
  0
DIMSTYLE
105
2D3
102
{ACAD_REACTORS
330
2D4
102
}
330
9
100
AcDbSymbolTableRecord
100
AcDbDimStyleTableRecord
  2
ME10_DIM_6
 70
     0
 41
2.45
 42
1.0
 44
1.0
 73
     0
 74
     0
 77
     1
 78
     8
140
3.5
147
0.625
172
     1
173
     1
176
     2
177
     2
178
     3
271
     2
340
276
341
279
343
279
344
279
  0
DIMSTYLE
105
2E0
102
{ACAD_REACTORS
330
2E1
102
}
330
9
100
AcDbSymbolTableRecord
100
AcDbDimStyleTableRecord
  2
ME10_DIM_7
 70
     0
 41
2.45
 42
1.0
 44
1.0
 73
     0
 74
     0
 77
     1
 78
     8
140
3.5
147
0.625
172
     1
173
     1
176
     2
177
     2
178
     3
271
     2
340
276
341
279
343
279
344
279
  0
DIMSTYLE
105
2EF
102
{ACAD_REACTORS
330
2F0
102
}
330
9
100
AcDbSymbolTableRecord
100
AcDbDimStyleTableRecord
  2
ME10_DIM_8
 70
     0
 41
2.45
 42
1.0
 44
1.0
 73
     0
 74
     0
 77
     1
 78
     8
140
3.5
147
0.625
172
     1
173
     1
176
     2
177
     2
178
     3
271
     2
340
276
341
279
343
279
344
279
  0
DIMSTYLE
105
2FE
102
{ACAD_REACTORS
330
2FF
102
}
330
9
100
AcDbSymbolTableRecord
100
AcDbDimStyleTableRecord
  2
ME10_DIM_9
 70
     0
 41
2.45
 42
1.0
 44
1.0
 73
     0
 74
     0
 77
     1
 78
     8
140
3.5
147
0.625
172
     1
173
     1
176
     2
177
     2
178
     3
271
     2
340
276
341
279
343
279
344
279
  0
DIMSTYLE
105
30B
102
{ACAD_REACTORS
330
30C
102
}
330
9
100
AcDbSymbolTableRecord
100
AcDbDimStyleTableRecord
  2
ME10_DIM_10
 70
     0
 41
2.45
 42
1.0
 44
1.0
 73
     0
 74
     0
 77
     1
 78
     8
140
3.5
147
0.625
172
     1
173
     1
176
     2
177
     2
178
     3
271
     2
340
276
341
279
343
279
344
279
  0
DIMSTYLE
105
318
102
{ACAD_REACTORS
330
319
102
}
330
9
100
AcDbSymbolTableRecord
100
AcDbDimStyleTableRecord
  2
ME10_DIM_11
 70
     0
 41
2.45
 42
1.0
 44
1.0
 73
     0
 74
     0
 77
     1
 78
     8
140
3.5
147
0.625
172
     1
173
     1
176
     2
177
     2
178
     3
271
     2
340
276
341
279
343
279
344
279
  0
DIMSTYLE
105
325
102
{ACAD_REACTORS
330
326
102
}
330
9
100
AcDbSymbolTableRecord
100
AcDbDimStyleTableRecord
  2
ME10_DIM_12
 70
     0
 41
2.45
 42
1.0
 44
1.0
 73
     0
 74
     0
 77
     1
 78
     8
140
3.5
147
0.625
172
     1
173
     1
176
     2
177
     2
178
     3
271
     2
340
276
341
279
343
279
344
279
  0
DIMSTYLE
105
332
102
{ACAD_REACTORS
330
333
102
}
330
9
100
AcDbSymbolTableRecord
100
AcDbDimStyleTableRecord
  2
ME10_DIM_13
 70
     0
 41
2.45
 42
1.0
 44
1.0
 73
     0
 74
     0
 77
     1
 78
     8
140
3.5
147
0.625
172
     1
173
     1
176
     2
177
     2
178
     3
271
     2
340
276
341
279
343
279
344
279
  0
DIMSTYLE
105
3CA
330
9
100
AcDbSymbolTableRecord
100
AcDbDimStyleTableRecord
  2
ME10_DIM_14
 70
     0
 41
2.45
 42
1.0
 44
1.0
 73
     0
 74
     0
 77
     1
 78
     8
140
3.5
147
0.625
172
     1
173
     1
176
     2
177
     2
178
     3
271
     2
340
276
341
279
343
279
344
279
  0
DIMSTYLE
105
3D7
330
9
100
AcDbSymbolTableRecord
100
AcDbDimStyleTableRecord
  2
ME10_DIM_15
 70
     0
 41
2.45
 42
1.0
 44
1.0
 73
     0
 74
     0
 77
     1
 78
     8
140
3.5
147
0.625
172
     1
173
     1
176
     2
177
     2
178
     3
271
     2
340
276
341
279
343
279
344
279
  0
DIMSTYLE
105
3E4
330
9
100
AcDbSymbolTableRecord
100
AcDbDimStyleTableRecord
  2
ME10_DIM_16
 70
     0
 41
2.45
 42
1.0
 44
1.0
 73
     0
 74
     0
 77
     1
 78
     8
140
3.5
147
0.625
172
     1
173
     1
176
     2
177
     2
178
     3
271
     2
340
276
341
279
343
279
344
279
  0
DIMSTYLE
105
3F1
330
9
100
AcDbSymbolTableRecord
100
AcDbDimStyleTableRecord
  2
ME10_DIM_17
 70
     0
  3
{\Fgdt;n}<>
 41
2.45
 42
1.0
 44
1.0
 73
     0
 74
     0
 77
     1
 78
     8
140
3.5
147
0.625
172
     1
173
     1
176
     2
177
     2
178
     3
271
     2
340
276
341
279
343
279
344
279
  0
ENDTAB
  0
TABLE
  2
BLOCK_RECORD
  5
1
330
0
100
AcDbSymbolTable
 70
    40
  0
BLOCK_RECORD
  5
A
102
{ACAD_XDICTIONARY
360
535
102
}
330
1
100
AcDbSymbolTableRecord
100
AcDbBlockTableRecord
  2
*MODEL_SPACE
340
443
  0
BLOCK_RECORD
  5
B
330
1
100
AcDbSymbolTableRecord
100
AcDbBlockTableRecord
  2
*PAPER_SPACE
340
444
  0
BLOCK_RECORD
  5
25
330
1
100
AcDbSymbolTableRecord
100
AcDbBlockTableRecord
  2
______
340
0
102
{BLKREFS
331
29
102
}
  0
BLOCK_RECORD
  5
27
330
1
100
AcDbSymbolTableRecord
100
AcDbBlockTableRecord
  2
FORMAT_A3
340
0
102
{BLKREFS
331
2C
102
}
  0
BLOCK_RECORD
  5
2A
330
1
100
AcDbSymbolTableRecord
100
AcDbBlockTableRecord
  2
_6
340
0
102
{BLKREFS
331
33
102
}
  0
BLOCK_RECORD
  5
2D
330
1
100
AcDbSymbolTableRecord
100
AcDbBlockTableRecord
  2
_1
340
0
102
{BLKREFS
331
34
102
}
  0
BLOCK_RECORD
  5
2F
330
1
100
AcDbSymbolTableRecord
100
AcDbBlockTableRecord
  2
_2
340
0
102
{BLKREFS
331
35
102
}
  0
BLOCK_RECORD
  5
31
330
1
100
AcDbSymbolTableRecord
100
AcDbBlockTableRecord
  2
TOP__1
340
0
  0
BLOCK_RECORD
  5
26D
330
1
100
AcDbSymbolTableRecord
100
AcDbBlockTableRecord
  2
*D6
340
0
  0
BLOCK_RECORD
  5
279
330
1
100
AcDbSymbolTableRecord
100
AcDbBlockTableRecord
  2
_OPEN30
340
0
102
{BLKREFS
331
590
331
591
331
59A
331
59B
331
5A4
331
5A5
331
5AE
331
5AF
331
5B8
331
5B9
331
5C4
331
5C5
331
53C
331
53D
331
546
331
547
331
552
331
553
331
55C
331
55D
331
566
331
567
331
570
331
571
331
57A
331
57B
331
585
331
586
102
}
  0
BLOCK_RECORD
  5
281
330
1
100
AcDbSymbolTableRecord
100
AcDbBlockTableRecord
  2
*D8
340
0
  0
BLOCK_RECORD
  5
290
330
1
100
AcDbSymbolTableRecord
100
AcDbBlockTableRecord
  2
*D9
340
0
  0
BLOCK_RECORD
  5
29F
330
1
100
AcDbSymbolTableRecord
100
AcDbBlockTableRecord
  2
*D10
340
0
  0
BLOCK_RECORD
  5
2AC
330
1
100
AcDbSymbolTableRecord
100
AcDbBlockTableRecord
  2
*D11
340
0
  0
BLOCK_RECORD
  5
2B9
330
1
100
AcDbSymbolTableRecord
100
AcDbBlockTableRecord
  2
*D12
340
0
  0
BLOCK_RECORD
  5
2C6
330
1
100
AcDbSymbolTableRecord
100
AcDbBlockTableRecord
  2
*D13
340
0
  0
BLOCK_RECORD
  5
2D5
330
1
100
AcDbSymbolTableRecord
100
AcDbBlockTableRecord
  2
*D14
340
0
  0
BLOCK_RECORD
  5
2E2
330
1
100
AcDbSymbolTableRecord
100
AcDbBlockTableRecord
  2
*D15
340
0
  0
BLOCK_RECORD
  5
2F1
330
1
100
AcDbSymbolTableRecord
100
AcDbBlockTableRecord
  2
*D16
340
0
  0
BLOCK_RECORD
  5
300
330
1
100
AcDbSymbolTableRecord
100
AcDbBlockTableRecord
  2
*D17
340
0
  0
BLOCK_RECORD
  5
30D
330
1
100
AcDbSymbolTableRecord
100
AcDbBlockTableRecord
  2
*D18
340
0
  0
BLOCK_RECORD
  5
31A
330
1
100
AcDbSymbolTableRecord
100
AcDbBlockTableRecord
  2
*D19
340
0
  0
BLOCK_RECORD
  5
327
330
1
100
AcDbSymbolTableRecord
100
AcDbBlockTableRecord
  2
*D20
340
0
  0
BLOCK_RECORD
  5
334
330
1
100
AcDbSymbolTableRecord
100
AcDbBlockTableRecord
  2
*D21
340
0
102
{BLKREFS
331
33E
102
}
  0
BLOCK_RECORD
  5
3BF
330
1
100
AcDbSymbolTableRecord
100
AcDbBlockTableRecord
  2
*D22
340
0
  0
BLOCK_RECORD
  5
3CC
330
1
100
AcDbSymbolTableRecord
100
AcDbBlockTableRecord
  2
*D23
340
0
  0
BLOCK_RECORD
  5
3D9
330
1
100
AcDbSymbolTableRecord
100
AcDbBlockTableRecord
  2
*D24
340
0
  0
BLOCK_RECORD
  5
3E6
330
1
100
AcDbSymbolTableRecord
100
AcDbBlockTableRecord
  2
*D25
340
0
  0
BLOCK_RECORD
  5
478
330
1
100
AcDbSymbolTableRecord
100
AcDbBlockTableRecord
  2
*D26
340
0
  0
BLOCK_RECORD
  5
486
330
1
100
AcDbSymbolTableRecord
100
AcDbBlockTableRecord
  2
*D27
340
0
  0
BLOCK_RECORD
  5
493
330
1
100
AcDbSymbolTableRecord
100
AcDbBlockTableRecord
  2
*D28
340
0
  0
BLOCK_RECORD
  5
4A2
330
1
100
AcDbSymbolTableRecord
100
AcDbBlockTableRecord
  2
*D29
340
0
  0
BLOCK_RECORD
  5
4AF
330
1
100
AcDbSymbolTableRecord
100
AcDbBlockTableRecord
  2
*D30
340
0
  0
BLOCK_RECORD
  5
4BC
330
1
100
AcDbSymbolTableRecord
100
AcDbBlockTableRecord
  2
*D31
340
0
  0
BLOCK_RECORD
  5
4C9
330
1
100
AcDbSymbolTableRecord
100
AcDbBlockTableRecord
  2
*D32
340
0
  0
BLOCK_RECORD
  5
4D6
330
1
100
AcDbSymbolTableRecord
100
AcDbBlockTableRecord
  2
*D33
340
0
  0
BLOCK_RECORD
  5
4E4
330
1
100
AcDbSymbolTableRecord
100
AcDbBlockTableRecord
  2
*D34
340
0
  0
BLOCK_RECORD
  5
4F2
330
1
100
AcDbSymbolTableRecord
100
AcDbBlockTableRecord
  2
*D35
340
0
  0
BLOCK_RECORD
  5
4FF
330
1
100
AcDbSymbolTableRecord
100
AcDbBlockTableRecord
  2
*D36
340
0
  0
BLOCK_RECORD
  5
50C
330
1
100
AcDbSymbolTableRecord
100
AcDbBlockTableRecord
  2
*D37
340
0
  0
BLOCK_RECORD
  5
519
330
1
100
AcDbSymbolTableRecord
100
AcDbBlockTableRecord
  2
*D38
340
0
  0
BLOCK_RECORD
  5
526
330
1
100
AcDbSymbolTableRecord
100
AcDbBlockTableRecord
  2
*D39
340
0
  0
ENDTAB
  0
ENDSEC
  0
SECTION
  2
BLOCKS
  0
BLOCK
  5
D
330
A
100
AcDbEntity
  8
0
100
AcDbBlockBegin
  2
*MODEL_SPACE
 70
     0
 10
0.0
 20
0.0
 30
0.0
  3
*MODEL_SPACE
  1

  0
ENDBLK
  5
E
330
A
100
AcDbEntity
  8
0
100
AcDbBlockEnd
  0
BLOCK
  5
F
330
B
100
AcDbEntity
 67
     1
  8
0
100
AcDbBlockBegin
  2
*PAPER_SPACE
 70
     0
 10
0.0
 20
0.0
 30
0.0
  3
*PAPER_SPACE
  1

  0
ENDBLK
  5
10
330
B
100
AcDbEntity
 67
     1
  8
0
100
AcDbBlockEnd
  0
BLOCK
  5
26
330
25
100
AcDbEntity
  8
0
100
AcDbBlockBegin
  2
______
 70
     0
 10
-624.7514761484051
 20
-467.3563375375182
 30
0.0
  3
______
  1

  0
MTEXT
  5
1A4
102
{ACAD_XDICTIONARY
360
70B
102
}
330
25
100
AcDbEntity
  8
1
 62
     3
100
AcDbMText
 10
-740.171439857463
 20
-148.9847929710429
 30
0.0
 40
3.5
 41
0.0
 71
     4
 72
     1
  1
\U+0192N\U+0192\U+008D\U+0192\U+0081\U+0081[\U+0192g
  7
CONVERTER_1
 73
     1
 44
1.0
1001
ACAD
1000
MTEXTBEGIN
1070
    73
1070
     1
1070
    44
1040
1.0
1070
    74
1070
     0
1000
MTEXTEND
  0
MTEXT
  5
1A3
102
{ACAD_XDICTIONARY
360
709
102
}
330
25
100
AcDbEntity
  8
1
 62
     3
100
AcDbMText
 10
-700.1714398574632
 20
-141.984792971043
 30
0.0
 40
3.5
 41
0.0
 71
     4
 72
     1
  1
\U+2022\U+00A7\U+008D\U+00E2\U+2039\U+00C1 \U+0192o\U+0192l\U+008D\U+00E2\U+2039\U+00C1\U+2022t M6
  7
CONVERTER_1
 73
     1
 44
1.0
1001
ACAD
1000
MTEXTBEGIN
1070
    73
1070
     1
1070
    44
1040
1.0
1070
    74
1070
     0
1000
MTEXTEND
  0
MTEXT
  5
1A2
102
{ACAD_XDICTIONARY
360
707
102
}
330
25
100
AcDbEntity
  8
1
 62
     3
100
AcDbMText
 10
-700.1714398574632
 20
-148.9847929710427
 30
0.0
 40
3.5
 41
0.0
 71
     4
 72
     1
  1
\U+201A\U+00E0\U+201A\U+00E6\U+008F~\U+201A\U+00F9\U+201A\U+00D1M4\U+0081~12
  7
CONVERTER_1
 73
     1
 44
1.0
1001
ACAD
1000
MTEXTBEGIN
1070
    73
1070
     1
1070
    44
1040
1.0
1070
    74
1070
     0
1000
MTEXTEND
  0
MTEXT
  5
1A1
102
{ACAD_XDICTIONARY
360
705
102
}
330
25
100
AcDbEntity
  8
1
 62
     3
100
AcDbMText
 10
-740.171439857463
 20
-141.984792971043
 30
0.0
 40
3.5
 41
0.0
 71
     4
 72
     1
  1
\U+02C6\U+0081\U+2030\U+201D\U+0192\U+0081\U+0192b\U+0192L
  7
CONVERTER_1
 73
     1
 44
1.0
1001
ACAD
1000
MTEXTBEGIN
1070
    73
1070
     1
1070
    44
1040
1.0
1070
    74
1070
     0
1000
MTEXTEND
  0
MTEXT
  5
1A0
330
25
100
AcDbEntity
  8
1
 62
     3
100
AcDbMText
 10
-749.671439857463
 20
-141.984792971043
 30
0.0
 40
3.5
 41
0.0
 71
     5
 72
     1
  1
1
  7
CONVERTER_1
 73
     1
 44
1.0
1001
ACAD
1000
MTEXTBEGIN
1070
    73
1070
     1
1070
    44
1040
1.0
1070
    74
1070
     0
1000
MTEXTEND
  0
MTEXT
  5
19F
330
25
100
AcDbEntity
  8
1
 62
     3
100
AcDbMText
 10
-749.671439857463
 20
-148.9847929710427
 30
0.0
 40
3.5
 41
0.0
 71
     5
 72
     1
  1
1
  7
CONVERTER_1
 73
     1
 44
1.0
1001
ACAD
1000
MTEXTBEGIN
1070
    73
1070
     1
1070
    44
1040
1.0
1070
    74
1070
     0
1000
MTEXTEND
  0
MTEXT
  5
19E
330
25
100
AcDbEntity
  8
1
 62
     3
100
AcDbMText
 10
-785.171439857463
 20
-141.984792971043
 30
0.0
 40
3.5
 41
0.0
 71
     4
 72
     1
  1
SWCH 10 A
  7
CONVERTER_1
 73
     1
 44
1.0
1001
ACAD
1000
MTEXTBEGIN
1070
    73
1070
     1
1070
    44
1040
1.0
1070
    74
1070
     0
1000
MTEXTEND
  0
MTEXT
  5
19D
102
{ACAD_XDICTIONARY
360
703
102
}
330
25
100
AcDbEntity
  8
1
 62
     3
100
AcDbMText
 10
-785.171439857463
 20
-148.9847929710427
 30
0.0
 40
3.5
 41
0.0
 71
     4
 72
     1
  1
\U+017Ds\U+201D\U+00E4\U+2022i
  7
CONVERTER_1
 73
     1
 44
1.0
1001
ACAD
1000
MTEXTBEGIN
1070
    73
1070
     1
1070
    44
1040
1.0
1070
    74
1070
     0
1000
MTEXTEND
  0
MTEXT
  5
19C
102
{ACAD_XDICTIONARY
360
701
102
}
330
25
100
AcDbEntity
  8
1
 62
     3
100
AcDbMText
 10
-835.171439857463
 20
-141.984792971043
 30
0.0
 40
3.5
 41
0.0
 71
     4
 72
     1
  1
\U+008D\U+00E2\U+2039\U+00C1\U+2022t\U+201A\U+00E0\U+201A\U+00E6\U+008F~\U+201A\U+00F9\U+201A\U+00D1
  7
CONVERTER_1
 73
     1
 44
1.0
1001
ACAD
1000
MTEXTBEGIN
1070
    73
1070
     1
1070
    44
1040
1.0
1070
    74
1070
     0
1000
MTEXTEND
  0
MTEXT
  5
19B
102
{ACAD_XDICTIONARY
360
6FF
102
}
330
25
100
AcDbEntity
  8
1
 62
     3
100
AcDbMText
 10
-835.171439857463
 20
-148.9847929710427
 30
0.0
 40
3.5
 41
0.0
 71
     4
 72
     1
  1
\U+2019\U+00EF\U+201A%%c\U+0192{\U+0192\U+2039\U+0192g\U+0152\U+00E9\U+2019%%c\U+201A\U+00F9\U+201A\U+00D1
  7
CONVERTER_1
 73
     1
 44
1.0
1001
ACAD
1000
MTEXTBEGIN
1070
    73
1070
     1
1070
    44
1040
1.0
1070
    74
1070
     0
1000
MTEXTEND
  0
MTEXT
  5
19A
330
25
100
AcDbEntity
  8
1
 62
     3
100
AcDbMText
 10
-844.6714398574638
 20
-141.9847929710429
 30
0.0
 40
3.5
 41
0.0
 71
     5
 72
     1
  1
7
  7
CONVERTER_1
 73
     1
 44
1.0
1001
ACAD
1000
MTEXTBEGIN
1070
    73
1070
     1
1070
    44
1040
1.0
1070
    74
1070
     0
1000
MTEXTEND
  0
MTEXT
  5
199
330
25
100
AcDbEntity
  8
1
 62
     4
100
AcDbMText
 10
-804.8727300601091
 20
-229.5716004482798
 30
0.0
 40
2.0
 41
0.0
 71
     5
 72
     1
  1
110
  7
CONVERTER_4
 73
     1
 44
1.0
1001
ACAD
1000
MTEXTBEGIN
1070
    73
1070
     1
1070
    44
1040
1.0
1070
    74
1070
     0
1000
MTEXTEND
  0
MTEXT
  5
198
330
25
100
AcDbEntity
  8
1
 62
     4
100
AcDbMText
 10
-806.050628224
 20
-234.6757932290904
 30
0.0
 40
2.0
 41
0.0
 71
     5
 72
     1
  1
TEL
  7
CONVERTER_5
 73
     1
 44
1.0
1001
ACAD
1000
MTEXTBEGIN
1070
    73
1070
     1
1070
    44
1040
1.0
1070
    74
1070
     0
1000
MTEXTEND
  0
MTEXT
  5
196
102
{ACAD_XDICTIONARY
360
6FD
102
}
330
25
100
AcDbEntity
  8
1
 62
     4
100
AcDbMText
 10
-809.0216510444752
 20
-229.634057533737
 30
0.0
 40
2.5
 41
0.0
 71
     5
 72
     1
  1
\U+0081\U+00CF
  7
CONVERTER_4
 73
     1
 44
1.0
1001
ACAD
1000
MTEXTBEGIN
1070
    73
1070
     1
1070
    44
1040
1.0
1070
    74
1070
     0
1000
MTEXTEND
  0
MTEXT
  5
195
330
25
100
AcDbEntity
  8
1
 62
     4
100
AcDbMText
 10
-790.3852351705791
 20
-234.6957312399705
 30
0.0
 40
2.0
 41
0.0
 71
     5
 72
     1
  1
03 (3876) 0600
  7
CONVERTER_4
 73
     1
 44
1.0
1001
ACAD
1000
MTEXTBEGIN
1070
    73
1070
     1
1070
    44
1040
1.0
1070
    74
1070
     0
1000
MTEXTEND
  0
MTEXT
  5
194
330
25
100
AcDbEntity
  8
1
 62
     4
100
AcDbMText
 10
-771.2595369296242
 20
-229.518486123476
 30
0.0
 40
2.0
 41
0.0
 71
     5
 72
     1
  1
1-27-4
  7
CONVERTER_4
 73
     1
 44
1.0
1001
ACAD
1000
MTEXTBEGIN
1070
    73
1070
     1
1070
    44
1040
1.0
1070
    74
1070
     0
1000
MTEXTEND
  0
MTEXT
  5
193
102
{ACAD_XDICTIONARY
360
6FB
102
}
330
25
100
AcDbEntity
  8
1
 62
     4
100
AcDbMText
 10
-787.5355832478333
 20
-229.5369038339111
 30
0.0
 40
2.5
 41
0.0
 71
     5
 72
     1
  1
\U+201C\U+0152\U+2039\U+20AC\U+201Cs\U+2018\U+00F0\U+201C\U+0152\U+2039\U+00CC\U+201C*\U+2019J
  7
CONVERTER_4
 73
     1
 44
1.0
1001
ACAD
1000
MTEXTBEGIN
1070
    73
1070
     1
1070
    44
1040
1.0
1070
    74
1070
     0
1000
MTEXTEND
  0
MTEXT
  5
192
102
{ACAD_XDICTIONARY
360
6F9
102
}
330
25
100
AcDbEntity
  8
1
 62
     4
100
AcDbMText
 10
-807.6817277298703
 20
-224.8079973538319
 30
0.0
 40
3.0
 41
0.0
 71
     5
 72
     1
  1
\U+00B2{\U+017D\U+00C5
  7
CONVERTER_4
 73
     1
 44
1.0
1001
ACAD
1000
MTEXTBEGIN
1070
    73
1070
     1
1070
    44
1040
1.0
1070
    74
1070
     0
1000
MTEXTEND
  0
MTEXT
  5
191
102
{ACAD_XDICTIONARY
360
6F7
102
}
330
25
100
AcDbEntity
  8
1
 62
     4
100
AcDbMText
 10
-835.2465250278731
 20
-235.078422681509
 30
0.0
 40
4.0
 41
0.0
 71
     5
 72
     1
  1
\U+008D\U+201A\U+2039\U+00C7\U+2039\U+00C1\U+2022\U+00B4\U+0160\U+201D\U+017D\U+00DB\U+2030\U+00FF\U+017D\U+00C5
  7
CONVERTER_4
 73
     1
 44
1.0
1001
ACAD
1000
MTEXTBEGIN
1070
    73
1070
     1
1070
    44
1040
1.0
1070
    74
1070
     0
1000
MTEXTEND
  0
MTEXT
  5
190
102
{ACAD_XDICTIONARY
360
6F5
102
}
330
25
100
AcDbEntity
  8
1
 62
     4
100
AcDbMText
 10
-847.9843683589322
 20
-196.9916489945484
 30
0.0
 40
4.0
 41
0.0
 71
     5
 72
     1
  1
\U+017D\U+00D6\U+201Cx
  7
CONVERTER_4
 73
     1
 44
1.0
1001
ACAD
1000
MTEXTBEGIN
1070
    73
1070
     1
1070
    44
1040
1.0
1070
    74
1070
     0
1000
MTEXTEND
  0
MTEXT
  5
18F
102
{ACAD_XDICTIONARY
360
6F3
102
}
330
25
100
AcDbEntity
  8
1
 62
     4
100
AcDbMText
 10
-769.171439857463
 20
-197.9847929710421
 30
0.0
 40
4.0
 41
0.0
 71
     5
 72
     1
  1
\U+2019S  \U+201C\U+00B2
  7
CONVERTER_4
 73
     1
 44
1.0
1001
ACAD
1000
MTEXTBEGIN
1070
    73
1070
     1
1070
    44
1040
1.0
1070
    74
1070
     0
1000
MTEXTEND
  0
MTEXT
  5
18E
102
{ACAD_XDICTIONARY
360
6F1
102
}
330
25
100
AcDbEntity
  8
1
 62
     4
100
AcDbMText
 10
-789.171439857463
 20
-197.9847929710421
 30
0.0
 40
4.0
 41
0.0
 71
     5
 72
     1
  1
\U+0152\U+0081  \U+0090}
  7
CONVERTER_4
 73
     1
 44
1.0
1001
ACAD
1000
MTEXTBEGIN
1070
    73
1070
     1
1070
    44
1040
1.0
1070
    74
1070
     0
1000
MTEXTEND
  0
MTEXT
  5
18D
102
{ACAD_XDICTIONARY
360
6EF
102
}
330
25
100
AcDbEntity
  8
1
 62
     4
100
AcDbMText
 10
-809.171439857463
 20
-197.9847929710421
 30
0.0
 40
4.0
 41
0.0
 71
     5
 72
     1
  1
\U+008F\U+00B0  \U+201DF
  7
CONVERTER_4
 73
     1
 44
1.0
1001
ACAD
1000
MTEXTBEGIN
1070
    73
1070
     1
1070
    44
1040
1.0
1070
    74
1070
     0
1000
MTEXTEND
  0
MTEXT
  5
18C
102
{ACAD_XDICTIONARY
360
6ED
102
}
330
25
100
AcDbEntity
  8
1
 62
     4
100
AcDbMText
 10
-687.1714398574632
 20
-190.9847929710421
 30
0.0
 40
4.0
 41
0.0
 71
     5
 72
     1
  1
\U+2039L   \U+017D\U+00B2
  7
CONVERTER_4
 73
     1
 44
1.0
1001
ACAD
1000
MTEXTBEGIN
1070
    73
1070
     1
1070
    44
1040
1.0
1070
    74
1070
     0
1000
MTEXTEND
  0
MTEXT
  5
18B
102
{ACAD_XDICTIONARY
360
6EB
102
}
330
25
100
AcDbEntity
  8
1
 62
     4
100
AcDbMText
 10
-722.171439857463
 20
-190.9847929710421
 30
0.0
 40
4.0
 41
0.0
 71
     5
 72
     1
  1
\U+017Dd   \U+008F\U+00D0   \U+201A\U+00AF
  7
CONVERTER_4
 73
     1
 44
1.0
1001
ACAD
1000
MTEXTBEGIN
1070
    73
1070
     1
1070
    44
1040
1.0
1070
    74
1070
     0
1000
MTEXTEND
  0
MTEXT
  5
18A
102
{ACAD_XDICTIONARY
360
6E9
102
}
330
25
100
AcDbEntity
  8
1
 62
     4
100
AcDbMText
 10
-749.671439857463
 20
-190.9847929710421
 30
0.0
 40
4.0
 41
0.0
 71
     5
 72
     1
  1
\U+0090\U+201D %%d%%d
  7
CONVERTER_4
 73
     1
 44
1.0
1001
ACAD
1000
MTEXTBEGIN
1070
    73
1070
     1
1070
    44
1040
1.0
1070
    74
1070
     0
1000
MTEXTEND
  0
MTEXT
  5
189
102
{ACAD_XDICTIONARY
360
6E7
102
}
330
25
100
AcDbEntity
  8
1
 62
     4
100
AcDbMText
 10
-772.171439857463
 20
-190.9847929710421
 30
0.0
 40
4.0
 41
0.0
 71
     5
 72
     1
  1
\U+008D\U+00DF   \U+017D\U+00A2
  7
CONVERTER_4
 73
     1
 44
1.0
1001
ACAD
1000
MTEXTBEGIN
1070
    73
1070
     1
1070
    44
1040
1.0
1070
    74
1070
     0
1000
MTEXTEND
  0
MTEXT
  5
188
102
{ACAD_XDICTIONARY
360
6E5
102
}
330
25
100
AcDbEntity
  8
1
 62
     4
100
AcDbMText
 10
-812.171439857463
 20
-190.9847929710421
 30
0.0
 40
4.0
 41
0.0
 71
     5
 72
     1
  1
\U+2022i        \U+00B2\U+00A5
  7
CONVERTER_4
 73
     1
 44
1.0
1001
ACAD
1000
MTEXTBEGIN
1070
    73
1070
     1
1070
    44
1040
1.0
1070
    74
1070
     0
1000
MTEXTEND
  0
MTEXT
  5
187
102
{ACAD_XDICTIONARY
360
6E3
102
}
330
25
100
AcDbEntity
  8
1
 62
     4
100
AcDbMText
 10
-844.6714398574638
 20
-190.9847929710421
 30
0.0
 40
4.0
 41
0.0
 71
     5
 72
     1
  1
\U+2022i \U+201D\U+00E5
  7
CONVERTER_4
 73
     1
 44
1.0
1001
ACAD
1000
MTEXTBEGIN
1070
    73
1070
     1
1070
    44
1040
1.0
1070
    74
1070
     0
1000
MTEXTEND
  0
MTEXT
  5
186
102
{ACAD_XDICTIONARY
360
6E1
102
}
330
25
100
AcDbEntity
  8
1
 62
     4
100
AcDbMText
 10
-759.2714398574631
 20
-231.9847929710422
 30
0.0
 40
4.0
 41
0.0
 71
     4
 72
     1
  1
\U+0090}\P\U+201D\U+00E5
  7
CONVERTER_4
 73
     1
 44
1.0
1001
ACAD
1000
MTEXTBEGIN
1070
    73
1070
     1
1070
    44
1040
1.0
1070
    74
1070
     0
1000
MTEXTEND
  0
MTEXT
  5
185
102
{ACAD_XDICTIONARY
360
6DF
102
}
330
25
100
AcDbEntity
  8
1
 62
     4
100
AcDbMText
 10
-759.2714398574631
 20
-216.9847929710422
 30
0.0
 40
4.0
 41
0.0
 71
     4
 72
     1
  1
\U+0090}\P\U+00B2\U+00A5
  7
CONVERTER_4
 73
     1
 44
1.0
1001
ACAD
1000
MTEXTBEGIN
1070
    73
1070
     1
1070
    44
1040
1.0
1070
    74
1070
     0
1000
MTEXTEND
  0
MTEXT
  5
184
102
{ACAD_XDICTIONARY
360
6DD
102
}
330
25
100
AcDbEntity
  8
1
 62
     4
100
AcDbMText
 10
-759.2714398574631
 20
-201.9847929710422
 30
0.0
 40
4.0
 41
0.0
 71
     4
 72
     1
  1
\U+2022i\P\U+00B2\U+00A5
  7
CONVERTER_4
 73
     1
 44
1.0
1001
ACAD
1000
MTEXTBEGIN
1070
    73
1070
     1
1070
    44
1040
1.0
1070
    74
1070
     0
1000
MTEXTEND
  0
MTEXT
  5
182
330
25
100
AcDbEntity
  8
1
 62
     3
100
AcDbMText
 10
-749.671439857463
 20
-183.9847929710421
 30
0.0
 40
3.5
 41
0.0
 71
     5
 72
     1
  1
1
  7
CONVERTER_1
 73
     1
 44
1.0
1001
ACAD
1000
MTEXTBEGIN
1070
    73
1070
     1
1070
    44
1040
1.0
1070
    74
1070
     0
1000
MTEXTEND
  0
MTEXT
  5
181
330
25
100
AcDbEntity
  8
1
 62
     3
100
AcDbMText
 10
-844.6714398574638
 20
-183.9847929710421
 30
0.0
 40
3.5
 41
0.0
 71
     5
 72
     1
  1
1
  7
CONVERTER_1
 73
     1
 44
1.0
1001
ACAD
1000
MTEXTBEGIN
1070
    73
1070
     1
1070
    44
1040
1.0
1070
    74
1070
     0
1000
MTEXTEND
  0
MTEXT
  5
180
330
25
100
AcDbEntity
  8
1
 62
     3
100
AcDbMText
 10
-835.6714398574631
 20
-199.4847929710422
 30
0.0
 40
6.0
 41
0.0
 71
     5
 72
     1
  1
1 : 1
  7
CONVERTER_1
 73
     1
 44
1.0
1001
ACAD
1000
MTEXTBEGIN
1070
    73
1070
     1
1070
    44
1040
1.0
1070
    74
1070
     0
1000
MTEXTEND
  0
MTEXT
  5
17F
102
{ACAD_XDICTIONARY
360
6DB
102
}
330
25
100
AcDbEntity
  8
1
 62
     3
100
AcDbMText
 10
-809.171439857463
 20
-206.9847929710422
 30
0.0
 40
6.0
 41
0.0
 71
     5
 72
     1
  1
\U+02C6\U+00CF\U+008D\U+00E3
  7
CONVERTER_1
 73
     1
 44
1.0
1001
ACAD
1000
MTEXTBEGIN
1070
    73
1070
     1
1070
    44
1040
1.0
1070
    74
1070
     0
1000
MTEXTEND
  0
MTEXT
  5
17E
330
25
100
AcDbEntity
  8
1
 62
     3
100
AcDbMText
 10
-809.171439857463
 20
-215.9847929710422
 30
0.0
 40
3.5
 41
0.0
 71
     5
 72
     1
  1
99.11.11.
  7
CONVERTER_1
 73
     1
 44
1.0
1001
ACAD
1000
MTEXTBEGIN
1070
    73
1070
     1
1070
    44
1040
1.0
1070
    74
1070
     0
1000
MTEXTEND
  0
MTEXT
  5
17D
330
25
100
AcDbEntity
  8
1
 62
     3
100
AcDbMText
 10
-789.171439857463
 20
-215.9847929710422
 30
0.0
 40
3.5
 41
0.0
 71
     5
 72
     1
  1
99.11.11.
  7
CONVERTER_1
 73
     1
 44
1.0
1001
ACAD
1000
MTEXTBEGIN
1070
    73
1070
     1
1070
    44
1040
1.0
1070
    74
1070
     0
1000
MTEXTEND
  0
MTEXT
  5
17C
102
{ACAD_XDICTIONARY
360
6D9
102
}
330
25
100
AcDbEntity
  8
1
 62
     3
100
AcDbMText
 10
-789.171439857463
 20
-206.9847929710422
 30
0.0
 40
6.0
 41
0.0
 71
     5
 72
     1
  1
\U+2019\U+2020\U+201C\U+2021
  7
CONVERTER_1
 73
     1
 44
1.0
1001
ACAD
1000
MTEXTBEGIN
1070
    73
1070
     1
1070
    44
1040
1.0
1070
    74
1070
     0
1000
MTEXTEND
  0
MTEXT
  5
17B
102
{ACAD_XDICTIONARY
360
6D7
102
}
330
25
100
AcDbEntity
  8
1
 62
     3
100
AcDbMText
 10
-769.171439857463
 20
-206.9847929710422
 30
0.0
 40
6.0
 41
0.0
 71
     5
 72
     1
  1
\U+0160\U+00F8\U+008D^ 
  7
CONVERTER_1
 73
     1
 44
1.0
1001
ACAD
1000
MTEXTBEGIN
1070
    73
1070
     1
1070
    44
1040
1.0
1070
    74
1070
     0
1000
MTEXTEND
  0
MTEXT
  5
17A
330
25
100
AcDbEntity
  8
1
 62
     3
100
AcDbMText
 10
-769.171439857463
 20
-215.9847929710422
 30
0.0
 40
3.5
 41
0.0
 71
     5
 72
     1
  1
99.11.11.
  7
CONVERTER_1
 73
     1
 44
1.0
1001
ACAD
1000
MTEXTBEGIN
1070
    73
1070
     1
1070
    44
1040
1.0
1070
    74
1070
     0
1000
MTEXTEND
  0
MTEXT
  5
179
330
25
100
AcDbEntity
  8
1
 62
     3
100
AcDbMText
 10
-750.171439857463
 20
-201.9847929710422
 30
0.0
 40
6.0
 41
0.0
 71
     4
 72
     1
  1
AFD-210-B
  7
CONVERTER_1
 73
     1
 44
1.0
1001
ACAD
1000
MTEXTBEGIN
1070
    73
1070
     1
1070
    44
1040
1.0
1070
    74
1070
     0
1000
MTEXTEND
  0
MTEXT
  5
178
102
{ACAD_XDICTIONARY
360
6D5
102
}
330
25
100
AcDbEntity
  8
1
 62
     3
100
AcDbMText
 10
-750.171439857463
 20
-216.9847929710422
 30
0.0
 40
6.0
 41
0.0
 71
     4
 72
     1
  1
\U+2018g%%d\U+00CF\U+0090}
  7
CONVERTER_1
 73
     1
 44
1.0
1001
ACAD
1000
MTEXTBEGIN
1070
    73
1070
     1
1070
    44
1040
1.0
1070
    74
1070
     0
1000
MTEXTEND
  0
MTEXT
  5
177
102
{ACAD_XDICTIONARY
360
6D3
102
}
330
25
100
AcDbEntity
  8
1
 62
     3
100
AcDbMText
 10
-740.171439857463
 20
-176.9847929710421
 30
0.0
 40
3.5
 41
0.0
 71
     4
 72
     1
  1
\U+0192N\U+0192\U+008D\U+0192\U+0081\U+0081[\U+0192g\U+0152\U+00D0 \U+2022\\U+00B2%%d\U+008D\U+2022\U+0090F\U+201Ch\U+2018\U+2022
  7
CONVERTER_1
 73
     1
 44
1.0
1001
ACAD
1000
MTEXTBEGIN
1070
    73
1070
     1
1070
    44
1040
1.0
1070
    74
1070
     0
1000
MTEXTEND
  0
MTEXT
  5
176
102
{ACAD_XDICTIONARY
360
6D1
102
}
330
25
100
AcDbEntity
  8
1
 62
     3
100
AcDbMText
 10
-785.171439857463
 20
-183.9847929710421
 30
0.0
 40
3.5
 41
0.0
 71
     4
 72
     1
  1
6\U+0192i\U+0192C\U+0192\U+008D\U+0192\U+201C\U+2022\U+00C0\U+008D\U+2021\U+008D\U+00DF
  7
CONVERTER_1
 73
     1
 44
1.0
1001
ACAD
1000
MTEXTBEGIN
1070
    73
1070
     1
1070
    44
1040
1.0
1070
    74
1070
     0
1000
MTEXTEND
  0
MTEXT
  5
175
102
{ACAD_XDICTIONARY
360
6CF
102
}
330
25
100
AcDbEntity
  8
1
 62
     3
100
AcDbMText
 10
-835.171439857463
 20
-183.9847929710421
 30
0.0
 40
3.5
 41
0.0
 71
     4
 72
     1
  1
\U+0152\U+00E9\U+2019%%c\U+0192J\U+0192b\U+0192v
  7
CONVERTER_1
 73
     1
 44
1.0
1001
ACAD
1000
MTEXTBEGIN
1070
    73
1070
     1
1070
    44
1040
1.0
1070
    74
1070
     0
1000
MTEXTEND
  0
MTEXT
  5
174
330
25
100
AcDbEntity
  8
1
 62
     3
100
AcDbMText
 10
-844.6714398574638
 20
-176.9847929710421
 30
0.0
 40
3.5
 41
0.0
 71
     5
 72
     1
  1
2
  7
CONVERTER_1
 73
     1
 44
1.0
1001
ACAD
1000
MTEXTBEGIN
1070
    73
1070
     1
1070
    44
1040
1.0
1070
    74
1070
     0
1000
MTEXTEND
  0
MTEXT
  5
173
330
25
100
AcDbEntity
  8
1
 62
     3
100
AcDbMText
 10
-844.6714398574638
 20
-169.9847929710425
 30
0.0
 40
3.5
 41
0.0
 71
     5
 72
     1
  1
3
  7
CONVERTER_1
 73
     1
 44
1.0
1001
ACAD
1000
MTEXTBEGIN
1070
    73
1070
     1
1070
    44
1040
1.0
1070
    74
1070
     0
1000
MTEXTEND
  0
MTEXT
  5
172
330
25
100
AcDbEntity
  8
1
 62
     3
100
AcDbMText
 10
-844.6714398574638
 20
-162.9847929710425
 30
0.0
 40
3.5
 41
0.0
 71
     5
 72
     1
  1
4
  7
CONVERTER_1
 73
     1
 44
1.0
1001
ACAD
1000
MTEXTBEGIN
1070
    73
1070
     1
1070
    44
1040
1.0
1070
    74
1070
     0
1000
MTEXTEND
  0
MTEXT
  5
171
330
25
100
AcDbEntity
  8
1
 62
     3
100
AcDbMText
 10
-844.6714398574638
 20
-155.9847929710426
 30
0.0
 40
3.5
 41
0.0
 71
     5
 72
     1
  1
5
  7
CONVERTER_1
 73
     1
 44
1.0
1001
ACAD
1000
MTEXTBEGIN
1070
    73
1070
     1
1070
    44
1040
1.0
1070
    74
1070
     0
1000
MTEXTEND
  0
MTEXT
  5
170
102
{ACAD_XDICTIONARY
360
6CD
102
}
330
25
100
AcDbEntity
  8
1
 62
     3
100
AcDbMText
 10
-835.171439857463
 20
-176.9847929710421
 30
0.0
 40
3.5
 41
0.0
 71
     4
 72
     1
  1
\U+2019\U+2026\U+2019E\U+0192z\U+0192\U+2039\U+0192_\U+0081[
  7
CONVERTER_1
 73
     1
 44
1.0
1001
ACAD
1000
MTEXTBEGIN
1070
    73
1070
     1
1070
    44
1040
1.0
1070
    74
1070
     0
1000
MTEXTEND
  0
MTEXT
  5
16F
102
{ACAD_XDICTIONARY
360
6CB
102
}
330
25
100
AcDbEntity
  8
1
 62
     3
100
AcDbMText
 10
-835.171439857463
 20
-169.9847929710425
 30
0.0
 40
3.5
 41
0.0
 71
     4
 72
     1
  1
\U+2019\U+00EF\U+201A%%c\U+0192{\U+0192\U+2039\U+0192g
  7
CONVERTER_1
 73
     1
 44
1.0
1001
ACAD
1000
MTEXTBEGIN
1070
    73
1070
     1
1070
    44
1040
1.0
1070
    74
1070
     0
1000
MTEXTEND
  0
MTEXT
  5
16E
102
{ACAD_XDICTIONARY
360
6C9
102
}
330
25
100
AcDbEntity
  8
1
 62
     3
100
AcDbMText
 10
-835.171439857463
 20
-162.9847929710425
 30
0.0
 40
3.5
 41
0.0
 71
     4
 72
     1
  1
\U+0192\U+2030\U+0192\U+201C\U+0192i\U+0081[\U+00B2{\U+2018\U+00E4
  7
CONVERTER_1
 73
     1
 44
1.0
1001
ACAD
1000
MTEXTBEGIN
1070
    73
1070
     1
1070
    44
1040
1.0
1070
    74
1070
     0
1000
MTEXTEND
  0
MTEXT
  5
16D
102
{ACAD_XDICTIONARY
360
6C7
102
}
330
25
100
AcDbEntity
  8
1
 62
     3
100
AcDbMText
 10
-835.171439857463
 20
-155.9847929710426
 30
0.0
 40
3.5
 41
0.0
 71
     4
 72
     1
  1
\U+0192x\U+0192A\U+0192\U+0160\U+0192\U+201C\U+0192O\U+201C*\U+201A%%c\U+017D\U+00E5%%d\U+00F8
  7
CONVERTER_1
 73
     1
 44
1.0
1001
ACAD
1000
MTEXTBEGIN
1070
    73
1070
     1
1070
    44
1040
1.0
1070
    74
1070
     0
1000
MTEXTEND
  0
MTEXT
  5
16C
330
25
100
AcDbEntity
  8
1
 62
     3
100
AcDbMText
 10
-785.171439857463
 20
-176.9847929710421
 30
0.0
 40
3.5
 41
0.0
 71
     4
 72
     1
  1
ZDC 2
  7
CONVERTER_3
 73
     1
 44
1.0
1001
ACAD
1000
MTEXTBEGIN
1070
    73
1070
     1
1070
    44
1040
1.0
1070
    74
1070
     0
1000
MTEXTEND
  0
MTEXT
  5
16A
330
25
100
AcDbEntity
  8
1
 62
     3
100
AcDbMText
 10
-785.171439857463
 20
-169.9847929710425
 30
0.0
 40
3.5
 41
0.0
 71
     4
 72
     1
  1
SWCH 10
  7
CONVERTER_1
 73
     1
 44
1.0
1001
ACAD
1000
MTEXTBEGIN
1070
    73
1070
     1
1070
    44
1040
1.0
1070
    74
1070
     0
1000
MTEXTEND
  0
MTEXT
  5
169
102
{ACAD_XDICTIONARY
360
6C5
102
}
330
25
100
AcDbEntity
  8
1
 62
     3
100
AcDbMText
 10
-785.171439857463
 20
-162.9847929710425
 30
0.0
 40
3.5
 41
0.0
 71
     4
 72
     1
  1
6\U+0192i\U+0192C\U+0192\U+008D\U+0192\U+201C
  7
CONVERTER_1
 73
     1
 44
1.0
1001
ACAD
1000
MTEXTBEGIN
1070
    73
1070
     1
1070
    44
1040
1.0
1070
    74
1070
     0
1000
MTEXTEND
  0
MTEXT
  5
168
102
{ACAD_XDICTIONARY
360
6C3
102
}
330
25
100
AcDbEntity
  8
1
 62
     3
100
AcDbMText
 10
-785.171439857463
 20
-155.9847929710426
 30
0.0
 40
3.5
 41
0.0
 71
     4
 72
     1
  1
\U+0192W\U+0192\U+2026\U+0192\U+2030\U+0192R\U+0192\U+201C\U+0081A\U+0192X\U+0192`\U+0081[\U+0192\U+2039\U+0192{\U+0081[\U+0192\U+2039,\U+2018\U+00A5
  7
CONVERTER_2
 73
     1
 44
1.0
1001
ACAD
1000
MTEXTBEGIN
1070
    73
1070
     1
1070
    44
1040
1.0
1070
    74
1070
     0
1000
MTEXTEND
  0
MTEXT
  5
166
330
25
100
AcDbEntity
  8
1
 62
     3
100
AcDbMText
 10
-749.671439857463
 20
-176.9847929710421
 30
0.0
 40
3.5
 41
0.0
 71
     5
 72
     1
  1
1
  7
CONVERTER_1
 73
     1
 44
1.0
1001
ACAD
1000
MTEXTBEGIN
1070
    73
1070
     1
1070
    44
1040
1.0
1070
    74
1070
     0
1000
MTEXTEND
  0
MTEXT
  5
165
330
25
100
AcDbEntity
  8
1
 62
     3
100
AcDbMText
 10
-749.671439857463
 20
-169.9847929710425
 30
0.0
 40
3.5
 41
0.0
 71
     5
 72
     1
  1
1
  7
CONVERTER_1
 73
     1
 44
1.0
1001
ACAD
1000
MTEXTBEGIN
1070
    73
1070
     1
1070
    44
1040
1.0
1070
    74
1070
     0
1000
MTEXTEND
  0
MTEXT
  5
164
330
25
100
AcDbEntity
  8
1
 62
     3
100
AcDbMText
 10
-749.671439857463
 20
-162.9847929710425
 30
0.0
 40
3.5
 41
0.0
 71
     5
 72
     1
  1
1
  7
CONVERTER_1
 73
     1
 44
1.0
1001
ACAD
1000
MTEXTBEGIN
1070
    73
1070
     1
1070
    44
1040
1.0
1070
    74
1070
     0
1000
MTEXTEND
  0
MTEXT
  5
163
330
25
100
AcDbEntity
  8
1
 62
     3
100
AcDbMText
 10
-749.671439857463
 20
-155.9847929710426
 30
0.0
 40
3.5
 41
0.0
 71
     5
 72
     1
  1
4
  7
CONVERTER_1
 73
     1
 44
1.0
1001
ACAD
1000
MTEXTBEGIN
1070
    73
1070
     1
1070
    44
1040
1.0
1070
    74
1070
     0
1000
MTEXTEND
  0
MTEXT
  5
162
102
{ACAD_XDICTIONARY
360
6C1
102
}
330
25
100
AcDbEntity
  8
1
 62
     3
100
AcDbMText
 10
-740.171439857463
 20
-183.9847929710421
 30
0.0
 40
3.5
 41
0.0
 71
     4
 72
     1
  1
\U+008D\U+2022\U+0090F
  7
CONVERTER_1
 73
     1
 44
1.0
1001
ACAD
1000
MTEXTBEGIN
1070
    73
1070
     1
1070
    44
1040
1.0
1070
    74
1070
     0
1000
MTEXTEND
  0
MTEXT
  5
161
102
{ACAD_XDICTIONARY
360
6BF
102
}
330
25
100
AcDbEntity
  8
1
 62
     3
100
AcDbMText
 10
-740.171439857463
 20
-169.9847929710425
 30
0.0
 40
3.5
 41
0.0
 71
     4
 72
     1
  1
\U+0192N\U+0192\U+008D\U+0192\U+0081\U+0081[\U+0192g
  7
CONVERTER_1
 73
     1
 44
1.0
1001
ACAD
1000
MTEXTBEGIN
1070
    73
1070
     1
1070
    44
1040
1.0
1070
    74
1070
     0
1000
MTEXTEND
  0
MTEXT
  5
160
102
{ACAD_XDICTIONARY
360
6BD
102
}
330
25
100
AcDbEntity
  8
1
 62
     3
100
AcDbMText
 10
-740.171439857463
 20
-162.9847929710425
 30
0.0
 40
3.5
 41
0.0
 71
     4
 72
     1
  1
\U+0192`\U+0192\U+2021\U+0192R\U+0090F
  7
CONVERTER_1
 73
     1
 44
1.0
1001
ACAD
1000
MTEXTBEGIN
1070
    73
1070
     1
1070
    44
1040
1.0
1070
    74
1070
     0
1000
MTEXTEND
  0
MTEXT
  5
15F
102
{ACAD_XDICTIONARY
360
6BB
102
}
330
25
100
AcDbEntity
  8
1
 62
     3
100
AcDbMText
 10
-740.171439857463
 20
-155.9847929710426
 30
0.0
 40
3.5
 41
0.0
 71
     4
 72
     1
  1
\U+201D\U+2019\U+0081A\U+2018\U+00A5
  7
CONVERTER_1
 73
     1
 44
1.0
1001
ACAD
1000
MTEXTBEGIN
1070
    73
1070
     1
1070
    44
1040
1.0
1070
    74
1070
     0
1000
MTEXTEND
  0
MTEXT
  5
15E
330
25
100
AcDbEntity
  8
1
 62
     3
100
AcDbMText
 10
-844.6714398574638
 20
-148.9847929710427
 30
0.0
 40
3.5
 41
0.0
 71
     5
 72
     1
  1
6
  7
CONVERTER_1
 73
     1
 44
1.0
1001
ACAD
1000
MTEXTBEGIN
1070
    73
1070
     1
1070
    44
1040
1.0
1070
    74
1070
     0
1000
MTEXTEND
  0
MTEXT
  5
15D
330
25
100
AcDbEntity
  8
1
 62
     3
100
AcDbMText
 10
-700.1714398574632
 20
-134.9847929710433
 30
0.0
 40
3.5
 41
0.0
 71
     4
 72
     1
  1
M6
  7
CONVERTER_1
 73
     1
 44
1.0
1001
ACAD
1000
MTEXTBEGIN
1070
    73
1070
     1
1070
    44
1040
1.0
1070
    74
1070
     0
1000
MTEXTEND
  0
MTEXT
  5
15C
102
{ACAD_XDICTIONARY
360
6B9
102
}
330
25
100
AcDbEntity
  8
1
 62
     3
100
AcDbMText
 10
-700.1714398574632
 20
-127.9847929710433
 30
0.0
 40
3.5
 41
0.0
 71
     4
 72
     1
  1
\U+0160\U+00DC\U+017DM\U+00B2\U+00C4\U+201A\U+00F9\U+201A\U+00D13.1\U+0081~20
  7
CONVERTER_1
 73
     1
 44
1.0
1001
ACAD
1000
MTEXTBEGIN
1070
    73
1070
     1
1070
    44
1040
1.0
1070
    74
1070
     0
1000
MTEXTEND
  0
MTEXT
  5
15B
102
{ACAD_XDICTIONARY
360
6B7
102
}
330
25
100
AcDbEntity
  8
1
 62
     3
100
AcDbMText
 10
-740.171439857463
 20
-134.9847929710433
 30
0.0
 40
3.5
 41
0.0
 71
     4
 72
     1
  1
\U+0192N\U+0192\U+008D\U+0192\U+0081\U+0081[\U+0192g
  7
CONVERTER_1
 73
     1
 44
1.0
1001
ACAD
1000
MTEXTBEGIN
1070
    73
1070
     1
1070
    44
1040
1.0
1070
    74
1070
     0
1000
MTEXTEND
  0
MTEXT
  5
15A
102
{ACAD_XDICTIONARY
360
6B5
102
}
330
25
100
AcDbEntity
  8
1
 62
     3
100
AcDbMText
 10
-740.171439857463
 20
-127.9847929710433
 30
0.0
 40
3.5
 41
0.0
 71
     4
 72
     1
  1
\U+02C6\U+0081\U+2030\U+201D\U+0192\U+0081\U+0192b\U+0192L
  7
CONVERTER_1
 73
     1
 44
1.0
1001
ACAD
1000
MTEXTBEGIN
1070
    73
1070
     1
1070
    44
1040
1.0
1070
    74
1070
     0
1000
MTEXTEND
  0
MTEXT
  5
159
330
25
100
AcDbEntity
  8
1
 62
     3
100
AcDbMText
 10
-749.671439857463
 20
-134.9847929710433
 30
0.0
 40
3.5
 41
0.0
 71
     5
 72
     1
  1
1
  7
CONVERTER_1
 73
     1
 44
1.0
1001
ACAD
1000
MTEXTBEGIN
1070
    73
1070
     1
1070
    44
1040
1.0
1070
    74
1070
     0
1000
MTEXTEND
  0
MTEXT
  5
158
330
25
100
AcDbEntity
  8
1
 62
     3
100
AcDbMText
 10
-749.671439857463
 20
-127.9847929710433
 30
0.0
 40
3.5
 41
0.0
 71
     5
 72
     1
  1
2
  7
CONVERTER_1
 73
     1
 44
1.0
1001
ACAD
1000
MTEXTBEGIN
1070
    73
1070
     1
1070
    44
1040
1.0
1070
    74
1070
     0
1000
MTEXTEND
  0
MTEXT
  5
157
102
{ACAD_XDICTIONARY
360
6B3
102
}
330
25
100
AcDbEntity
  8
1
 62
     3
100
AcDbMText
 10
-785.171439857463
 20
-134.9847929710433
 30
0.0
 40
3.5
 41
0.0
 71
     4
 72
     1
  1
\U+017Ds\U+201D\U+00E4\U+2022i \U+201C%%p\U+017D\U+00DA
  7
CONVERTER_1
 73
     1
 44
1.0
1001
ACAD
1000
MTEXTBEGIN
1070
    73
1070
     1
1070
    44
1040
1.0
1070
    74
1070
     0
1000
MTEXTEND
  0
MTEXT
  5
156
102
{ACAD_XDICTIONARY
360
6B1
102
}
330
25
100
AcDbEntity
  8
1
 62
     3
100
AcDbMText
 10
-785.171439857463
 20
-127.9847929710433
 30
0.0
 40
3.5
 41
0.0
 71
     4
 72
     1
  1
\U+017Ds\U+201D\U+00E4\U+2022i
  7
CONVERTER_1
 73
     1
 44
1.0
1001
ACAD
1000
MTEXTBEGIN
1070
    73
1070
     1
1070
    44
1040
1.0
1070
    74
1070
     0
1000
MTEXTEND
  0
MTEXT
  5
155
102
{ACAD_XDICTIONARY
360
6AF
102
}
330
25
100
AcDbEntity
  8
1
 62
     3
100
AcDbMText
 10
-835.171439857463
 20
-134.9847929710433
 30
0.0
 40
3.5
 41
0.0
 71
     4
 72
     1
  1
\U+0152\U+00E9\U+2019%%c\U+0192J\U+0192b\U+0192v\U+0192i\U+0192b\U+0192g
  7
CONVERTER_1
 73
     1
 44
1.0
1001
ACAD
1000
MTEXTBEGIN
1070
    73
1070
     1
1070
    44
1040
1.0
1070
    74
1070
     0
1000
MTEXTEND
  0
MTEXT
  5
154
102
{ACAD_XDICTIONARY
360
6AD
102
}
330
25
100
AcDbEntity
  8
1
 62
     3
100
AcDbMText
 10
-835.171439857463
 20
-127.9847929710433
 30
0.0
 40
3.5
 41
0.0
 71
     4
 72
     1
  1
\U+017D\U+00CC\U+2022t\U+201A\U+00A3%%dp\U+201CY\U+2022t\U+201A\U+00F9\U+201A\U+00D1
  7
CONVERTER_1
 73
     1
 44
1.0
1001
ACAD
1000
MTEXTBEGIN
1070
    73
1070
     1
1070
    44
1040
1.0
1070
    74
1070
     0
1000
MTEXTEND
  0
MTEXT
  5
153
330
25
100
AcDbEntity
  8
1
 62
     3
100
AcDbMText
 10
-844.6714398574638
 20
-134.984792971043
 30
0.0
 40
3.5
 41
0.0
 71
     5
 72
     1
  1
8
  7
CONVERTER_1
 73
     1
 44
1.0
1001
ACAD
1000
MTEXTBEGIN
1070
    73
1070
     1
1070
    44
1040
1.0
1070
    74
1070
     0
1000
MTEXTEND
  0
MTEXT
  5
152
330
25
100
AcDbEntity
  8
1
 62
     3
100
AcDbMText
 10
-844.6714398574638
 20
-127.9847929710433
 30
0.0
 40
3.5
 41
0.0
 71
     5
 72
     1
  1
9
  7
CONVERTER_1
 73
     1
 44
1.0
1001
ACAD
1000
MTEXTBEGIN
1070
    73
1070
     1
1070
    44
1040
1.0
1070
    74
1070
     0
1000
MTEXTEND
  0
ARC
  5
150
330
25
100
AcDbEntity
  8
1
  6
Continuous
 62
     7
100
AcDbCircle
 10
-821.1023174010824
 20
-230.0521970456674
 30
0.0
 40
0.26152226372199
100
AcDbArc
 50
180.0
 51
-90.0
  0
ARC
  5
14F
330
25
100
AcDbEntity
  8
1
  6
Continuous
 62
     7
100
AcDbCircle
 10
-823.4037133218402
 20
-230.0521970456674
 30
0.0
 40
0.2615222637225
100
AcDbArc
 50
-90.0
 51
0.0
  0
ARC
  5
14E
330
25
100
AcDbEntity
  8
1
  6
Continuous
 62
     7
100
AcDbCircle
 10
-821.1023174010824
 20
-224.4033161492614
 30
0.0
 40
0.2615222637225
100
AcDbArc
 50
90.0
 51
180.0
  0
ARC
  5
14D
330
25
100
AcDbEntity
  8
1
  6
Continuous
 62
     7
100
AcDbCircle
 10
-823.299104416351
 20
-224.2938761373114
 30
0.0
 40
0.15691335823396
100
AcDbArc
 50
0.0
 51
164.9999999999659
  0
ARC
  5
14C
330
25
100
AcDbEntity
  8
1
  6
Continuous
 62
     7
100
AcDbCircle
 10
-824.815933545941
 20
-226.7213373242506
 30
0.0
 40
0.15691335823394
100
AcDbArc
 50
-165.0000000000519
 51
-15.00000000003408
  0
ARC
  5
14B
330
25
100
AcDbEntity
  8
1
  6
Continuous
 62
     7
100
AcDbCircle
 10
-827.6403739941441
 20
-224.2639375463371
 30
0.0
 40
0.15691335823301
100
AcDbArc
 50
15.00000000011499
 51
180.0
  0
ARC
  5
14A
330
25
100
AcDbEntity
  8
1
  6
Continuous
 62
     7
100
AcDbCircle
 10
-827.6403739941441
 20
-230.1568059511564
 30
0.0
 40
0.15691335823408
100
AcDbArc
 50
180.0
 51
-90.0
  0
ARC
  5
149
330
25
100
AcDbEntity
  8
1
  6
Continuous
 62
     7
100
AcDbCircle
 10
-828.4772452380563
 20
-230.1568059511564
 30
0.0
 40
0.15691335823351
100
AcDbArc
 50
-90.0
 51
0.0
  0
ARC
  5
148
330
25
100
AcDbEntity
  8
1
  6
Continuous
 62
     7
100
AcDbCircle
 10
-828.4772452380563
 20
-224.2987072437724
 30
0.0
 40
0.15691335823294
100
AcDbArc
 50
0.0
 51
90.0
  0
ARC
  5
147
330
25
100
AcDbEntity
  8
1
  6
Continuous
 62
     7
100
AcDbCircle
 10
-827.4834606359112
 20
-230.418328214879
 30
0.0
 40
0.10460890548904
100
AcDbArc
 50
0.0
 51
90.0
  0
ARC
  5
146
330
25
100
AcDbEntity
  8
1
  6
Continuous
 62
     7
100
AcDbCircle
 10
-828.7387675017791
 20
-230.418328214879
 30
0.0
 40
0.1046089054891
100
AcDbArc
 50
90.0
 51
180.0
  0
ARC
  5
145
330
25
100
AcDbEntity
  8
1
  6
Continuous
 62
     7
100
AcDbCircle
 10
-823.6129311328182
 20
-230.418328214879
 30
0.0
 40
0.1046089054891
100
AcDbArc
 50
90.0
 51
180.0
  0
ARC
  5
144
330
25
100
AcDbEntity
  8
1
  6
Continuous
 62
     7
100
AcDbCircle
 10
-820.893099590104
 20
-230.418328214879
 30
0.0
 40
0.10460890548893
100
AcDbArc
 50
0.0
 51
90.0
  0
ARC
  5
143
330
25
100
AcDbEntity
  8
1
  6
Continuous
 62
     7
100
AcDbCircle
 10
-820.893099590104
 20
-224.0371849800498
 30
0.0
 40
0.10460890548902
100
AcDbArc
 50
-90.0
 51
0.0
  0
ARC
  5
142
330
25
100
AcDbEntity
  8
1
  6
Continuous
 62
     7
100
AcDbCircle
 10
-828.7387675017791
 20
-224.0371849800498
 30
0.0
 40
0.10460890548904
100
AcDbArc
 50
180.0
 51
-90.0
  0
ARC
  5
141
330
25
100
AcDbEntity
  8
1
  6
Continuous
 62
     7
100
AcDbCircle
 10
-841.6579673296702
 20
-230.418328214879
 30
0.0
 40
0.1046089054891
100
AcDbArc
 50
90.0
 51
180.0
  0
ARC
  5
140
330
25
100
AcDbEntity
  8
1
  6
Continuous
 62
     7
100
AcDbCircle
 10
-838.7289179759783
 20
-230.418328214879
 30
0.0
 40
0.10460890548904
100
AcDbArc
 50
0.0
 51
90.0
  0
ARC
  5
13F
330
25
100
AcDbEntity
  8
1
  6
Continuous
 62
     7
100
AcDbCircle
 10
-838.9381357869561
 20
-230.0521970456674
 30
0.0
 40
0.26152226372301
100
AcDbArc
 50
180.0
 51
-90.0
  0
ARC
  5
13E
330
25
100
AcDbEntity
  8
1
  6
Continuous
 62
     7
100
AcDbCircle
 10
-841.4487495186921
 20
-230.0521970456674
 30
0.0
 40
0.2615222637225
100
AcDbArc
 50
-90.0
 51
0.0
  0
ARC
  5
13D
330
25
100
AcDbEntity
  8
1
  6
Continuous
 62
     7
100
AcDbCircle
 10
-841.7038627355681
 20
-224.8740562239619
 30
0.0
 40
0.7322623384229999
100
AcDbArc
 50
90.0
 51
162.5271147297026
  0
ARC
  5
13C
330
25
100
AcDbEntity
  8
1
  6
Continuous
 62
     7
100
AcDbCircle
 10
-838.6830225700812
 20
-224.8740562239619
 30
0.0
 40
0.7322623384232902
100
AcDbArc
 50
17.47288527029464
 51
90.0
  0
ARC
  5
13B
330
25
100
AcDbEntity
  8
1
  6
Continuous
 62
     7
100
AcDbCircle
 10
-838.8335268814669
 20
-224.5079250547504
 30
0.0
 40
0.36613116921149
100
AcDbArc
 50
90.0
 51
180.0
  0
ARC
  5
13A
330
25
100
AcDbEntity
  8
1
  6
Continuous
 62
     7
100
AcDbCircle
 10
-841.553358424181
 20
-224.5079250547504
 30
0.0
 40
0.36613116921092
100
AcDbArc
 50
0.0
 51
90.0
  0
ARC
  5
139
330
25
100
AcDbEntity
  8
1
  6
Continuous
 62
     7
100
AcDbCircle
 10
-842.756360837305
 20
-230.418328214879
 30
0.0
 40
0.10460890548893
100
AcDbArc
 50
0.0
 51
90.0
  0
ARC
  5
138
330
25
100
AcDbEntity
  8
1
  6
Continuous
 62
     7
100
AcDbCircle
 10
-845.6854101909971
 20
-230.418328214879
 30
0.0
 40
0.1046089054891
100
AcDbArc
 50
90.0
 51
180.0
  0
ARC
  5
137
330
25
100
AcDbEntity
  8
1
  6
Continuous
 62
     7
100
AcDbCircle
 10
-848.0914150172441
 20
-230.418328214879
 30
0.0
 40
0.10460890548893
100
AcDbArc
 50
0.0
 51
90.0
  0
ARC
  5
136
330
25
100
AcDbEntity
  8
1
  6
Continuous
 62
     7
100
AcDbCircle
 10
-849.5559396940898
 20
-230.418328214879
 30
0.0
 40
0.1046089054891
100
AcDbArc
 50
90.0
 51
180.0
  0
ARC
  5
135
330
25
100
AcDbEntity
  8
1
  6
Continuous
 62
     7
100
AcDbCircle
 10
-843.1146292599127
 20
-230.0521970456674
 30
0.0
 40
0.26152226372227
100
AcDbArc
 50
-162.9999999999856
 51
-90.0
  0
ARC
  5
134
330
25
100
AcDbEntity
  8
1
  6
Continuous
 62
     7
100
AcDbCircle
 10
-849.2996173364018
 20
-230.0521970456674
 30
0.0
 40
0.2615222637225
100
AcDbArc
 50
-90.0
 51
-16.99999999999982
  0
ARC
  5
133
330
25
100
AcDbEntity
  8
1
  6
Continuous
 62
     7
100
AcDbCircle
 10
-845.3958002565565
 20
-230.1045014984118
 30
0.0
 40
0.20921781097812
100
AcDbArc
 50
-90.0
 51
16.99999999993746
  0
ARC
  5
132
330
25
100
AcDbEntity
  8
1
  6
Continuous
 62
     7
100
AcDbCircle
 10
-845.9075146879454
 20
-228.4307590105879
 30
0.0
 40
0.20921781097808
100
AcDbArc
 50
16.99999999999701
 51
90.0
  0
ARC
  5
131
330
25
100
AcDbEntity
  8
1
  6
Continuous
 62
     7
100
AcDbCircle
 10
-848.3471014572387
 20
-230.1568059511564
 30
0.0
 40
0.15691335823345
100
AcDbArc
 50
162.9999999999933
 51
-90.0
  0
ARC
  5
130
330
25
100
AcDbEntity
  8
1
  6
Continuous
 62
     7
100
AcDbCircle
 10
-847.803404873888
 20
-228.3784545578434
 30
0.0
 40
0.15691335823362
100
AcDbArc
 50
90.0
 51
163.0000000000176
  0
ARC
  5
12F
330
25
100
AcDbEntity
  8
1
  6
Continuous
 62
     7
100
AcDbCircle
 10
-846.1246686445582
 20
-227.5415833139314
 30
0.0
 40
0.1569133582334
100
AcDbArc
 50
-90.0
 51
16.99999999998239
  0
ARC
  5
12E
330
25
100
AcDbEntity
  8
1
  6
Continuous
 62
     7
100
AcDbCircle
 10
-847.5475476581937
 20
-227.5415833139314
 30
0.0
 40
0.15691335823345
100
AcDbArc
 50
162.9999999999933
 51
-90.0
  0
ARC
  5
12D
330
25
100
AcDbEntity
  8
1
  6
Continuous
 62
     7
100
AcDbCircle
 10
-846.836108151376
 20
-225.2145695401629
 30
0.0
 40
0.15691335823367
100
AcDbArc
 50
16.99999999998239
 51
162.9999999999933
  0
CIRCLE
  5
12C
330
25
100
AcDbEntity
  8
1
  6
Continuous
 62
     5
100
AcDbCircle
 10
-844.0959933961464
 20
-211.9847929710422
 30
0.0
 40
4.0
  0
CIRCLE
  5
12B
330
25
100
AcDbEntity
  8
1
  6
Continuous
 62
     5
100
AcDbCircle
 10
-844.0959933961464
 20
-211.9847929710422
 30
0.0
 40
2.0
  0
CIRCLE
  5
12A
330
25
100
AcDbEntity
  8
1
  6
Continuous
 62
     7
100
AcDbCircle
 10
-833.1846459850611
 20
-227.2277565974644
 30
0.0
 40
3.81822505034802
  0
ARC
  5
129
330
25
100
AcDbEntity
  8
1
  6
Continuous
 62
     7
100
AcDbCircle
 10
-834.9229331464902
 20
-228.966043758893
 30
0.0
 40
0.83687124391168
100
AcDbArc
 50
134.9999999999986
 51
-45.00000000001651
  0
ARC
  5
128
330
25
100
AcDbEntity
  8
1
  6
Continuous
 62
     7
100
AcDbCircle
 10
-831.4463588236332
 20
-225.4894694360357
 30
0.0
 40
0.8368712439118198
100
AcDbArc
 50
-45.000000000011
 51
134.9999999999931
  0
ARC
  5
127
330
25
100
AcDbEntity
  8
1
  6
Continuous
 62
     7
100
AcDbCircle
 10
-842.860969742794
 20
-225.2401873931733
 30
0.0
 40
0.26152226372241
100
AcDbArc
 50
178.1475627146907
 51
-17.47288527028598
  0
ARC
  5
126
330
25
100
AcDbEntity
  8
1
  6
Continuous
 62
     7
100
AcDbCircle
 10
-837.5259155628551
 20
-225.2401873931733
 30
0.0
 40
0.26152226372176
100
AcDbArc
 50
-162.5271147296468
 51
1.85243728530689
  0
LINE
  5
125
330
25
100
AcDbEntity
  8
1
  6
Continuous
 62
     5
100
AcDbLine
 10
-702.1714398574633
 20
-138.484792971043
 30
0.0
 11
-672.1714398574633
 21
-138.484792971043
 31
0.0
  0
LINE
  5
124
330
25
100
AcDbEntity
  8
1
  6
Continuous
 62
     5
100
AcDbLine
 10
-702.1714398574633
 20
-138.484792971043
 30
0.0
 11
-702.1714398574633
 21
-145.4847929710429
 31
0.0
  0
LINE
  5
123
330
25
100
AcDbEntity
  8
1
  6
Continuous
 62
     5
100
AcDbLine
 10
-742.171439857463
 20
-138.484792971043
 30
0.0
 11
-702.1714398574633
 21
-138.484792971043
 31
0.0
  0
LINE
  5
122
330
25
100
AcDbEntity
  8
1
  6
Continuous
 62
     5
100
AcDbLine
 10
-742.171439857463
 20
-138.484792971043
 30
0.0
 11
-742.171439857463
 21
-145.4847929710429
 31
0.0
  0
LINE
  5
121
330
25
100
AcDbEntity
  8
1
  6
Continuous
 62
     5
100
AcDbLine
 10
-757.171439857463
 20
-138.484792971043
 30
0.0
 11
-742.171439857463
 21
-138.484792971043
 31
0.0
  0
LINE
  5
120
330
25
100
AcDbEntity
  8
1
  6
Continuous
 62
     5
100
AcDbLine
 10
-757.171439857463
 20
-138.484792971043
 30
0.0
 11
-757.171439857463
 21
-145.4847929710429
 31
0.0
  0
LINE
  5
11F
330
25
100
AcDbEntity
  8
1
  6
Continuous
 62
     5
100
AcDbLine
 10
-787.171439857463
 20
-138.484792971043
 30
0.0
 11
-757.171439857463
 21
-138.484792971043
 31
0.0
  0
LINE
  5
11E
330
25
100
AcDbEntity
  8
1
  6
Continuous
 62
     5
100
AcDbLine
 10
-787.171439857463
 20
-138.484792971043
 30
0.0
 11
-787.171439857463
 21
-145.4847929710429
 31
0.0
  0
LINE
  5
11D
330
25
100
AcDbEntity
  8
1
  6
Continuous
 62
     5
100
AcDbLine
 10
-837.171439857463
 20
-138.484792971043
 30
0.0
 11
-787.171439857463
 21
-138.484792971043
 31
0.0
  0
LINE
  5
11C
330
25
100
AcDbEntity
  8
1
  6
Continuous
 62
     5
100
AcDbLine
 10
-837.171439857463
 20
-138.484792971043
 30
0.0
 11
-837.171439857463
 21
-145.4847929710429
 31
0.0
  0
LINE
  5
11B
330
25
100
AcDbEntity
  8
1
  6
Continuous
 62
     5
100
AcDbLine
 10
-852.1714398574637
 20
-145.4847929710429
 30
0.0
 11
-852.1714398574637
 21
-138.484792971043
 31
0.0
  0
LINE
  5
11A
330
25
100
AcDbEntity
  8
1
  6
Continuous
 62
     5
100
AcDbLine
 10
-852.1714398574637
 20
-138.484792971043
 30
0.0
 11
-837.171439857463
 21
-138.484792971043
 31
0.0
  0
LINE
  5
119
330
25
100
AcDbEntity
  8
1
  6
Continuous
 62
     5
100
AcDbLine
 10
-844.0959933961464
 20
-213.1800423185928
 30
0.0
 11
-844.0959933961464
 21
-217.9819631169331
 31
0.0
  0
LINE
  5
118
330
25
100
AcDbEntity
  8
1
  6
Continuous
 62
     5
100
AcDbLine
 10
-844.0959933961464
 20
-211.1906751307091
 30
0.0
 11
-844.0959933961464
 21
-212.6998502387588
 31
0.0
  0
LINE
  5
117
330
25
100
AcDbEntity
  8
1
  6
Continuous
 62
     5
100
AcDbLine
 10
-844.0959933961464
 20
-206.3887543323688
 30
0.0
 11
-844.0959933961464
 21
-210.7447824851489
 31
0.0
  0
LINE
  5
116
330
25
100
AcDbEntity
  8
1
  6
Continuous
 62
     5
100
AcDbLine
 10
-828.3458056347521
 20
-211.9847929710422
 30
0.0
 11
-821.8975119912661
 21
-211.9847929710422
 31
0.0
  0
LINE
  5
115
330
25
100
AcDbEntity
  8
1
  6
Continuous
 62
     5
100
AcDbLine
 10
-829.957879045623
 20
-211.9847929710422
 30
0.0
 11
-829.1003931887761
 21
-211.9847929710422
 31
0.0
  0
LINE
  5
114
330
25
100
AcDbEntity
  8
1
  6
Continuous
 62
     5
100
AcDbLine
 10
-842.5457714241291
 20
-211.9847929710422
 30
0.0
 11
-830.4723705597313
 21
-211.9847929710422
 31
0.0
  0
LINE
  5
113
330
25
100
AcDbEntity
  8
1
  6
Continuous
 62
     5
100
AcDbLine
 10
-844.9810312575735
 20
-211.9847929710422
 30
0.0
 11
-843.0259635039632
 21
-211.9847929710422
 31
0.0
  0
LINE
  5
112
330
25
100
AcDbEntity
  8
1
  6
Continuous
 62
     5
100
AcDbLine
 10
-849.5771554502702
 20
-211.9847929710422
 30
0.0
 11
-845.5298222059555
 21
-211.9847929710422
 31
0.0
  0
LINE
  5
111
330
25
100
AcDbEntity
  8
1
  6
Continuous
 62
     5
100
AcDbLine
 10
-824.2897569604163
 20
-215.9847929710422
 30
0.0
 11
-834.1211134520651
 21
-213.9847929710422
 31
0.0
  0
LINE
  5
110
330
25
100
AcDbEntity
  8
1
  6
Continuous
 62
     5
100
AcDbLine
 10
-824.2897569604163
 20
-207.9847929710421
 30
0.0
 11
-824.2897569604163
 21
-215.9847929710422
 31
0.0
  0
LINE
  5
10F
330
25
100
AcDbEntity
  8
1
  6
Continuous
 62
     5
100
AcDbLine
 10
-834.1211134520651
 20
-209.9847929710422
 30
0.0
 11
-824.2897569604163
 21
-207.9847929710421
 31
0.0
  0
LINE
  5
10E
330
25
100
AcDbEntity
  8
1
  6
Continuous
 62
     5
100
AcDbLine
 10
-834.1211134520651
 20
-213.9847929710422
 30
0.0
 11
-834.1211134520651
 21
-209.9847929710422
 31
0.0
  0
LINE
  5
10D
330
25
100
AcDbEntity
  8
1
  6
Continuous
 62
     7
100
AcDbLine
 10
-823.1421910581172
 20
-224.2938761373114
 30
0.0
 11
-823.1421910581172
 21
-230.0521970456674
 31
0.0
  0
LINE
  5
10C
330
25
100
AcDbEntity
  8
1
  6
Continuous
 62
     7
100
AcDbLine
 10
-825.2147145537731
 20
-230.8367638368349
 30
0.0
 11
-823.4506710815582
 21
-224.2532639717696
 31
0.0
  0
LINE
  5
10B
330
25
100
AcDbEntity
  8
1
  6
Continuous
 62
     7
100
AcDbLine
 10
-827.4888073289371
 20
-224.2233253807951
 30
0.0
 11
-825.716741835448
 21
-230.8367638368349
 31
0.0
  0
LINE
  5
10A
330
25
100
AcDbEntity
  8
1
  6
Continuous
 62
     7
100
AcDbLine
 10
-827.7972873523783
 20
-230.1568059511564
 30
0.0
 11
-827.7972873523783
 21
-224.2639375463371
 31
0.0
  0
LINE
  5
109
330
25
100
AcDbEntity
  8
1
  6
Continuous
 62
     7
100
AcDbLine
 10
-825.2147145537731
 20
-230.8367638368349
 30
0.0
 11
-825.716741835448
 21
-230.8367638368349
 31
0.0
  0
LINE
  5
108
330
25
100
AcDbEntity
  8
1
  6
Continuous
 62
     7
100
AcDbLine
 10
-823.6129311328182
 20
-230.3137193093899
 30
0.0
 11
-823.4037133218402
 21
-230.3137193093899
 31
0.0
  0
LINE
  5
107
330
25
100
AcDbEntity
  8
1
  6
Continuous
 62
     7
100
AcDbLine
 10
-823.7175400383073
 20
-230.8367638368349
 30
0.0
 11
-823.7175400383073
 21
-230.418328214879
 31
0.0
  0
LINE
  5
106
330
25
100
AcDbEntity
  8
1
  6
Continuous
 62
     7
100
AcDbLine
 10
-820.7884906846153
 20
-230.8367638368349
 30
0.0
 11
-823.7175400383073
 21
-230.8367638368349
 31
0.0
  0
LINE
  5
105
330
25
100
AcDbEntity
  8
1
  6
Continuous
 62
     7
100
AcDbLine
 10
-820.7884906846153
 20
-230.418328214879
 30
0.0
 11
-820.7884906846153
 21
-230.8367638368349
 31
0.0
  0
LINE
  5
104
330
25
100
AcDbEntity
  8
1
  6
Continuous
 62
     7
100
AcDbLine
 10
-821.1023174010824
 20
-230.3137193093899
 30
0.0
 11
-820.893099590104
 21
-230.3137193093899
 31
0.0
  0
LINE
  5
103
330
25
100
AcDbEntity
  8
1
  6
Continuous
 62
     7
100
AcDbLine
 10
-821.3638396648041
 20
-224.4033161492614
 30
0.0
 11
-821.3638396648041
 21
-230.0521970456674
 31
0.0
  0
LINE
  5
102
330
25
100
AcDbEntity
  8
1
  6
Continuous
 62
     7
100
AcDbLine
 10
-820.893099590104
 20
-224.1417938855389
 30
0.0
 11
-821.1023174010824
 21
-224.1417938855389
 31
0.0
  0
LINE
  5
101
330
25
100
AcDbEntity
  8
1
  6
Continuous
 62
     7
100
AcDbLine
 10
-820.7884906846153
 20
-223.6187493580939
 30
0.0
 11
-820.7884906846153
 21
-224.0371849800498
 31
0.0
  0
LINE
  5
100
330
25
100
AcDbEntity
  8
1
  6
Continuous
 62
     7
100
AcDbLine
 10
-823.8221489437959
 20
-223.6187493580939
 30
0.0
 11
-820.7884906846153
 21
-223.6187493580939
 31
0.0
  0
LINE
  5
FF
330
25
100
AcDbEntity
  8
1
  6
Continuous
 62
     7
100
AcDbLine
 10
-828.843376407268
 20
-223.6187493580939
 30
0.0
 11
-825.8097181480874
 21
-223.6187493580939
 31
0.0
  0
LINE
  5
FE
330
25
100
AcDbEntity
  8
1
  6
Continuous
 62
     7
100
AcDbLine
 10
-828.843376407268
 20
-224.0371849800498
 30
0.0
 11
-828.843376407268
 21
-223.6187493580939
 31
0.0
  0
LINE
  5
FD
330
25
100
AcDbEntity
  8
1
  6
Continuous
 62
     7
100
AcDbLine
 10
-828.4772452380563
 20
-224.1417938855389
 30
0.0
 11
-828.7387675017791
 21
-224.1417938855389
 31
0.0
  0
LINE
  5
FC
330
25
100
AcDbEntity
  8
1
  6
Continuous
 62
     7
100
AcDbLine
 10
-828.3203318798234
 20
-230.1568059511564
 30
0.0
 11
-828.3203318798234
 21
-224.2987072437724
 31
0.0
  0
LINE
  5
FB
330
25
100
AcDbEntity
  8
1
  6
Continuous
 62
     7
100
AcDbLine
 10
-828.7387675017791
 20
-230.3137193093899
 30
0.0
 11
-828.4772452380563
 21
-230.3137193093899
 31
0.0
  0
LINE
  5
FA
330
25
100
AcDbEntity
  8
1
  6
Continuous
 62
     7
100
AcDbLine
 10
-828.843376407268
 20
-230.8367638368349
 30
0.0
 11
-828.843376407268
 21
-230.418328214879
 31
0.0
  0
LINE
  5
F9
330
25
100
AcDbEntity
  8
1
  6
Continuous
 62
     7
100
AcDbLine
 10
-827.378851730422
 20
-230.8367638368349
 30
0.0
 11
-828.843376407268
 21
-230.8367638368349
 31
0.0
  0
LINE
  5
F8
330
25
100
AcDbEntity
  8
1
  6
Continuous
 62
     7
100
AcDbLine
 10
-827.378851730422
 20
-230.418328214879
 30
0.0
 11
-827.378851730422
 21
-230.8367638368349
 31
0.0
  0
LINE
  5
F7
330
25
100
AcDbEntity
  8
1
  6
Continuous
 62
     7
100
AcDbLine
 10
-827.6403739941441
 20
-230.3137193093899
 30
0.0
 11
-827.4834606359112
 21
-230.3137193093899
 31
0.0
  0
LINE
  5
F6
330
25
100
AcDbEntity
  8
1
  6
Continuous
 62
     7
100
AcDbLine
 10
-824.664366880734
 20
-226.7619494897924
 30
0.0
 11
-823.8221489437959
 21
-223.6187493580939
 31
0.0
  0
LINE
  5
F5
330
25
100
AcDbEntity
  8
1
  6
Continuous
 62
     7
100
AcDbLine
 10
-825.8097181480874
 20
-223.6187493580939
 30
0.0
 11
-824.9675002111491
 21
-226.7619494897924
 31
0.0
  0
LINE
  5
F4
330
25
100
AcDbEntity
  8
1
  6
Continuous
 62
     7
100
AcDbLine
 10
-835.5146904780401
 20
-228.374286427343
 30
0.0
 11
-832.0381161551829
 21
-224.8977121044856
 31
0.0
  0
LINE
  5
F3
330
25
100
AcDbEntity
  8
1
  6
Continuous
 62
     7
100
AcDbLine
 10
-830.8546014920832
 20
-226.0812267675859
 30
0.0
 11
-834.33117581494
 21
-229.5578010904433
 31
0.0
  0
LINE
  5
F2
330
25
100
AcDbEntity
  8
1
  6
Continuous
 62
     7
100
AcDbLine
 10
-840.193442652824
 20
-230.8367638368349
 30
0.0
 11
-841.762576235159
 21
-230.8367638368349
 31
0.0
  0
LINE
  5
F1
330
25
100
AcDbEntity
  8
1
  6
Continuous
 62
     7
100
AcDbLine
 10
-841.762576235159
 20
-230.8367638368349
 30
0.0
 11
-841.762576235159
 21
-230.418328214879
 31
0.0
  0
LINE
  5
F0
330
25
100
AcDbEntity
  8
1
  6
Continuous
 62
     7
100
AcDbLine
 10
-841.6579673296702
 20
-230.3137193093899
 30
0.0
 11
-841.4487495186921
 21
-230.3137193093899
 31
0.0
  0
LINE
  5
EF
330
25
100
AcDbEntity
  8
1
  6
Continuous
 62
     7
100
AcDbLine
 10
-841.1872272549702
 20
-230.0521970456674
 30
0.0
 11
-841.1872272549702
 21
-224.5079250547504
 31
0.0
  0
LINE
  5
EE
330
25
100
AcDbEntity
  8
1
  6
Continuous
 62
     7
100
AcDbLine
 10
-841.553358424181
 20
-224.1417938855389
 30
0.0
 11
-841.7038627355681
 21
-224.1417938855389
 31
0.0
  0
LINE
  5
ED
330
25
100
AcDbEntity
  8
1
  6
Continuous
 62
     7
100
AcDbLine
 10
-842.4023378675322
 20
-224.6541912146928
 30
0.0
 11
-842.6115143385212
 21
-225.3187106107695
 31
0.0
  0
LINE
  5
EC
330
25
100
AcDbEntity
  8
1
  6
Continuous
 62
     7
100
AcDbLine
 10
-843.1223553335559
 20
-225.2317335558971
 30
0.0
 11
-843.0701875537719
 21
-223.6187493580939
 31
0.0
  0
LINE
  5
EB
330
25
100
AcDbEntity
  8
1
  6
Continuous
 62
     7
100
AcDbLine
 10
-843.0701875537719
 20
-223.6187493580939
 30
0.0
 11
-840.193442652824
 21
-223.6187493580939
 31
0.0
  0
LINE
  5
EA
330
25
100
AcDbEntity
  8
1
  6
Continuous
 62
     7
100
AcDbLine
 10
-838.6243090704891
 20
-230.8367638368349
 30
0.0
 11
-840.193442652824
 21
-230.8367638368349
 31
0.0
  0
LINE
  5
E9
330
25
100
AcDbEntity
  8
1
  6
Continuous
 62
     7
100
AcDbLine
 10
-838.6243090704891
 20
-230.418328214879
 30
0.0
 11
-838.6243090704891
 21
-230.8367638368349
 31
0.0
  0
LINE
  5
E8
330
25
100
AcDbEntity
  8
1
  6
Continuous
 62
     7
100
AcDbLine
 10
-838.9381357869561
 20
-230.3137193093899
 30
0.0
 11
-838.7289179759783
 21
-230.3137193093899
 31
0.0
  0
LINE
  5
E7
330
25
100
AcDbEntity
  8
1
  6
Continuous
 62
     7
100
AcDbLine
 10
-839.1996580506793
 20
-224.5079250547504
 30
0.0
 11
-839.1996580506793
 21
-230.0521970456674
 31
0.0
  0
LINE
  5
E6
330
25
100
AcDbEntity
  8
1
  6
Continuous
 62
     7
100
AcDbLine
 10
-838.6830225700812
 20
-224.1417938855389
 30
0.0
 11
-838.8335268814669
 21
-224.1417938855389
 31
0.0
  0
LINE
  5
E5
330
25
100
AcDbEntity
  8
1
  6
Continuous
 62
     7
100
AcDbLine
 10
-837.7753709671271
 20
-225.3187106107695
 30
0.0
 11
-837.984547438117
 21
-224.6541912146928
 31
0.0
  0
LINE
  5
E4
330
25
100
AcDbEntity
  8
1
  6
Continuous
 62
     7
100
AcDbLine
 10
-837.3166977518772
 20
-223.6187493580939
 30
0.0
 11
-837.2645299720932
 21
-225.2317335558971
 31
0.0
  0
LINE
  5
E3
330
25
100
AcDbEntity
  8
1
  6
Continuous
 62
     7
100
AcDbLine
 10
-840.193442652824
 20
-223.6187493580939
 30
0.0
 11
-837.3166977518772
 21
-223.6187493580939
 31
0.0
  0
LINE
  5
E2
330
25
100
AcDbEntity
  8
1
  6
Continuous
 62
     7
100
AcDbLine
 10
-845.9746116538051
 20
-227.4957062878909
 30
0.0
 11
-846.6860511606229
 21
-225.1686925141224
 31
0.0
  0
LINE
  5
E1
330
25
100
AcDbEntity
  8
1
  6
Continuous
 62
     7
100
AcDbLine
 10
-847.5475476581937
 20
-227.6984966721648
 30
0.0
 11
-846.1246686445582
 21
-227.6984966721648
 31
0.0
  0
LINE
  5
E0
330
25
100
AcDbEntity
  8
1
  6
Continuous
 62
     7
100
AcDbLine
 10
-846.9861651421286
 20
-225.1686925141224
 30
0.0
 11
-847.6976046489467
 21
-227.4957062878909
 31
0.0
  0
LINE
  5
DF
330
25
100
AcDbEntity
  8
1
  6
Continuous
 62
     7
100
AcDbLine
 10
-847.9868061117551
 20
-230.418328214879
 30
0.0
 11
-847.9868061117551
 21
-230.8367638368349
 31
0.0
  0
LINE
  5
DE
330
25
100
AcDbEntity
  8
1
  6
Continuous
 62
     7
100
AcDbLine
 10
-848.3471014572387
 20
-230.3137193093899
 30
0.0
 11
-848.0914150172441
 21
-230.3137193093899
 31
0.0
  0
LINE
  5
DD
330
25
100
AcDbEntity
  8
1
  6
Continuous
 62
     7
100
AcDbLine
 10
-847.9534618646411
 20
-228.3325775318028
 30
0.0
 11
-848.4971584479914
 21
-230.1109289251159
 31
0.0
  0
LINE
  5
DC
330
25
100
AcDbEntity
  8
1
  6
Continuous
 62
     7
100
AcDbLine
 10
-845.9075146879454
 20
-228.2215411996098
 30
0.0
 11
-847.803404873888
 21
-228.2215411996098
 31
0.0
  0
LINE
  5
DB
330
25
100
AcDbEntity
  8
1
  6
Continuous
 62
     7
100
AcDbLine
 10
-845.1957242688861
 20
-230.043332130358
 30
0.0
 11
-845.7074387002748
 21
-228.3695896425339
 31
0.0
  0
LINE
  5
DA
330
25
100
AcDbEntity
  8
1
  6
Continuous
 62
     7
100
AcDbLine
 10
-845.6854101909971
 20
-230.3137193093899
 30
0.0
 11
-845.3958002565565
 21
-230.3137193093899
 31
0.0
  0
LINE
  5
D9
330
25
100
AcDbEntity
  8
1
  6
Continuous
 62
     7
100
AcDbLine
 10
-845.790019096486
 20
-230.8367638368349
 30
0.0
 11
-845.790019096486
 21
-230.418328214879
 31
0.0
  0
LINE
  5
D8
330
25
100
AcDbEntity
  8
1
  6
Continuous
 62
     7
100
AcDbLine
 10
-842.651751931816
 20
-230.8367638368349
 30
0.0
 11
-845.790019096486
 21
-230.8367638368349
 31
0.0
  0
LINE
  5
D7
330
25
100
AcDbEntity
  8
1
  6
Continuous
 62
     7
100
AcDbLine
 10
-842.651751931816
 20
-230.418328214879
 30
0.0
 11
-842.651751931816
 21
-230.8367638368349
 31
0.0
  0
LINE
  5
D6
330
25
100
AcDbEntity
  8
1
  6
Continuous
 62
     7
100
AcDbLine
 10
-843.1146292599127
 20
-230.3137193093899
 30
0.0
 11
-842.756360837305
 21
-230.3137193093899
 31
0.0
  0
LINE
  5
D5
330
25
100
AcDbEntity
  8
1
  6
Continuous
 62
     7
100
AcDbLine
 10
-845.3550032808754
 20
-223.6187493580939
 30
0.0
 11
-843.3647242445006
 21
-230.1286587557349
 31
0.0
  0
LINE
  5
D4
330
25
100
AcDbEntity
  8
1
  6
Continuous
 62
     7
100
AcDbLine
 10
-847.059243315439
 20
-223.6187493580939
 30
0.0
 11
-845.3550032808754
 21
-223.6187493580939
 31
0.0
  0
LINE
  5
D3
330
25
100
AcDbEntity
  8
1
  6
Continuous
 62
     7
100
AcDbLine
 10
-849.0495223518138
 20
-230.1286587557349
 30
0.0
 11
-847.059243315439
 21
-223.6187493580939
 31
0.0
  0
LINE
  5
D2
330
25
100
AcDbEntity
  8
1
  6
Continuous
 62
     7
100
AcDbLine
 10
-849.5559396940898
 20
-230.3137193093899
 30
0.0
 11
-849.2996173364018
 21
-230.3137193093899
 31
0.0
  0
LINE
  5
D1
330
25
100
AcDbEntity
  8
1
  6
Continuous
 62
     7
100
AcDbLine
 10
-849.660548599579
 20
-230.8367638368349
 30
0.0
 11
-849.660548599579
 21
-230.418328214879
 31
0.0
  0
LINE
  5
D0
330
25
100
AcDbEntity
  8
1
  6
Continuous
 62
     7
100
AcDbLine
 10
-847.9868061117551
 20
-230.8367638368349
 30
0.0
 11
-849.660548599579
 21
-230.8367638368349
 31
0.0
  0
LINE
  5
CF
330
25
100
AcDbEntity
  8
1
  6
Continuous
 62
     7
100
AcDbLine
 10
-759.171439857463
 20
-212.4847929710422
 30
0.0
 11
-759.171439857463
 21
-219.4847929710422
 31
0.0
  0
LINE
  5
CE
330
25
100
AcDbEntity
  8
1
  6
Continuous
 62
     7
100
AcDbLine
 10
-819.171439857463
 20
-212.4847929710422
 30
0.0
 11
-819.171439857463
 21
-219.4847929710422
 31
0.0
  0
LINE
  5
CD
330
25
100
AcDbEntity
  8
1
  6
Continuous
 62
     5
100
AcDbLine
 10
-819.171439857463
 20
-212.4847929710422
 30
0.0
 11
-759.171439857463
 21
-212.4847929710422
 31
0.0
  0
LINE
  5
CC
330
25
100
AcDbEntity
  8
1
  6
Continuous
 62
     5
100
AcDbLine
 10
-837.171439857463
 20
-180.4847929710421
 30
0.0
 11
-787.171439857463
 21
-180.4847929710421
 31
0.0
  0
LINE
  5
CB
330
25
100
AcDbEntity
  8
1
  6
Continuous
 62
     5
100
AcDbLine
 10
-837.171439857463
 20
-180.4847929710421
 30
0.0
 11
-837.171439857463
 21
-187.4847929710421
 31
0.0
  0
LINE
  5
CA
330
25
100
AcDbEntity
  8
1
  6
Continuous
 62
     5
100
AcDbLine
 10
-787.171439857463
 20
-180.4847929710421
 30
0.0
 11
-757.171439857463
 21
-180.4847929710421
 31
0.0
  0
LINE
  5
C9
330
25
100
AcDbEntity
  8
1
  6
Continuous
 62
     5
100
AcDbLine
 10
-787.171439857463
 20
-180.4847929710421
 30
0.0
 11
-787.171439857463
 21
-187.4847929710421
 31
0.0
  0
LINE
  5
C8
330
25
100
AcDbEntity
  8
1
  6
Continuous
 62
     5
100
AcDbLine
 10
-757.171439857463
 20
-180.4847929710421
 30
0.0
 11
-742.171439857463
 21
-180.4847929710421
 31
0.0
  0
LINE
  5
C7
330
25
100
AcDbEntity
  8
1
  6
Continuous
 62
     5
100
AcDbLine
 10
-757.171439857463
 20
-180.4847929710421
 30
0.0
 11
-757.171439857463
 21
-187.4847929710421
 31
0.0
  0
LINE
  5
C6
330
25
100
AcDbEntity
  8
1
  6
Continuous
 62
     5
100
AcDbLine
 10
-742.171439857463
 20
-180.4847929710421
 30
0.0
 11
-702.1714398574633
 21
-180.4847929710421
 31
0.0
  0
LINE
  5
C5
330
25
100
AcDbEntity
  8
1
  6
Continuous
 62
     5
100
AcDbLine
 10
-742.171439857463
 20
-180.4847929710421
 30
0.0
 11
-742.171439857463
 21
-187.4847929710421
 31
0.0
  0
LINE
  5
C4
330
25
100
AcDbEntity
  8
1
  6
Continuous
 62
     5
100
AcDbLine
 10
-702.1714398574633
 20
-180.4847929710421
 30
0.0
 11
-672.1714398574633
 21
-180.4847929710421
 31
0.0
  0
LINE
  5
C3
330
25
100
AcDbEntity
  8
1
  6
Continuous
 62
     5
100
AcDbLine
 10
-702.1714398574633
 20
-180.4847929710421
 30
0.0
 11
-702.1714398574633
 21
-187.4847929710421
 31
0.0
  0
LINE
  5
C2
330
25
100
AcDbEntity
  8
1
  6
Continuous
 62
     5
100
AcDbLine
 10
-672.1714398574633
 20
-180.4847929710421
 30
0.0
 11
-672.1714398574633
 21
-187.4847929710421
 31
0.0
  0
LINE
  5
C1
330
25
100
AcDbEntity
  8
1
  6
Continuous
 62
     5
100
AcDbLine
 10
-852.1714398574637
 20
-180.4847929710421
 30
0.0
 11
-837.171439857463
 21
-180.4847929710421
 31
0.0
  0
LINE
  5
C0
330
25
100
AcDbEntity
  8
1
  6
Continuous
 62
     5
100
AcDbLine
 10
-852.1714398574637
 20
-187.4847929710421
 30
0.0
 11
-852.1714398574637
 21
-180.4847929710421
 31
0.0
  0
LINE
  5
BF
330
25
100
AcDbEntity
  8
1
  6
Continuous
 62
     7
100
AcDbLine
 10
-837.171439857463
 20
-194.4847929710421
 30
0.0
 11
-819.171439857463
 21
-194.4847929710421
 31
0.0
  0
LINE
  5
BE
330
25
100
AcDbEntity
  8
1
  6
Continuous
 62
     7
100
AcDbLine
 10
-837.171439857463
 20
-187.4847929710421
 30
0.0
 11
-852.1714398574637
 21
-187.4847929710421
 31
0.0
  0
LINE
  5
BD
330
25
100
AcDbEntity
  8
1
  6
Continuous
 62
     7
100
AcDbLine
 10
-837.171439857463
 20
-187.4847929710421
 30
0.0
 11
-837.171439857463
 21
-194.4847929710421
 31
0.0
  0
LINE
  5
BC
330
25
100
AcDbEntity
  8
1
  6
Continuous
 62
     7
100
AcDbLine
 10
-787.171439857463
 20
-194.4847929710421
 30
0.0
 11
-779.171439857463
 21
-194.4847929710421
 31
0.0
  0
LINE
  5
BB
330
25
100
AcDbEntity
  8
1
  6
Continuous
 62
     7
100
AcDbLine
 10
-787.171439857463
 20
-187.4847929710421
 30
0.0
 11
-837.171439857463
 21
-187.4847929710421
 31
0.0
  0
LINE
  5
BA
330
25
100
AcDbEntity
  8
1
  6
Continuous
 62
     7
100
AcDbLine
 10
-787.171439857463
 20
-187.4847929710421
 30
0.0
 11
-787.171439857463
 21
-194.4847929710421
 31
0.0
  0
LINE
  5
B9
330
25
100
AcDbEntity
  8
1
  6
Continuous
 62
     7
100
AcDbLine
 10
-757.171439857463
 20
-194.4847929710421
 30
0.0
 11
-752.171439857463
 21
-194.4847929710421
 31
0.0
  0
LINE
  5
B8
330
25
100
AcDbEntity
  8
1
  6
Continuous
 62
     7
100
AcDbLine
 10
-757.171439857463
 20
-187.4847929710421
 30
0.0
 11
-787.171439857463
 21
-187.4847929710421
 31
0.0
  0
LINE
  5
B7
330
25
100
AcDbEntity
  8
1
  6
Continuous
 62
     7
100
AcDbLine
 10
-757.171439857463
 20
-187.4847929710421
 30
0.0
 11
-757.171439857463
 21
-194.4847929710421
 31
0.0
  0
LINE
  5
B6
330
25
100
AcDbEntity
  8
1
  6
Continuous
 62
     7
100
AcDbLine
 10
-742.171439857463
 20
-194.4847929710421
 30
0.0
 11
-702.1714398574633
 21
-194.4847929710421
 31
0.0
  0
LINE
  5
B5
330
25
100
AcDbEntity
  8
1
  6
Continuous
 62
     7
100
AcDbLine
 10
-742.171439857463
 20
-187.4847929710421
 30
0.0
 11
-757.171439857463
 21
-187.4847929710421
 31
0.0
  0
LINE
  5
B4
330
25
100
AcDbEntity
  8
1
  6
Continuous
 62
     7
100
AcDbLine
 10
-742.171439857463
 20
-187.4847929710421
 30
0.0
 11
-742.171439857463
 21
-194.4847929710421
 31
0.0
  0
LINE
  5
B3
330
25
100
AcDbEntity
  8
1
  6
Continuous
 62
     7
100
AcDbLine
 10
-702.1714398574633
 20
-194.4847929710421
 30
0.0
 11
-672.1714398574633
 21
-194.4847929710421
 31
0.0
  0
LINE
  5
B2
330
25
100
AcDbEntity
  8
1
  6
Continuous
 62
     7
100
AcDbLine
 10
-702.1714398574633
 20
-187.4847929710421
 30
0.0
 11
-742.171439857463
 21
-187.4847929710421
 31
0.0
  0
LINE
  5
B1
330
25
100
AcDbEntity
  8
1
  6
Continuous
 62
     7
100
AcDbLine
 10
-702.1714398574633
 20
-187.4847929710421
 30
0.0
 11
-702.1714398574633
 21
-194.4847929710421
 31
0.0
  0
LINE
  5
B0
330
25
100
AcDbEntity
  8
1
  6
Continuous
 62
     7
100
AcDbLine
 10
-819.171439857463
 20
-204.4847929710422
 30
0.0
 11
-819.171439857463
 21
-212.4847929710422
 31
0.0
  0
LINE
  5
AF
330
25
100
AcDbEntity
  8
1
  6
Continuous
 62
     7
100
AcDbLine
 10
-852.1714398574637
 20
-204.4847929710422
 30
0.0
 11
-852.1714398574637
 21
-219.4847929710422
 31
0.0
  0
LINE
  5
AE
330
25
100
AcDbEntity
  8
1
  6
Continuous
 62
     7
100
AcDbLine
 10
-852.1714398574637
 20
-204.4847929710422
 30
0.0
 11
-819.171439857463
 21
-204.4847929710422
 31
0.0
  0
LINE
  5
AD
330
25
100
AcDbEntity
  8
1
  6
Continuous
 62
     7
100
AcDbLine
 10
-779.171439857463
 20
-219.4847929710422
 30
0.0
 11
-759.171439857463
 21
-219.4847929710422
 31
0.0
  0
LINE
  5
AC
330
25
100
AcDbEntity
  8
1
  6
Continuous
 62
     7
100
AcDbLine
 10
-779.171439857463
 20
-194.4847929710421
 30
0.0
 11
-759.171439857463
 21
-194.4847929710421
 31
0.0
  0
LINE
  5
AB
330
25
100
AcDbEntity
  8
1
  6
Continuous
 62
     7
100
AcDbLine
 10
-779.171439857463
 20
-194.4847929710421
 30
0.0
 11
-779.171439857463
 21
-219.4847929710422
 31
0.0
  0
LINE
  5
AA
330
25
100
AcDbEntity
  8
1
  6
Continuous
 62
     7
100
AcDbLine
 10
-799.171439857463
 20
-219.4847929710422
 30
0.0
 11
-779.171439857463
 21
-219.4847929710422
 31
0.0
  0
LINE
  5
A9
330
25
100
AcDbEntity
  8
1
  6
Continuous
 62
     7
100
AcDbLine
 10
-799.171439857463
 20
-194.4847929710421
 30
0.0
 11
-787.171439857463
 21
-194.4847929710421
 31
0.0
  0
LINE
  5
A8
330
25
100
AcDbEntity
  8
1
  6
Continuous
 62
     7
100
AcDbLine
 10
-799.171439857463
 20
-194.4847929710421
 30
0.0
 11
-799.171439857463
 21
-219.4847929710422
 31
0.0
  0
LINE
  5
A7
330
25
100
AcDbEntity
  8
1
  6
Continuous
 62
     7
100
AcDbLine
 10
-759.171439857463
 20
-201.4847929710422
 30
0.0
 11
-759.171439857463
 21
-209.4847929710422
 31
0.0
  0
LINE
  5
A6
330
25
100
AcDbEntity
  8
1
  6
Continuous
 62
     7
100
AcDbLine
 10
-819.171439857463
 20
-201.4847929710422
 30
0.0
 11
-819.171439857463
 21
-204.4847929710422
 31
0.0
  0
LINE
  5
A5
330
25
100
AcDbEntity
  8
1
  6
Continuous
 62
     7
100
AcDbLine
 10
-819.171439857463
 20
-201.4847929710422
 30
0.0
 11
-759.171439857463
 21
-201.4847929710422
 31
0.0
  0
LINE
  5
A4
330
25
100
AcDbEntity
  8
1
  6
Continuous
 62
     7
100
AcDbLine
 10
-759.171439857463
 20
-219.4847929710422
 30
0.0
 11
-759.171439857463
 21
-224.4847929710422
 31
0.0
  0
LINE
  5
A3
330
25
100
AcDbEntity
  8
1
  6
Continuous
 62
     7
100
AcDbLine
 10
-852.1714398574637
 20
-219.4847929710422
 30
0.0
 11
-852.1714398574637
 21
-239.4847929710422
 31
0.0
  0
LINE
  5
A2
330
25
100
AcDbEntity
  8
1
  6
Continuous
 62
     7
100
AcDbLine
 10
-852.1714398574637
 20
-219.4847929710422
 30
0.0
 11
-799.171439857463
 21
-219.4847929710422
 31
0.0
  0
LINE
  5
A1
330
25
100
AcDbEntity
  8
1
  6
Continuous
 62
     7
100
AcDbLine
 10
-819.171439857463
 20
-194.4847929710421
 30
0.0
 11
-799.171439857463
 21
-194.4847929710421
 31
0.0
  0
LINE
  5
A0
330
25
100
AcDbEntity
  8
1
  6
Continuous
 62
     7
100
AcDbLine
 10
-819.171439857463
 20
-194.4847929710421
 30
0.0
 11
-819.171439857463
 21
-201.4847929710422
 31
0.0
  0
LINE
  5
9F
330
25
100
AcDbEntity
  8
1
  6
Continuous
 62
     7
100
AcDbLine
 10
-672.1714398574633
 20
-224.4847929710422
 30
0.0
 11
-672.1714398574633
 21
-209.4847929710422
 31
0.0
  0
LINE
  5
9E
330
25
100
AcDbEntity
  8
1
  6
Continuous
 62
     7
100
AcDbLine
 10
-759.171439857463
 20
-224.4847929710422
 30
0.0
 11
-759.171439857463
 21
-239.4847929710422
 31
0.0
  0
LINE
  5
9D
330
25
100
AcDbEntity
  8
1
  6
Continuous
 62
     7
100
AcDbLine
 10
-759.171439857463
 20
-224.4847929710422
 30
0.0
 11
-672.1714398574633
 21
-224.4847929710422
 31
0.0
  0
LINE
  5
9C
330
25
100
AcDbEntity
  8
1
  6
Continuous
 62
     7
100
AcDbLine
 10
-672.1714398574633
 20
-209.4847929710422
 30
0.0
 11
-672.1714398574633
 21
-194.4847929710421
 31
0.0
  0
LINE
  5
9B
330
25
100
AcDbEntity
  8
1
  6
Continuous
 62
     7
100
AcDbLine
 10
-759.171439857463
 20
-209.4847929710422
 30
0.0
 11
-759.171439857463
 21
-212.4847929710422
 31
0.0
  0
LINE
  5
9A
330
25
100
AcDbEntity
  8
1
  6
Continuous
 62
     7
100
AcDbLine
 10
-759.171439857463
 20
-209.4847929710422
 30
0.0
 11
-672.1714398574633
 21
-209.4847929710422
 31
0.0
  0
LINE
  5
99
330
25
100
AcDbEntity
  8
1
  6
Continuous
 62
     7
100
AcDbLine
 10
-752.171439857463
 20
-239.4847929710422
 30
0.0
 11
-672.1714398574633
 21
-239.4847929710422
 31
0.0
  0
LINE
  5
98
330
25
100
AcDbEntity
  8
1
  6
Continuous
 62
     7
100
AcDbLine
 10
-752.171439857463
 20
-194.4847929710421
 30
0.0
 11
-742.171439857463
 21
-194.4847929710421
 31
0.0
  0
LINE
  5
97
330
25
100
AcDbEntity
  8
1
  6
Continuous
 62
     7
100
AcDbLine
 10
-752.171439857463
 20
-194.4847929710421
 30
0.0
 11
-752.171439857463
 21
-239.4847929710422
 31
0.0
  0
LINE
  5
96
330
25
100
AcDbEntity
  8
1
  6
Continuous
 62
     7
100
AcDbLine
 10
-759.171439857463
 20
-239.4847929710422
 30
0.0
 11
-752.171439857463
 21
-239.4847929710422
 31
0.0
  0
LINE
  5
95
330
25
100
AcDbEntity
  8
1
  6
Continuous
 62
     7
100
AcDbLine
 10
-759.171439857463
 20
-194.4847929710421
 30
0.0
 11
-757.171439857463
 21
-194.4847929710421
 31
0.0
  0
LINE
  5
94
330
25
100
AcDbEntity
  8
1
  6
Continuous
 62
     7
100
AcDbLine
 10
-759.171439857463
 20
-194.4847929710421
 30
0.0
 11
-759.171439857463
 21
-201.4847929710422
 31
0.0
  0
LINE
  5
93
330
25
100
AcDbEntity
  8
1
  6
Continuous
 62
     7
100
AcDbLine
 10
-672.1714398574633
 20
-194.4847929710421
 30
0.0
 11
-672.1714398574633
 21
-187.4847929710421
 31
0.0
  0
LINE
  5
92
330
25
100
AcDbEntity
  8
1
  6
Continuous
 62
     7
100
AcDbLine
 10
-852.1714398574637
 20
-194.4847929710421
 30
0.0
 11
-852.1714398574637
 21
-204.4847929710422
 31
0.0
  0
LINE
  5
91
330
25
100
AcDbEntity
  8
1
  6
Continuous
 62
     7
100
AcDbLine
 10
-852.1714398574637
 20
-194.4847929710421
 30
0.0
 11
-837.171439857463
 21
-194.4847929710421
 31
0.0
  0
LINE
  5
90
330
25
100
AcDbEntity
  8
1
  6
Continuous
 62
     7
100
AcDbLine
 10
-852.1714398574637
 20
-187.4847929710421
 30
0.0
 11
-852.1714398574637
 21
-194.4847929710421
 31
0.0
  0
LINE
  5
8F
330
25
100
AcDbEntity
  8
1
  6
Continuous
 62
     7
100
AcDbLine
 10
-672.1714398574633
 20
-187.4847929710421
 30
0.0
 11
-702.1714398574633
 21
-187.4847929710421
 31
0.0
  0
LINE
  5
8E
330
25
100
AcDbEntity
  8
1
  6
Continuous
 62
     7
100
AcDbLine
 10
-672.1714398574633
 20
-239.4847929710422
 30
0.0
 11
-672.1714398574633
 21
-224.4847929710422
 31
0.0
  0
LINE
  5
8D
330
25
100
AcDbEntity
  8
1
  6
Continuous
 62
     7
100
AcDbLine
 10
-852.1714398574637
 20
-239.4847929710422
 30
0.0
 11
-759.171439857463
 21
-239.4847929710422
 31
0.0
  0
LINE
  5
8C
330
25
100
AcDbEntity
  8
1
  6
Continuous
 62
     5
100
AcDbLine
 10
-852.1714398574637
 20
-173.4847929710423
 30
0.0
 11
-837.171439857463
 21
-173.4847929710423
 31
0.0
  0
LINE
  5
8B
330
25
100
AcDbEntity
  8
1
  6
Continuous
 62
     5
100
AcDbLine
 10
-852.1714398574637
 20
-166.4847929710425
 30
0.0
 11
-837.171439857463
 21
-166.4847929710425
 31
0.0
  0
LINE
  5
8A
330
25
100
AcDbEntity
  8
1
  6
Continuous
 62
     5
100
AcDbLine
 10
-852.1714398574637
 20
-159.4847929710425
 30
0.0
 11
-837.171439857463
 21
-159.4847929710425
 31
0.0
  0
LINE
  5
89
330
25
100
AcDbEntity
  8
1
  6
Continuous
 62
     5
100
AcDbLine
 10
-852.1714398574637
 20
-152.4847929710426
 30
0.0
 11
-837.171439857463
 21
-152.4847929710426
 31
0.0
  0
LINE
  5
88
330
25
100
AcDbEntity
  8
1
  6
Continuous
 62
     5
100
AcDbLine
 10
-852.1714398574637
 20
-180.4847929710421
 30
0.0
 11
-852.1714398574637
 21
-173.4847929710423
 31
0.0
  0
LINE
  5
87
330
25
100
AcDbEntity
  8
1
  6
Continuous
 62
     5
100
AcDbLine
 10
-852.1714398574637
 20
-173.4847929710423
 30
0.0
 11
-852.1714398574637
 21
-166.4847929710425
 31
0.0
  0
LINE
  5
86
330
25
100
AcDbEntity
  8
1
  6
Continuous
 62
     5
100
AcDbLine
 10
-852.1714398574637
 20
-166.4847929710425
 30
0.0
 11
-852.1714398574637
 21
-159.4847929710425
 31
0.0
  0
LINE
  5
85
330
25
100
AcDbEntity
  8
1
  6
Continuous
 62
     5
100
AcDbLine
 10
-852.1714398574637
 20
-159.4847929710425
 30
0.0
 11
-852.1714398574637
 21
-152.4847929710426
 31
0.0
  0
LINE
  5
84
330
25
100
AcDbEntity
  8
1
  6
Continuous
 62
     5
100
AcDbLine
 10
-837.171439857463
 20
-173.4847929710423
 30
0.0
 11
-837.171439857463
 21
-180.4847929710421
 31
0.0
  0
LINE
  5
83
330
25
100
AcDbEntity
  8
1
  6
Continuous
 62
     5
100
AcDbLine
 10
-837.171439857463
 20
-166.4847929710425
 30
0.0
 11
-837.171439857463
 21
-173.4847929710423
 31
0.0
  0
LINE
  5
82
330
25
100
AcDbEntity
  8
1
  6
Continuous
 62
     5
100
AcDbLine
 10
-837.171439857463
 20
-159.4847929710425
 30
0.0
 11
-837.171439857463
 21
-166.4847929710425
 31
0.0
  0
LINE
  5
81
330
25
100
AcDbEntity
  8
1
  6
Continuous
 62
     5
100
AcDbLine
 10
-837.171439857463
 20
-152.4847929710426
 30
0.0
 11
-837.171439857463
 21
-159.4847929710425
 31
0.0
  0
LINE
  5
80
330
25
100
AcDbEntity
  8
1
  6
Continuous
 62
     5
100
AcDbLine
 10
-837.171439857463
 20
-173.4847929710423
 30
0.0
 11
-787.171439857463
 21
-173.4847929710423
 31
0.0
  0
LINE
  5
7F
330
25
100
AcDbEntity
  8
1
  6
Continuous
 62
     5
100
AcDbLine
 10
-837.171439857463
 20
-166.4847929710425
 30
0.0
 11
-787.171439857463
 21
-166.4847929710425
 31
0.0
  0
LINE
  5
7E
330
25
100
AcDbEntity
  8
1
  6
Continuous
 62
     5
100
AcDbLine
 10
-837.171439857463
 20
-159.4847929710425
 30
0.0
 11
-787.171439857463
 21
-159.4847929710425
 31
0.0
  0
LINE
  5
7D
330
25
100
AcDbEntity
  8
1
  6
Continuous
 62
     5
100
AcDbLine
 10
-837.171439857463
 20
-152.4847929710426
 30
0.0
 11
-787.171439857463
 21
-152.4847929710426
 31
0.0
  0
LINE
  5
7C
330
25
100
AcDbEntity
  8
1
  6
Continuous
 62
     5
100
AcDbLine
 10
-787.171439857463
 20
-173.4847929710423
 30
0.0
 11
-787.171439857463
 21
-180.4847929710421
 31
0.0
  0
LINE
  5
7B
330
25
100
AcDbEntity
  8
1
  6
Continuous
 62
     5
100
AcDbLine
 10
-787.171439857463
 20
-173.4847929710423
 30
0.0
 11
-757.171439857463
 21
-173.4847929710423
 31
0.0
  0
LINE
  5
7A
330
25
100
AcDbEntity
  8
1
  6
Continuous
 62
     5
100
AcDbLine
 10
-787.171439857463
 20
-166.4847929710425
 30
0.0
 11
-787.171439857463
 21
-173.4847929710423
 31
0.0
  0
LINE
  5
79
330
25
100
AcDbEntity
  8
1
  6
Continuous
 62
     5
100
AcDbLine
 10
-787.171439857463
 20
-166.4847929710425
 30
0.0
 11
-757.171439857463
 21
-166.4847929710425
 31
0.0
  0
LINE
  5
78
330
25
100
AcDbEntity
  8
1
  6
Continuous
 62
     5
100
AcDbLine
 10
-787.171439857463
 20
-159.4847929710425
 30
0.0
 11
-787.171439857463
 21
-166.4847929710425
 31
0.0
  0
LINE
  5
77
330
25
100
AcDbEntity
  8
1
  6
Continuous
 62
     5
100
AcDbLine
 10
-787.171439857463
 20
-152.4847929710426
 30
0.0
 11
-787.171439857463
 21
-159.4847929710425
 31
0.0
  0
LINE
  5
76
330
25
100
AcDbEntity
  8
1
  6
Continuous
 62
     5
100
AcDbLine
 10
-787.171439857463
 20
-159.4847929710425
 30
0.0
 11
-757.171439857463
 21
-159.4847929710425
 31
0.0
  0
LINE
  5
75
330
25
100
AcDbEntity
  8
1
  6
Continuous
 62
     5
100
AcDbLine
 10
-787.171439857463
 20
-152.4847929710426
 30
0.0
 11
-757.171439857463
 21
-152.4847929710426
 31
0.0
  0
LINE
  5
74
330
25
100
AcDbEntity
  8
1
  6
Continuous
 62
     5
100
AcDbLine
 10
-757.171439857463
 20
-173.4847929710423
 30
0.0
 11
-757.171439857463
 21
-180.4847929710421
 31
0.0
  0
LINE
  5
73
330
25
100
AcDbEntity
  8
1
  6
Continuous
 62
     5
100
AcDbLine
 10
-757.171439857463
 20
-166.4847929710425
 30
0.0
 11
-757.171439857463
 21
-173.4847929710423
 31
0.0
  0
LINE
  5
72
330
25
100
AcDbEntity
  8
1
  6
Continuous
 62
     5
100
AcDbLine
 10
-757.171439857463
 20
-159.4847929710425
 30
0.0
 11
-757.171439857463
 21
-166.4847929710425
 31
0.0
  0
LINE
  5
71
330
25
100
AcDbEntity
  8
1
  6
Continuous
 62
     5
100
AcDbLine
 10
-757.171439857463
 20
-152.4847929710426
 30
0.0
 11
-757.171439857463
 21
-159.4847929710425
 31
0.0
  0
LINE
  5
70
330
25
100
AcDbEntity
  8
1
  6
Continuous
 62
     5
100
AcDbLine
 10
-757.171439857463
 20
-173.4847929710423
 30
0.0
 11
-742.171439857463
 21
-173.4847929710423
 31
0.0
  0
LINE
  5
6F
330
25
100
AcDbEntity
  8
1
  6
Continuous
 62
     5
100
AcDbLine
 10
-757.171439857463
 20
-166.4847929710425
 30
0.0
 11
-742.171439857463
 21
-166.4847929710425
 31
0.0
  0
LINE
  5
6E
330
25
100
AcDbEntity
  8
1
  6
Continuous
 62
     5
100
AcDbLine
 10
-757.171439857463
 20
-159.4847929710425
 30
0.0
 11
-742.171439857463
 21
-159.4847929710425
 31
0.0
  0
LINE
  5
6D
330
25
100
AcDbEntity
  8
1
  6
Continuous
 62
     5
100
AcDbLine
 10
-757.171439857463
 20
-152.4847929710426
 30
0.0
 11
-742.171439857463
 21
-152.4847929710426
 31
0.0
  0
LINE
  5
6C
330
25
100
AcDbEntity
  8
1
  6
Continuous
 62
     5
100
AcDbLine
 10
-742.171439857463
 20
-173.4847929710423
 30
0.0
 11
-742.171439857463
 21
-180.4847929710421
 31
0.0
  0
LINE
  5
6B
330
25
100
AcDbEntity
  8
1
  6
Continuous
 62
     5
100
AcDbLine
 10
-742.171439857463
 20
-166.4847929710425
 30
0.0
 11
-742.171439857463
 21
-173.4847929710423
 31
0.0
  0
LINE
  5
6A
330
25
100
AcDbEntity
  8
1
  6
Continuous
 62
     5
100
AcDbLine
 10
-742.171439857463
 20
-159.4847929710425
 30
0.0
 11
-742.171439857463
 21
-166.4847929710425
 31
0.0
  0
LINE
  5
69
330
25
100
AcDbEntity
  8
1
  6
Continuous
 62
     5
100
AcDbLine
 10
-742.171439857463
 20
-152.4847929710426
 30
0.0
 11
-742.171439857463
 21
-159.4847929710425
 31
0.0
  0
LINE
  5
68
330
25
100
AcDbEntity
  8
1
  6
Continuous
 62
     5
100
AcDbLine
 10
-742.171439857463
 20
-173.4847929710423
 30
0.0
 11
-702.1714398574633
 21
-173.4847929710423
 31
0.0
  0
LINE
  5
67
330
25
100
AcDbEntity
  8
1
  6
Continuous
 62
     5
100
AcDbLine
 10
-742.171439857463
 20
-166.4847929710425
 30
0.0
 11
-702.1714398574633
 21
-166.4847929710425
 31
0.0
  0
LINE
  5
66
330
25
100
AcDbEntity
  8
1
  6
Continuous
 62
     5
100
AcDbLine
 10
-742.171439857463
 20
-159.4847929710425
 30
0.0
 11
-702.1714398574633
 21
-159.4847929710425
 31
0.0
  0
LINE
  5
65
330
25
100
AcDbEntity
  8
1
  6
Continuous
 62
     5
100
AcDbLine
 10
-742.171439857463
 20
-152.4847929710426
 30
0.0
 11
-702.1714398574633
 21
-152.4847929710426
 31
0.0
  0
LINE
  5
64
330
25
100
AcDbEntity
  8
1
  6
Continuous
 62
     5
100
AcDbLine
 10
-702.1714398574633
 20
-173.4847929710423
 30
0.0
 11
-702.1714398574633
 21
-180.4847929710421
 31
0.0
  0
LINE
  5
63
330
25
100
AcDbEntity
  8
1
  6
Continuous
 62
     5
100
AcDbLine
 10
-702.1714398574633
 20
-166.4847929710425
 30
0.0
 11
-702.1714398574633
 21
-173.4847929710423
 31
0.0
  0
LINE
  5
62
330
25
100
AcDbEntity
  8
1
  6
Continuous
 62
     5
100
AcDbLine
 10
-702.1714398574633
 20
-159.4847929710425
 30
0.0
 11
-702.1714398574633
 21
-166.4847929710425
 31
0.0
  0
LINE
  5
61
330
25
100
AcDbEntity
  8
1
  6
Continuous
 62
     5
100
AcDbLine
 10
-702.1714398574633
 20
-152.4847929710426
 30
0.0
 11
-702.1714398574633
 21
-159.4847929710425
 31
0.0
  0
LINE
  5
60
330
25
100
AcDbEntity
  8
1
  6
Continuous
 62
     5
100
AcDbLine
 10
-702.1714398574633
 20
-173.4847929710423
 30
0.0
 11
-672.1714398574633
 21
-173.4847929710423
 31
0.0
  0
LINE
  5
5F
330
25
100
AcDbEntity
  8
1
  6
Continuous
 62
     5
100
AcDbLine
 10
-702.1714398574633
 20
-166.4847929710425
 30
0.0
 11
-672.1714398574633
 21
-166.4847929710425
 31
0.0
  0
LINE
  5
5E
330
25
100
AcDbEntity
  8
1
  6
Continuous
 62
     5
100
AcDbLine
 10
-702.1714398574633
 20
-159.4847929710425
 30
0.0
 11
-672.1714398574633
 21
-159.4847929710425
 31
0.0
  0
LINE
  5
5D
330
25
100
AcDbEntity
  8
1
  6
Continuous
 62
     5
100
AcDbLine
 10
-702.1714398574633
 20
-152.4847929710426
 30
0.0
 11
-672.1714398574633
 21
-152.4847929710426
 31
0.0
  0
LINE
  5
5C
330
25
100
AcDbEntity
  8
1
  6
Continuous
 62
     5
100
AcDbLine
 10
-757.171439857463
 20
-145.4847929710429
 30
0.0
 11
-742.171439857463
 21
-145.4847929710429
 31
0.0
  0
LINE
  5
5B
330
25
100
AcDbEntity
  8
1
  6
Continuous
 62
     5
100
AcDbLine
 10
-757.171439857463
 20
-145.4847929710429
 30
0.0
 11
-757.171439857463
 21
-152.4847929710426
 31
0.0
  0
LINE
  5
5A
330
25
100
AcDbEntity
  8
1
  6
Continuous
 62
     5
100
AcDbLine
 10
-742.171439857463
 20
-145.4847929710429
 30
0.0
 11
-742.171439857463
 21
-152.4847929710426
 31
0.0
  0
LINE
  5
59
330
25
100
AcDbEntity
  8
1
  6
Continuous
 62
     5
100
AcDbLine
 10
-742.171439857463
 20
-145.4847929710429
 30
0.0
 11
-702.1714398574633
 21
-145.4847929710429
 31
0.0
  0
LINE
  5
58
330
25
100
AcDbEntity
  8
1
  6
Continuous
 62
     5
100
AcDbLine
 10
-702.1714398574633
 20
-145.4847929710429
 30
0.0
 11
-702.1714398574633
 21
-152.4847929710426
 31
0.0
  0
LINE
  5
57
330
25
100
AcDbEntity
  8
1
  6
Continuous
 62
     5
100
AcDbLine
 10
-702.1714398574633
 20
-145.4847929710429
 30
0.0
 11
-672.1714398574633
 21
-145.4847929710429
 31
0.0
  0
LINE
  5
56
330
25
100
AcDbEntity
  8
1
  6
Continuous
 62
     5
100
AcDbLine
 10
-787.171439857463
 20
-145.4847929710429
 30
0.0
 11
-787.171439857463
 21
-152.4847929710426
 31
0.0
  0
LINE
  5
55
330
25
100
AcDbEntity
  8
1
  6
Continuous
 62
     5
100
AcDbLine
 10
-837.171439857463
 20
-145.4847929710429
 30
0.0
 11
-787.171439857463
 21
-145.4847929710429
 31
0.0
  0
LINE
  5
54
330
25
100
AcDbEntity
  8
1
  6
Continuous
 62
     5
100
AcDbLine
 10
-787.171439857463
 20
-145.4847929710429
 30
0.0
 11
-757.171439857463
 21
-145.4847929710429
 31
0.0
  0
LINE
  5
53
330
25
100
AcDbEntity
  8
1
  6
Continuous
 62
     5
100
AcDbLine
 10
-837.171439857463
 20
-145.4847929710429
 30
0.0
 11
-837.171439857463
 21
-152.4847929710426
 31
0.0
  0
LINE
  5
52
330
25
100
AcDbEntity
  8
1
  6
Continuous
 62
     5
100
AcDbLine
 10
-852.1714398574637
 20
-145.4847929710429
 30
0.0
 11
-837.171439857463
 21
-145.4847929710429
 31
0.0
  0
LINE
  5
51
330
25
100
AcDbEntity
  8
1
  6
Continuous
 62
     5
100
AcDbLine
 10
-852.1714398574637
 20
-152.4847929710426
 30
0.0
 11
-852.1714398574637
 21
-145.4847929710429
 31
0.0
  0
LINE
  5
50
330
25
100
AcDbEntity
  8
1
  6
Continuous
 62
     5
100
AcDbLine
 10
-742.171439857463
 20
-131.4847929710433
 30
0.0
 11
-702.1714398574633
 21
-131.4847929710433
 31
0.0
  0
LINE
  5
4F
330
25
100
AcDbEntity
  8
1
  6
Continuous
 62
     5
100
AcDbLine
 10
-742.171439857463
 20
-124.4847929710433
 30
0.0
 11
-702.1714398574633
 21
-124.4847929710433
 31
0.0
  0
LINE
  5
4E
330
25
100
AcDbEntity
  8
1
  6
Continuous
 62
     5
100
AcDbLine
 10
-702.1714398574633
 20
-131.4847929710433
 30
0.0
 11
-702.1714398574633
 21
-138.484792971043
 31
0.0
  0
LINE
  5
4D
330
25
100
AcDbEntity
  8
1
  6
Continuous
 62
     5
100
AcDbLine
 10
-702.1714398574633
 20
-124.4847929710433
 30
0.0
 11
-702.1714398574633
 21
-131.4847929710433
 31
0.0
  0
LINE
  5
4C
330
25
100
AcDbEntity
  8
1
  6
Continuous
 62
     5
100
AcDbLine
 10
-702.1714398574633
 20
-131.4847929710433
 30
0.0
 11
-672.1714398574633
 21
-131.4847929710433
 31
0.0
  0
LINE
  5
4B
330
25
100
AcDbEntity
  8
1
  6
Continuous
 62
     5
100
AcDbLine
 10
-702.1714398574633
 20
-124.4847929710433
 30
0.0
 11
-672.1714398574633
 21
-124.4847929710433
 31
0.0
  0
LINE
  5
4A
330
25
100
AcDbEntity
  8
1
  6
Continuous
 62
     5
100
AcDbLine
 10
-742.171439857463
 20
-131.4847929710433
 30
0.0
 11
-742.171439857463
 21
-138.484792971043
 31
0.0
  0
LINE
  5
49
330
25
100
AcDbEntity
  8
1
  6
Continuous
 62
     5
100
AcDbLine
 10
-742.171439857463
 20
-124.4847929710433
 30
0.0
 11
-742.171439857463
 21
-131.4847929710433
 31
0.0
  0
LINE
  5
48
330
25
100
AcDbEntity
  8
1
  6
Continuous
 62
     5
100
AcDbLine
 10
-757.171439857463
 20
-131.4847929710433
 30
0.0
 11
-742.171439857463
 21
-131.4847929710433
 31
0.0
  0
LINE
  5
47
330
25
100
AcDbEntity
  8
1
  6
Continuous
 62
     5
100
AcDbLine
 10
-757.171439857463
 20
-124.4847929710433
 30
0.0
 11
-742.171439857463
 21
-124.4847929710433
 31
0.0
  0
LINE
  5
46
330
25
100
AcDbEntity
  8
1
  6
Continuous
 62
     5
100
AcDbLine
 10
-757.171439857463
 20
-131.4847929710433
 30
0.0
 11
-757.171439857463
 21
-138.484792971043
 31
0.0
  0
LINE
  5
45
330
25
100
AcDbEntity
  8
1
  6
Continuous
 62
     5
100
AcDbLine
 10
-757.171439857463
 20
-124.4847929710433
 30
0.0
 11
-757.171439857463
 21
-131.4847929710433
 31
0.0
  0
LINE
  5
44
330
25
100
AcDbEntity
  8
1
  6
Continuous
 62
     5
100
AcDbLine
 10
-787.171439857463
 20
-131.4847929710433
 30
0.0
 11
-757.171439857463
 21
-131.4847929710433
 31
0.0
  0
LINE
  5
43
330
25
100
AcDbEntity
  8
1
  6
Continuous
 62
     5
100
AcDbLine
 10
-787.171439857463
 20
-124.4847929710433
 30
0.0
 11
-757.171439857463
 21
-124.4847929710433
 31
0.0
  0
LINE
  5
42
330
25
100
AcDbEntity
  8
1
  6
Continuous
 62
     5
100
AcDbLine
 10
-787.171439857463
 20
-131.4847929710433
 30
0.0
 11
-787.171439857463
 21
-138.484792971043
 31
0.0
  0
LINE
  5
41
330
25
100
AcDbEntity
  8
1
  6
Continuous
 62
     5
100
AcDbLine
 10
-787.171439857463
 20
-124.4847929710433
 30
0.0
 11
-787.171439857463
 21
-131.4847929710433
 31
0.0
  0
LINE
  5
40
330
25
100
AcDbEntity
  8
1
  6
Continuous
 62
     5
100
AcDbLine
 10
-837.171439857463
 20
-131.4847929710433
 30
0.0
 11
-787.171439857463
 21
-131.4847929710433
 31
0.0
  0
LINE
  5
3F
330
25
100
AcDbEntity
  8
1
  6
Continuous
 62
     5
100
AcDbLine
 10
-837.171439857463
 20
-124.4847929710433
 30
0.0
 11
-787.171439857463
 21
-124.4847929710433
 31
0.0
  0
LINE
  5
3E
330
25
100
AcDbEntity
  8
1
  6
Continuous
 62
     5
100
AcDbLine
 10
-837.171439857463
 20
-131.4847929710433
 30
0.0
 11
-837.171439857463
 21
-138.484792971043
 31
0.0
  0
LINE
  5
3D
330
25
100
AcDbEntity
  8
1
  6
Continuous
 62
     5
100
AcDbLine
 10
-837.171439857463
 20
-124.4847929710433
 30
0.0
 11
-837.171439857463
 21
-131.4847929710433
 31
0.0
  0
LINE
  5
3C
330
25
100
AcDbEntity
  8
1
  6
Continuous
 62
     5
100
AcDbLine
 10
-852.1714398574637
 20
-131.4847929710433
 30
0.0
 11
-837.171439857463
 21
-131.4847929710433
 31
0.0
  0
LINE
  5
3B
330
25
100
AcDbEntity
  8
1
  6
Continuous
 62
     5
100
AcDbLine
 10
-852.1714398574637
 20
-124.4847929710433
 30
0.0
 11
-837.171439857463
 21
-124.4847929710433
 31
0.0
  0
LINE
  5
3A
330
25
100
AcDbEntity
  8
1
  6
Continuous
 62
     5
100
AcDbLine
 10
-852.1714398574637
 20
-138.484792971043
 30
0.0
 11
-852.1714398574637
 21
-131.4847929710433
 31
0.0
  0
LINE
  5
39
330
25
100
AcDbEntity
  8
1
  6
Continuous
 62
     5
100
AcDbLine
 10
-852.1714398574637
 20
-131.4847929710433
 30
0.0
 11
-852.1714398574637
 21
-124.4847929710433
 31
0.0
  0
ENDBLK
  5
1A5
330
25
100
AcDbEntity
  8
0
100
AcDbBlockEnd
  0
BLOCK
  5
28
330
27
100
AcDbEntity
  8
0
100
AcDbBlockBegin
  2
FORMAT_A3
 70
     0
 10
-244.0059349989922
 20
-445.7306738328951
 30
0.0
  3
FORMAT_A3
  1

  0
LINE
  5
1A9
330
27
100
AcDbEntity
  8
1
  6
Continuous
 62
     7
100
AcDbLine
 10
-852.1714398574637
 20
-239.4847929710418
 30
0.0
 11
-1047.171439857464
 21
-239.4847929710413
 31
0.0
  0
LINE
  5
1A8
330
27
100
AcDbEntity
  8
1
  6
Continuous
 62
     7
100
AcDbLine
 10
-672.1714398574633
 20
-187.4847929710421
 30
0.0
 11
-672.1714398574633
 21
30.51520702895698
 31
0.0
  0
LINE
  5
1A7
330
27
100
AcDbEntity
  8
1
  6
Continuous
 62
     7
100
AcDbLine
 10
-672.1714398574633
 20
30.51520702895698
 30
0.0
 11
-1047.171439857464
 21
30.51520702895778
 31
0.0
  0
LINE
  5
1A6
330
27
100
AcDbEntity
  8
1
  6
Continuous
 62
     7
100
AcDbLine
 10
-1047.171439857464
 20
30.51520702895778
 30
0.0
 11
-1047.171439857464
 21
-239.4847929710413
 31
0.0
  0
INSERT
  5
29
330
27
100
AcDbEntity
  8
0
100
AcDbBlockReference
  2
______
 10
-624.7514761484051
 20
-467.3563375375182
 30
0.0
  0
ENDBLK
  5
1AA
330
27
100
AcDbEntity
  8
0
100
AcDbBlockEnd
  0
BLOCK
  5
2B
330
2A
100
AcDbEntity
  8
0
100
AcDbBlockBegin
  2
_6
 70
     0
 10
-1272.900814492152
 20
-404.7699596449896
 30
0.0
  3
_6
  1

  0
INSERT
  5
2C
330
2A
100
AcDbEntity
  8
0
100
AcDbBlockReference
  2
FORMAT_A3
 10
-957.3180620629171
 20
-509.392900075916
 30
0.0
  0
ENDBLK
  5
1AB
330
2A
100
AcDbEntity
  8
0
100
AcDbBlockEnd
  0
BLOCK
  5
2E
330
2D
100
AcDbEntity
  8
0
100
AcDbBlockBegin
  2
_1
 70
     0
 10
-1694.890635757175
 20
-150.8635276806147
 30
0.0
  3
_1
  1

  0
ARC
  5
227
330
2D
100
AcDbEntity
  8
1
  6
Continuous
 62
   133
100
AcDbCircle
 10
-1476.490359483385
 20
-126.5544633015261
 30
0.0
 40
1.49999999999991
100
AcDbArc
 50
-22.6223001041821
 51
89.23814439938341
  0
ARC
  5
226
330
2D
100
AcDbEntity
  8
1
  6
Continuous
 62
   133
100
AcDbCircle
 10
-1477.890635757175
 20
-126.4035955472864
 30
0.0
 40
1.499999999999879
100
AcDbArc
 50
78.46304096718537
 51
180.0
  0
ARC
  5
225
330
2D
100
AcDbEntity
  8
1
  6
Continuous
 62
   133
100
AcDbCircle
 10
-1472.790635757175
 20
-145.0551263189369
 30
0.0
 40
1.5
100
AcDbArc
 50
-90.0
 51
45.23972989609221
  0
ARC
  5
224
330
2D
100
AcDbEntity
  8
1
  6
Continuous
 62
   133
100
AcDbCircle
 10
-1445.290912030966
 20
-126.5544633015261
 30
0.0
 40
1.499999999999939
100
AcDbArc
 50
90.76185560058183
 51
-157.3776998958179
  0
ARC
  5
223
330
2D
100
AcDbEntity
  8
1
  6
Continuous
 62
   133
100
AcDbCircle
 10
-1443.890635757175
 20
-126.4035955472864
 30
0.0
 40
1.5
100
AcDbArc
 50
0.0
 51
101.5369590328146
  0
ARC
  5
222
330
2D
100
AcDbEntity
  8
1
  6
Continuous
 62
   133
100
AcDbCircle
 10
-1448.990635757175
 20
-145.0551263189369
 30
0.0
 40
1.50000000000045
100
AcDbArc
 50
134.7602701039324
 51
-90.0
  0
ARC
  5
221
330
2D
100
AcDbEntity
  8
1
  6
Continuous
 62
   133
100
AcDbCircle
 10
-1478.890635757175
 20
-109.0551263189369
 30
0.0
 40
0.5
100
AcDbArc
 50
90.0
 51
180.0
  0
ARC
  5
220
330
2D
100
AcDbEntity
  8
1
  6
Continuous
 62
   133
100
AcDbCircle
 10
-1471.290635757175
 20
-109.0551263189369
 30
0.0
 40
0.5
100
AcDbArc
 50
0.0
 51
90.0
  0
ARC
  5
21F
330
2D
100
AcDbEntity
  8
1
  6
Continuous
 62
   133
100
AcDbCircle
 10
-1450.490635757175
 20
-109.0551263189369
 30
0.0
 40
0.5
100
AcDbArc
 50
90.0
 51
180.0
  0
ARC
  5
21E
330
2D
100
AcDbEntity
  8
1
  6
Continuous
 62
   133
100
AcDbCircle
 10
-1442.890635757175
 20
-109.0551263189369
 30
0.0
 40
0.5
100
AcDbArc
 50
0.0
 51
90.0
  0
ARC
  5
21D
330
2D
100
AcDbEntity
  8
1
  6
Continuous
 62
   133
100
AcDbCircle
 10
-1477.890635757175
 20
-111.7066570905874
 30
0.0
 40
1.5
100
AcDbArc
 50
180.0
 51
-78.46304096718537
  0
ARC
  5
21C
330
2D
100
AcDbEntity
  8
1
  6
Continuous
 62
   133
100
AcDbCircle
 10
-1472.290635757175
 20
-112.7749989316938
 30
0.0
 40
1.500000000000049
100
AcDbArc
 50
-123.1386315413117
 51
0.0
  0
ARC
  5
21B
330
2D
100
AcDbEntity
  8
1
  6
Continuous
 62
   133
100
AcDbCircle
 10
-1449.490635757175
 20
-112.7749989316938
 30
0.0
 40
1.5
100
AcDbArc
 50
180.0
 51
-56.86136845868825
  0
ARC
  5
21A
330
2D
100
AcDbEntity
  8
1
  6
Continuous
 62
   133
100
AcDbCircle
 10
-1443.890635757175
 20
-111.7066570905874
 30
0.0
 40
1.499999999999879
100
AcDbArc
 50
-101.5369590328146
 51
0.0
  0
ARC
  5
219
330
2D
100
AcDbEntity
  8
1
  6
Continuous
 62
     7
100
AcDbCircle
 10
-1474.890635757175
 20
-142.0551263189369
 30
0.0
 40
6.0
100
AcDbArc
 50
180.0
 51
-90.0
  0
ARC
  5
218
330
2D
100
AcDbEntity
  8
1
  6
Continuous
 62
     7
100
AcDbCircle
 10
-1446.890635757175
 20
-142.0551263189369
 30
0.0
 40
6.0
100
AcDbArc
 50
-90.0
 51
0.0
  0
ARC
  5
217
330
2D
100
AcDbEntity
  8
1
  6
Continuous
 62
     7
100
AcDbCircle
 10
-1479.890635757175
 20
-108.0551263189369
 30
0.0
 40
1.0
100
AcDbArc
 50
90.0
 51
180.0
  0
ARC
  5
216
330
2D
100
AcDbEntity
  8
1
  6
Continuous
 62
     7
100
AcDbCircle
 10
-1441.890635757175
 20
-108.0551263189369
 30
0.0
 40
1.0
100
AcDbArc
 50
0.0
 51
90.0
  0
ARC
  5
215
330
2D
100
AcDbEntity
  8
1
  6
Continuous
 62
     7
100
AcDbCircle
 10
-1687.890635757175
 20
-142.0551263189369
 30
0.0
 40
5.0
100
AcDbArc
 50
180.0
 51
-90.0
  0
ARC
  5
214
330
2D
100
AcDbEntity
  8
1
  6
Continuous
 62
     7
100
AcDbCircle
 10
-1659.890635757175
 20
-142.0551263189369
 30
0.0
 40
5.0
100
AcDbArc
 50
-90.0
 51
0.0
  0
ARC
  5
213
330
2D
100
AcDbEntity
  8
1
  6
Continuous
 62
     7
100
AcDbCircle
 10
-1687.890635757175
 20
-142.0551263189369
 30
0.0
 40
6.0
100
AcDbArc
 50
180.0
 51
-90.0
  0
ARC
  5
212
330
2D
100
AcDbEntity
  8
1
  6
Continuous
 62
     7
100
AcDbCircle
 10
-1659.890635757175
 20
-142.0551263189369
 30
0.0
 40
6.0
100
AcDbArc
 50
-90.0
 51
0.0
  0
ARC
  5
211
330
2D
100
AcDbEntity
  8
1
  6
Continuous
 62
     7
100
AcDbCircle
 10
-1692.890635757175
 20
-108.0551263189369
 30
0.0
 40
1.0
100
AcDbArc
 50
90.0
 51
180.0
  0
ARC
  5
210
330
2D
100
AcDbEntity
  8
1
  6
Continuous
 62
     7
100
AcDbCircle
 10
-1654.890635757175
 20
-108.0551263189369
 30
0.0
 40
1.0
100
AcDbArc
 50
0.0
 51
90.0
  0
LWPOLYLINE
  5
20F
330
2D
100
AcDbEntity
  8
1
  6
Continuous
 62
     7
100
AcDbPolyline
 90
        2
 70
     1
 43
0.0
 10
-1458.432135757175
 20
-133.0551263189369
 42
1.0
 10
-1463.349135757175
 20
-133.0551263189369
 42
1.0
  0
LWPOLYLINE
  5
20E
330
2D
100
AcDbEntity
  8
1
  6
Continuous
 62
     2
100
AcDbPolyline
 90
        2
 70
     1
 43
0.0
 10
-1457.890635757175
 20
-133.0551263189369
 42
1.0
 10
-1463.890635757175
 20
-133.0551263189369
 42
1.0
  0
ARC
  5
20D
330
2D
100
AcDbEntity
  8
1
  6
Continuous
 62
     7
100
AcDbCircle
 10
-1460.890635757175
 20
-133.0551263189369
 30
0.0
 40
6.999999999999879
100
AcDbArc
 50
128.2132107017368
 51
-128.2132107017369
  0
ARC
  5
20C
330
2D
100
AcDbEntity
  8
1
  6
Continuous
 62
     7
100
AcDbCircle
 10
-1460.890635757175
 20
-133.0551263189369
 30
0.0
 40
6.99999999999987
100
AcDbArc
 50
-51.78678929826315
 51
51.78678929826322
  0
ARC
  5
20B
330
2D
100
AcDbEntity
  8
1
  6
Continuous
 62
     7
100
AcDbCircle
 10
-1460.890635757175
 20
-133.0551263189369
 30
0.0
 40
11.72500000000008
100
AcDbArc
 50
123.0822366335434
 51
56.9177633664566
  0
ARC
  5
20A
330
2D
100
AcDbEntity
  8
1
  6
Continuous
 62
     7
100
AcDbCircle
 10
-1460.890635757175
 20
-133.0551263189369
 30
0.0
 40
12.72500000000008
100
AcDbArc
 50
125.5583969858635
 51
54.44160301413649
  0
ARC
  5
209
330
2D
100
AcDbEntity
  8
1
  6
Continuous
 62
   133
100
AcDbCircle
 10
-1476.390635757175
 20
-119.0551263189369
 30
0.0
 40
6.000000000000089
100
AcDbArc
 50
-101.5369590328157
 51
-90.76185560062091
  0
ARC
  5
208
330
2D
100
AcDbEntity
  8
1
  6
Continuous
 62
   133
100
AcDbCircle
 10
-1460.890635757175
 20
-133.0551263189369
 30
0.0
 40
15.4000000000004
100
AcDbArc
 50
157.3776998958217
 51
-134.7602701039205
  0
ARC
  5
207
330
2D
100
AcDbEntity
  8
1
  6
Continuous
 62
   133
100
AcDbCircle
 10
-1474.890635757175
 20
-142.0551263189369
 30
0.0
 40
4.5
100
AcDbArc
 50
180.0
 51
-90.0
  0
ARC
  5
206
330
2D
100
AcDbEntity
  8
1
  6
Continuous
 62
   133
100
AcDbCircle
 10
-1445.390635757175
 20
-119.0551263189369
 30
0.0
 40
6.0
100
AcDbArc
 50
-89.23814439937908
 51
-78.46304096718424
  0
ARC
  5
205
330
2D
100
AcDbEntity
  8
1
  6
Continuous
 62
   133
100
AcDbCircle
 10
-1460.890635757175
 20
-133.0551263189369
 30
0.0
 40
15.39999999999962
100
AcDbArc
 50
-45.23972989608189
 51
22.62230010417957
  0
ARC
  5
204
330
2D
100
AcDbEntity
  8
1
  6
Continuous
 62
   133
100
AcDbCircle
 10
-1446.890635757175
 20
-142.0551263189369
 30
0.0
 40
4.5
100
AcDbArc
 50
-90.0
 51
0.0
  0
ARC
  5
203
330
2D
100
AcDbEntity
  8
1
  6
Continuous
 62
   133
100
AcDbCircle
 10
-1460.890635757175
 20
-133.0551263189369
 30
0.0
 40
13.90000000000007
100
AcDbArc
 50
127.1796771215057
 51
52.82032287849425
  0
ARC
  5
202
330
2D
100
AcDbEntity
  8
1
  6
Continuous
 62
   133
100
AcDbCircle
 10
-1476.390635757175
 20
-119.0551263189369
 30
0.0
 40
5.999999999999959
100
AcDbArc
 50
56.86136845868428
 51
101.5369590328157
  0
ARC
  5
201
330
2D
100
AcDbEntity
  8
1
  6
Continuous
 62
   133
100
AcDbCircle
 10
-1445.390635757175
 20
-119.0551263189369
 30
0.0
 40
6.000000000000089
100
AcDbArc
 50
78.46304096718424
 51
123.1386315413157
  0
ARC
  5
200
330
2D
100
AcDbEntity
  8
1
  6
Continuous
 62
     7
100
AcDbCircle
 10
-1460.890635757175
 20
-133.0551263189369
 30
0.0
 40
12.89999999999995
100
AcDbArc
 50
125.0046846811428
 51
54.99531531885717
  0
LWPOLYLINE
  5
1FF
330
2D
100
AcDbEntity
  8
1
  6
Continuous
 62
     7
100
AcDbPolyline
 90
        2
 70
     1
 43
0.0
 10
-1474.390635757175
 20
-119.0551263189369
 42
1.0
 10
-1478.390635757175
 20
-119.0551263189369
 42
1.0
  0
LWPOLYLINE
  5
1FE
330
2D
100
AcDbEntity
  8
1
  6
Continuous
 62
     7
100
AcDbPolyline
 90
        2
 70
     1
 43
0.0
 10
-1443.390635757175
 20
-119.0551263189369
 42
1.0
 10
-1447.390635757175
 20
-119.0551263189369
 42
1.0
  0
ARC
  5
1FD
330
2D
100
AcDbEntity
  8
1
  6
Continuous
 62
     7
100
AcDbCircle
 10
-1673.890635757175
 20
-133.0551263189369
 30
0.0
 40
10.90000000000009
100
AcDbArc
 50
119.6969774237647
 51
60.30302257623532
  0
ARC
  5
1FC
330
2D
100
AcDbEntity
  8
1
  6
Continuous
 62
     7
100
AcDbCircle
 10
-1673.890635757175
 20
-133.0551263189369
 30
0.0
 40
11.89999999999999
100
AcDbArc
 50
122.5350285076248
 51
57.4649714923751
  0
LWPOLYLINE
  5
1FB
330
2D
100
AcDbEntity
  8
1
  6
Continuous
 62
     7
100
AcDbPolyline
 90
        2
 70
     1
 43
0.0
 10
-1685.890635757175
 20
-119.0551263189369
 42
1.0
 10
-1692.890635757175
 20
-119.0551263189369
 42
1.0
  0
LWPOLYLINE
  5
1FA
330
2D
100
AcDbEntity
  8
1
  6
Continuous
 62
     7
100
AcDbPolyline
 90
        2
 70
     1
 43
0.0
 10
-1687.390635757175
 20
-119.0551263189369
 42
1.0
 10
-1691.390635757175
 20
-119.0551263189369
 42
1.0
  0
LWPOLYLINE
  5
1F9
330
2D
100
AcDbEntity
  8
1
  6
Continuous
 62
     7
100
AcDbPolyline
 90
        2
 70
     1
 43
0.0
 10
-1654.890635757175
 20
-119.0551263189369
 42
1.0
 10
-1661.890635757175
 20
-119.0551263189369
 42
1.0
  0
LWPOLYLINE
  5
1F8
330
2D
100
AcDbEntity
  8
1
  6
Continuous
 62
     7
100
AcDbPolyline
 90
        2
 70
     1
 43
0.0
 10
-1656.390635757175
 20
-119.0551263189369
 42
1.0
 10
-1660.390635757175
 20
-119.0551263189369
 42
1.0
  0
LINE
  5
1F7
330
2D
100
AcDbEntity
  8
1
  6
Continuous
 62
     7
100
AcDbLine
 10
-1456.560508738253
 20
-138.5551263189369
 30
0.0
 11
-1465.220762776097
 21
-138.5551263189369
 31
0.0
  0
LINE
  5
1F6
330
2D
100
AcDbEntity
  8
1
  6
Continuous
 62
     7
100
AcDbLine
 10
-1456.560508738253
 20
-127.5551263189369
 30
0.0
 11
-1465.220762776097
 21
-127.5551263189369
 31
0.0
  0
LINE
  5
1F5
330
2D
100
AcDbEntity
  8
1
  6
Continuous
 62
     7
100
AcDbLine
 10
-1467.290635757175
 20
-123.2308897073726
 30
0.0
 11
-1468.290635757175
 21
-122.7030431952366
 31
0.0
  0
LINE
  5
1F4
330
2D
100
AcDbEntity
  8
1
  6
Continuous
 62
     7
100
AcDbLine
 10
-1454.490635757174
 20
-123.2308897073726
 30
0.0
 11
-1453.490635757175
 21
-122.7030431952366
 31
0.0
  0
LINE
  5
1F3
330
2D
100
AcDbEntity
  8
1
  6
Continuous
 62
   133
100
AcDbLine
 10
-1474.890635757175
 20
-146.5551263189369
 30
0.0
 11
-1472.790635757175
 21
-146.5551263189369
 31
0.0
  0
LINE
  5
1F2
330
2D
100
AcDbEntity
  8
1
  6
Continuous
 62
   133
100
AcDbLine
 10
-1479.390635757175
 20
-126.4035955472864
 30
0.0
 11
-1479.390635757175
 21
-142.0551263189369
 31
0.0
  0
LINE
  5
1F1
330
2D
100
AcDbEntity
  8
1
  6
Continuous
 62
   133
100
AcDbLine
 10
-1446.890635757175
 20
-146.5551263189369
 30
0.0
 11
-1448.990635757175
 21
-146.5551263189369
 31
0.0
  0
LINE
  5
1F0
330
2D
100
AcDbEntity
  8
1
  6
Continuous
 62
   133
100
AcDbLine
 10
-1442.390635757175
 20
-126.4035955472864
 30
0.0
 11
-1442.390635757175
 21
-142.0551263189369
 31
0.0
  0
LINE
  5
1EF
330
2D
100
AcDbEntity
  8
1
  6
Continuous
 62
   133
100
AcDbLine
 10
-1469.290635757175
 20
-121.9803802721871
 30
0.0
 11
-1469.290635757175
 21
-107.0551263189369
 31
0.0
  0
LINE
  5
1EE
330
2D
100
AcDbEntity
  8
1
  6
Continuous
 62
   133
100
AcDbLine
 10
-1452.490635757175
 20
-107.0551263189369
 30
0.0
 11
-1452.490635757175
 21
-121.9803802721871
 31
0.0
  0
LINE
  5
1ED
330
2D
100
AcDbEntity
  8
1
  6
Continuous
 62
   133
100
AcDbLine
 10
-1470.790635757175
 20
-112.7749989316938
 30
0.0
 11
-1470.790635757175
 21
-109.0551263189369
 31
0.0
  0
LINE
  5
1EC
330
2D
100
AcDbEntity
  8
1
  6
Continuous
 62
   133
100
AcDbLine
 10
-1479.390635757175
 20
-109.0551263189369
 30
0.0
 11
-1479.390635757175
 21
-111.7066570905874
 31
0.0
  0
LINE
  5
1EB
330
2D
100
AcDbEntity
  8
1
  6
Continuous
 62
   133
100
AcDbLine
 10
-1471.290635757175
 20
-108.5551263189369
 30
0.0
 11
-1478.890635757175
 21
-108.5551263189369
 31
0.0
  0
LINE
  5
1EA
330
2D
100
AcDbEntity
  8
1
  6
Continuous
 62
   133
100
AcDbLine
 10
-1442.390635757175
 20
-111.7066570905874
 30
0.0
 11
-1442.390635757175
 21
-109.0551263189369
 31
0.0
  0
LINE
  5
1E9
330
2D
100
AcDbEntity
  8
1
  6
Continuous
 62
   133
100
AcDbLine
 10
-1450.990635757175
 20
-109.0551263189369
 30
0.0
 11
-1450.990635757175
 21
-112.7749989316938
 31
0.0
  0
LINE
  5
1E8
330
2D
100
AcDbEntity
  8
1
  6
Continuous
 62
   133
100
AcDbLine
 10
-1442.890635757175
 20
-108.5551263189369
 30
0.0
 11
-1450.490635757175
 21
-108.5551263189369
 31
0.0
  0
LINE
  5
1E7
330
2D
100
AcDbEntity
  8
1
  6
Continuous
 62
     7
100
AcDbLine
 10
-1467.290635757175
 20
-123.2308897073726
 30
0.0
 11
-1467.290635757175
 21
-107.0551263189369
 31
0.0
  0
LINE
  5
1E6
330
2D
100
AcDbEntity
  8
1
  6
Continuous
 62
     7
100
AcDbLine
 10
-1454.490635757174
 20
-107.0551263189369
 30
0.0
 11
-1454.490635757174
 21
-123.2308897073726
 31
0.0
  0
LINE
  5
1E5
330
2D
100
AcDbEntity
  8
1
  6
Continuous
 62
     7
100
AcDbLine
 10
-1466.290635757175
 20
-117.5551263189369
 30
0.0
 11
-1466.290635757175
 21
-107.0551263189369
 31
0.0
  0
LINE
  5
1E4
330
2D
100
AcDbEntity
  8
1
  6
Continuous
 62
     7
100
AcDbLine
 10
-1455.490635757175
 20
-117.5551263189369
 30
0.0
 11
-1466.290635757175
 21
-117.5551263189369
 31
0.0
  0
LINE
  5
1E3
330
2D
100
AcDbEntity
  8
1
  6
Continuous
 62
     7
100
AcDbLine
 10
-1455.490635757175
 20
-107.0551263189369
 30
0.0
 11
-1455.490635757175
 21
-117.5551263189369
 31
0.0
  0
LINE
  5
1E2
330
2D
100
AcDbEntity
  8
1
  6
Continuous
 62
     7
100
AcDbLine
 10
-1453.490635757175
 20
-107.0551263189369
 30
0.0
 11
-1455.490635757175
 21
-107.0551263189369
 31
0.0
  0
LINE
  5
1E1
330
2D
100
AcDbEntity
  8
1
  6
Continuous
 62
     7
100
AcDbLine
 10
-1468.290635757175
 20
-122.7030431952366
 30
0.0
 11
-1468.290635757175
 21
-107.0551263189369
 31
0.0
  0
LINE
  5
1E0
330
2D
100
AcDbEntity
  8
1
  6
Continuous
 62
     7
100
AcDbLine
 10
-1453.490635757175
 20
-107.0551263189369
 30
0.0
 11
-1453.490635757175
 21
-122.7030431952366
 31
0.0
  0
LINE
  5
1DF
330
2D
100
AcDbEntity
  8
1
  6
DOT_CENTER
 62
     2
100
AcDbLine
 10
-1446.990635757174
 20
-133.0551263189369
 30
0.0
 11
-1474.790635757175
 21
-133.0551263189369
 31
0.0
  0
LINE
  5
1DE
330
2D
100
AcDbEntity
  8
1
  6
DOT_CENTER
 62
     2
100
AcDbLine
 10
-1460.890635757175
 20
-84.55512631893714
 30
0.0
 11
-1460.890635757175
 21
-150.8635276806147
 31
0.0
  0
LINE
  5
1DD
330
2D
100
AcDbEntity
  8
1
  6
Continuous
 62
     7
100
AcDbLine
 10
-1479.890635757175
 20
-107.0551263189369
 30
0.0
 11
-1466.290635757175
 21
-107.0551263189369
 31
0.0
  0
LINE
  5
1DC
330
2D
100
AcDbEntity
  8
1
  6
Continuous
 62
     7
100
AcDbLine
 10
-1480.890635757175
 20
-142.0551263189369
 30
0.0
 11
-1480.890635757175
 21
-108.0551263189369
 31
0.0
  0
LINE
  5
1DB
330
2D
100
AcDbEntity
  8
1
  6
Continuous
 62
     7
100
AcDbLine
 10
-1446.890635757175
 20
-148.0551263189369
 30
0.0
 11
-1474.890635757175
 21
-148.0551263189369
 31
0.0
  0
LINE
  5
1DA
330
2D
100
AcDbEntity
  8
1
  6
Continuous
 62
     7
100
AcDbLine
 10
-1440.890635757175
 20
-108.0551263189369
 30
0.0
 11
-1440.890635757175
 21
-142.0551263189369
 31
0.0
  0
LINE
  5
1D9
330
2D
100
AcDbEntity
  8
1
  6
Continuous
 62
     7
100
AcDbLine
 10
-1453.490635757175
 20
-107.0551263189369
 30
0.0
 11
-1441.890635757175
 21
-107.0551263189369
 31
0.0
  0
LINE
  5
1D8
330
2D
100
AcDbEntity
  8
1
  6
DOT_CENTER
 62
     2
100
AcDbLine
 10
-1476.390635757175
 20
-113.5551263189369
 30
0.0
 11
-1476.390635757175
 21
-124.5551263189369
 31
0.0
  0
LINE
  5
1D7
330
2D
100
AcDbEntity
  8
1
  6
DOT_CENTER
 62
     2
100
AcDbLine
 10
-1470.890635757175
 20
-119.0551263189369
 30
0.0
 11
-1481.890635757175
 21
-119.0551263189369
 31
0.0
  0
LINE
  5
1D6
330
2D
100
AcDbEntity
  8
1
  6
DOT_CENTER
 62
     2
100
AcDbLine
 10
-1445.390635757175
 20
-113.5551263189369
 30
0.0
 11
-1445.390635757175
 21
-124.5551263189369
 31
0.0
  0
LINE
  5
1D5
330
2D
100
AcDbEntity
  8
1
  6
DOT_CENTER
 62
     2
100
AcDbLine
 10
-1439.890635757175
 20
-119.0551263189369
 30
0.0
 11
-1450.890635757175
 21
-119.0551263189369
 31
0.0
  0
LINE
  5
1D4
330
2D
100
AcDbEntity
  8
1
  6
DOT_CENTER
 62
     2
100
AcDbLine
 10
-1553.91220108042
 20
-150.8635276806147
 30
0.0
 11
-1553.91220108042
 21
-84.55512631893714
 31
0.0
  0
LINE
  5
1D3
330
2D
100
AcDbEntity
  8
1
  6
DOT_CENTER
 62
     2
100
AcDbLine
 10
-1546.91220108042
 20
-133.0551263189369
 30
0.0
 11
-1573.91220108042
 21
-133.0551263189369
 31
0.0
  0
LINE
  5
1D2
330
2D
100
AcDbEntity
  8
1
  6
DOT_CENTER
 62
     2
100
AcDbLine
 10
-1566.91220108042
 20
-119.0551263189369
 30
0.0
 11
-1573.91220108042
 21
-119.0551263189369
 31
0.0
  0
LINE
  5
1D1
330
2D
100
AcDbEntity
  8
1
  6
Continuous
 62
     7
100
AcDbLine
 10
-1548.91220108042
 20
-123.0226789604905
 30
0.0
 11
-1549.91220108042
 21
-122.4886699593054
 31
0.0
  0
LINE
  5
1D0
330
2D
100
AcDbEntity
  8
1
  6
Continuous
 62
     7
100
AcDbLine
 10
-1549.91220108042
 20
-122.4886699593054
 30
0.0
 11
-1568.91220108042
 21
-122.4886699593054
 31
0.0
  0
LINE
  5
1CF
330
2D
100
AcDbEntity
  8
1
  6
Continuous
 62
     7
100
AcDbLine
 10
-1548.91220108042
 20
-144.7713763189369
 30
0.0
 11
-1549.912162801368
 21
-145.7801259839952
 31
0.0
  0
LINE
  5
1CE
330
2D
100
AcDbEntity
  8
1
  6
Continuous
 62
     7
100
AcDbLine
 10
-1549.912162801368
 20
-145.7801259839952
 30
0.0
 11
-1549.91220108042
 21
-145.7801263189369
 31
0.0
  0
LINE
  5
1CD
330
2D
100
AcDbEntity
  8
1
  6
Continuous
 62
     7
100
AcDbLine
 10
-1549.91220108042
 20
-145.7801263189369
 30
0.0
 11
-1549.91220108042
 21
-107.0551263189369
 31
0.0
  0
LINE
  5
1CC
330
2D
100
AcDbEntity
  8
1
  6
Continuous
 62
     7
100
AcDbLine
 10
-1548.91220108042
 20
-144.7713763189369
 30
0.0
 11
-1548.91220108042
 21
-107.0551263189369
 31
0.0
  0
LINE
  5
1CB
330
2D
100
AcDbEntity
  8
1
  6
Continuous
 62
     7
100
AcDbLine
 10
-1549.91220108042
 20
-145.7801263189369
 30
0.0
 11
-1568.91220108042
 21
-145.955126318937
 31
0.0
  0
LINE
  5
1CA
330
2D
100
AcDbEntity
  8
1
  6
Continuous
 62
     7
100
AcDbLine
 10
-1667.490635757174
 20
-108.0551263189369
 30
0.0
 11
-1668.490635757175
 21
-107.0551263189369
 31
0.0
  0
LINE
  5
1C9
330
2D
100
AcDbEntity
  8
1
  6
Continuous
 62
     7
100
AcDbLine
 10
-1668.490635757175
 20
-123.5867579272867
 30
0.0
 11
-1667.490635757174
 21
-123.0226789604905
 31
0.0
  0
LINE
  5
1C8
330
2D
100
AcDbEntity
  8
1
  6
Continuous
 62
     7
100
AcDbLine
 10
-1679.290635757175
 20
-123.5867579272867
 30
0.0
 11
-1680.290635757175
 21
-123.0226789604905
 31
0.0
  0
LINE
  5
1C7
330
2D
100
AcDbEntity
  8
1
  6
Continuous
 62
     7
100
AcDbLine
 10
-1680.290635757175
 20
-108.0551263189369
 30
0.0
 11
-1679.290635757175
 21
-107.0551263189369
 31
0.0
  0
LINE
  5
1C6
330
2D
100
AcDbEntity
  8
1
  6
Continuous
 62
     7
100
AcDbLine
 10
-1570.91220108042
 20
-148.0551263189369
 30
0.0
 11
-1570.91220108042
 21
-107.0551263189369
 31
0.0
  0
LINE
  5
1C5
330
2D
100
AcDbEntity
  8
1
  6
Continuous
 62
     7
100
AcDbLine
 10
-1570.91220108042
 20
-107.0551263189369
 30
0.0
 11
-1571.91220108042
 21
-108.0551263189369
 31
0.0
  0
LINE
  5
1C4
330
2D
100
AcDbEntity
  8
1
  6
Continuous
 62
     7
100
AcDbLine
 10
-1570.91220108042
 20
-148.0551263189369
 30
0.0
 11
-1571.91220108042
 21
-147.0551263189369
 31
0.0
  0
LINE
  5
1C3
330
2D
100
AcDbEntity
  8
1
  6
Continuous
 62
     7
100
AcDbLine
 10
-1571.91220108042
 20
-108.0551263189369
 30
0.0
 11
-1571.91220108042
 21
-147.0551263189369
 31
0.0
  0
LINE
  5
1C2
330
2D
100
AcDbEntity
  8
1
  6
Continuous
 62
     7
100
AcDbLine
 10
-1570.91220108042
 20
-148.0551263189369
 30
0.0
 11
-1568.91220108042
 21
-148.0551263189369
 31
0.0
  0
LINE
  5
1C1
330
2D
100
AcDbEntity
  8
1
  6
Continuous
 62
     7
100
AcDbLine
 10
-1568.91220108042
 20
-148.0551263189369
 30
0.0
 11
-1568.91220108042
 21
-107.0551263189369
 31
0.0
  0
LINE
  5
1C0
330
2D
100
AcDbEntity
  8
1
  6
Continuous
 62
     7
100
AcDbLine
 10
-1548.91220108042
 20
-107.0551263189369
 30
0.0
 11
-1570.91220108042
 21
-107.0551263189369
 31
0.0
  0
LINE
  5
1BF
330
2D
100
AcDbEntity
  8
1
  6
DOT_CENTER
 62
     2
100
AcDbLine
 10
-1659.990635757174
 20
-133.0551263189369
 30
0.0
 11
-1687.790635757175
 21
-133.0551263189369
 31
0.0
  0
LINE
  5
1BE
330
2D
100
AcDbEntity
  8
1
  6
DOT_CENTER
 62
     2
100
AcDbLine
 10
-1673.890635757175
 20
-84.55512631893714
 30
0.0
 11
-1673.890635757175
 21
-150.8635276806147
 31
0.0
  0
LINE
  5
1BD
330
2D
100
AcDbEntity
  8
1
  6
Continuous
 62
     7
100
AcDbLine
 10
-1679.290635757175
 20
-107.0551263189369
 30
0.0
 11
-1679.290635757175
 21
-123.5867579272867
 31
0.0
  0
LINE
  5
1BC
330
2D
100
AcDbEntity
  8
1
  6
Continuous
 62
     7
100
AcDbLine
 10
-1692.890635757175
 20
-107.0551263189369
 30
0.0
 11
-1679.290635757175
 21
-107.0551263189369
 31
0.0
  0
LINE
  5
1BB
330
2D
100
AcDbEntity
  8
1
  6
Continuous
 62
     7
100
AcDbLine
 10
-1693.890635757175
 20
-142.0551263189369
 30
0.0
 11
-1693.890635757175
 21
-108.0551263189369
 31
0.0
  0
LINE
  5
1BA
330
2D
100
AcDbEntity
  8
1
  6
Continuous
 62
     7
100
AcDbLine
 10
-1659.890635757175
 20
-148.0551263189369
 30
0.0
 11
-1687.890635757175
 21
-148.0551263189369
 31
0.0
  0
LINE
  5
1B9
330
2D
100
AcDbEntity
  8
1
  6
Continuous
 62
     7
100
AcDbLine
 10
-1653.890635757175
 20
-108.0551263189369
 30
0.0
 11
-1653.890635757175
 21
-142.0551263189369
 31
0.0
  0
LINE
  5
1B8
330
2D
100
AcDbEntity
  8
1
  6
Continuous
 62
     7
100
AcDbLine
 10
-1668.490635757175
 20
-107.0551263189369
 30
0.0
 11
-1654.890635757175
 21
-107.0551263189369
 31
0.0
  0
LINE
  5
1B7
330
2D
100
AcDbEntity
  8
1
  6
Continuous
 62
     7
100
AcDbLine
 10
-1668.490635757175
 20
-123.5867579272867
 30
0.0
 11
-1668.490635757175
 21
-107.0551263189369
 31
0.0
  0
LINE
  5
1B6
330
2D
100
AcDbEntity
  8
1
  6
Continuous
 62
     7
100
AcDbLine
 10
-1680.290635757175
 20
-108.0551263189369
 30
0.0
 11
-1680.290635757175
 21
-123.0226789604905
 31
0.0
  0
LINE
  5
1B5
330
2D
100
AcDbEntity
  8
1
  6
Continuous
 62
     7
100
AcDbLine
 10
-1692.890635757175
 20
-108.0551263189369
 30
0.0
 11
-1680.290635757175
 21
-108.0551263189369
 31
0.0
  0
LINE
  5
1B4
330
2D
100
AcDbEntity
  8
1
  6
Continuous
 62
     7
100
AcDbLine
 10
-1692.890635757175
 20
-142.0551263189369
 30
0.0
 11
-1692.890635757175
 21
-108.0551263189369
 31
0.0
  0
LINE
  5
1B3
330
2D
100
AcDbEntity
  8
1
  6
Continuous
 62
     7
100
AcDbLine
 10
-1659.890635757175
 20
-147.0551263189369
 30
0.0
 11
-1687.890635757175
 21
-147.0551263189369
 31
0.0
  0
LINE
  5
1B2
330
2D
100
AcDbEntity
  8
1
  6
Continuous
 62
     7
100
AcDbLine
 10
-1654.890635757175
 20
-108.0551263189369
 30
0.0
 11
-1654.890635757175
 21
-142.0551263189369
 31
0.0
  0
LINE
  5
1B1
330
2D
100
AcDbEntity
  8
1
  6
Continuous
 62
     7
100
AcDbLine
 10
-1667.490635757174
 20
-108.0551263189369
 30
0.0
 11
-1654.890635757175
 21
-108.0551263189369
 31
0.0
  0
LINE
  5
1B0
330
2D
100
AcDbEntity
  8
1
  6
Continuous
 62
     7
100
AcDbLine
 10
-1667.490635757174
 20
-123.0226789604905
 30
0.0
 11
-1667.490635757174
 21
-108.0551263189369
 31
0.0
  0
LINE
  5
1AF
330
2D
100
AcDbEntity
  8
1
  6
DOT_CENTER
 62
     2
100
AcDbLine
 10
-1689.390635757175
 20
-113.5551263189369
 30
0.0
 11
-1689.390635757175
 21
-124.5551263189369
 31
0.0
  0
LINE
  5
1AE
330
2D
100
AcDbEntity
  8
1
  6
DOT_CENTER
 62
     2
100
AcDbLine
 10
-1683.890635757175
 20
-119.0551263189369
 30
0.0
 11
-1694.890635757175
 21
-119.0551263189369
 31
0.0
  0
LINE
  5
1AD
330
2D
100
AcDbEntity
  8
1
  6
DOT_CENTER
 62
     2
100
AcDbLine
 10
-1658.390635757175
 20
-113.5551263189369
 30
0.0
 11
-1658.390635757175
 21
-124.5551263189369
 31
0.0
  0
LINE
  5
1AC
330
2D
100
AcDbEntity
  8
1
  6
DOT_CENTER
 62
     2
100
AcDbLine
 10
-1652.890635757175
 20
-119.0551263189369
 30
0.0
 11
-1663.890635757175
 21
-119.0551263189369
 31
0.0
  0
ENDBLK
  5
228
330
2D
100
AcDbEntity
  8
0
100
AcDbBlockEnd
  0
BLOCK
  5
30
330
2F
100
AcDbEntity
  8
0
100
AcDbBlockBegin
  2
_2
 70
     0
 10
-1684.690635757175
 20
-143.8551263189368
 30
0.0
  3
_2
  1

  0
ARC
  5
252
330
2F
100
AcDbEntity
  8
1
  6
Continuous
 62
   133
100
AcDbCircle
 10
-1674.840635757175
 20
-113.205126318937
 30
0.0
 40
0.5
100
AcDbArc
 50
0.0
 51
90.0
  0
ARC
  5
251
330
2F
100
AcDbEntity
  8
1
  6
Continuous
 62
   133
100
AcDbCircle
 10
-1674.840635757175
 20
-111.3051263189369
 30
0.0
 40
0.5
100
AcDbArc
 50
-90.0
 51
0.0
  0
ARC
  5
250
330
2F
100
AcDbEntity
  8
1
  6
Continuous
 62
   133
100
AcDbCircle
 10
-1672.940635757175
 20
-111.3051263189369
 30
0.0
 40
0.5
100
AcDbArc
 50
180.0
 51
-90.0
  0
ARC
  5
24F
330
2F
100
AcDbEntity
  8
1
  6
Continuous
 62
   133
100
AcDbCircle
 10
-1672.940635757175
 20
-113.205126318937
 30
0.0
 40
0.5
100
AcDbArc
 50
90.0
 51
180.0
  0
LWPOLYLINE
  5
24E
330
2F
100
AcDbEntity
  8
1
  6
Continuous
 62
     7
100
AcDbPolyline
 90
        2
 70
     1
 43
0.0
 10
-1668.640635757175
 20
-133.0551263189369
 42
1.0
 10
-1679.140635757175
 20
-133.0551263189369
 42
1.0
  0
LWPOLYLINE
  5
24D
330
2F
100
AcDbEntity
  8
1
  6
Continuous
 62
     7
100
AcDbPolyline
 90
        2
 70
     1
 43
0.0
 10
-1673.890635757175
 20
-127.3051263189369
 42
1.0
 10
-1673.890635757175
 20
-138.8051263189369
 42
1.0
  0
LWPOLYLINE
  5
24C
330
2F
100
AcDbEntity
  8
1
  6
Continuous
 62
     7
100
AcDbPolyline
 90
        2
 70
     1
 43
0.0
 10
-1666.140635757175
 20
-133.0551263189369
 42
1.0
 10
-1681.640635757175
 20
-133.0551263189369
 42
1.0
  0
LWPOLYLINE
  5
24B
330
2F
100
AcDbEntity
  8
1
  6
Continuous
 62
     7
100
AcDbPolyline
 90
        2
 70
     1
 43
0.0
 10
-1667.140635757175
 20
-133.0551263189369
 42
1.0
 10
-1680.640635757175
 20
-133.0551263189369
 42
1.0
  0
LWPOLYLINE
  5
24A
330
2F
100
AcDbEntity
  8
1
  6
Continuous
 62
     7
100
AcDbPolyline
 90
        2
 70
     1
 43
0.0
 10
-1673.890635757175
 20
-108.455126318937
 42
1.0
 10
-1673.890635757175
 20
-116.0551263189368
 42
1.0
  0
ARC
  5
249
330
2F
100
AcDbEntity
  8
1
  6
Continuous
 62
     7
100
AcDbCircle
 10
-1673.890635757175
 20
-133.0551263189369
 30
0.0
 40
10.80000000000001
100
AcDbArc
 50
119.3892799478885
 51
60.61072005211151
  0
LINE
  5
248
330
2F
100
AcDbEntity
  8
1
  6
Continuous
 62
     7
100
AcDbLine
 10
-1466.190635757175
 20
-117.5551263189369
 30
0.0
 11
-1466.190635757175
 21
-107.0551263189369
 31
0.0
  0
LINE
  5
247
330
2F
100
AcDbEntity
  8
1
  6
Continuous
 62
     7
100
AcDbLine
 10
-1455.590635757175
 20
-107.0551263189369
 30
0.0
 11
-1455.590635757175
 21
-117.5551263189369
 31
0.0
  0
LINE
  5
246
330
2F
100
AcDbEntity
  8
1
  6
Continuous
 62
     7
100
AcDbLine
 10
-1466.190635757175
 20
-107.0551263189369
 30
0.0
 11
-1455.590635757175
 21
-107.0551263189369
 31
0.0
  0
LINE
  5
245
330
2F
100
AcDbEntity
  8
1
  6
Continuous
 62
   133
100
AcDbLine
 10
-1675.890635757175
 20
-111.8051263189369
 30
0.0
 11
-1675.890635757175
 21
-112.705126318937
 31
0.0
  0
LINE
  5
244
330
2F
100
AcDbEntity
  8
1
  6
Continuous
 62
   133
100
AcDbLine
 10
-1674.340635757175
 20
-111.3051263189369
 30
0.0
 11
-1674.340635757175
 21
-110.2551263189369
 31
0.0
  0
LINE
  5
243
330
2F
100
AcDbEntity
  8
1
  6
Continuous
 62
   133
100
AcDbLine
 10
-1674.340635757175
 20
-114.2551263189369
 30
0.0
 11
-1674.340635757175
 21
-113.205126318937
 31
0.0
  0
LINE
  5
242
330
2F
100
AcDbEntity
  8
1
  6
Continuous
 62
   133
100
AcDbLine
 10
-1673.440635757175
 20
-113.205126318937
 30
0.0
 11
-1673.440635757175
 21
-114.2551263189369
 31
0.0
  0
LINE
  5
241
330
2F
100
AcDbEntity
  8
1
  6
Continuous
 62
   133
100
AcDbLine
 10
-1673.440635757175
 20
-110.2551263189369
 30
0.0
 11
-1673.440635757175
 21
-111.3051263189369
 31
0.0
  0
LINE
  5
240
330
2F
100
AcDbEntity
  8
1
  6
Continuous
 62
   133
100
AcDbLine
 10
-1671.890635757175
 20
-111.8051263189369
 30
0.0
 11
-1671.890635757175
 21
-112.705126318937
 31
0.0
  0
LINE
  5
23F
330
2F
100
AcDbEntity
  8
1
  6
Continuous
 62
   133
100
AcDbLine
 10
-1674.340635757175
 20
-114.2551263189369
 30
0.0
 11
-1673.440635757175
 21
-114.2551263189369
 31
0.0
  0
LINE
  5
23E
330
2F
100
AcDbEntity
  8
1
  6
Continuous
 62
   133
100
AcDbLine
 10
-1674.840635757175
 20
-112.705126318937
 30
0.0
 11
-1675.890635757175
 21
-112.705126318937
 31
0.0
  0
LINE
  5
23D
330
2F
100
AcDbEntity
  8
1
  6
Continuous
 62
   133
100
AcDbLine
 10
-1671.890635757175
 20
-112.705126318937
 30
0.0
 11
-1672.940635757175
 21
-112.705126318937
 31
0.0
  0
LINE
  5
23C
330
2F
100
AcDbEntity
  8
1
  6
Continuous
 62
   133
100
AcDbLine
 10
-1672.940635757175
 20
-111.8051263189369
 30
0.0
 11
-1671.890635757175
 21
-111.8051263189369
 31
0.0
  0
LINE
  5
23B
330
2F
100
AcDbEntity
  8
1
  6
Continuous
 62
   133
100
AcDbLine
 10
-1675.890635757175
 20
-111.8051263189369
 30
0.0
 11
-1674.840635757175
 21
-111.8051263189369
 31
0.0
  0
LINE
  5
23A
330
2F
100
AcDbEntity
  8
1
  6
Continuous
 62
   133
100
AcDbLine
 10
-1674.340635757175
 20
-110.2551263189369
 30
0.0
 11
-1673.440635757175
 21
-110.2551263189369
 31
0.0
  0
LINE
  5
239
330
2F
100
AcDbEntity
  8
1
  6
Continuous
 62
   133
100
AcDbLine
 10
-1674.923969090509
 20
-132.0217929856036
 30
0.0
 11
-1674.510635757174
 21
-129.955126318937
 31
0.0
  0
LINE
  5
238
330
2F
100
AcDbEntity
  8
1
  6
Continuous
 62
   133
100
AcDbLine
 10
-1676.990635757175
 20
-132.4351263189369
 30
0.0
 11
-1674.923969090509
 21
-132.0217929856036
 31
0.0
  0
LINE
  5
237
330
2F
100
AcDbEntity
  8
1
  6
Continuous
 62
   133
100
AcDbLine
 10
-1676.990635757175
 20
-133.6751263189369
 30
0.0
 11
-1676.990635757175
 21
-132.4351263189369
 31
0.0
  0
LINE
  5
236
330
2F
100
AcDbEntity
  8
1
  6
Continuous
 62
   133
100
AcDbLine
 10
-1674.923969090509
 20
-134.0884596522702
 30
0.0
 11
-1676.990635757175
 21
-133.6751263189369
 31
0.0
  0
LINE
  5
235
330
2F
100
AcDbEntity
  8
1
  6
Continuous
 62
   133
100
AcDbLine
 10
-1674.510635757174
 20
-136.1551263189369
 30
0.0
 11
-1674.923969090509
 21
-134.0884596522702
 31
0.0
  0
LINE
  5
234
330
2F
100
AcDbEntity
  8
1
  6
Continuous
 62
   133
100
AcDbLine
 10
-1673.270635757174
 20
-136.1551263189369
 30
0.0
 11
-1674.510635757174
 21
-136.1551263189369
 31
0.0
  0
LINE
  5
233
330
2F
100
AcDbEntity
  8
1
  6
Continuous
 62
   133
100
AcDbLine
 10
-1672.857302423842
 20
-134.0884596522702
 30
0.0
 11
-1673.270635757174
 21
-136.1551263189369
 31
0.0
  0
LINE
  5
232
330
2F
100
AcDbEntity
  8
1
  6
Continuous
 62
   133
100
AcDbLine
 10
-1670.790635757175
 20
-133.6751263189369
 30
0.0
 11
-1672.857302423842
 21
-134.0884596522702
 31
0.0
  0
LINE
  5
231
330
2F
100
AcDbEntity
  8
1
  6
Continuous
 62
   133
100
AcDbLine
 10
-1670.790635757175
 20
-132.4351263189369
 30
0.0
 11
-1670.790635757175
 21
-133.6751263189369
 31
0.0
  0
LINE
  5
230
330
2F
100
AcDbEntity
  8
1
  6
Continuous
 62
   133
100
AcDbLine
 10
-1672.857302423842
 20
-132.0217929856036
 30
0.0
 11
-1670.790635757175
 21
-132.4351263189369
 31
0.0
  0
LINE
  5
22F
330
2F
100
AcDbEntity
  8
1
  6
Continuous
 62
   133
100
AcDbLine
 10
-1673.270635757174
 20
-129.955126318937
 30
0.0
 11
-1672.857302423842
 21
-132.0217929856036
 31
0.0
  0
LINE
  5
22E
330
2F
100
AcDbEntity
  8
1
  6
Continuous
 62
   133
100
AcDbLine
 10
-1674.510635757174
 20
-129.955126318937
 30
0.0
 11
-1673.270635757174
 21
-129.955126318937
 31
0.0
  0
LINE
  5
22D
330
2F
100
AcDbEntity
  8
1
  6
DOT_CENTER
 62
     2
100
AcDbLine
 10
-1668.401746868286
 20
-112.2551263189369
 30
0.0
 11
-1679.379524646064
 21
-112.2551263189369
 31
0.0
  0
LINE
  5
22C
330
2F
100
AcDbEntity
  8
1
  6
Continuous
 62
     7
100
AcDbLine
 10
-1668.590635757175
 20
-107.7551263189369
 30
0.0
 11
-1679.190635757175
 21
-107.7551263189369
 31
0.0
  0
LINE
  5
22B
330
2F
100
AcDbEntity
  8
1
  6
Continuous
 62
     7
100
AcDbLine
 10
-1679.190635757175
 20
-123.6450253630491
 30
0.0
 11
-1679.190635757175
 21
-107.0551263189369
 31
0.0
  0
LINE
  5
22A
330
2F
100
AcDbEntity
  8
1
  6
Continuous
 62
     7
100
AcDbLine
 10
-1668.590635757175
 20
-107.0551263189369
 30
0.0
 11
-1668.590635757175
 21
-123.6450253630491
 31
0.0
  0
LINE
  5
229
330
2F
100
AcDbEntity
  8
1
  6
Continuous
 62
     7
100
AcDbLine
 10
-1679.190635757175
 20
-107.0551263189369
 30
0.0
 11
-1668.590635757175
 21
-107.0551263189369
 31
0.0
  0
ENDBLK
  5
253
330
2F
100
AcDbEntity
  8
0
100
AcDbBlockEnd
  0
BLOCK
  5
32
330
31
100
AcDbEntity
  8
0
100
AcDbBlockBegin
  2
TOP__1
 70
     0
 10
-533.9303648364721
 20
-140.695950315039
 30
0.0
  3
TOP__1
  1

  0
DIMENSION
  5
333
330
31
100
AcDbEntity
  8
1
100
AcDbDimension
  2
*D20
 10
-1453.490635757175
 20
-65.55512631893714
 30
0.0
 11
-1460.890635757175
 21
-62.80512631893714
 31
0.0
  1
<>
 71
     5
 42
-1.0
 53
0.00013888888889
  3
ME10_DIM_13
100
AcDbAlignedDimension
 13
-1468.290635757175
 23
-107.0551263189369
 33
0.0
 14
-1453.490635757175
 24
-107.0551263189369
 34
0.0
100
AcDbRotatedDimension
  0
DIMENSION
  5
326
330
31
100
AcDbEntity
  8
1
100
AcDbDimension
  2
*D19
 10
-1419.890635757175
 20
-148.0551263189369
 30
0.0
 11
-1422.640635757175
 21
-127.5551263189369
 31
0.0
  1
<>
 71
     5
 42
-1.0
 53
90.0
  3
ME10_DIM_12
100
AcDbAlignedDimension
 13
-1441.890635757175
 23
-107.0551263189369
 33
0.0
 14
-1446.890635757175
 24
-148.0551263189369
 34
0.0
 50
90.0
100
AcDbRotatedDimension
  0
DIMENSION
  5
319
330
31
100
AcDbEntity
  8
1
100
AcDbDimension
  2
*D18
 10
-1480.890635757175
 20
-169.0551263189369
 30
0.0
 11
-1460.890635757175
 21
-166.3051263189369
 31
0.0
 70
     1
  1
<>
 71
     5
 42
-1.0
 53
0.00013888888889
  3
ME10_DIM_11
100
AcDbAlignedDimension
 13
-1440.890635757175
 23
-142.0551263189369
 33
0.0
 14
-1480.890635757175
 24
-142.0551263189369
 34
0.0
  0
DIMENSION
  5
30C
330
31
100
AcDbEntity
  8
1
100
AcDbDimension
  2
*D17
 10
-1568.91220108042
 20
-176.0551263189369
 30
0.0
 11
-1558.91220108042
 21
-173.3051263189369
 31
0.0
  1
<>
 71
     5
 42
-1.0
 53
0.00013888888889
  3
ME10_DIM_10
100
AcDbAlignedDimension
 13
-1548.91220108042
 23
-144.7713763189369
 33
0.0
 14
-1568.91220108042
 24
-148.0551263189369
 34
0.0
100
AcDbRotatedDimension
  0
DIMENSION
  5
2FF
330
31
100
AcDbEntity
  8
1
100
AcDbDimension
  2
*D16
 10
-1568.91220108042
 20
-176.0551263189369
 30
0.0
 11
-1570.41220108042
 21
-173.3051263189369
 31
0.0
  1
<>
 71
     5
 42
-1.0
 53
0.00013888888889
  3
ME10_DIM_9
100
AcDbAlignedDimension
 13
-1571.91220108042
 23
-147.0551263189369
 33
0.0
 14
-1568.91220108042
 24
-148.0551263189369
 34
0.0
100
AcDbRotatedDimension
  0
DIMENSION
  5
2F0
330
31
100
AcDbEntity
  8
1
100
AcDbDimension
  2
*D15
 10
-1553.91220108042
 20
-169.0551263189369
 30
0.0
 11
-1551.41220108042
 21
-166.3051263189369
 31
0.0
  1
<>
 71
     5
 42
-1.0
 53
0.00013888888889
  3
ME10_DIM_8
100
AcDbAlignedDimension
 13
-1548.91220108042
 23
-144.7713763189369
 33
0.0
 14
-1553.91220108042
 24
-150.8635276806147
 34
0.0
100
AcDbRotatedDimension
  0
DIMENSION
  5
2E1
330
31
100
AcDbEntity
  8
1
100
AcDbDimension
  2
*D14
 10
-1568.91220108042
 20
-169.0551263189369
 30
0.0
 11
-1561.41220108042
 21
-166.3051263189369
 31
0.0
  1
<>
 71
     5
 42
-1.0
 53
0.00013888888889
  3
ME10_DIM_7
100
AcDbAlignedDimension
 13
-1553.91220108042
 23
-150.8635276806147
 33
0.0
 14
-1568.91220108042
 24
-148.0551263189369
 34
0.0
100
AcDbRotatedDimension
  0
DIMENSION
  5
2D4
330
31
100
AcDbEntity
  8
1
100
AcDbDimension
  2
*D13
 10
-1707.016341672048
 20
-112.2551263189369
 30
0.0
 11
-1709.766341672048
 21
-109.6551263189369
 31
0.0
  1
<>
 71
     5
 42
-1.0
 53
90.0
  3
ME10_DIM_6
100
AcDbAlignedDimension
 13
-1692.890635757175
 23
-107.0551263189369
 33
0.0
 14
-1679.379524646064
 24
-112.2551263189369
 34
0.0
 50
90.0
100
AcDbRotatedDimension
  0
DIMENSION
  5
2C5
330
31
100
AcDbEntity
  8
1
100
AcDbDimension
  2
*D12
 10
-1632.890635757175
 20
-133.0551263189369
 30
0.0
 11
-1635.640635757175
 21
-140.5551263189369
 31
0.0
  1
<>
 71
     5
 42
-1.0
 53
90.0
  3
ME10_DIM_5
100
AcDbAlignedDimension
 13
-1659.890635757175
 23
-148.0551263189369
 33
0.0
 14
-1659.990635757174
 24
-133.0551263189369
 34
0.0
 50
90.0
100
AcDbRotatedDimension
  0
DIMENSION
  5
2B8
330
31
100
AcDbEntity
  8
1
100
AcDbDimension
  2
*D11
 10
-1632.890635757175
 20
-119.0551263189369
 30
0.0
 11
-1635.640635757175
 21
-126.0551263189369
 31
0.0
  1
<>
 71
     5
 42
-1.0
 53
90.0
  3
ME10_DIM_4
100
AcDbAlignedDimension
 13
-1659.990635757174
 23
-133.0551263189369
 33
0.0
 14
-1652.890635757175
 24
-119.0551263189369
 34
0.0
 50
90.0
100
AcDbRotatedDimension
  0
DIMENSION
  5
2AB
330
31
100
AcDbEntity
  8
1
100
AcDbDimension
  2
*D10
 10
-1632.890635757175
 20
-119.0551263189369
 30
0.0
 11
-1635.640635757175
 21
-113.0551263189369
 31
0.0
  1
<>
 71
     5
 42
-1.0
 53
90.0
  3
ME10_DIM_3
100
AcDbAlignedDimension
 13
-1654.890635757175
 23
-107.0551263189369
 33
0.0
 14
-1652.890635757175
 24
-119.0551263189369
 34
0.0
 50
90.0
100
AcDbRotatedDimension
  0
DIMENSION
  5
29E
330
31
100
AcDbEntity
  8
1
100
AcDbDimension
  2
*D9
 10
-1689.390635757176
 20
-169.0551263189369
 30
0.0
 11
-1699.025872749472
 21
-166.3051263189369
 31
0.0
  1
<>
 71
     5
 42
-1.0
 53
0.00013888888889
  3
ME10_DIM_2
100
AcDbAlignedDimension
 13
-1693.890635757175
 23
-142.0551263189369
 33
0.0
 14
-1689.390635757175
 24
-124.5551263189369
 34
0.0
100
AcDbRotatedDimension
  0
DIMENSION
  5
28F
330
31
100
AcDbEntity
  8
1
100
AcDbDimension
  2
*D8
 10
-1658.390635757175
 20
-169.0551263189369
 30
0.0
 11
-1648.864954578184
 21
-166.3051263189369
 31
0.0
  1
<>
 71
     5
 42
-1.0
 53
0.00013888888889
  3
ME10_DIM_1
100
AcDbAlignedDimension
 13
-1653.890635757175
 23
-142.0551263189369
 33
0.0
 14
-1658.390635757175
 24
-124.5551263189369
 34
0.0
100
AcDbRotatedDimension
  0
DIMENSION
  5
280
330
31
100
AcDbEntity
  8
1
100
AcDbDimension
  2
*D6
 10
-1658.390635757175
 20
-169.0551263189369
 30
0.0
 11
-1673.890635757175
 21
-166.3051263189369
 31
0.0
 70
     1
  1
<>
 71
     5
 42
-1.0
 53
0.00013888888889
  3
ME10_DIM_0
100
AcDbAlignedDimension
 13
-1689.390635757175
 23
-124.5551263189369
 33
0.0
 14
-1658.390635757175
 24
-124.5551263189369
 34
0.0
  0
MTEXT
  5
26C
330
31
100
AcDbEntity
  8
1
 62
     3
100
AcDbMText
 10
-1725.639503419151
 20
-95.99941750323996
 30
0.0
 40
7.0
 41
0.0
 71
     5
 72
     1
  1
6
  7
CONVERTER_1
 73
     1
 44
1.0
1001
ACAD
1000
MTEXTBEGIN
1070
    73
1070
     1
1070
    44
1040
1.0
1070
    74
1070
     0
1000
MTEXTEND
  0
MTEXT
  5
26B
330
31
100
AcDbEntity
  8
1
 62
     3
100
AcDbMText
 10
-1725.568804936482
 20
-138.42460925645
 30
0.0
 40
7.0
 41
0.0
 71
     6
 72
     1
  1
1
  7
CONVERTER_1
 73
     1
 44
1.0
1001
ACAD
1000
MTEXTBEGIN
1070
    73
1070
     1
1070
    44
1040
1.0
1070
    74
1070
     0
1000
MTEXTEND
  0
MTEXT
  5
26A
330
31
100
AcDbEntity
  8
1
 62
     3
100
AcDbMText
 10
-1725.568804936482
 20
-119.805165960742
 30
0.0
 40
7.0
 41
0.0
 71
     5
 72
     1
  1
2
  7
CONVERTER_1
 73
     1
 44
1.0
1001
ACAD
1000
MTEXTBEGIN
1070
    73
1070
     1
1070
    44
1040
1.0
1070
    74
1070
     0
1000
MTEXTEND
  0
MTEXT
  5
269
330
31
100
AcDbEntity
  8
1
 62
     3
100
AcDbMText
 10
-1725.568804936482
 20
-161.3050866771316
 30
0.0
 40
7.0
 41
0.0
 71
     5
 72
     1
  1
7
  7
CONVERTER_1
 73
     1
 44
1.0
1001
ACAD
1000
MTEXTBEGIN
1070
    73
1070
     1
1070
    44
1040
1.0
1070
    74
1070
     0
1000
MTEXTEND
  0
MTEXT
  5
268
330
31
100
AcDbEntity
  8
1
 62
     3
100
AcDbMText
 10
-1495.568804936482
 20
-160.3050866771316
 30
0.0
 40
7.0
 41
0.0
 71
     5
 72
     1
  1
8
  7
CONVERTER_1
 73
     1
 44
1.0
1001
ACAD
1000
MTEXTBEGIN
1070
    73
1070
     1
1070
    44
1040
1.0
1070
    74
1070
     0
1000
MTEXTEND
  0
LEADER
  5
267
330
31
100
AcDbEntity
  8
1
  6
Continuous
 62
     2
100
AcDbLeader
  3
STANDARD
 71
     0
 76
     2
 10
-1676.889966713433
 20
-109.9218852652024
 30
0.0
 10
-1720.927883658332
 20
-97.34501745473508
 30
0.0
  0
LEADER
  5
264
330
31
100
AcDbEntity
  8
1
  6
Continuous
 62
     2
100
AcDbLeader
  3
STANDARD
 71
     0
 76
     2
 10
-1690.087938183615
 20
-132.6735140220671
 30
0.0
 10
-1720.63322131764
 20
-137.6246002931141
 30
0.0
  0
LEADER
  5
261
330
31
100
AcDbEntity
  8
1
  6
Continuous
 62
     2
100
AcDbLeader
  3
STANDARD
 71
     0
 76
     2
 10
-1681.882305256607
 20
-129.0910181240948
 30
0.0
 10
-1720.678066932812
 20
-120.8447244148309
 30
0.0
  0
LEADER
  5
25E
330
31
100
AcDbEntity
  8
1
  6
Continuous
 62
     2
100
AcDbLeader
  3
STANDARD
 71
     0
 76
     2
 10
-1676.439625001806
 20
-134.7832672748612
 30
0.0
 10
-1721.023630762122
 20
-159.2214860136788
 30
0.0
  0
LEADER
  5
25B
330
31
100
AcDbEntity
  8
1
  6
Continuous
 62
     2
100
AcDbLeader
  3
STANDARD
 71
     0
 76
     2
 10
-1465.520202182187
 20
-136.4359741026763
 30
0.0
 10
-1491.653694074804
 20
-157.1951177157465
 30
0.0
  0
CIRCLE
  5
258
330
31
100
AcDbEntity
  8
1
  6
Continuous
 62
     2
100
AcDbCircle
 10
-1725.639503419151
 20
-95.99941750323996
 30
0.0
 40
4.900000000000449
  0
LWPOLYLINE
  5
257
330
31
100
AcDbEntity
  8
1
  6
Continuous
 62
     2
100
AcDbPolyline
 90
        2
 70
     1
 43
0.0
 10
-1725.639503419151
 20
-133.4251091089806
 42
1.0
 10
-1725.498106453813
 20
-143.4241094039194
 42
1.0
  0
LWPOLYLINE
  5
256
330
31
100
AcDbEntity
  8
1
  6
Continuous
 62
     2
100
AcDbPolyline
 90
        2
 70
     1
 43
0.0
 10
-1725.639503419151
 20
-114.8056658132721
 42
1.0
 10
-1725.498106453813
 20
-124.8046661082119
 42
1.0
  0
LWPOLYLINE
  5
255
330
31
100
AcDbEntity
  8
1
  6
Continuous
 62
     2
100
AcDbPolyline
 90
        2
 70
     1
 43
0.0
 10
-1725.639503419151
 20
-166.3045868246016
 42
1.0
 10
-1725.498106453813
 20
-156.3055865296616
 42
1.0
  0
LWPOLYLINE
  5
254
330
31
100
AcDbEntity
  8
1
  6
Continuous
 62
     2
100
AcDbPolyline
 90
        2
 70
     1
 43
0.0
 10
-1495.639503419151
 20
-165.3045868246016
 42
1.0
 10
-1495.498106453813
 20
-155.3055865296616
 42
1.0
  0
INSERT
  5
33
330
31
100
AcDbEntity
  8
1
100
AcDbBlockReference
  2
_6
 10
-1272.900814492152
 20
-404.7699596449896
 30
0.0
  0
INSERT
  5
34
330
31
100
AcDbEntity
  8
1
100
AcDbBlockReference
  2
_1
 10
-1694.890635757175
 20
-150.8635276806147
 30
0.0
  0
INSERT
  5
35
330
31
100
AcDbEntity
  8
1
100
AcDbBlockReference
  2
_2
 10
-1684.690635757175
 20
-143.8551263189368
 30
0.0
  0
LINE
  5
259
330
31
100
AcDbEntity
  8
1
 62
     2
100
AcDbLine
 10
-1465.520202182187
 20
-136.4359741026763
 30
0.0
 11
-1467.061100777181
 21
-138.5154839802011
 31
0.0
  0
LINE
  5
25A
330
31
100
AcDbEntity
  8
1
 62
     2
100
AcDbLine
 10
-1465.520202182187
 20
-136.4359741026763
 30
0.0
 11
-1467.89441444887
 21
-137.4664331865364
 31
0.0
  0
LINE
  5
25C
330
31
100
AcDbEntity
  8
1
 62
     2
100
AcDbLine
 10
-1676.439625001806
 20
-134.7832672748612
 30
0.0
 11
-1678.309900980988
 21
-136.5723445712566
 31
0.0
  0
LINE
  5
25D
330
31
100
AcDbEntity
  8
1
 62
     2
100
AcDbLine
 10
-1676.439625001806
 20
-134.7832672748612
 30
0.0
 11
-1678.953870160063
 21
-135.3975156732832
 31
0.0
  0
LINE
  5
25F
330
31
100
AcDbEntity
  8
1
 62
     2
100
AcDbLine
 10
-1681.882305256607
 20
-129.0910181240948
 30
0.0
 11
-1684.46694868257
 21
-129.2264735462881
 31
0.0
  0
LINE
  5
260
330
31
100
AcDbEntity
  8
1
 62
     2
100
AcDbLine
 10
-1681.882305256607
 20
-129.0910181240948
 30
0.0
 11
-1684.188399834312
 21
-127.9160042478127
 31
0.0
  0
LINE
  5
262
330
31
100
AcDbEntity
  8
1
 62
     2
100
AcDbLine
 10
-1690.087938183615
 20
-132.6735140220671
 30
0.0
 11
-1692.448549115204
 21
-133.7347613261576
 31
0.0
  0
LINE
  5
263
330
31
100
AcDbEntity
  8
1
 62
     2
100
AcDbLine
 10
-1690.087938183615
 20
-132.6735140220671
 30
0.0
 11
-1692.662910870867
 21
-132.4122756813125
 31
0.0
  0
LINE
  5
265
330
31
100
AcDbEntity
  8
1
 62
     2
100
AcDbLine
 10
-1676.889966713433
 20
-109.9218852652024
 30
0.0
 11
-1680.512946842831
 21
-109.8625100926729
 31
0.0
  0
LINE
  5
266
330
31
100
AcDbEntity
  8
1
 62
     2
100
AcDbLine
 10
-1676.889966713433
 20
-109.9218852652024
 30
0.0
 11
-1679.997871956633
 21
-108.0589747927388
 31
0.0
  0
INSERT
  5
33E
330
31
100
AcDbEntity
  8
0
100
AcDbBlockReference
  2
*D21
 10
0.0
 20
0.0
 30
0.0
  0
ENDBLK
  5
33F
330
31
100
AcDbEntity
  8
0
100
AcDbBlockEnd
  0
BLOCK
  5
26E
330
26D
100
AcDbEntity
  8
0
100
AcDbBlockBegin
  2
*D6
 70
     1
 10
0.0
 20
0.0
 30
0.0
  3
*D6
  1

  0
LINE
  5
26F
330
26D
100
AcDbEntity
  8
0
  6
Continuous
 62
     2
100
AcDbLine
 10
-1689.390635757175
 20
-169.0551263189369
 30
0.0
 11
-1658.390635757175
 21
-169.0551263189369
 31
0.0
  0
LINE
  5
270
330
26D
100
AcDbEntity
  8
0
  6
Continuous
 62
     2
100
AcDbLine
 10
-1689.390635757175
 20
-125.5551263189369
 30
0.0
 11
-1689.390635757175
 21
-170.0551263189369
 31
0.0
  0
LINE
  5
271
330
26D
100
AcDbEntity
  8
0
  6
Continuous
 62
     2
100
AcDbLine
 10
-1658.390635757175
 20
-125.5551263189369
 30
0.0
 11
-1658.390635757175
 21
-170.0551263189369
 31
0.0
  0
LINE
  5
272
330
26D
100
AcDbEntity
  8
0
 62
     2
100
AcDbLine
 10
-1658.390635757175
 20
-169.0551263189369
 30
0.0
 11
-1660.840635757175
 21
-169.7116018403932
 31
0.0
  0
LINE
  5
273
330
26D
100
AcDbEntity
  8
0
 62
     2
100
AcDbLine
 10
-1658.390635757175
 20
-169.0551263189369
 30
0.0
 11
-1660.840635757175
 21
-168.3986507974806
 31
0.0
  0
LINE
  5
274
330
26D
100
AcDbEntity
  8
0
 62
     2
100
AcDbLine
 10
-1689.390635757175
 20
-169.0551263189369
 30
0.0
 11
-1686.940635757175
 21
-168.3986507974806
 31
0.0
  0
LINE
  5
275
330
26D
100
AcDbEntity
  8
0
 62
     2
100
AcDbLine
 10
-1689.390635757175
 20
-169.0551263189369
 30
0.0
 11
-1686.940635757175
 21
-169.7116018403932
 31
0.0
  0
MTEXT
  5
277
330
26D
100
AcDbEntity
  8
0
 62
     3
100
AcDbMText
 10
-1675.360635757175
 20
-168.0551263189369
 30
0.0
 40
3.5
 41
0.0
 71
     7
 72
     1
  1
31
  7
CONVERTER_6
 11
0.999999999997062
 21
0.00000242406841
 31
0.0
 73
     1
 44
1.0
1001
ACAD
1000
MTEXTBEGIN
1070
    73
1070
     1
1070
    44
1040
1.0
1070
    74
1070
     0
1000
MTEXTEND
  0
ENDBLK
  5
278
330
26D
100
AcDbEntity
  8
0
100
AcDbBlockEnd
  0
BLOCK
  5
27A
330
279
100
AcDbEntity
  8
0
 62
     0
100
AcDbBlockBegin
  2
_OPEN30
 70
     0
 10
0.0
 20
0.0
 30
0.0
  3
_OPEN30
  1

  0
LINE
  5
27B
330
279
100
AcDbEntity
  8
0
  6
ByBlock
 62
     0
100
AcDbLine
 10
-1.0
 20
0.267949
 30
0.0
 11
0.0
 21
0.0
 31
0.0
  0
LINE
  5
27C
330
279
100
AcDbEntity
  8
0
  6
ByBlock
 62
     0
100
AcDbLine
 10
0.0
 20
0.0
 30
0.0
 11
-1.0
 21
-0.267949
 31
0.0
  0
LINE
  5
27D
330
279
100
AcDbEntity
  8
0
  6
ByBlock
 62
     0
100
AcDbLine
 10
0.0
 20
0.0
 30
0.0
 11
-1.0
 21
0.0
 31
0.0
  0
ENDBLK
  5
27E
330
279
100
AcDbEntity
  8
0
 62
     0
100
AcDbBlockEnd
  0
BLOCK
  5
282
330
281
100
AcDbEntity
  8
0
100
AcDbBlockBegin
  2
*D8
 70
     1
 10
0.0
 20
0.0
 30
0.0
  3
*D8
  1

  0
LINE
  5
283
330
281
100
AcDbEntity
  8
0
  6
Continuous
 62
     2
100
AcDbLine
 10
-1663.290635757175
 20
-169.0551263189369
 30
0.0
 11
-1658.390635757175
 21
-169.0551263189369
 31
0.0
  0
LINE
  5
284
330
281
100
AcDbEntity
  8
0
  6
Continuous
 62
     2
100
AcDbLine
 10
-1658.390635757175
 20
-169.0551263189369
 30
0.0
 11
-1653.890635757175
 21
-169.0551263189369
 31
0.0
  0
LINE
  5
285
330
281
100
AcDbEntity
  8
0
  6
Continuous
 62
     2
100
AcDbLine
 10
-1653.890635757175
 20
-169.0551263189369
 30
0.0
 11
-1646.598704578184
 21
-169.0551263189369
 31
0.0
  0
LINE
  5
286
330
281
100
AcDbEntity
  8
0
  6
Continuous
 62
     2
100
AcDbLine
 10
-1658.390635757175
 20
-125.5551263189369
 30
0.0
 11
-1658.390635757175
 21
-170.0551263189369
 31
0.0
  0
LINE
  5
287
330
281
100
AcDbEntity
  8
0
  6
Continuous
 62
     2
100
AcDbLine
 10
-1653.890635757175
 20
-143.0551263189369
 30
0.0
 11
-1653.890635757175
 21
-170.0551263189369
 31
0.0
  0
LINE
  5
288
330
281
100
AcDbEntity
  8
0
 62
     2
100
AcDbLine
 10
-1658.390635757175
 20
-169.0551263189369
 30
0.0
 11
-1660.840635757175
 21
-169.7116018403932
 31
0.0
  0
LINE
  5
289
330
281
100
AcDbEntity
  8
0
 62
     2
100
AcDbLine
 10
-1658.390635757175
 20
-169.0551263189369
 30
0.0
 11
-1660.840635757175
 21
-168.3986507974806
 31
0.0
  0
LINE
  5
28A
330
281
100
AcDbEntity
  8
0
 62
     2
100
AcDbLine
 10
-1653.890635757175
 20
-169.0551263189369
 30
0.0
 11
-1651.440635757175
 21
-168.3986507974806
 31
0.0
  0
LINE
  5
28B
330
281
100
AcDbEntity
  8
0
 62
     2
100
AcDbLine
 10
-1653.890635757175
 20
-169.0551263189369
 30
0.0
 11
-1651.440635757175
 21
-169.7116018403932
 31
0.0
  0
MTEXT
  5
28C
330
281
100
AcDbEntity
  8
0
 62
     3
100
AcDbMText
 10
-1651.131204578184
 20
-168.0551263189369
 30
0.0
 40
3.5
 41
0.0
 71
     7
 72
     1
  1
4.5
  7
CONVERTER_6
 11
0.999999999997062
 21
0.00000242406841
 31
0.0
 73
     1
 44
1.0
1001
ACAD
1000
MTEXTBEGIN
1070
    73
1070
     1
1070
    44
1040
1.0
1070
    74
1070
     0
1000
MTEXTEND
  0
ENDBLK
  5
28D
330
281
100
AcDbEntity
  8
0
100
AcDbBlockEnd
  0
BLOCK
  5
291
330
290
100
AcDbEntity
  8
0
100
AcDbBlockBegin
  2
*D9
 70
     1
 10
0.0
 20
0.0
 30
0.0
  3
*D9
  1

  0
LINE
  5
292
330
290
100
AcDbEntity
  8
0
  6
Continuous
 62
     2
100
AcDbLine
 10
-1684.490635757175
 20
-169.0551263189369
 30
0.0
 11
-1689.390635757176
 21
-169.0551263189369
 31
0.0
  0
LINE
  5
293
330
290
100
AcDbEntity
  8
0
  6
Continuous
 62
     2
100
AcDbLine
 10
-1693.890635757175
 20
-169.0551263189369
 30
0.0
 11
-1689.390635757176
 21
-169.0551263189369
 31
0.0
  0
LINE
  5
294
330
290
100
AcDbEntity
  8
0
  6
Continuous
 62
     2
100
AcDbLine
 10
-1693.890635757175
 20
-169.0551263189369
 30
0.0
 11
-1701.292122749472
 21
-169.0551263189369
 31
0.0
  0
LINE
  5
295
330
290
100
AcDbEntity
  8
0
  6
Continuous
 62
     2
100
AcDbLine
 10
-1693.890635757175
 20
-143.0551263189369
 30
0.0
 11
-1693.890635757175
 21
-170.0551263189369
 31
0.0
  0
LINE
  5
296
330
290
100
AcDbEntity
  8
0
  6
Continuous
 62
     2
100
AcDbLine
 10
-1689.390635757176
 20
-125.5551263189369
 30
0.0
 11
-1689.390635757176
 21
-170.0551263189369
 31
0.0
  0
LINE
  5
297
330
290
100
AcDbEntity
  8
0
 62
     2
100
AcDbLine
 10
-1689.390635757176
 20
-169.0551263189369
 30
0.0
 11
-1686.940635757175
 21
-168.3986507974806
 31
0.0
  0
LINE
  5
298
330
290
100
AcDbEntity
  8
0
 62
     2
100
AcDbLine
 10
-1689.390635757176
 20
-169.0551263189369
 30
0.0
 11
-1686.940635757175
 21
-169.7116018403932
 31
0.0
  0
LINE
  5
299
330
290
100
AcDbEntity
  8
0
 62
     2
100
AcDbLine
 10
-1693.890635757175
 20
-169.0551263189369
 30
0.0
 11
-1696.340635757175
 21
-169.7116018403932
 31
0.0
  0
LINE
  5
29A
330
290
100
AcDbEntity
  8
0
 62
     2
100
AcDbLine
 10
-1693.890635757175
 20
-169.0551263189369
 30
0.0
 11
-1696.340635757175
 21
-168.3986507974806
 31
0.0
  0
MTEXT
  5
29B
330
290
100
AcDbEntity
  8
0
 62
     3
100
AcDbMText
 10
-1701.292122749472
 20
-168.0551263189369
 30
0.0
 40
3.5
 41
0.0
 71
     7
 72
     1
  1
4.5
  7
CONVERTER_6
 11
0.999999999997062
 21
0.00000242406841
 31
0.0
 73
     1
 44
1.0
1001
ACAD
1000
MTEXTBEGIN
1070
    73
1070
     1
1070
    44
1040
1.0
1070
    74
1070
     0
1000
MTEXTEND
  0
ENDBLK
  5
29C
330
290
100
AcDbEntity
  8
0
100
AcDbBlockEnd
  0
BLOCK
  5
2A0
330
29F
100
AcDbEntity
  8
0
100
AcDbBlockBegin
  2
*D10
 70
     1
 10
0.0
 20
0.0
 30
0.0
  3
*D10
  1

  0
LINE
  5
2A1
330
29F
100
AcDbEntity
  8
0
  6
Continuous
 62
     2
100
AcDbLine
 10
-1632.890635757175
 20
-119.0551263189369
 30
0.0
 11
-1632.890635757175
 21
-107.0551263189369
 31
0.0
  0
LINE
  5
2A2
330
29F
100
AcDbEntity
  8
0
  6
Continuous
 62
     2
100
AcDbLine
 10
-1651.890635757175
 20
-119.0551263189369
 30
0.0
 11
-1631.890635757175
 21
-119.0551263189369
 31
0.0
  0
LINE
  5
2A3
330
29F
100
AcDbEntity
  8
0
  6
Continuous
 62
     2
100
AcDbLine
 10
-1653.890635757175
 20
-107.0551263189369
 30
0.0
 11
-1631.890635757175
 21
-107.0551263189369
 31
0.0
  0
LINE
  5
2A4
330
29F
100
AcDbEntity
  8
0
 62
     2
100
AcDbLine
 10
-1632.890635757175
 20
-119.0551263189369
 30
0.0
 11
-1633.547111278631
 21
-116.6051263189369
 31
0.0
  0
LINE
  5
2A5
330
29F
100
AcDbEntity
  8
0
 62
     2
100
AcDbLine
 10
-1632.890635757175
 20
-119.0551263189369
 30
0.0
 11
-1632.234160235719
 21
-116.6051263189369
 31
0.0
  0
LINE
  5
2A6
330
29F
100
AcDbEntity
  8
0
 62
     2
100
AcDbLine
 10
-1632.890635757175
 20
-107.0551263189369
 30
0.0
 11
-1632.234160235719
 21
-109.5051263189369
 31
0.0
  0
LINE
  5
2A7
330
29F
100
AcDbEntity
  8
0
 62
     2
100
AcDbLine
 10
-1632.890635757175
 20
-107.0551263189369
 30
0.0
 11
-1633.547111278631
 21
-109.5051263189369
 31
0.0
  0
MTEXT
  5
2A8
330
29F
100
AcDbEntity
  8
0
 62
     3
100
AcDbMText
 10
-1633.890635757175
 20
-114.5251263189369
 30
0.0
 40
3.5
 41
0.0
 71
     7
 72
     1
  1
12
  7
CONVERTER_6
 11
0.0
 21
1.0
 31
0.0
 73
     1
 44
1.0
1001
ACAD
1000
MTEXTBEGIN
1070
    73
1070
     1
1070
    44
1040
1.0
1070
    74
1070
     0
1000
MTEXTEND
  0
ENDBLK
  5
2A9
330
29F
100
AcDbEntity
  8
0
100
AcDbBlockEnd
  0
BLOCK
  5
2AD
330
2AC
100
AcDbEntity
  8
0
100
AcDbBlockBegin
  2
*D11
 70
     1
 10
0.0
 20
0.0
 30
0.0
  3
*D11
  1

  0
LINE
  5
2AE
330
2AC
100
AcDbEntity
  8
0
  6
Continuous
 62
     2
100
AcDbLine
 10
-1632.890635757175
 20
-133.0551263189369
 30
0.0
 11
-1632.890635757175
 21
-119.0551263189369
 31
0.0
  0
LINE
  5
2AF
330
2AC
100
AcDbEntity
  8
0
  6
Continuous
 62
     2
100
AcDbLine
 10
-1658.990635757174
 20
-133.0551263189369
 30
0.0
 11
-1631.890635757175
 21
-133.0551263189369
 31
0.0
  0
LINE
  5
2B0
330
2AC
100
AcDbEntity
  8
0
  6
Continuous
 62
     2
100
AcDbLine
 10
-1651.890635757175
 20
-119.0551263189369
 30
0.0
 11
-1631.890635757175
 21
-119.0551263189369
 31
0.0
  0
LINE
  5
2B1
330
2AC
100
AcDbEntity
  8
0
 62
     2
100
AcDbLine
 10
-1632.890635757175
 20
-119.0551263189369
 30
0.0
 11
-1632.234160235719
 21
-121.5051263189369
 31
0.0
  0
LINE
  5
2B2
330
2AC
100
AcDbEntity
  8
0
 62
     2
100
AcDbLine
 10
-1632.890635757175
 20
-119.0551263189369
 30
0.0
 11
-1633.547111278631
 21
-121.5051263189369
 31
0.0
  0
LINE
  5
2B3
330
2AC
100
AcDbEntity
  8
0
 62
     2
100
AcDbLine
 10
-1632.890635757175
 20
-133.0551263189369
 30
0.0
 11
-1633.547111278631
 21
-130.6051263189369
 31
0.0
  0
LINE
  5
2B4
330
2AC
100
AcDbEntity
  8
0
 62
     2
100
AcDbLine
 10
-1632.890635757175
 20
-133.0551263189369
 30
0.0
 11
-1632.234160235719
 21
-130.6051263189369
 31
0.0
  0
MTEXT
  5
2B5
330
2AC
100
AcDbEntity
  8
0
 62
     3
100
AcDbMText
 10
-1633.890635757175
 20
-127.5251263189369
 30
0.0
 40
3.5
 41
0.0
 71
     7
 72
     1
  1
14
  7
CONVERTER_6
 11
0.0
 21
1.0
 31
0.0
 73
     1
 44
1.0
1001
ACAD
1000
MTEXTBEGIN
1070
    73
1070
     1
1070
    44
1040
1.0
1070
    74
1070
     0
1000
MTEXTEND
  0
ENDBLK
  5
2B6
330
2AC
100
AcDbEntity
  8
0
100
AcDbBlockEnd
  0
BLOCK
  5
2BA
330
2B9
100
AcDbEntity
  8
0
100
AcDbBlockBegin
  2
*D12
 70
     1
 10
0.0
 20
0.0
 30
0.0
  3
*D12
  1

  0
LINE
  5
2BB
330
2B9
100
AcDbEntity
  8
0
  6
Continuous
 62
     2
100
AcDbLine
 10
-1632.890635757175
 20
-148.0551263189369
 30
0.0
 11
-1632.890635757175
 21
-133.0551263189369
 31
0.0
  0
LINE
  5
2BC
330
2B9
100
AcDbEntity
  8
0
  6
Continuous
 62
     2
100
AcDbLine
 10
-1658.890635757175
 20
-148.0551263189369
 30
0.0
 11
-1631.890635757175
 21
-148.0551263189369
 31
0.0
  0
LINE
  5
2BD
330
2B9
100
AcDbEntity
  8
0
  6
Continuous
 62
     2
100
AcDbLine
 10
-1658.990635757174
 20
-133.0551263189369
 30
0.0
 11
-1631.890635757175
 21
-133.0551263189369
 31
0.0
  0
LINE
  5
2BE
330
2B9
100
AcDbEntity
  8
0
 62
     2
100
AcDbLine
 10
-1632.890635757175
 20
-133.0551263189369
 30
0.0
 11
-1632.234160235719
 21
-135.5051263189369
 31
0.0
  0
LINE
  5
2BF
330
2B9
100
AcDbEntity
  8
0
 62
     2
100
AcDbLine
 10
-1632.890635757175
 20
-133.0551263189369
 30
0.0
 11
-1633.547111278631
 21
-135.5051263189369
 31
0.0
  0
LINE
  5
2C0
330
2B9
100
AcDbEntity
  8
0
 62
     2
100
AcDbLine
 10
-1632.890635757175
 20
-148.0551263189369
 30
0.0
 11
-1633.547111278631
 21
-145.6051263189369
 31
0.0
  0
LINE
  5
2C1
330
2B9
100
AcDbEntity
  8
0
 62
     2
100
AcDbLine
 10
-1632.890635757175
 20
-148.0551263189369
 30
0.0
 11
-1632.234160235719
 21
-145.6051263189369
 31
0.0
  0
MTEXT
  5
2C2
330
2B9
100
AcDbEntity
  8
0
 62
     3
100
AcDbMText
 10
-1633.890635757175
 20
-142.0251263189369
 30
0.0
 40
3.5
 41
0.0
 71
     7
 72
     1
  1
15
  7
CONVERTER_6
 11
0.0
 21
1.0
 31
0.0
 73
     1
 44
1.0
1001
ACAD
1000
MTEXTBEGIN
1070
    73
1070
     1
1070
    44
1040
1.0
1070
    74
1070
     0
1000
MTEXTEND
  0
ENDBLK
  5
2C3
330
2B9
100
AcDbEntity
  8
0
100
AcDbBlockEnd
  0
BLOCK
  5
2C7
330
2C6
100
AcDbEntity
  8
0
100
AcDbBlockBegin
  2
*D13
 70
     1
 10
0.0
 20
0.0
 30
0.0
  3
*D13
  1

  0
LINE
  5
2C8
330
2C6
100
AcDbEntity
  8
0
  6
Continuous
 62
     2
100
AcDbLine
 10
-1707.016341672048
 20
-112.2551263189369
 30
0.0
 11
-1707.016341672048
 21
-107.0551263189368
 31
0.0
  0
LINE
  5
2C9
330
2C6
100
AcDbEntity
  8
0
  6
Continuous
 62
     2
100
AcDbLine
 10
-1707.016341672048
 20
-112.2551263189369
 30
0.0
 11
-1707.016341672048
 21
-117.1551263189368
 31
0.0
  0
LINE
  5
2CA
330
2C6
100
AcDbEntity
  8
0
  6
Continuous
 62
     2
100
AcDbLine
 10
-1707.016341672048
 20
-107.0551263189368
 30
0.0
 11
-1707.016341672048
 21
-102.1551263189369
 31
0.0
  0
LINE
  5
2CB
330
2C6
100
AcDbEntity
  8
0
  6
Continuous
 62
     2
100
AcDbLine
 10
-1680.379524646063
 20
-112.2551263189369
 30
0.0
 11
-1708.016341672048
 21
-112.2551263189369
 31
0.0
  0
LINE
  5
2CC
330
2C6
100
AcDbEntity
  8
0
  6
Continuous
 62
     2
100
AcDbLine
 10
-1693.890635757175
 20
-107.0551263189368
 30
0.0
 11
-1708.016341672048
 21
-107.0551263189368
 31
0.0
  0
LINE
  5
2CD
330
2C6
100
AcDbEntity
  8
0
 62
     2
100
AcDbLine
 10
-1707.016341672048
 20
-112.2551263189369
 30
0.0
 11
-1706.359866150591
 21
-114.7051263189369
 31
0.0
  0
LINE
  5
2CE
330
2C6
100
AcDbEntity
  8
0
 62
     2
100
AcDbLine
 10
-1707.016341672048
 20
-112.2551263189369
 30
0.0
 11
-1707.672817193504
 21
-114.7051263189369
 31
0.0
  0
LINE
  5
2CF
330
2C6
100
AcDbEntity
  8
0
 62
     2
100
AcDbLine
 10
-1707.016341672048
 20
-107.0551263189368
 30
0.0
 11
-1707.672817193504
 21
-104.6051263189369
 31
0.0
  0
LINE
  5
2D0
330
2C6
100
AcDbEntity
  8
0
 62
     2
100
AcDbLine
 10
-1707.016341672048
 20
-107.0551263189368
 30
0.0
 11
-1706.359866150591
 21
-104.6051263189369
 31
0.0
  0
MTEXT
  5
2D1
330
2C6
100
AcDbEntity
  8
0
 62
     3
100
AcDbMText
 10
-1708.016341672048
 20
-111.9213763189369
 30
0.0
 40
3.5
 41
0.0
 71
     7
 72
     1
  1
5.2
  7
CONVERTER_6
 11
0.0
 21
1.0
 31
0.0
 73
     1
 44
1.0
1001
ACAD
1000
MTEXTBEGIN
1070
    73
1070
     1
1070
    44
1040
1.0
1070
    74
1070
     0
1000
MTEXTEND
  0
ENDBLK
  5
2D2
330
2C6
100
AcDbEntity
  8
0
100
AcDbBlockEnd
  0
BLOCK
  5
2D6
330
2D5
100
AcDbEntity
  8
0
100
AcDbBlockBegin
  2
*D14
 70
     1
 10
0.0
 20
0.0
 30
0.0
  3
*D14
  1

  0
LINE
  5
2D7
330
2D5
100
AcDbEntity
  8
0
  6
Continuous
 62
     2
100
AcDbLine
 10
-1568.91220108042
 20
-169.0551263189369
 30
0.0
 11
-1553.91220108042
 21
-169.0551263189369
 31
0.0
  0
LINE
  5
2D8
330
2D5
100
AcDbEntity
  8
0
  6
Continuous
 62
     2
100
AcDbLine
 10
-1568.91220108042
 20
-149.0551263189369
 30
0.0
 11
-1568.91220108042
 21
-170.0551263189369
 31
0.0
  0
LINE
  5
2D9
330
2D5
100
AcDbEntity
  8
0
  6
Continuous
 62
     2
100
AcDbLine
 10
-1553.91220108042
 20
-151.8635276806147
 30
0.0
 11
-1553.91220108042
 21
-170.0551263189369
 31
0.0
  0
LINE
  5
2DA
330
2D5
100
AcDbEntity
  8
0
 62
     2
100
AcDbLine
 10
-1568.91220108042
 20
-169.0551263189369
 30
0.0
 11
-1566.462201080419
 21
-168.3986507974806
 31
0.0
  0
LINE
  5
2DB
330
2D5
100
AcDbEntity
  8
0
 62
     2
100
AcDbLine
 10
-1568.91220108042
 20
-169.0551263189369
 30
0.0
 11
-1566.462201080419
 21
-169.7116018403932
 31
0.0
  0
LINE
  5
2DC
330
2D5
100
AcDbEntity
  8
0
 62
     2
100
AcDbLine
 10
-1553.91220108042
 20
-169.0551263189369
 30
0.0
 11
-1556.36220108042
 21
-169.7116018403932
 31
0.0
  0
LINE
  5
2DD
330
2D5
100
AcDbEntity
  8
0
 62
     2
100
AcDbLine
 10
-1553.91220108042
 20
-169.0551263189369
 30
0.0
 11
-1556.36220108042
 21
-168.3986507974806
 31
0.0
  0
MTEXT
  5
2DE
330
2D5
100
AcDbEntity
  8
0
 62
     3
100
AcDbMText
 10
-1562.88220108042
 20
-168.0551263189369
 30
0.0
 40
3.5
 41
0.0
 71
     7
 72
     1
  1
15
  7
CONVERTER_6
 11
0.999999999997062
 21
0.00000242406841
 31
0.0
 73
     1
 44
1.0
1001
ACAD
1000
MTEXTBEGIN
1070
    73
1070
     1
1070
    44
1040
1.0
1070
    74
1070
     0
1000
MTEXTEND
  0
ENDBLK
  5
2DF
330
2D5
100
AcDbEntity
  8
0
100
AcDbBlockEnd
  0
BLOCK
  5
2E3
330
2E2
100
AcDbEntity
  8
0
100
AcDbBlockBegin
  2
*D15
 70
     1
 10
0.0
 20
0.0
 30
0.0
  3
*D15
  1

  0
LINE
  5
2E4
330
2E2
100
AcDbEntity
  8
0
  6
Continuous
 62
     2
100
AcDbLine
 10
-1553.91220108042
 20
-169.0551263189369
 30
0.0
 11
-1548.91220108042
 21
-169.0551263189369
 31
0.0
  0
LINE
  5
2E5
330
2E2
100
AcDbEntity
  8
0
  6
Continuous
 62
     2
100
AcDbLine
 10
-1553.91220108042
 20
-169.0551263189369
 30
0.0
 11
-1558.81220108042
 21
-169.0551263189369
 31
0.0
  0
LINE
  5
2E6
330
2E2
100
AcDbEntity
  8
0
  6
Continuous
 62
     2
100
AcDbLine
 10
-1548.91220108042
 20
-169.0551263189369
 30
0.0
 11
-1544.012201080419
 21
-169.0551263189369
 31
0.0
  0
LINE
  5
2E7
330
2E2
100
AcDbEntity
  8
0
  6
Continuous
 62
     2
100
AcDbLine
 10
-1553.91220108042
 20
-151.8635276806147
 30
0.0
 11
-1553.91220108042
 21
-170.0551263189369
 31
0.0
  0
LINE
  5
2E8
330
2E2
100
AcDbEntity
  8
0
  6
Continuous
 62
     2
100
AcDbLine
 10
-1548.91220108042
 20
-145.7713763189369
 30
0.0
 11
-1548.91220108042
 21
-170.0551263189369
 31
0.0
  0
LINE
  5
2E9
330
2E2
100
AcDbEntity
  8
0
 62
     2
100
AcDbLine
 10
-1553.91220108042
 20
-169.0551263189369
 30
0.0
 11
-1556.36220108042
 21
-169.7116018403932
 31
0.0
  0
LINE
  5
2EA
330
2E2
100
AcDbEntity
  8
0
 62
     2
100
AcDbLine
 10
-1553.91220108042
 20
-169.0551263189369
 30
0.0
 11
-1556.36220108042
 21
-168.3986507974806
 31
0.0
  0
LINE
  5
2EB
330
2E2
100
AcDbEntity
  8
0
 62
     2
100
AcDbLine
 10
-1548.91220108042
 20
-169.0551263189369
 30
0.0
 11
-1546.46220108042
 21
-168.3986507974806
 31
0.0
  0
LINE
  5
2EC
330
2E2
100
AcDbEntity
  8
0
 62
     2
100
AcDbLine
 10
-1548.91220108042
 20
-169.0551263189369
 30
0.0
 11
-1546.46220108042
 21
-169.7116018403932
 31
0.0
  0
MTEXT
  5
2ED
330
2E2
100
AcDbEntity
  8
0
 62
     3
100
AcDbMText
 10
-1552.147201080419
 20
-168.0551263189369
 30
0.0
 40
3.5
 41
0.0
 71
     7
 72
     1
  1
5
  7
CONVERTER_6
 11
0.999999999997062
 21
0.00000242406841
 31
0.0
 73
     1
 44
1.0
1001
ACAD
1000
MTEXTBEGIN
1070
    73
1070
     1
1070
    44
1040
1.0
1070
    74
1070
     0
1000
MTEXTEND
  0
ENDBLK
  5
2EE
330
2E2
100
AcDbEntity
  8
0
100
AcDbBlockEnd
  0
BLOCK
  5
2F2
330
2F1
100
AcDbEntity
  8
0
100
AcDbBlockBegin
  2
*D16
 70
     1
 10
0.0
 20
0.0
 30
0.0
  3
*D16
  1

  0
LINE
  5
2F3
330
2F1
100
AcDbEntity
  8
0
  6
Continuous
 62
     2
100
AcDbLine
 10
-1571.91220108042
 20
-176.0551263189369
 30
0.0
 11
-1568.91220108042
 21
-176.0551263189369
 31
0.0
  0
LINE
  5
2F4
330
2F1
100
AcDbEntity
  8
0
  6
Continuous
 62
     2
100
AcDbLine
 10
-1571.91220108042
 20
-176.0551263189369
 30
0.0
 11
-1576.81220108042
 21
-176.0551263189369
 31
0.0
  0
LINE
  5
2F5
330
2F1
100
AcDbEntity
  8
0
  6
Continuous
 62
     2
100
AcDbLine
 10
-1568.91220108042
 20
-176.0551263189369
 30
0.0
 11
-1564.01220108042
 21
-176.0551263189369
 31
0.0
  0
LINE
  5
2F6
330
2F1
100
AcDbEntity
  8
0
  6
Continuous
 62
     2
100
AcDbLine
 10
-1571.91220108042
 20
-148.0551263189369
 30
0.0
 11
-1571.91220108042
 21
-177.0551263189369
 31
0.0
  0
LINE
  5
2F7
330
2F1
100
AcDbEntity
  8
0
  6
Continuous
 62
     2
100
AcDbLine
 10
-1568.91220108042
 20
-149.0551263189369
 30
0.0
 11
-1568.91220108042
 21
-177.0551263189369
 31
0.0
  0
LINE
  5
2F8
330
2F1
100
AcDbEntity
  8
0
 62
     2
100
AcDbLine
 10
-1568.91220108042
 20
-176.0551263189369
 30
0.0
 11
-1566.462201080419
 21
-175.3986507974806
 31
0.0
  0
LINE
  5
2F9
330
2F1
100
AcDbEntity
  8
0
 62
     2
100
AcDbLine
 10
-1568.91220108042
 20
-176.0551263189369
 30
0.0
 11
-1566.462201080419
 21
-176.7116018403931
 31
0.0
  0
LINE
  5
2FA
330
2F1
100
AcDbEntity
  8
0
 62
     2
100
AcDbLine
 10
-1571.91220108042
 20
-176.0551263189369
 30
0.0
 11
-1574.36220108042
 21
-176.7116018403931
 31
0.0
  0
LINE
  5
2FB
330
2F1
100
AcDbEntity
  8
0
 62
     2
100
AcDbLine
 10
-1571.91220108042
 20
-176.0551263189369
 30
0.0
 11
-1574.36220108042
 21
-175.3986507974806
 31
0.0
  0
MTEXT
  5
2FC
330
2F1
100
AcDbEntity
  8
0
 62
     3
100
AcDbMText
 10
-1571.147201080419
 20
-175.0551263189369
 30
0.0
 40
3.5
 41
0.0
 71
     7
 72
     1
  1
3
  7
CONVERTER_6
 11
0.999999999997062
 21
0.00000242406841
 31
0.0
 73
     1
 44
1.0
1001
ACAD
1000
MTEXTBEGIN
1070
    73
1070
     1
1070
    44
1040
1.0
1070
    74
1070
     0
1000
MTEXTEND
  0
ENDBLK
  5
2FD
330
2F1
100
AcDbEntity
  8
0
100
AcDbBlockEnd
  0
BLOCK
  5
301
330
300
100
AcDbEntity
  8
0
100
AcDbBlockBegin
  2
*D17
 70
     1
 10
0.0
 20
0.0
 30
0.0
  3
*D17
  1

  0
LINE
  5
302
330
300
100
AcDbEntity
  8
0
  6
Continuous
 62
     2
100
AcDbLine
 10
-1568.91220108042
 20
-176.0551263189369
 30
0.0
 11
-1548.91220108042
 21
-176.0551263189369
 31
0.0
  0
LINE
  5
303
330
300
100
AcDbEntity
  8
0
  6
Continuous
 62
     2
100
AcDbLine
 10
-1568.91220108042
 20
-149.0551263189369
 30
0.0
 11
-1568.91220108042
 21
-177.0551263189369
 31
0.0
  0
LINE
  5
304
330
300
100
AcDbEntity
  8
0
  6
Continuous
 62
     2
100
AcDbLine
 10
-1548.91220108042
 20
-145.7713763189369
 30
0.0
 11
-1548.91220108042
 21
-177.0551263189369
 31
0.0
  0
LINE
  5
305
330
300
100
AcDbEntity
  8
0
 62
     2
100
AcDbLine
 10
-1568.91220108042
 20
-176.0551263189369
 30
0.0
 11
-1566.462201080419
 21
-175.3986507974806
 31
0.0
  0
LINE
  5
306
330
300
100
AcDbEntity
  8
0
 62
     2
100
AcDbLine
 10
-1568.91220108042
 20
-176.0551263189369
 30
0.0
 11
-1566.462201080419
 21
-176.7116018403931
 31
0.0
  0
LINE
  5
307
330
300
100
AcDbEntity
  8
0
 62
     2
100
AcDbLine
 10
-1548.91220108042
 20
-176.0551263189369
 30
0.0
 11
-1551.36220108042
 21
-176.7116018403931
 31
0.0
  0
LINE
  5
308
330
300
100
AcDbEntity
  8
0
 62
     2
100
AcDbLine
 10
-1548.91220108042
 20
-176.0551263189369
 30
0.0
 11
-1551.36220108042
 21
-175.3986507974806
 31
0.0
  0
MTEXT
  5
309
330
300
100
AcDbEntity
  8
0
 62
     3
100
AcDbMText
 10
-1560.74970108042
 20
-175.0551263189369
 30
0.0
 40
3.5
 41
0.0
 71
     7
 72
     1
  1
20
  7
CONVERTER_6
 11
0.999999999997062
 21
0.00000242406841
 31
0.0
 73
     1
 44
1.0
1001
ACAD
1000
MTEXTBEGIN
1070
    73
1070
     1
1070
    44
1040
1.0
1070
    74
1070
     0
1000
MTEXTEND
  0
ENDBLK
  5
30A
330
300
100
AcDbEntity
  8
0
100
AcDbBlockEnd
  0
BLOCK
  5
30E
330
30D
100
AcDbEntity
  8
0
100
AcDbBlockBegin
  2
*D18
 70
     1
 10
0.0
 20
0.0
 30
0.0
  3
*D18
  1

  0
LINE
  5
30F
330
30D
100
AcDbEntity
  8
0
  6
Continuous
 62
     2
100
AcDbLine
 10
-1480.890635757175
 20
-169.0551263189369
 30
0.0
 11
-1440.890635757175
 21
-169.0551263189369
 31
0.0
  0
LINE
  5
310
330
30D
100
AcDbEntity
  8
0
  6
Continuous
 62
     2
100
AcDbLine
 10
-1480.890635757175
 20
-143.0551263189369
 30
0.0
 11
-1480.890635757175
 21
-170.0551263189369
 31
0.0
  0
LINE
  5
311
330
30D
100
AcDbEntity
  8
0
  6
Continuous
 62
     2
100
AcDbLine
 10
-1440.890635757175
 20
-143.0551263189369
 30
0.0
 11
-1440.890635757175
 21
-170.0551263189369
 31
0.0
  0
LINE
  5
312
330
30D
100
AcDbEntity
  8
0
 62
     2
100
AcDbLine
 10
-1480.890635757175
 20
-169.0551263189369
 30
0.0
 11
-1478.440635757175
 21
-168.3986507974806
 31
0.0
  0
LINE
  5
313
330
30D
100
AcDbEntity
  8
0
 62
     2
100
AcDbLine
 10
-1480.890635757175
 20
-169.0551263189369
 30
0.0
 11
-1478.440635757175
 21
-169.7116018403932
 31
0.0
  0
LINE
  5
314
330
30D
100
AcDbEntity
  8
0
 62
     2
100
AcDbLine
 10
-1440.890635757175
 20
-169.0551263189369
 30
0.0
 11
-1443.340635757175
 21
-169.7116018403932
 31
0.0
  0
LINE
  5
315
330
30D
100
AcDbEntity
  8
0
 62
     2
100
AcDbLine
 10
-1440.890635757175
 20
-169.0551263189369
 30
0.0
 11
-1443.340635757175
 21
-168.3986507974806
 31
0.0
  0
MTEXT
  5
316
330
30D
100
AcDbEntity
  8
0
 62
     3
100
AcDbMText
 10
-1462.728135757175
 20
-168.0551263189369
 30
0.0
 40
3.5
 41
0.0
 71
     7
 72
     1
  1
40
  7
CONVERTER_6
 11
0.999999999997062
 21
0.00000242406841
 31
0.0
 73
     1
 44
1.0
1001
ACAD
1000
MTEXTBEGIN
1070
    73
1070
     1
1070
    44
1040
1.0
1070
    74
1070
     0
1000
MTEXTEND
  0
ENDBLK
  5
317
330
30D
100
AcDbEntity
  8
0
100
AcDbBlockEnd
  0
BLOCK
  5
31B
330
31A
100
AcDbEntity
  8
0
100
AcDbBlockBegin
  2
*D19
 70
     1
 10
0.0
 20
0.0
 30
0.0
  3
*D19
  1

  0
LINE
  5
31C
330
31A
100
AcDbEntity
  8
0
  6
Continuous
 62
     2
100
AcDbLine
 10
-1419.890635757175
 20
-148.0551263189369
 30
0.0
 11
-1419.890635757175
 21
-107.0551263189369
 31
0.0
  0
LINE
  5
31D
330
31A
100
AcDbEntity
  8
0
  6
Continuous
 62
     2
100
AcDbLine
 10
-1445.890635757175
 20
-148.0551263189369
 30
0.0
 11
-1418.890635757175
 21
-148.0551263189369
 31
0.0
  0
LINE
  5
31E
330
31A
100
AcDbEntity
  8
0
  6
Continuous
 62
     2
100
AcDbLine
 10
-1440.890635757175
 20
-107.0551263189369
 30
0.0
 11
-1418.890635757175
 21
-107.0551263189369
 31
0.0
  0
LINE
  5
31F
330
31A
100
AcDbEntity
  8
0
 62
     2
100
AcDbLine
 10
-1419.890635757175
 20
-148.0551263189369
 30
0.0
 11
-1420.547111278631
 21
-145.6051263189369
 31
0.0
  0
LINE
  5
320
330
31A
100
AcDbEntity
  8
0
 62
     2
100
AcDbLine
 10
-1419.890635757175
 20
-148.0551263189369
 30
0.0
 11
-1419.234160235719
 21
-145.6051263189369
 31
0.0
  0
LINE
  5
321
330
31A
100
AcDbEntity
  8
0
 62
     2
100
AcDbLine
 10
-1419.890635757175
 20
-107.0551263189369
 30
0.0
 11
-1419.234160235719
 21
-109.5051263189369
 31
0.0
  0
LINE
  5
322
330
31A
100
AcDbEntity
  8
0
 62
     2
100
AcDbLine
 10
-1419.890635757175
 20
-107.0551263189369
 30
0.0
 11
-1420.547111278631
 21
-109.5051263189369
 31
0.0
  0
MTEXT
  5
323
330
31A
100
AcDbEntity
  8
0
 62
     3
100
AcDbMText
 10
-1420.890635757175
 20
-129.0251263189369
 30
0.0
 40
3.5
 41
0.0
 71
     7
 72
     1
  1
41
  7
CONVERTER_6
 11
0.0
 21
1.0
 31
0.0
 73
     1
 44
1.0
1001
ACAD
1000
MTEXTBEGIN
1070
    73
1070
     1
1070
    44
1040
1.0
1070
    74
1070
     0
1000
MTEXTEND
  0
ENDBLK
  5
324
330
31A
100
AcDbEntity
  8
0
100
AcDbBlockEnd
  0
BLOCK
  5
328
330
327
100
AcDbEntity
  8
0
100
AcDbBlockBegin
  2
*D20
 70
     1
 10
0.0
 20
0.0
 30
0.0
  3
*D20
  1

  0
LINE
  5
329
330
327
100
AcDbEntity
  8
0
  6
Continuous
 62
     2
100
AcDbLine
 10
-1468.290635757175
 20
-65.55512631893714
 30
0.0
 11
-1453.490635757175
 21
-65.55512631893714
 31
0.0
  0
LINE
  5
32A
330
327
100
AcDbEntity
  8
0
  6
Continuous
 62
     2
100
AcDbLine
 10
-1468.290635757175
 20
-106.0551263189369
 30
0.0
 11
-1468.290635757175
 21
-64.55512631893714
 31
0.0
  0
LINE
  5
32B
330
327
100
AcDbEntity
  8
0
  6
Continuous
 62
     2
100
AcDbLine
 10
-1453.490635757175
 20
-106.0551263189369
 30
0.0
 11
-1453.490635757175
 21
-64.55512631893714
 31
0.0
  0
LINE
  5
32C
330
327
100
AcDbEntity
  8
0
 62
     2
100
AcDbLine
 10
-1453.490635757175
 20
-65.55512631893714
 30
0.0
 11
-1455.940635757175
 21
-66.21160184039339
 31
0.0
  0
LINE
  5
32D
330
327
100
AcDbEntity
  8
0
 62
     2
100
AcDbLine
 10
-1453.490635757175
 20
-65.55512631893714
 30
0.0
 11
-1455.940635757175
 21
-64.89865079748089
 31
0.0
  0
LINE
  5
32E
330
327
100
AcDbEntity
  8
0
 62
     2
100
AcDbLine
 10
-1468.290635757175
 20
-65.55512631893714
 30
0.0
 11
-1465.840635757175
 21
-64.89865079748089
 31
0.0
  0
LINE
  5
32F
330
327
100
AcDbEntity
  8
0
 62
     2
100
AcDbLine
 10
-1468.290635757175
 20
-65.55512631893714
 30
0.0
 11
-1465.840635757175
 21
-66.21160184039339
 31
0.0
  0
MTEXT
  5
330
330
327
100
AcDbEntity
  8
0
 62
     3
100
AcDbMText
 10
-1463.891885757175
 20
-64.55512631893714
 30
0.0
 40
3.5
 41
0.0
 71
     7
 72
     1
  1
14.8
  7
CONVERTER_6
 11
0.999999999997062
 21
0.00000242406841
 31
0.0
 73
     1
 44
1.0
1001
ACAD
1000
MTEXTBEGIN
1070
    73
1070
     1
1070
    44
1040
1.0
1070
    74
1070
     0
1000
MTEXTEND
  0
ENDBLK
  5
331
330
327
100
AcDbEntity
  8
0
100
AcDbBlockEnd
  0
BLOCK
  5
335
330
334
100
AcDbEntity
  8
0
100
AcDbBlockBegin
  2
*D21
 70
     1
 10
0.0
 20
0.0
 30
0.0
  3
*D21
  1

  0
LINE
  5
336
330
334
100
AcDbEntity
  8
0
  6
Continuous
 62
     2
100
AcDbLine
 10
-1501.029269396745
 20
-122.0133426591258
 30
0.0
 11
-1473.328595365587
 21
-129.6335534672351
 31
0.0
  0
LINE
  5
337
330
334
100
AcDbEntity
  8
0
  6
Continuous
 62
     2
100
AcDbLine
 10
-1444.909303934738
 20
-137.4514495760654
 30
0.0
 11
-1448.452676148763
 21
-136.4766991706387
 31
0.0
  0
LINE
  5
338
330
334
100
AcDbEntity
  8
0
 62
     2
100
AcDbLine
 10
-1473.328595365587
 20
-129.6335534672351
 30
0.0
 11
-1475.864965897574
 21
-129.6166823457712
 31
0.0
  0
LINE
  5
339
330
334
100
AcDbEntity
  8
0
 62
     2
100
AcDbLine
 10
-1473.328595365587
 20
-129.6335534672351
 30
0.0
 11
-1475.516721118966
 21
-128.3507573814635
 31
0.0
  0
LINE
  5
33A
330
334
100
AcDbEntity
  8
0
 62
     2
100
AcDbLine
 10
-1448.452676148763
 20
-136.4766991706387
 30
0.0
 11
-1445.916305616776
 21
-136.4935702921026
 31
0.0
  0
LINE
  5
33B
330
334
100
AcDbEntity
  8
0
 62
     2
100
AcDbLine
 10
-1448.452676148763
 20
-136.4766991706387
 30
0.0
 11
-1446.264550395384
 21
-137.7594952564103
 31
0.0
  0
MTEXT
  5
33C
330
334
100
AcDbEntity
  8
0
 62
     3
100
AcDbMText
 10
-1502.957547323679
 20
-120.4457428260999
 30
0.0
 40
3.5
 41
0.0
 71
     7
 72
     1
  1
\C3;{\Fgdt;n}\C3;25.8
  7
CONVERTER_6
 11
0.9641829153808023
 21
-0.2652382055582807
 31
0.0
 73
     1
 44
1.0
1001
ACAD
1000
MTEXTBEGIN
1070
    73
1070
     1
1070
    44
1040
1.0
1070
    74
1070
     0
1000
MTEXTEND
  0
ENDBLK
  5
33D
330
334
100
AcDbEntity
  8
0
100
AcDbBlockEnd
  0
BLOCK
  5
3C0
330
3BF
100
AcDbEntity
  8
0
100
AcDbBlockBegin
  2
*D22
 70
     1
 10
0.0
 20
0.0
 30
0.0
  3
*D22
  1

  0
LINE
  5
3C1
330
3BF
100
AcDbEntity
  8
0
  6
Continuous
 62
     2
100
AcDbLine
 10
-1689.890635757175
 20
-71.55512631893691
 30
0.0
 11
-1657.890635757175
 21
-71.55512631893691
 31
0.0
  0
LINE
  5
3C2
330
3BF
100
AcDbEntity
  8
0
  6
Continuous
 62
     2
100
AcDbLine
 10
-1689.890635757175
 20
-79.54512631893692
 30
0.0
 11
-1689.890635757175
 21
-70.55512631893691
 31
0.0
  0
LINE
  5
3C3
330
3BF
100
AcDbEntity
  8
0
  6
Continuous
 62
     2
100
AcDbLine
 10
-1657.890635757175
 20
-79.54512631893692
 30
0.0
 11
-1657.890635757175
 21
-70.55512631893691
 31
0.0
  0
LINE
  5
3C4
330
3BF
100
AcDbEntity
  8
0
 62
     2
100
AcDbLine
 10
-1657.890635757175
 20
-71.55512631893691
 30
0.0
 11
-1660.340635757175
 21
-72.21160184039316
 31
0.0
  0
LINE
  5
3C5
330
3BF
100
AcDbEntity
  8
0
 62
     2
100
AcDbLine
 10
-1657.890635757175
 20
-71.55512631893691
 30
0.0
 11
-1660.340635757175
 21
-70.89865079748065
 31
0.0
  0
LINE
  5
3C6
330
3BF
100
AcDbEntity
  8
0
 62
     2
100
AcDbLine
 10
-1689.890635757175
 20
-71.55512631893691
 30
0.0
 11
-1687.440635757175
 21
-70.89865079748067
 31
0.0
  0
LINE
  5
3C7
330
3BF
100
AcDbEntity
  8
0
 62
     2
100
AcDbLine
 10
-1689.890635757175
 20
-71.55512631893691
 30
0.0
 11
-1687.440635757175
 21
-72.21160184039316
 31
0.0
  0
MTEXT
  5
3C8
330
3BF
100
AcDbEntity
  8
0
 62
     3
100
AcDbMText
 10
-1675.728135757175
 20
-70.55512631893691
 30
0.0
 40
3.5
 41
0.0
 71
     7
 72
     1
  1
32
  7
CONVERTER_6
 11
0.999999999997062
 21
0.00000242406841
 31
0.0
 73
     1
 44
1.0
1001
ACAD
1000
MTEXTBEGIN
1070
    73
1070
     1
1070
    44
1040
1.0
1070
    74
1070
     0
1000
MTEXTEND
  0
ENDBLK
  5
3C9
330
3BF
100
AcDbEntity
  8
0
100
AcDbBlockEnd
  0
BLOCK
  5
3CD
330
3CC
100
AcDbEntity
  8
0
100
AcDbBlockBegin
  2
*D23
 70
     1
 10
0.0
 20
0.0
 30
0.0
  3
*D23
  1

  0
LINE
  5
3CE
330
3CC
100
AcDbEntity
  8
0
  6
Continuous
 62
     2
100
AcDbLine
 10
-1699.890635757175
 20
-64.55512631893691
 30
0.0
 11
-1647.890635757175
 21
-64.55512631893691
 31
0.0
  0
LINE
  5
3CF
330
3CC
100
AcDbEntity
  8
0
  6
Continuous
 62
     2
100
AcDbLine
 10
-1699.890635757175
 20
-77.55512631893691
 30
0.0
 11
-1699.890635757175
 21
-63.55512631893692
 31
0.0
  0
LINE
  5
3D0
330
3CC
100
AcDbEntity
  8
0
  6
Continuous
 62
     2
100
AcDbLine
 10
-1647.890635757175
 20
-77.55512631893691
 30
0.0
 11
-1647.890635757175
 21
-63.55512631893692
 31
0.0
  0
LINE
  5
3D1
330
3CC
100
AcDbEntity
  8
0
 62
     2
100
AcDbLine
 10
-1699.890635757175
 20
-64.55512631893691
 30
0.0
 11
-1697.440635757175
 21
-63.89865079748066
 31
0.0
  0
LINE
  5
3D2
330
3CC
100
AcDbEntity
  8
0
 62
     2
100
AcDbLine
 10
-1699.890635757175
 20
-64.55512631893691
 30
0.0
 11
-1697.440635757175
 21
-65.21160184039316
 31
0.0
  0
LINE
  5
3D3
330
3CC
100
AcDbEntity
  8
0
 62
     2
100
AcDbLine
 10
-1647.890635757175
 20
-64.55512631893691
 30
0.0
 11
-1650.340635757175
 21
-65.21160184039316
 31
0.0
  0
LINE
  5
3D4
330
3CC
100
AcDbEntity
  8
0
 62
     2
100
AcDbLine
 10
-1647.890635757175
 20
-64.55512631893691
 30
0.0
 11
-1650.340635757175
 21
-63.89865079748066
 31
0.0
  0
MTEXT
  5
3D5
330
3CC
100
AcDbEntity
  8
0
 62
     3
100
AcDbMText
 10
-1675.728135757175
 20
-63.55512631893692
 30
0.0
 40
3.5
 41
0.0
 71
     7
 72
     1
  1
52
  7
CONVERTER_6
 11
0.999999999997062
 21
0.00000242406841
 31
0.0
 73
     1
 44
1.0
1001
ACAD
1000
MTEXTBEGIN
1070
    73
1070
     1
1070
    44
1040
1.0
1070
    74
1070
     0
1000
MTEXTEND
  0
ENDBLK
  5
3D6
330
3CC
100
AcDbEntity
  8
0
100
AcDbBlockEnd
  0
BLOCK
  5
3DA
330
3D9
100
AcDbEntity
  8
0
100
AcDbBlockBegin
  2
*D24
 70
     1
 10
0.0
 20
0.0
 30
0.0
  3
*D24
  1

  0
LINE
  5
3DB
330
3D9
100
AcDbEntity
  8
0
  6
Continuous
 62
     2
100
AcDbLine
 10
-1565.41220108042
 20
-71.55512631893691
 30
0.0
 11
-1542.41220108042
 21
-71.55512631893691
 31
0.0
  0
LINE
  5
3DC
330
3D9
100
AcDbEntity
  8
0
  6
Continuous
 62
     2
100
AcDbLine
 10
-1565.41220108042
 20
-81.45512631893693
 30
0.0
 11
-1565.41220108042
 21
-70.55512631893691
 31
0.0
  0
LINE
  5
3DD
330
3D9
100
AcDbEntity
  8
0
  6
Continuous
 62
     2
100
AcDbLine
 10
-1542.41220108042
 20
-81.45512631893693
 30
0.0
 11
-1542.41220108042
 21
-70.55512631893691
 31
0.0
  0
LINE
  5
3DE
330
3D9
100
AcDbEntity
  8
0
 62
     2
100
AcDbLine
 10
-1565.41220108042
 20
-71.55512631893691
 30
0.0
 11
-1562.962201080419
 21
-70.89865079748067
 31
0.0
  0
LINE
  5
3DF
330
3D9
100
AcDbEntity
  8
0
 62
     2
100
AcDbLine
 10
-1565.41220108042
 20
-71.55512631893691
 30
0.0
 11
-1562.962201080419
 21
-72.21160184039316
 31
0.0
  0
LINE
  5
3E0
330
3D9
100
AcDbEntity
  8
0
 62
     2
100
AcDbLine
 10
-1542.41220108042
 20
-71.55512631893691
 30
0.0
 11
-1544.86220108042
 21
-72.21160184039316
 31
0.0
  0
LINE
  5
3E1
330
3D9
100
AcDbEntity
  8
0
 62
     2
100
AcDbLine
 10
-1542.41220108042
 20
-71.55512631893691
 30
0.0
 11
-1544.86220108042
 21
-70.89865079748065
 31
0.0
  0
MTEXT
  5
3E2
330
3D9
100
AcDbEntity
  8
0
 62
     3
100
AcDbMText
 10
-1555.74970108042
 20
-70.55512631893691
 30
0.0
 40
3.5
 41
0.0
 71
     7
 72
     1
  1
23
  7
CONVERTER_6
 11
0.999999999997062
 21
0.00000242406841
 31
0.0
 73
     1
 44
1.0
1001
ACAD
1000
MTEXTBEGIN
1070
    73
1070
     1
1070
    44
1040
1.0
1070
    74
1070
     0
1000
MTEXTEND
  0
ENDBLK
  5
3E3
330
3D9
100
AcDbEntity
  8
0
100
AcDbBlockEnd
  0
BLOCK
  5
3E7
330
3E6
100
AcDbEntity
  8
0
100
AcDbBlockBegin
  2
*D25
 70
     1
 10
0.0
 20
0.0
 30
0.0
  3
*D25
  1

  0
LINE
  5
3E8
330
3E6
100
AcDbEntity
  8
0
  6
Continuous
 62
     2
100
AcDbLine
 10
-1575.34025543303
 20
-99.65512631893693
 30
0.0
 11
-1575.34025543303
 21
-81.45512631893693
 31
0.0
  0
LINE
  5
3E9
330
3E6
100
AcDbEntity
  8
0
  6
Continuous
 62
     2
100
AcDbLine
 10
-1565.41220108042
 20
-99.65512631893693
 30
0.0
 11
-1576.34025543303
 21
-99.65512631893693
 31
0.0
  0
LINE
  5
3EA
330
3E6
100
AcDbEntity
  8
0
  6
Continuous
 62
     2
100
AcDbLine
 10
-1565.41220108042
 20
-81.45512631893693
 30
0.0
 11
-1576.34025543303
 21
-81.45512631893693
 31
0.0
  0
LINE
  5
3EB
330
3E6
100
AcDbEntity
  8
0
 62
     2
100
AcDbLine
 10
-1575.34025543303
 20
-99.65512631893693
 30
0.0
 11
-1575.996730954486
 21
-97.20512631893692
 31
0.0
  0
LINE
  5
3EC
330
3E6
100
AcDbEntity
  8
0
 62
     2
100
AcDbLine
 10
-1575.34025543303
 20
-99.65512631893693
 30
0.0
 11
-1574.683779911573
 21
-97.20512631893692
 31
0.0
  0
LINE
  5
3ED
330
3E6
100
AcDbEntity
  8
0
 62
     2
100
AcDbLine
 10
-1575.34025543303
 20
-81.45512631893693
 30
0.0
 11
-1574.683779911573
 21
-83.90512631893692
 31
0.0
  0
LINE
  5
3EE
330
3E6
100
AcDbEntity
  8
0
 62
     2
100
AcDbLine
 10
-1575.34025543303
 20
-81.45512631893693
 30
0.0
 11
-1575.996730954486
 21
-83.90512631893692
 31
0.0
  0
MTEXT
  5
3EF
330
3E6
100
AcDbEntity
  8
0
 62
     3
100
AcDbMText
 10
-1576.34025543303
 20
-97.68637631893692
 30
0.0
 40
3.5
 41
0.0
 71
     7
 72
     1
  1
\C3;{\Fgdt;n}\C3;18.2
  7
CONVERTER_6
 11
0.0
 21
1.0
 31
0.0
 73
     1
 44
1.0
1001
ACAD
1000
MTEXTBEGIN
1070
    73
1070
     1
1070
    44
1040
1.0
1070
    74
1070
     0
1000
MTEXTEND
  0
ENDBLK
  5
3F0
330
3E6
100
AcDbEntity
  8
0
100
AcDbBlockEnd
  0
BLOCK
  5
479
330
478
100
AcDbEntity
  8
0
100
AcDbBlockBegin
  2
*D26
 70
     1
 10
0.0
 20
0.0
 30
0.0
  3
*D26
  1

  0
LINE
  5
537
330
478
100
AcDbEntity
  8
1
 62
     2
370
    -2
100
AcDbLine
 10
-1693.890635757175
 20
-107.0551263189369
 30
0.0
 11
-1708.016341672048
 21
-107.0551263189368
 31
0.0
  0
LINE
  5
538
330
478
100
AcDbEntity
  8
1
 62
     2
370
    -2
100
AcDbLine
 10
-1680.379524646064
 20
-112.2551263189369
 30
0.0
 11
-1708.016341672048
 21
-112.2551263189369
 31
0.0
  0
LINE
  5
539
330
478
100
AcDbEntity
  8
1
 62
     2
370
    -2
100
AcDbLine
 10
-1707.016341672048
 20
-104.6051263189369
 30
0.0
 11
-1707.016341672048
 21
-102.1551263189369
 31
0.0
  0
LINE
  5
53A
330
478
100
AcDbEntity
  8
1
 62
     2
370
    -2
100
AcDbLine
 10
-1707.016341672048
 20
-114.7051263189369
 30
0.0
 11
-1707.016341672048
 21
-117.1551263189369
 31
0.0
  0
LINE
  5
53B
330
478
100
AcDbEntity
  8
1
 62
     2
370
    -2
100
AcDbLine
 10
-1707.016341672048
 20
-107.0551263189368
 30
0.0
 11
-1707.016341672048
 21
-112.2551263189369
 31
0.0
  0
INSERT
  5
53C
330
478
100
AcDbEntity
  8
1
 62
     2
370
    -2
100
AcDbBlockReference
  2
_OPEN30
 10
-1707.016341672048
 20
-107.0551263189368
 30
0.0
 41
2.45
 42
2.45
 43
2.45
 50
270.0
  0
INSERT
  5
53D
330
478
100
AcDbEntity
  8
1
 62
     2
370
    -2
100
AcDbBlockReference
  2
_OPEN30
 10
-1707.016341672048
 20
-112.2551263189369
 30
0.0
 41
2.45
 42
2.45
 43
2.45
 50
90.0
  0
MTEXT
  5
53E
330
478
100
AcDbEntity
  8
1
 62
     3
100
AcDbMText
 10
-1710.079675005381
 20
-117.1551263189372
 30
0.0
 40
3.5
 41
0.0
 71
     5
 72
     1
  1
\A1;5.2
  7
CONVERTER_6
 11
0.0000000000000001
 21
1.0
 31
0.0
 73
     1
 44
1.0
1001
ACAD
1000
MTEXTBEGIN
1070
    73
1070
     1
1070
    44
1040
1.0
1070
    74
1070
     0
1000
MTEXTEND
  0
POINT
  5
53F
330
478
100
AcDbEntity
  8
Defpoints
 62
     0
100
AcDbPoint
 10
-1692.890635757175
 20
-107.0551263189369
 30
0.0
  0
POINT
  5
540
330
478
100
AcDbEntity
  8
Defpoints
 62
     0
100
AcDbPoint
 10
-1679.379524646064
 20
-112.2551263189369
 30
0.0
  0
POINT
  5
541
330
478
100
AcDbEntity
  8
Defpoints
 62
     0
100
AcDbPoint
 10
-1707.016341672048
 20
-112.2551263189369
 30
0.0
  0
ENDBLK
  5
47A
330
478
100
AcDbEntity
  8
0
100
AcDbBlockEnd
  0
BLOCK
  5
487
330
486
100
AcDbEntity
  8
0
100
AcDbBlockBegin
  2
*D27
 70
     1
 10
0.0
 20
0.0
 30
0.0
  3
*D27
  1

  0
LINE
  5
542
330
486
100
AcDbEntity
  8
1
 62
     2
370
    -2
100
AcDbLine
 10
-1553.91220108042
 20
-151.8635276806147
 30
0.0
 11
-1553.91220108042
 21
-170.0551263189369
 31
0.0
  0
LINE
  5
543
330
486
100
AcDbEntity
  8
1
 62
     2
370
    -2
100
AcDbLine
 10
-1568.91220108042
 20
-149.0551263189369
 30
0.0
 11
-1568.91220108042
 21
-170.0551263189369
 31
0.0
  0
LINE
  5
544
330
486
100
AcDbEntity
  8
1
 62
     2
370
    -2
100
AcDbLine
 10
-1556.36220108042
 20
-169.0551263189369
 30
0.0
 11
-1559.124701080413
 21
-169.0551263189369
 31
0.0
  0
LINE
  5
545
330
486
100
AcDbEntity
  8
1
 62
     2
370
    -2
100
AcDbLine
 10
-1566.46220108042
 20
-169.0551263189369
 30
0.0
 11
-1563.699701080427
 21
-169.0551263189369
 31
0.0
  0
INSERT
  5
546
330
486
100
AcDbEntity
  8
1
 62
     2
370
    -2
100
AcDbBlockReference
  2
_OPEN30
 10
-1553.91220108042
 20
-169.0551263189369
 30
0.0
 41
2.45
 42
2.45
 43
2.45
  0
INSERT
  5
547
330
486
100
AcDbEntity
  8
1
 62
     2
370
    -2
100
AcDbBlockReference
  2
_OPEN30
 10
-1568.91220108042
 20
-169.0551263189369
 30
0.0
 41
2.45
 42
2.45
 43
2.45
 50
180.0
  0
MTEXT
  5
548
330
486
100
AcDbEntity
  8
1
 62
     3
100
AcDbMText
 10
-1561.41220108042
 20
-169.0551263189369
 30
0.0
 40
3.5
 41
0.0
 71
     5
 72
     1
  1
\A1;15
  7
CONVERTER_6
 11
0.999999999997062
 21
0.0000024240684056
 31
0.0
 73
     1
 44
1.0
1001
ACAD
1000
MTEXTBEGIN
1070
    73
1070
     1
1070
    44
1040
1.0
1070
    74
1070
     0
1000
MTEXTEND
  0
POINT
  5
549
330
486
100
AcDbEntity
  8
Defpoints
 62
     0
100
AcDbPoint
 10
-1553.91220108042
 20
-150.8635276806147
 30
0.0
  0
POINT
  5
54A
330
486
100
AcDbEntity
  8
Defpoints
 62
     0
100
AcDbPoint
 10
-1568.91220108042
 20
-148.0551263189369
 30
0.0
  0
POINT
  5
54B
330
486
100
AcDbEntity
  8
Defpoints
 62
     0
100
AcDbPoint
 10
-1568.91220108042
 20
-169.0551263189369
 30
0.0
  0
ENDBLK
  5
488
330
486
100
AcDbEntity
  8
0
100
AcDbBlockEnd
  0
BLOCK
  5
494
330
493
100
AcDbEntity
  8
0
100
AcDbBlockBegin
  2
*D28
 70
     1
 10
0.0
 20
0.0
 30
0.0
  3
*D28
  1

  0
LINE
  5
54C
330
493
100
AcDbEntity
  8
1
 62
     2
370
    -2
100
AcDbLine
 10
-1571.91220108042
 20
-148.0551263189369
 30
0.0
 11
-1571.91220108042
 21
-177.0551263189369
 31
0.0
  0
LINE
  5
54D
330
493
100
AcDbEntity
  8
1
 62
     2
370
    -2
100
AcDbLine
 10
-1568.91220108042
 20
-149.0551263189369
 30
0.0
 11
-1568.91220108042
 21
-177.0551263189369
 31
0.0
  0
LINE
  5
54E
330
493
100
AcDbEntity
  8
1
 62
     2
370
    -2
100
AcDbLine
 10
-1574.36220108042
 20
-176.0551263189369
 30
0.0
 11
-1576.81220108042
 21
-176.0551263189369
 31
0.0
  0
LINE
  5
54F
330
493
100
AcDbEntity
  8
1
 62
     2
370
    -2
100
AcDbLine
 10
-1566.46220108042
 20
-176.0551263189369
 30
0.0
 11
-1564.01220108042
 21
-176.0551263189369
 31
0.0
  0
LINE
  5
550
330
493
100
AcDbEntity
  8
1
 62
     2
370
    -2
100
AcDbLine
 10
-1571.91220108042
 20
-176.0551263189369
 30
0.0
 11
-1571.813034413757
 21
-176.0551263189369
 31
0.0
  0
LINE
  5
551
330
493
100
AcDbEntity
  8
1
 62
     2
370
    -2
100
AcDbLine
 10
-1568.91220108042
 20
-176.0551263189369
 30
0.0
 11
-1569.011367747082
 21
-176.0551263189369
 31
0.0
  0
INSERT
  5
552
330
493
100
AcDbEntity
  8
1
 62
     2
370
    -2
100
AcDbBlockReference
  2
_OPEN30
 10
-1571.91220108042
 20
-176.0551263189369
 30
0.0
 41
2.45
 42
2.45
 43
2.45
  0
INSERT
  5
553
330
493
100
AcDbEntity
  8
1
 62
     2
370
    -2
100
AcDbBlockReference
  2
_OPEN30
 10
-1568.91220108042
 20
-176.0551263189369
 30
0.0
 41
2.45
 42
2.45
 43
2.45
 50
180.0
  0
MTEXT
  5
554
330
493
100
AcDbEntity
  8
1
 62
     3
100
AcDbMText
 10
-1570.41220108042
 20
-176.0551263189369
 30
0.0
 40
3.5
 41
0.0
 71
     5
 72
     1
  1
\A1;3
  7
CONVERTER_6
 11
0.999999999997062
 21
0.0000024240684056
 31
0.0
 73
     1
 44
1.0
1001
ACAD
1000
MTEXTBEGIN
1070
    73
1070
     1
1070
    44
1040
1.0
1070
    74
1070
     0
1000
MTEXTEND
  0
POINT
  5
555
330
493
100
AcDbEntity
  8
Defpoints
 62
     0
100
AcDbPoint
 10
-1571.91220108042
 20
-147.0551263189369
 30
0.0
  0
POINT
  5
556
330
493
100
AcDbEntity
  8
Defpoints
 62
     0
100
AcDbPoint
 10
-1568.91220108042
 20
-148.0551263189369
 30
0.0
  0
POINT
  5
557
330
493
100
AcDbEntity
  8
Defpoints
 62
     0
100
AcDbPoint
 10
-1568.91220108042
 20
-176.0551263189369
 30
0.0
  0
ENDBLK
  5
495
330
493
100
AcDbEntity
  8
0
100
AcDbBlockEnd
  0
BLOCK
  5
4A3
330
4A2
100
AcDbEntity
  8
0
100
AcDbBlockBegin
  2
*D29
 70
     1
 10
0.0
 20
0.0
 30
0.0
  3
*D29
  1

  0
LINE
  5
558
330
4A2
100
AcDbEntity
  8
1
 62
     2
370
    -2
100
AcDbLine
 10
-1548.91220108042
 20
-145.7713763189369
 30
0.0
 11
-1548.91220108042
 21
-177.0551263189369
 31
0.0
  0
LINE
  5
559
330
4A2
100
AcDbEntity
  8
1
 62
     2
370
    -2
100
AcDbLine
 10
-1568.91220108042
 20
-149.0551263189369
 30
0.0
 11
-1568.91220108042
 21
-177.0551263189369
 31
0.0
  0
LINE
  5
55A
330
4A2
100
AcDbEntity
  8
1
 62
     2
370
    -2
100
AcDbLine
 10
-1551.36220108042
 20
-176.0551263189369
 30
0.0
 11
-1556.403034413746
 21
-176.0551263189369
 31
0.0
  0
LINE
  5
55B
330
4A2
100
AcDbEntity
  8
1
 62
     2
370
    -2
100
AcDbLine
 10
-1566.46220108042
 20
-176.0551263189369
 30
0.0
 11
-1561.421367747094
 21
-176.0551263189369
 31
0.0
  0
INSERT
  5
55C
330
4A2
100
AcDbEntity
  8
1
 62
     2
370
    -2
100
AcDbBlockReference
  2
_OPEN30
 10
-1548.91220108042
 20
-176.0551263189369
 30
0.0
 41
2.45
 42
2.45
 43
2.45
  0
INSERT
  5
55D
330
4A2
100
AcDbEntity
  8
1
 62
     2
370
    -2
100
AcDbBlockReference
  2
_OPEN30
 10
-1568.91220108042
 20
-176.0551263189369
 30
0.0
 41
2.45
 42
2.45
 43
2.45
 50
180.0
  0
MTEXT
  5
55E
330
4A2
100
AcDbEntity
  8
1
 62
     3
100
AcDbMText
 10
-1558.91220108042
 20
-176.0551263189369
 30
0.0
 40
3.5
 41
0.0
 71
     5
 72
     1
  1
\A1;20
  7
CONVERTER_6
 11
0.999999999997062
 21
0.0000024240684056
 31
0.0
 73
     1
 44
1.0
1001
ACAD
1000
MTEXTBEGIN
1070
    73
1070
     1
1070
    44
1040
1.0
1070
    74
1070
     0
1000
MTEXTEND
  0
POINT
  5
55F
330
4A2
100
AcDbEntity
  8
Defpoints
 62
     0
100
AcDbPoint
 10
-1548.91220108042
 20
-144.7713763189369
 30
0.0
  0
POINT
  5
560
330
4A2
100
AcDbEntity
  8
Defpoints
 62
     0
100
AcDbPoint
 10
-1568.91220108042
 20
-148.0551263189369
 30
0.0
  0
POINT
  5
561
330
4A2
100
AcDbEntity
  8
Defpoints
 62
     0
100
AcDbPoint
 10
-1568.91220108042
 20
-176.0551263189369
 30
0.0
  0
ENDBLK
  5
4A4
330
4A2
100
AcDbEntity
  8
0
100
AcDbBlockEnd
  0
BLOCK
  5
4B0
330
4AF
100
AcDbEntity
  8
0
100
AcDbBlockBegin
  2
*D30
 70
     1
 10
0.0
 20
0.0
 30
0.0
  3
*D30
  1

  0
LINE
  5
562
330
4AF
100
AcDbEntity
  8
1
 62
     2
370
    -2
100
AcDbLine
 10
-1440.890635757175
 20
-143.0551263189369
 30
0.0
 11
-1440.890635757175
 21
-170.0551263189369
 31
0.0
  0
LINE
  5
563
330
4AF
100
AcDbEntity
  8
1
 62
     2
370
    -2
100
AcDbLine
 10
-1480.890635757175
 20
-143.0551263189369
 30
0.0
 11
-1480.890635757175
 21
-170.0551263189369
 31
0.0
  0
LINE
  5
564
330
4AF
100
AcDbEntity
  8
1
 62
     2
370
    -2
100
AcDbLine
 10
-1443.340635757175
 20
-169.0551263189369
 30
0.0
 11
-1458.381469090501
 21
-169.0551263189369
 31
0.0
  0
LINE
  5
565
330
4AF
100
AcDbEntity
  8
1
 62
     2
370
    -2
100
AcDbLine
 10
-1478.440635757175
 20
-169.0551263189369
 30
0.0
 11
-1463.399802423849
 21
-169.0551263189369
 31
0.0
  0
INSERT
  5
566
330
4AF
100
AcDbEntity
  8
1
 62
     2
370
    -2
100
AcDbBlockReference
  2
_OPEN30
 10
-1440.890635757175
 20
-169.0551263189369
 30
0.0
 41
2.45
 42
2.45
 43
2.45
  0
INSERT
  5
567
330
4AF
100
AcDbEntity
  8
1
 62
     2
370
    -2
100
AcDbBlockReference
  2
_OPEN30
 10
-1480.890635757175
 20
-169.0551263189369
 30
0.0
 41
2.45
 42
2.45
 43
2.45
 50
180.0
  0
MTEXT
  5
568
330
4AF
100
AcDbEntity
  8
1
 62
     3
100
AcDbMText
 10
-1460.890635757175
 20
-169.0551263189369
 30
0.0
 40
3.5
 41
0.0
 71
     5
 72
     1
  1
\A1;40
  7
CONVERTER_6
 11
0.999999999997062
 21
0.0000024240684056
 31
0.0
 73
     1
 44
1.0
1001
ACAD
1000
MTEXTBEGIN
1070
    73
1070
     1
1070
    44
1040
1.0
1070
    74
1070
     0
1000
MTEXTEND
  0
POINT
  5
569
330
4AF
100
AcDbEntity
  8
Defpoints
 62
     0
100
AcDbPoint
 10
-1440.890635757175
 20
-142.0551263189369
 30
0.0
  0
POINT
  5
56A
330
4AF
100
AcDbEntity
  8
Defpoints
 62
     0
100
AcDbPoint
 10
-1480.890635757175
 20
-142.0551263189369
 30
0.0
  0
POINT
  5
56B
330
4AF
100
AcDbEntity
  8
Defpoints
 62
     0
100
AcDbPoint
 10
-1480.890635757175
 20
-169.0551263189369
 30
0.0
  0
ENDBLK
  5
4B1
330
4AF
100
AcDbEntity
  8
0
100
AcDbBlockEnd
  0
BLOCK
  5
4BD
330
4BC
100
AcDbEntity
  8
0
100
AcDbBlockBegin
  2
*D31
 70
     1
 10
0.0
 20
0.0
 30
0.0
  3
*D31
  1

  0
LINE
  5
56C
330
4BC
100
AcDbEntity
  8
1
 62
     2
370
    -2
100
AcDbLine
 10
-1440.890635757175
 20
-107.0551263189369
 30
0.0
 11
-1418.890635757175
 21
-107.0551263189369
 31
0.0
  0
LINE
  5
56D
330
4BC
100
AcDbEntity
  8
1
 62
     2
370
    -2
100
AcDbLine
 10
-1445.890635757175
 20
-148.0551263189369
 30
0.0
 11
-1418.890635757175
 21
-148.0551263189369
 31
0.0
  0
LINE
  5
56E
330
4BC
100
AcDbEntity
  8
1
 62
     2
370
    -2
100
AcDbLine
 10
-1419.890635757175
 20
-109.5051263189369
 30
0.0
 11
-1419.890635757175
 21
-125.5447096522702
 31
0.0
  0
LINE
  5
56F
330
4BC
100
AcDbEntity
  8
1
 62
     2
370
    -2
100
AcDbLine
 10
-1419.890635757175
 20
-145.6051263189369
 30
0.0
 11
-1419.890635757175
 21
-129.5655429856035
 31
0.0
  0
INSERT
  5
570
330
4BC
100
AcDbEntity
  8
1
 62
     2
370
    -2
100
AcDbBlockReference
  2
_OPEN30
 10
-1419.890635757175
 20
-107.0551263189369
 30
0.0
 41
2.45
 42
2.45
 43
2.45
 50
90.0
  0
INSERT
  5
571
330
4BC
100
AcDbEntity
  8
1
 62
     2
370
    -2
100
AcDbBlockReference
  2
_OPEN30
 10
-1419.890635757175
 20
-148.0551263189369
 30
0.0
 41
2.45
 42
2.45
 43
2.45
 50
270.0
  0
MTEXT
  5
572
330
4BC
100
AcDbEntity
  8
1
 62
     3
100
AcDbMText
 10
-1419.890635757175
 20
-127.5551263189371
 30
0.0
 40
3.5
 41
0.0
 71
     5
 72
     1
  1
\A1;41
  7
CONVERTER_6
 11
0.0000000000000001
 21
1.0
 31
0.0
 73
     1
 44
1.0
1001
ACAD
1000
MTEXTBEGIN
1070
    73
1070
     1
1070
    44
1040
1.0
1070
    74
1070
     0
1000
MTEXTEND
  0
POINT
  5
573
330
4BC
100
AcDbEntity
  8
Defpoints
 62
     0
100
AcDbPoint
 10
-1441.890635757175
 20
-107.0551263189369
 30
0.0
  0
POINT
  5
574
330
4BC
100
AcDbEntity
  8
Defpoints
 62
     0
100
AcDbPoint
 10
-1446.890635757175
 20
-148.0551263189369
 30
0.0
  0
POINT
  5
575
330
4BC
100
AcDbEntity
  8
Defpoints
 62
     0
100
AcDbPoint
 10
-1419.890635757175
 20
-148.0551263189369
 30
0.0
  0
ENDBLK
  5
4BE
330
4BC
100
AcDbEntity
  8
0
100
AcDbBlockEnd
  0
BLOCK
  5
4CA
330
4C9
100
AcDbEntity
  8
0
100
AcDbBlockBegin
  2
*D32
 70
     1
 10
0.0
 20
0.0
 30
0.0
  3
*D32
  1

  0
LINE
  5
576
330
4C9
100
AcDbEntity
  8
1
 62
     2
370
    -2
100
AcDbLine
 10
-1468.290635757175
 20
-106.0551263189369
 30
0.0
 11
-1468.290635757175
 21
-64.55512631893714
 31
0.0
  0
LINE
  5
577
330
4C9
100
AcDbEntity
  8
1
 62
     2
370
    -2
100
AcDbLine
 10
-1453.490635757175
 20
-106.0551263189369
 30
0.0
 11
-1453.490635757175
 21
-64.55512631893714
 31
0.0
  0
LINE
  5
578
330
4C9
100
AcDbEntity
  8
1
 62
     2
370
    -2
100
AcDbLine
 10
-1465.840635757175
 20
-65.55512631893714
 30
0.0
 11
-1464.840635757187
 21
-65.55512631893714
 31
0.0
  0
LINE
  5
579
330
4C9
100
AcDbEntity
  8
1
 62
     2
370
    -2
100
AcDbLine
 10
-1455.940635757175
 20
-65.55512631893714
 30
0.0
 11
-1456.940635757163
 21
-65.55512631893714
 31
0.0
  0
INSERT
  5
57A
330
4C9
100
AcDbEntity
  8
1
 62
     2
370
    -2
100
AcDbBlockReference
  2
_OPEN30
 10
-1468.290635757175
 20
-65.55512631893714
 30
0.0
 41
2.45
 42
2.45
 43
2.45
 50
180.0
  0
INSERT
  5
57B
330
4C9
100
AcDbEntity
  8
1
 62
     2
370
    -2
100
AcDbBlockReference
  2
_OPEN30
 10
-1453.490635757175
 20
-65.55512631893714
 30
0.0
 41
2.45
 42
2.45
 43
2.45
  0
MTEXT
  5
57C
330
4C9
100
AcDbEntity
  8
1
 62
     3
100
AcDbMText
 10
-1460.890635757175
 20
-65.55512631893714
 30
0.0
 40
3.5
 41
0.0
 71
     5
 72
     1
  1
\A1;14.8
  7
CONVERTER_6
 11
0.999999999997062
 21
0.0000024240684056
 31
0.0
 73
     1
 44
1.0
1001
ACAD
1000
MTEXTBEGIN
1070
    73
1070
     1
1070
    44
1040
1.0
1070
    74
1070
     0
1000
MTEXTEND
  0
POINT
  5
57D
330
4C9
100
AcDbEntity
  8
Defpoints
 62
     0
100
AcDbPoint
 10
-1468.290635757175
 20
-107.0551263189369
 30
0.0
  0
POINT
  5
57E
330
4C9
100
AcDbEntity
  8
Defpoints
 62
     0
100
AcDbPoint
 10
-1453.490635757175
 20
-107.0551263189369
 30
0.0
  0
POINT
  5
57F
330
4C9
100
AcDbEntity
  8
Defpoints
 62
     0
100
AcDbPoint
 10
-1453.490635757175
 20
-65.55512631893714
 30
0.0
  0
ENDBLK
  5
4CB
330
4C9
100
AcDbEntity
  8
0
100
AcDbBlockEnd
  0
BLOCK
  5
4D7
330
4D6
100
AcDbEntity
  8
0
100
AcDbBlockBegin
  2
*D33
 70
     1
 10
0.0
 20
0.0
 30
0.0
  3
*D33
  1

  0
LINE
  5
580
330
4D6
100
AcDbEntity
  8
1
 62
     2
370
    -2
100
AcDbLine
 10
-1653.890635757175
 20
-143.0551263189369
 30
0.0
 11
-1653.890635757175
 21
-170.0551263189369
 31
0.0
  0
LINE
  5
581
330
4D6
100
AcDbEntity
  8
1
 62
     2
370
    -2
100
AcDbLine
 10
-1658.390635757175
 20
-125.5551263189369
 30
0.0
 11
-1658.390635757175
 21
-170.0551263189369
 31
0.0
  0
LINE
  5
582
330
4D6
100
AcDbEntity
  8
1
 62
     2
370
    -2
100
AcDbLine
 10
-1651.440635757175
 20
-169.0551263189369
 30
0.0
 11
-1648.990635757175
 21
-169.0551263189369
 31
0.0
  0
LINE
  5
583
330
4D6
100
AcDbEntity
  8
1
 62
     2
370
    -2
100
AcDbLine
 10
-1660.840635757175
 20
-169.0551263189369
 30
0.0
 11
-1663.290635757175
 21
-169.0551263189369
 31
0.0
  0
LINE
  5
584
330
4D6
100
AcDbEntity
  8
1
 62
     2
370
    -2
100
AcDbLine
 10
-1653.890635757175
 20
-169.0551263189369
 30
0.0
 11
-1658.390635757175
 21
-169.0551263189369
 31
0.0
  0
INSERT
  5
585
330
4D6
100
AcDbEntity
  8
1
 62
     2
370
    -2
100
AcDbBlockReference
  2
_OPEN30
 10
-1653.890635757175
 20
-169.0551263189369
 30
0.0
 41
2.45
 42
2.45
 43
2.45
 50
180.0
  0
INSERT
  5
586
330
4D6
100
AcDbEntity
  8
1
 62
     2
370
    -2
100
AcDbBlockReference
  2
_OPEN30
 10
-1658.390635757175
 20
-169.0551263189369
 30
0.0
 41
2.45
 42
2.45
 43
2.45
  0
MTEXT
  5
587
330
4D6
100
AcDbEntity
  8
1
 62
     3
100
AcDbMText
 10
-1666.353969090517
 20
-169.0551263189369
 30
0.0
 40
3.5
 41
0.0
 71
     5
 72
     1
  1
\A1;4.5
  7
CONVERTER_6
 11
0.999999999997062
 21
0.0000024240684056
 31
0.0
 73
     1
 44
1.0
1001
ACAD
1000
MTEXTBEGIN
1070
    73
1070
     1
1070
    44
1040
1.0
1070
    74
1070
     0
1000
MTEXTEND
  0
POINT
  5
588
330
4D6
100
AcDbEntity
  8
Defpoints
 62
     0
100
AcDbPoint
 10
-1653.890635757175
 20
-142.0551263189369
 30
0.0
  0
POINT
  5
589
330
4D6
100
AcDbEntity
  8
Defpoints
 62
     0
100
AcDbPoint
 10
-1658.390635757175
 20
-124.5551263189369
 30
0.0
  0
POINT
  5
58A
330
4D6
100
AcDbEntity
  8
Defpoints
 62
     0
100
AcDbPoint
 10
-1658.390635757175
 20
-169.0551263189369
 30
0.0
  0
ENDBLK
  5
4D8
330
4D6
100
AcDbEntity
  8
0
100
AcDbBlockEnd
  0
BLOCK
  5
4E5
330
4E4
100
AcDbEntity
  8
0
100
AcDbBlockBegin
  2
*D34
 70
     1
 10
0.0
 20
0.0
 30
0.0
  3
*D34
  1

  0
LINE
  5
58B
330
4E4
100
AcDbEntity
  8
1
 62
     2
370
    -2
100
AcDbLine
 10
-1693.890635757175
 20
-143.0551263189369
 30
0.0
 11
-1693.890635757175
 21
-170.0551263189369
 31
0.0
  0
LINE
  5
58C
330
4E4
100
AcDbEntity
  8
1
 62
     2
370
    -2
100
AcDbLine
 10
-1689.390635757175
 20
-125.5551263189369
 30
0.0
 11
-1689.390635757175
 21
-170.0551263189369
 31
0.0
  0
LINE
  5
58D
330
4E4
100
AcDbEntity
  8
1
 62
     2
370
    -2
100
AcDbLine
 10
-1696.340635757175
 20
-169.0551263189369
 30
0.0
 11
-1698.790635757175
 21
-169.0551263189369
 31
0.0
  0
LINE
  5
58E
330
4E4
100
AcDbEntity
  8
1
 62
     2
370
    -2
100
AcDbLine
 10
-1686.940635757175
 20
-169.0551263189369
 30
0.0
 11
-1684.490635757175
 21
-169.0551263189369
 31
0.0
  0
LINE
  5
58F
330
4E4
100
AcDbEntity
  8
1
 62
     2
370
    -2
100
AcDbLine
 10
-1693.890635757175
 20
-169.0551263189369
 30
0.0
 11
-1689.390635757175
 21
-169.0551263189369
 31
0.0
  0
INSERT
  5
590
330
4E4
100
AcDbEntity
  8
1
 62
     2
370
    -2
100
AcDbBlockReference
  2
_OPEN30
 10
-1693.890635757175
 20
-169.0551263189369
 30
0.0
 41
2.45
 42
2.45
 43
2.45
  0
INSERT
  5
591
330
4E4
100
AcDbEntity
  8
1
 62
     2
370
    -2
100
AcDbBlockReference
  2
_OPEN30
 10
-1689.390635757175
 20
-169.0551263189369
 30
0.0
 41
2.45
 42
2.45
 43
2.45
 50
180.0
  0
MTEXT
  5
592
330
4E4
100
AcDbEntity
  8
1
 62
     3
100
AcDbMText
 10
-1681.427302423833
 20
-169.0551263189369
 30
0.0
 40
3.5
 41
0.0
 71
     5
 72
     1
  1
\A1;4.5
  7
CONVERTER_6
 11
0.999999999997062
 21
0.0000024240684056
 31
0.0
 73
     1
 44
1.0
1001
ACAD
1000
MTEXTBEGIN
1070
    73
1070
     1
1070
    44
1040
1.0
1070
    74
1070
     0
1000
MTEXTEND
  0
POINT
  5
593
330
4E4
100
AcDbEntity
  8
Defpoints
 62
     0
100
AcDbPoint
 10
-1693.890635757175
 20
-142.0551263189369
 30
0.0
  0
POINT
  5
594
330
4E4
100
AcDbEntity
  8
Defpoints
 62
     0
100
AcDbPoint
 10
-1689.390635757175
 20
-124.5551263189369
 30
0.0
  0
POINT
  5
595
330
4E4
100
AcDbEntity
  8
Defpoints
 62
     0
100
AcDbPoint
 10
-1689.390635757175
 20
-169.0551263189369
 30
0.0
  0
ENDBLK
  5
4E6
330
4E4
100
AcDbEntity
  8
0
100
AcDbBlockEnd
  0
BLOCK
  5
4F3
330
4F2
100
AcDbEntity
  8
0
100
AcDbBlockBegin
  2
*D35
 70
     1
 10
0.0
 20
0.0
 30
0.0
  3
*D35
  1

  0
LINE
  5
596
330
4F2
100
AcDbEntity
  8
1
 62
     2
370
    -2
100
AcDbLine
 10
-1653.890635757175
 20
-107.0551263189369
 30
0.0
 11
-1631.890635757175
 21
-107.0551263189369
 31
0.0
  0
LINE
  5
597
330
4F2
100
AcDbEntity
  8
1
 62
     2
370
    -2
100
AcDbLine
 10
-1651.890635757175
 20
-119.0551263189369
 30
0.0
 11
-1631.890635757175
 21
-119.0551263189369
 31
0.0
  0
LINE
  5
598
330
4F2
100
AcDbEntity
  8
1
 62
     2
370
    -2
100
AcDbLine
 10
-1632.890635757175
 20
-109.5051263189369
 30
0.0
 11
-1632.890635757175
 21
-110.7676263189369
 31
0.0
  0
LINE
  5
599
330
4F2
100
AcDbEntity
  8
1
 62
     2
370
    -2
100
AcDbLine
 10
-1632.890635757175
 20
-116.6051263189369
 30
0.0
 11
-1632.890635757175
 21
-115.3426263189369
 31
0.0
  0
INSERT
  5
59A
330
4F2
100
AcDbEntity
  8
1
 62
     2
370
    -2
100
AcDbBlockReference
  2
_OPEN30
 10
-1632.890635757175
 20
-107.0551263189369
 30
0.0
 41
2.45
 42
2.45
 43
2.45
 50
90.0
  0
INSERT
  5
59B
330
4F2
100
AcDbEntity
  8
1
 62
     2
370
    -2
100
AcDbBlockReference
  2
_OPEN30
 10
-1632.890635757175
 20
-119.0551263189369
 30
0.0
 41
2.45
 42
2.45
 43
2.45
 50
270.0
  0
MTEXT
  5
59C
330
4F2
100
AcDbEntity
  8
1
 62
     3
100
AcDbMText
 10
-1632.890635757175
 20
-113.0551263189371
 30
0.0
 40
3.5
 41
0.0
 71
     5
 72
     1
  1
\A1;12
  7
CONVERTER_6
 11
0.0000000000000001
 21
1.0
 31
0.0
 73
     1
 44
1.0
1001
ACAD
1000
MTEXTBEGIN
1070
    73
1070
     1
1070
    44
1040
1.0
1070
    74
1070
     0
1000
MTEXTEND
  0
POINT
  5
59D
330
4F2
100
AcDbEntity
  8
Defpoints
 62
     0
100
AcDbPoint
 10
-1654.890635757175
 20
-107.0551263189369
 30
0.0
  0
POINT
  5
59E
330
4F2
100
AcDbEntity
  8
Defpoints
 62
     0
100
AcDbPoint
 10
-1652.890635757175
 20
-119.0551263189369
 30
0.0
  0
POINT
  5
59F
330
4F2
100
AcDbEntity
  8
Defpoints
 62
     0
100
AcDbPoint
 10
-1632.890635757175
 20
-119.0551263189369
 30
0.0
  0
ENDBLK
  5
4F4
330
4F2
100
AcDbEntity
  8
0
100
AcDbBlockEnd
  0
BLOCK
  5
500
330
4FF
100
AcDbEntity
  8
0
100
AcDbBlockBegin
  2
*D36
 70
     1
 10
0.0
 20
0.0
 30
0.0
  3
*D36
  1

  0
LINE
  5
5A0
330
4FF
100
AcDbEntity
  8
1
 62
     2
370
    -2
100
AcDbLine
 10
-1658.890635757175
 20
-148.0551263189369
 30
0.0
 11
-1631.890635757175
 21
-148.0551263189369
 31
0.0
  0
LINE
  5
5A1
330
4FF
100
AcDbEntity
  8
1
 62
     2
370
    -2
100
AcDbLine
 10
-1658.990635757174
 20
-133.0551263189369
 30
0.0
 11
-1631.890635757175
 21
-133.0551263189369
 31
0.0
  0
LINE
  5
5A2
330
4FF
100
AcDbEntity
  8
1
 62
     2
370
    -2
100
AcDbLine
 10
-1632.890635757175
 20
-145.6051263189369
 30
0.0
 11
-1632.890635757175
 21
-142.8426263189369
 31
0.0
  0
LINE
  5
5A3
330
4FF
100
AcDbEntity
  8
1
 62
     2
370
    -2
100
AcDbLine
 10
-1632.890635757175
 20
-135.5051263189369
 30
0.0
 11
-1632.890635757175
 21
-138.2676263189369
 31
0.0
  0
INSERT
  5
5A4
330
4FF
100
AcDbEntity
  8
1
 62
     2
370
    -2
100
AcDbBlockReference
  2
_OPEN30
 10
-1632.890635757175
 20
-148.0551263189369
 30
0.0
 41
2.45
 42
2.45
 43
2.45
 50
270.0
  0
INSERT
  5
5A5
330
4FF
100
AcDbEntity
  8
1
 62
     2
370
    -2
100
AcDbBlockReference
  2
_OPEN30
 10
-1632.890635757175
 20
-133.0551263189369
 30
0.0
 41
2.45
 42
2.45
 43
2.45
 50
90.0
  0
MTEXT
  5
5A6
330
4FF
100
AcDbEntity
  8
1
 62
     3
100
AcDbMText
 10
-1632.890635757175
 20
-140.5551263189371
 30
0.0
 40
3.5
 41
0.0
 71
     5
 72
     1
  1
\A1;15
  7
CONVERTER_6
 11
0.0000000000000001
 21
1.0
 31
0.0
 73
     1
 44
1.0
1001
ACAD
1000
MTEXTBEGIN
1070
    73
1070
     1
1070
    44
1040
1.0
1070
    74
1070
     0
1000
MTEXTEND
  0
POINT
  5
5A7
330
4FF
100
AcDbEntity
  8
Defpoints
 62
     0
100
AcDbPoint
 10
-1659.890635757175
 20
-148.0551263189369
 30
0.0
  0
POINT
  5
5A8
330
4FF
100
AcDbEntity
  8
Defpoints
 62
     0
100
AcDbPoint
 10
-1659.990635757174
 20
-133.0551263189369
 30
0.0
  0
POINT
  5
5A9
330
4FF
100
AcDbEntity
  8
Defpoints
 62
     0
100
AcDbPoint
 10
-1632.890635757175
 20
-133.0551263189369
 30
0.0
  0
ENDBLK
  5
501
330
4FF
100
AcDbEntity
  8
0
100
AcDbBlockEnd
  0
BLOCK
  5
50D
330
50C
100
AcDbEntity
  8
0
100
AcDbBlockBegin
  2
*D37
 70
     1
 10
0.0
 20
0.0
 30
0.0
  3
*D37
  1

  0
LINE
  5
5AA
330
50C
100
AcDbEntity
  8
1
 62
     2
370
    -2
100
AcDbLine
 10
-1689.390635757175
 20
-125.5551263189369
 30
0.0
 11
-1689.390635757175
 21
-170.0551263189369
 31
0.0
  0
LINE
  5
5AB
330
50C
100
AcDbEntity
  8
1
 62
     2
370
    -2
100
AcDbLine
 10
-1658.390635757175
 20
-125.5551263189369
 30
0.0
 11
-1658.390635757175
 21
-170.0551263189369
 31
0.0
  0
LINE
  5
5AC
330
50C
100
AcDbEntity
  8
1
 62
     2
370
    -2
100
AcDbLine
 10
-1686.940635757175
 20
-169.0551263189369
 30
0.0
 11
-1675.901052423848
 21
-169.0551263189369
 31
0.0
  0
LINE
  5
5AD
330
50C
100
AcDbEntity
  8
1
 62
     2
370
    -2
100
AcDbLine
 10
-1660.840635757175
 20
-169.0551263189369
 30
0.0
 11
-1671.880219090502
 21
-169.0551263189369
 31
0.0
  0
INSERT
  5
5AE
330
50C
100
AcDbEntity
  8
1
 62
     2
370
    -2
100
AcDbBlockReference
  2
_OPEN30
 10
-1689.390635757175
 20
-169.0551263189369
 30
0.0
 41
2.45
 42
2.45
 43
2.45
 50
180.0
  0
INSERT
  5
5AF
330
50C
100
AcDbEntity
  8
1
 62
     2
370
    -2
100
AcDbBlockReference
  2
_OPEN30
 10
-1658.390635757175
 20
-169.0551263189369
 30
0.0
 41
2.45
 42
2.45
 43
2.45
  0
MTEXT
  5
5B0
330
50C
100
AcDbEntity
  8
1
 62
     3
100
AcDbMText
 10
-1673.890635757175
 20
-169.0551263189369
 30
0.0
 40
3.5
 41
0.0
 71
     5
 72
     1
  1
\A1;31
  7
CONVERTER_6
 11
0.999999999997062
 21
0.0000024240684056
 31
0.0
 73
     1
 44
1.0
1001
ACAD
1000
MTEXTBEGIN
1070
    73
1070
     1
1070
    44
1040
1.0
1070
    74
1070
     0
1000
MTEXTEND
  0
POINT
  5
5B1
330
50C
100
AcDbEntity
  8
Defpoints
 62
     0
100
AcDbPoint
 10
-1689.390635757175
 20
-124.5551263189369
 30
0.0
  0
POINT
  5
5B2
330
50C
100
AcDbEntity
  8
Defpoints
 62
     0
100
AcDbPoint
 10
-1658.390635757175
 20
-124.5551263189369
 30
0.0
  0
POINT
  5
5B3
330
50C
100
AcDbEntity
  8
Defpoints
 62
     0
100
AcDbPoint
 10
-1658.390635757175
 20
-169.0551263189369
 30
0.0
  0
ENDBLK
  5
50E
330
50C
100
AcDbEntity
  8
0
100
AcDbBlockEnd
  0
BLOCK
  5
51A
330
519
100
AcDbEntity
  8
0
100
AcDbBlockBegin
  2
*D38
 70
     1
 10
0.0
 20
0.0
 30
0.0
  3
*D38
  1

  0
LINE
  5
5B4
330
519
100
AcDbEntity
  8
1
 62
     2
370
    -2
100
AcDbLine
 10
-1658.990635757174
 20
-133.0551263189369
 30
0.0
 11
-1631.890635757175
 21
-133.0551263189369
 31
0.0
  0
LINE
  5
5B5
330
519
100
AcDbEntity
  8
1
 62
     2
370
    -2
100
AcDbLine
 10
-1651.890635757175
 20
-119.0551263189369
 30
0.0
 11
-1631.890635757175
 21
-119.0551263189369
 31
0.0
  0
LINE
  5
5B6
330
519
100
AcDbEntity
  8
1
 62
     2
370
    -2
100
AcDbLine
 10
-1632.890635757175
 20
-130.6051263189369
 30
0.0
 11
-1632.890635757175
 21
-128.3980429856035
 31
0.0
  0
LINE
  5
5B7
330
519
100
AcDbEntity
  8
1
 62
     2
370
    -2
100
AcDbLine
 10
-1632.890635757175
 20
-121.5051263189369
 30
0.0
 11
-1632.890635757175
 21
-123.7122096522702
 31
0.0
  0
INSERT
  5
5B8
330
519
100
AcDbEntity
  8
1
 62
     2
370
    -2
100
AcDbBlockReference
  2
_OPEN30
 10
-1632.890635757175
 20
-133.0551263189369
 30
0.0
 41
2.45
 42
2.45
 43
2.45
 50
270.0
  0
INSERT
  5
5B9
330
519
100
AcDbEntity
  8
1
 62
     2
370
    -2
100
AcDbBlockReference
  2
_OPEN30
 10
-1632.890635757175
 20
-119.0551263189369
 30
0.0
 41
2.45
 42
2.45
 43
2.45
 50
90.0
  0
MTEXT
  5
5BA
330
519
100
AcDbEntity
  8
1
 62
     3
100
AcDbMText
 10
-1632.890635757175
 20
-126.0551263189372
 30
0.0
 40
3.5
 41
0.0
 71
     5
 72
     1
  1
\A1;14
  7
CONVERTER_6
 11
0.0000000000000001
 21
1.0
 31
0.0
 73
     1
 44
1.0
1001
ACAD
1000
MTEXTBEGIN
1070
    73
1070
     1
1070
    44
1040
1.0
1070
    74
1070
     0
1000
MTEXTEND
  0
POINT
  5
5BB
330
519
100
AcDbEntity
  8
Defpoints
 62
     0
100
AcDbPoint
 10
-1659.990635757174
 20
-133.0551263189369
 30
0.0
  0
POINT
  5
5BC
330
519
100
AcDbEntity
  8
Defpoints
 62
     0
100
AcDbPoint
 10
-1652.890635757175
 20
-119.0551263189369
 30
0.0
  0
POINT
  5
5BD
330
519
100
AcDbEntity
  8
Defpoints
 62
     0
100
AcDbPoint
 10
-1632.890635757175
 20
-119.0551263189369
 30
0.0
  0
ENDBLK
  5
51B
330
519
100
AcDbEntity
  8
0
100
AcDbBlockEnd
  0
BLOCK
  5
527
330
526
100
AcDbEntity
  8
0
100
AcDbBlockBegin
  2
*D39
 70
     1
 10
0.0
 20
0.0
 30
0.0
  3
*D39
  1

  0
LINE
  5
5BE
330
526
100
AcDbEntity
  8
1
 62
     2
370
    -2
100
AcDbLine
 10
-1548.91220108042
 20
-145.7713763189369
 30
0.0
 11
-1548.91220108042
 21
-170.0551263189369
 31
0.0
  0
LINE
  5
5BF
330
526
100
AcDbEntity
  8
1
 62
     2
370
    -2
100
AcDbLine
 10
-1553.91220108042
 20
-151.8635276806147
 30
0.0
 11
-1553.91220108042
 21
-170.0551263189369
 31
0.0
  0
LINE
  5
5C0
330
526
100
AcDbEntity
  8
1
 62
     2
370
    -2
100
AcDbLine
 10
-1546.46220108042
 20
-169.0551263189369
 30
0.0
 11
-1544.01220108042
 21
-169.0551263189369
 31
0.0
  0
LINE
  5
5C1
330
526
100
AcDbEntity
  8
1
 62
     2
370
    -2
100
AcDbLine
 10
-1556.36220108042
 20
-169.0551263189369
 30
0.0
 11
-1558.81220108042
 21
-169.0551263189369
 31
0.0
  0
LINE
  5
5C2
330
526
100
AcDbEntity
  8
1
 62
     2
370
    -2
100
AcDbLine
 10
-1548.91220108042
 20
-169.0551263189369
 30
0.0
 11
-1550.011367747082
 21
-169.0551263189369
 31
0.0
  0
LINE
  5
5C3
330
526
100
AcDbEntity
  8
1
 62
     2
370
    -2
100
AcDbLine
 10
-1553.91220108042
 20
-169.0551263189369
 30
0.0
 11
-1552.813034413757
 21
-169.0551263189369
 31
0.0
  0
INSERT
  5
5C4
330
526
100
AcDbEntity
  8
1
 62
     2
370
    -2
100
AcDbBlockReference
  2
_OPEN30
 10
-1548.91220108042
 20
-169.0551263189369
 30
0.0
 41
2.45
 42
2.45
 43
2.45
 50
180.0
  0
INSERT
  5
5C5
330
526
100
AcDbEntity
  8
1
 62
     2
370
    -2
100
AcDbBlockReference
  2
_OPEN30
 10
-1553.91220108042
 20
-169.0551263189369
 30
0.0
 41
2.45
 42
2.45
 43
2.45
  0
MTEXT
  5
5C6
330
526
100
AcDbEntity
  8
1
 62
     3
100
AcDbMText
 10
-1551.41220108042
 20
-169.0551263189369
 30
0.0
 40
3.5
 41
0.0
 71
     5
 72
     1
  1
\A1;5
  7
CONVERTER_6
 11
0.999999999997062
 21
0.0000024240684056
 31
0.0
 73
     1
 44
1.0
1001
ACAD
1000
MTEXTBEGIN
1070
    73
1070
     1
1070
    44
1040
1.0
1070
    74
1070
     0
1000
MTEXTEND
  0
POINT
  5
5C7
330
526
100
AcDbEntity
  8
Defpoints
 62
     0
100
AcDbPoint
 10
-1548.91220108042
 20
-144.7713763189369
 30
0.0
  0
POINT
  5
5C8
330
526
100
AcDbEntity
  8
Defpoints
 62
     0
100
AcDbPoint
 10
-1553.91220108042
 20
-150.8635276806147
 30
0.0
  0
POINT
  5
5C9
330
526
100
AcDbEntity
  8
Defpoints
 62
     0
100
AcDbPoint
 10
-1553.91220108042
 20
-169.0551263189369
 30
0.0
  0
ENDBLK
  5
528
330
526
100
AcDbEntity
  8
0
100
AcDbBlockEnd
  0
ENDSEC
  0
SECTION
  2
ENTITIES
  0
ARC
  5
3B2
330
A
100
AcDbEntity
  8
1
  6
Continuous
 62
     7
100
AcDbCircle
 10
-1560.41220108042
 20
-98.65512631893693
 30
0.0
 40
1.0
100
AcDbArc
 50
-90.0
 51
0.0
  0
ARC
  5
3B1
330
A
100
AcDbEntity
  8
1
  6
Continuous
 62
     7
100
AcDbCircle
 10
-1560.41220108042
 20
-82.45512631893692
 30
0.0
 40
1.0
100
AcDbArc
 50
0.0
 51
90.0
  0
ARC
  5
3B0
330
A
100
AcDbEntity
  8
1
  6
Continuous
 62
     7
100
AcDbCircle
 10
-1564.41220108042
 20
-82.45512631893692
 30
0.0
 40
1.0
100
AcDbArc
 50
90.0
 51
180.0
  0
ARC
  5
3AF
330
A
100
AcDbEntity
  8
1
  6
Continuous
 62
     7
100
AcDbCircle
 10
-1564.41220108042
 20
-98.65512631893693
 30
0.0
 40
1.0
100
AcDbArc
 50
180.0
 51
-90.0
  0
ARC
  5
3AE
330
A
100
AcDbEntity
  8
1
  6
Continuous
 62
     7
100
AcDbCircle
 10
-1547.41220108042
 20
-98.65512631893693
 30
0.0
 40
1.0
100
AcDbArc
 50
180.0
 51
-90.0
  0
ARC
  5
3AD
330
A
100
AcDbEntity
  8
1
  6
Continuous
 62
     7
100
AcDbCircle
 10
-1547.41220108042
 20
-82.45512631893692
 30
0.0
 40
1.0
100
AcDbArc
 50
90.0
 51
180.0
  0
ARC
  5
3AC
330
A
100
AcDbEntity
  8
1
  6
Continuous
 62
     7
100
AcDbCircle
 10
-1543.41220108042
 20
-82.45512631893692
 30
0.0
 40
1.0
100
AcDbArc
 50
0.0
 51
90.0
  0
ARC
  5
3AB
330
A
100
AcDbEntity
  8
1
  6
Continuous
 62
     7
100
AcDbCircle
 10
-1543.41220108042
 20
-98.65512631893693
 30
0.0
 40
1.0
100
AcDbArc
 50
-90.0
 51
0.0
  0
CIRCLE
  5
3A7
330
A
100
AcDbEntity
  8
1
  6
Continuous
 62
     7
100
AcDbCircle
 10
-1673.890635757175
 20
-81.05512631893692
 30
0.0
 40
1.25
  0
CIRCLE
  5
3A6
330
A
100
AcDbEntity
  8
1
  6
Continuous
 62
     7
100
AcDbCircle
 10
-1689.890635757175
 20
-90.55512631893691
 30
0.0
 40
9.09999999999991
  0
CIRCLE
  5
3A5
330
A
100
AcDbEntity
  8
1
  6
Continuous
 62
     7
100
AcDbCircle
 10
-1689.890635757175
 20
-90.55512631893691
 30
0.0
 40
5.5
  0
CIRCLE
  5
3A4
330
A
100
AcDbEntity
  8
1
  6
Continuous
 62
     7
100
AcDbCircle
 10
-1689.890635757175
 20
-90.55512631893691
 30
0.0
 40
3.79999999999995
  0
CIRCLE
  5
3A3
330
A
100
AcDbEntity
  8
1
  6
Continuous
 62
     7
100
AcDbCircle
 10
-1689.890635757175
 20
-90.55512631893691
 30
0.0
 40
3.349999999999909
  0
CIRCLE
  5
3A2
330
A
100
AcDbEntity
  8
1
  6
Continuous
 62
     7
100
AcDbCircle
 10
-1657.890635757175
 20
-90.55512631893691
 30
0.0
 40
9.09999999999991
  0
CIRCLE
  5
3A1
330
A
100
AcDbEntity
  8
1
  6
Continuous
 62
     7
100
AcDbCircle
 10
-1657.890635757175
 20
-90.55512631893691
 30
0.0
 40
5.5
  0
CIRCLE
  5
3A0
330
A
100
AcDbEntity
  8
1
  6
Continuous
 62
     7
100
AcDbCircle
 10
-1657.890635757175
 20
-90.55512631893691
 30
0.0
 40
3.79999999999995
  0
CIRCLE
  5
39F
330
A
100
AcDbEntity
  8
1
  6
Continuous
 62
     7
100
AcDbCircle
 10
-1657.890635757175
 20
-90.55512631893691
 30
0.0
 40
3.349999999999909
  0
ARC
  5
395
330
A
100
AcDbEntity
  8
1
  6
Continuous
 62
     7
100
AcDbCircle
 10
-1689.890635757175
 20
-90.55512631893691
 30
0.0
 40
10.5
100
AcDbArc
 50
0.0
 51
57.76904736449832
  0
ARC
  5
394
330
A
100
AcDbEntity
  8
1
  6
Continuous
 62
     7
100
AcDbCircle
 10
-1657.890635757175
 20
-90.55512631893691
 30
0.0
 40
10.49999999999995
100
AcDbArc
 50
122.2309526355017
 51
180.0
  0
LINE
  5
38B
330
A
100
AcDbEntity
  8
1
  6
Continuous
 62
     7
100
AcDbLine
 10
-1557.41220108042
 20
-107.0551263189369
 30
0.0
 11
-1557.41220108042
 21
-103.0551263189369
 31
0.0
  0
LINE
  5
38A
330
A
100
AcDbEntity
  8
1
  6
Continuous
 62
     7
100
AcDbLine
 10
-1550.41220108042
 20
-103.0551263189369
 30
0.0
 11
-1557.41220108042
 21
-107.0551263189369
 31
0.0
  0
LINE
  5
389
330
A
100
AcDbEntity
  8
1
  6
Continuous
 62
     7
100
AcDbLine
 10
-1550.41220108042
 20
-103.0551263189369
 30
0.0
 11
-1548.91220108042
 21
-103.0551263189369
 31
0.0
  0
LINE
  5
388
330
A
100
AcDbEntity
  8
1
  6
Continuous
 62
     7
100
AcDbLine
 10
-1550.41220108042
 20
-107.0551263189369
 30
0.0
 11
-1550.41220108042
 21
-103.0551263189369
 31
0.0
  0
LINE
  5
387
330
A
100
AcDbEntity
  8
1
  6
Continuous
 62
     7
100
AcDbLine
 10
-1557.41220108042
 20
-103.0551263189369
 30
0.0
 11
-1550.41220108042
 21
-103.0551263189369
 31
0.0
  0
LINE
  5
386
330
A
100
AcDbEntity
  8
1
  6
Continuous
 62
     7
100
AcDbLine
 10
-1557.41220108042
 20
-103.0551263189369
 30
0.0
 11
-1550.41220108042
 21
-107.0551263189369
 31
0.0
  0
LINE
  5
385
330
A
100
AcDbEntity
  8
1
  6
Continuous
 62
     7
100
AcDbLine
 10
-1670.390635757175
 20
-107.0551263189369
 30
0.0
 11
-1677.390635757175
 21
-103.0551263189369
 31
0.0
  0
LINE
  5
384
330
A
100
AcDbEntity
  8
1
  6
Continuous
 62
     7
100
AcDbLine
 10
-1677.390635757175
 20
-107.0551263189369
 30
0.0
 11
-1670.390635757175
 21
-103.0551263189369
 31
0.0
  0
LINE
  5
383
330
A
100
AcDbEntity
  8
1
  6
Continuous
 62
     7
100
AcDbLine
 10
-1670.390635757175
 20
-103.0551263189369
 30
0.0
 11
-1647.890635757175
 21
-103.0551263189369
 31
0.0
  0
LINE
  5
382
330
A
100
AcDbEntity
  8
1
  6
Continuous
 62
     7
100
AcDbLine
 10
-1670.390635757175
 20
-103.0551263189369
 30
0.0
 11
-1670.390635757175
 21
-107.0551263189369
 31
0.0
  0
LINE
  5
381
330
A
100
AcDbEntity
  8
1
  6
Continuous
 62
     7
100
AcDbLine
 10
-1677.390635757175
 20
-103.0551263189369
 30
0.0
 11
-1670.390635757175
 21
-103.0551263189369
 31
0.0
  0
LINE
  5
380
330
A
100
AcDbEntity
  8
1
  6
Continuous
 62
     7
100
AcDbLine
 10
-1677.390635757175
 20
-103.0551263189369
 30
0.0
 11
-1677.390635757175
 21
-107.0551263189369
 31
0.0
  0
LINE
  5
37F
330
A
100
AcDbEntity
  8
1
  6
DOT_CENTER
 62
     2
100
AcDbLine
 10
-1689.890635757175
 20
-80.54512631893691
 30
0.0
 11
-1689.890635757175
 21
-100.5651263189369
 31
0.0
  0
LINE
  5
37E
330
A
100
AcDbEntity
  8
1
  6
DOT_CENTER
 62
     2
100
AcDbLine
 10
-1679.880635757175
 20
-90.55512631893691
 30
0.0
 11
-1699.900635757175
 21
-90.55512631893691
 31
0.0
  0
LINE
  5
37D
330
A
100
AcDbEntity
  8
1
  6
DOT_CENTER
 62
     2
100
AcDbLine
 10
-1657.890635757175
 20
-80.54512631893691
 30
0.0
 11
-1657.890635757175
 21
-100.5651263189369
 31
0.0
  0
LINE
  5
37C
330
A
100
AcDbEntity
  8
1
  6
DOT_CENTER
 62
     2
100
AcDbLine
 10
-1647.880635757175
 20
-90.55512631893691
 30
0.0
 11
-1667.900635757175
 21
-90.55512631893691
 31
0.0
  0
LINE
  5
37B
330
A
100
AcDbEntity
  8
1
  6
Continuous
 62
     7
100
AcDbLine
 10
-1699.890635757175
 20
-103.0551263189369
 30
0.0
 11
-1677.390635757175
 21
-103.0551263189369
 31
0.0
  0
LINE
  5
37A
330
A
100
AcDbEntity
  8
1
  6
Continuous
 62
     7
100
AcDbLine
 10
-1647.890635757175
 20
-103.0551263189369
 30
0.0
 11
-1647.890635757175
 21
-78.55512631893692
 31
0.0
  0
LINE
  5
379
330
A
100
AcDbEntity
  8
1
  6
Continuous
 62
     7
100
AcDbLine
 10
-1647.890635757175
 20
-78.55512631893692
 30
0.0
 11
-1684.290635757175
 21
-78.55512631893692
 31
0.0
  0
LINE
  5
378
330
A
100
AcDbEntity
  8
1
  6
Continuous
 62
     7
100
AcDbLine
 10
-1699.890635757175
 20
-78.55512631893692
 30
0.0
 11
-1699.890635757175
 21
-103.0551263189369
 31
0.0
  0
LINE
  5
377
330
A
100
AcDbEntity
  8
1
  6
Continuous
 62
     7
100
AcDbLine
 10
-1679.390635757175
 20
-90.55512631893691
 30
0.0
 11
-1679.390635757175
 21
-96.05512631893692
 31
0.0
  0
LINE
  5
376
330
A
100
AcDbEntity
  8
1
  6
Continuous
 62
     7
100
AcDbLine
 10
-1679.390635757175
 20
-96.05512631893692
 30
0.0
 11
-1673.890635757175
 21
-96.05512631893692
 31
0.0
  0
LINE
  5
375
330
A
100
AcDbEntity
  8
1
  6
Continuous
 62
     7
100
AcDbLine
 10
-1684.290635757175
 20
-78.55512631893692
 30
0.0
 11
-1684.290635757175
 21
-81.67312204062225
 31
0.0
  0
LINE
  5
374
330
A
100
AcDbEntity
  8
1
  6
Continuous
 62
     7
100
AcDbLine
 10
-1684.290635757175
 20
-78.55512631893692
 30
0.0
 11
-1699.890635757175
 21
-78.55512631893692
 31
0.0
  0
LINE
  5
373
330
A
100
AcDbEntity
  8
1
  6
Continuous
 62
     7
100
AcDbLine
 10
-1663.490635757175
 20
-81.67312204062225
 30
0.0
 11
-1663.490635757175
 21
-78.55512631893692
 31
0.0
  0
LINE
  5
372
330
A
100
AcDbEntity
  8
1
  6
Continuous
 62
     7
100
AcDbLine
 10
-1673.890635757175
 20
-96.05512631893692
 30
0.0
 11
-1668.390635757175
 21
-96.05512631893692
 31
0.0
  0
LINE
  5
371
330
A
100
AcDbEntity
  8
1
  6
Continuous
 62
     7
100
AcDbLine
 10
-1668.390635757175
 20
-96.05512631893692
 30
0.0
 11
-1668.390635757175
 21
-90.55512631893691
 31
0.0
  0
LINE
  5
370
330
A
100
AcDbEntity
  8
1
  6
DOT_CENTER
 62
     2
100
AcDbLine
 10
-1676.140635757175
 20
-81.05512631893692
 30
0.0
 11
-1671.640635757175
 21
-81.05512631893692
 31
0.0
  0
LINE
  5
36F
330
A
100
AcDbEntity
  8
1
  6
DOT_CENTER
 62
     2
100
AcDbLine
 10
-1673.890635757175
 20
-77.55512631893691
 30
0.0
 11
-1673.890635757175
 21
-104.0551263189369
 31
0.0
  0
LINE
  5
36E
330
A
100
AcDbEntity
  8
1
  6
Continuous
 62
     7
100
AcDbLine
 10
-1545.91220108042
 20
-81.45512631893693
 30
0.0
 11
-1547.41220108042
 21
-81.45512631893693
 31
0.0
  0
LINE
  5
36D
330
A
100
AcDbEntity
  8
1
  6
Continuous
 62
     7
100
AcDbLine
 10
-1545.91220108042
 20
-78.55512631893692
 30
0.0
 11
-1545.91220108042
 21
-81.45512631893693
 31
0.0
  0
LINE
  5
36C
330
A
100
AcDbEntity
  8
1
  6
Continuous
 62
     7
100
AcDbLine
 10
-1548.91220108042
 20
-78.55512631893692
 30
0.0
 11
-1545.91220108042
 21
-78.55512631893692
 31
0.0
  0
LINE
  5
36B
330
A
100
AcDbEntity
  8
1
  6
Continuous
 62
     7
100
AcDbLine
 10
-1561.91220108042
 20
-81.45512631893693
 30
0.0
 11
-1564.41220108042
 21
-81.45512631893693
 31
0.0
  0
LINE
  5
36A
330
A
100
AcDbEntity
  8
1
  6
Continuous
 62
     7
100
AcDbLine
 10
-1561.91220108042
 20
-78.55512631893692
 30
0.0
 11
-1561.91220108042
 21
-81.45512631893693
 31
0.0
  0
LINE
  5
369
330
A
100
AcDbEntity
  8
1
  6
Continuous
 62
     7
100
AcDbLine
 10
-1558.91220108042
 20
-78.55512631893692
 30
0.0
 11
-1561.91220108042
 21
-78.55512631893692
 31
0.0
  0
LINE
  5
357
330
A
100
AcDbEntity
  8
1
  6
DOT_CENTER
 62
     2
100
AcDbLine
 10
-1553.91220108042
 20
-77.55512631893691
 30
0.0
 11
-1553.91220108042
 21
-104.0551263189369
 31
0.0
  0
LINE
  5
356
330
A
100
AcDbEntity
  8
1
  6
Continuous
 62
     7
100
AcDbLine
 10
-1564.41220108042
 20
-99.65512631893693
 30
0.0
 11
-1560.41220108042
 21
-99.65512631893693
 31
0.0
  0
LINE
  5
355
330
A
100
AcDbEntity
  8
1
  6
Continuous
 62
     7
100
AcDbLine
 10
-1559.41220108042
 20
-98.65512631893693
 30
0.0
 11
-1559.41220108042
 21
-95.75512631893692
 31
0.0
  0
LINE
  5
354
330
A
100
AcDbEntity
  8
1
  6
Continuous
 62
     7
100
AcDbLine
 10
-1560.41220108042
 20
-81.45512631893693
 30
0.0
 11
-1561.91220108042
 21
-81.45512631893693
 31
0.0
  0
LINE
  5
353
330
A
100
AcDbEntity
  8
1
  6
Continuous
 62
     7
100
AcDbLine
 10
-1559.41220108042
 20
-85.35512631893691
 30
0.0
 11
-1558.91220108042
 21
-85.35512631893691
 31
0.0
  0
LINE
  5
352
330
A
100
AcDbEntity
  8
1
  6
Continuous
 62
     7
100
AcDbLine
 10
-1559.41220108042
 20
-85.35512631893691
 30
0.0
 11
-1559.41220108042
 21
-82.45512631893692
 31
0.0
  0
LINE
  5
351
330
A
100
AcDbEntity
  8
1
  6
Continuous
 62
     7
100
AcDbLine
 10
-1558.91220108042
 20
-95.75512631893692
 30
0.0
 11
-1559.41220108042
 21
-95.75512631893692
 31
0.0
  0
LINE
  5
350
330
A
100
AcDbEntity
  8
1
  6
Continuous
 62
     7
100
AcDbLine
 10
-1559.41220108042
 20
-95.75512631893692
 30
0.0
 11
-1559.41220108042
 21
-85.35512631893691
 31
0.0
  0
LINE
  5
34F
330
A
100
AcDbEntity
  8
1
  6
DOT_CENTER
 62
     2
100
AcDbLine
 10
-1566.91220108042
 20
-90.55512631893691
 30
0.0
 11
-1557.91220108042
 21
-90.55512631893691
 31
0.0
  0
LINE
  5
34E
330
A
100
AcDbEntity
  8
1
  6
Continuous
 62
     7
100
AcDbLine
 10
-1565.41220108042
 20
-82.45512631893692
 30
0.0
 11
-1565.41220108042
 21
-98.65512631893693
 31
0.0
  0
LINE
  5
34D
330
A
100
AcDbEntity
  8
1
  6
Continuous
 62
     7
100
AcDbLine
 10
-1547.41220108042
 20
-99.65512631893693
 30
0.0
 11
-1543.41220108042
 21
-99.65512631893693
 31
0.0
  0
LINE
  5
34C
330
A
100
AcDbEntity
  8
1
  6
Continuous
 62
     7
100
AcDbLine
 10
-1548.41220108042
 20
-95.75512631893692
 30
0.0
 11
-1548.41220108042
 21
-98.65512631893693
 31
0.0
  0
LINE
  5
34B
330
A
100
AcDbEntity
  8
1
  6
Continuous
 62
     7
100
AcDbLine
 10
-1543.41220108042
 20
-81.45512631893693
 30
0.0
 11
-1545.91220108042
 21
-81.45512631893693
 31
0.0
  0
LINE
  5
34A
330
A
100
AcDbEntity
  8
1
  6
Continuous
 62
     7
100
AcDbLine
 10
-1548.91220108042
 20
-85.35512631893691
 30
0.0
 11
-1548.41220108042
 21
-85.35512631893691
 31
0.0
  0
LINE
  5
349
330
A
100
AcDbEntity
  8
1
  6
Continuous
 62
     7
100
AcDbLine
 10
-1548.41220108042
 20
-82.45512631893692
 30
0.0
 11
-1548.41220108042
 21
-85.35512631893691
 31
0.0
  0
LINE
  5
348
330
A
100
AcDbEntity
  8
1
  6
Continuous
 62
     7
100
AcDbLine
 10
-1548.41220108042
 20
-95.75512631893692
 30
0.0
 11
-1548.91220108042
 21
-95.75512631893692
 31
0.0
  0
LINE
  5
347
330
A
100
AcDbEntity
  8
1
  6
Continuous
 62
     7
100
AcDbLine
 10
-1548.41220108042
 20
-85.35512631893691
 30
0.0
 11
-1548.41220108042
 21
-95.75512631893692
 31
0.0
  0
LINE
  5
346
330
A
100
AcDbEntity
  8
1
  6
DOT_CENTER
 62
     2
100
AcDbLine
 10
-1549.91220108042
 20
-90.55512631893691
 30
0.0
 11
-1540.91220108042
 21
-90.55512631893691
 31
0.0
  0
LINE
  5
345
330
A
100
AcDbEntity
  8
1
  6
Continuous
 62
     7
100
AcDbLine
 10
-1542.41220108042
 20
-98.65512631893693
 30
0.0
 11
-1542.41220108042
 21
-82.45512631893692
 31
0.0
  0
LINE
  5
344
330
A
100
AcDbEntity
  8
1
  6
Continuous
 62
     7
100
AcDbLine
 10
-1548.91220108042
 20
-78.55512631893692
 30
0.0
 11
-1548.91220108042
 21
-103.0551263189369
 31
0.0
  0
LINE
  5
343
330
A
100
AcDbEntity
  8
1
  6
Continuous
 62
     7
100
AcDbLine
 10
-1548.91220108042
 20
-78.55512631893692
 30
0.0
 11
-1558.91220108042
 21
-78.55512631893692
 31
0.0
  0
LINE
  5
342
330
A
100
AcDbEntity
  8
1
  6
Continuous
 62
     7
100
AcDbLine
 10
-1558.91220108042
 20
-78.55512631893692
 30
0.0
 11
-1558.91220108042
 21
-103.0551263189369
 31
0.0
  0
LINE
  5
341
330
A
100
AcDbEntity
  8
1
  6
Continuous
 62
     7
100
AcDbLine
 10
-1558.91220108042
 20
-103.0551263189369
 30
0.0
 11
-1557.41220108042
 21
-103.0551263189369
 31
0.0
  0
ARC
  5
5DC
330
A
100
AcDbEntity
  8
1
  6
Continuous
 62
     7
100
AcDbCircle
 10
-1687.890635757175
 20
-142.0551263189369
 30
0.0
 40
5.0
100
AcDbArc
 50
180.0
 51
270.0
  0
ARC
  5
5DD
330
A
100
AcDbEntity
  8
1
  6
Continuous
 62
     7
100
AcDbCircle
 10
-1659.890635757175
 20
-142.0551263189369
 30
0.0
 40
5.0
100
AcDbArc
 50
270.0
 51
0.0
  0
ARC
  5
5DE
330
A
100
AcDbEntity
  8
1
  6
Continuous
 62
     7
100
AcDbCircle
 10
-1687.890635757175
 20
-142.0551263189369
 30
0.0
 40
6.0
100
AcDbArc
 50
180.0
 51
270.0
  0
ARC
  5
5DF
330
A
100
AcDbEntity
  8
1
  6
Continuous
 62
     7
100
AcDbCircle
 10
-1659.890635757175
 20
-142.0551263189369
 30
0.0
 40
6.0
100
AcDbArc
 50
270.0
 51
0.0
  0
ARC
  5
5E0
330
A
100
AcDbEntity
  8
1
  6
Continuous
 62
     7
100
AcDbCircle
 10
-1692.890635757175
 20
-108.0551263189369
 30
0.0
 40
1.0
100
AcDbArc
 50
90.0
 51
180.0
  0
ARC
  5
5E1
330
A
100
AcDbEntity
  8
1
  6
Continuous
 62
     7
100
AcDbCircle
 10
-1654.890635757175
 20
-108.0551263189369
 30
0.0
 40
1.0
100
AcDbArc
 50
0.0
 51
90.0
  0
ARC
  5
5F4
330
A
100
AcDbEntity
  8
1
  6
Continuous
 62
     7
100
AcDbCircle
 10
-1673.890635757175
 20
-133.0551263189369
 30
0.0
 40
10.90000000000009
100
AcDbArc
 50
119.6969774237647
 51
60.30302257623532
  0
ARC
  5
5F5
330
A
100
AcDbEntity
  8
1
  6
Continuous
 62
     7
100
AcDbCircle
 10
-1673.890635757175
 20
-133.0551263189369
 30
0.0
 40
11.89999999999999
100
AcDbArc
 50
122.5350285076248
 51
57.4649714923751
  0
LWPOLYLINE
  5
5F6
330
A
100
AcDbEntity
  8
1
  6
Continuous
 62
     7
100
AcDbPolyline
 90
        2
 70
     1
 43
0.0
 10
-1685.890635757175
 20
-119.0551263189369
 42
1.0
 10
-1692.890635757175
 20
-119.0551263189369
 42
1.0
  0
LWPOLYLINE
  5
5F7
330
A
100
AcDbEntity
  8
1
  6
Continuous
 62
     7
100
AcDbPolyline
 90
        2
 70
     1
 43
0.0
 10
-1687.390635757175
 20
-119.0551263189369
 42
1.0
 10
-1691.390635757175
 20
-119.0551263189369
 42
1.0
  0
LWPOLYLINE
  5
5F8
330
A
100
AcDbEntity
  8
1
  6
Continuous
 62
     7
100
AcDbPolyline
 90
        2
 70
     1
 43
0.0
 10
-1654.890635757175
 20
-119.0551263189369
 42
1.0
 10
-1661.890635757175
 20
-119.0551263189369
 42
1.0
  0
LWPOLYLINE
  5
5F9
330
A
100
AcDbEntity
  8
1
  6
Continuous
 62
     7
100
AcDbPolyline
 90
        2
 70
     1
 43
0.0
 10
-1656.390635757175
 20
-119.0551263189369
 42
1.0
 10
-1660.390635757175
 20
-119.0551263189369
 42
1.0
  0
LINE
  5
61D
330
A
100
AcDbEntity
  8
1
  6
DOT_CENTER
 62
     2
100
AcDbLine
 10
-1553.91220108042
 20
-150.8635276806147
 30
0.0
 11
-1553.91220108042
 21
-84.55512631893714
 31
0.0
  0
LINE
  5
620
330
A
100
AcDbEntity
  8
1
  6
Continuous
 62
     7
100
AcDbLine
 10
-1548.91220108042
 20
-123.0226789604905
 30
0.0
 11
-1549.91220108042
 21
-122.4886699593054
 31
0.0
  0
LINE
  5
621
330
A
100
AcDbEntity
  8
1
  6
Continuous
 62
     7
100
AcDbLine
 10
-1549.91220108042
 20
-122.4886699593054
 30
0.0
 11
-1568.91220108042
 21
-122.4886699593054
 31
0.0
  0
LINE
  5
622
330
A
100
AcDbEntity
  8
1
  6
Continuous
 62
     7
100
AcDbLine
 10
-1548.91220108042
 20
-144.7713763189369
 30
0.0
 11
-1549.912162801368
 21
-145.7801259839952
 31
0.0
  0
LINE
  5
623
330
A
100
AcDbEntity
  8
1
  6
Continuous
 62
     7
100
AcDbLine
 10
-1549.912162801368
 20
-145.7801259839952
 30
0.0
 11
-1549.91220108042
 21
-145.7801263189369
 31
0.0
  0
LINE
  5
624
330
A
100
AcDbEntity
  8
1
  6
Continuous
 62
     7
100
AcDbLine
 10
-1549.91220108042
 20
-145.7801263189369
 30
0.0
 11
-1549.91220108042
 21
-107.0551263189369
 31
0.0
  0
LINE
  5
625
330
A
100
AcDbEntity
  8
1
  6
Continuous
 62
     7
100
AcDbLine
 10
-1548.91220108042
 20
-144.7713763189369
 30
0.0
 11
-1548.91220108042
 21
-107.0551263189369
 31
0.0
  0
LINE
  5
626
330
A
100
AcDbEntity
  8
1
  6
Continuous
 62
     7
100
AcDbLine
 10
-1549.91220108042
 20
-145.7801263189369
 30
0.0
 11
-1568.91220108042
 21
-145.955126318937
 31
0.0
  0
LINE
  5
627
330
A
100
AcDbEntity
  8
1
  6
Continuous
 62
     7
100
AcDbLine
 10
-1667.490635757174
 20
-108.0551263189369
 30
0.0
 11
-1668.490635757175
 21
-107.0551263189369
 31
0.0
  0
LINE
  5
628
330
A
100
AcDbEntity
  8
1
  6
Continuous
 62
     7
100
AcDbLine
 10
-1668.490635757175
 20
-123.5867579272867
 30
0.0
 11
-1667.490635757174
 21
-123.0226789604905
 31
0.0
  0
LINE
  5
629
330
A
100
AcDbEntity
  8
1
  6
Continuous
 62
     7
100
AcDbLine
 10
-1679.290635757175
 20
-123.5867579272867
 30
0.0
 11
-1680.290635757175
 21
-123.0226789604905
 31
0.0
  0
LINE
  5
62A
330
A
100
AcDbEntity
  8
1
  6
Continuous
 62
     7
100
AcDbLine
 10
-1680.290635757175
 20
-108.0551263189369
 30
0.0
 11
-1679.290635757175
 21
-107.0551263189369
 31
0.0
  0
LINE
  5
62B
330
A
100
AcDbEntity
  8
1
  6
Continuous
 62
     7
100
AcDbLine
 10
-1570.91220108042
 20
-148.0551263189369
 30
0.0
 11
-1570.91220108042
 21
-107.0551263189369
 31
0.0
  0
LINE
  5
62C
330
A
100
AcDbEntity
  8
1
  6
Continuous
 62
     7
100
AcDbLine
 10
-1570.91220108042
 20
-107.0551263189369
 30
0.0
 11
-1571.91220108042
 21
-108.0551263189369
 31
0.0
  0
LINE
  5
62D
330
A
100
AcDbEntity
  8
1
  6
Continuous
 62
     7
100
AcDbLine
 10
-1570.91220108042
 20
-148.0551263189369
 30
0.0
 11
-1571.91220108042
 21
-147.0551263189369
 31
0.0
  0
LINE
  5
62E
330
A
100
AcDbEntity
  8
1
  6
Continuous
 62
     7
100
AcDbLine
 10
-1571.91220108042
 20
-108.0551263189369
 30
0.0
 11
-1571.91220108042
 21
-147.0551263189369
 31
0.0
  0
LINE
  5
62F
330
A
100
AcDbEntity
  8
1
  6
Continuous
 62
     7
100
AcDbLine
 10
-1570.91220108042
 20
-148.0551263189369
 30
0.0
 11
-1568.91220108042
 21
-148.0551263189369
 31
0.0
  0
LINE
  5
630
330
A
100
AcDbEntity
  8
1
  6
Continuous
 62
     7
100
AcDbLine
 10
-1568.91220108042
 20
-148.0551263189369
 30
0.0
 11
-1568.91220108042
 21
-107.0551263189369
 31
0.0
  0
LINE
  5
631
330
A
100
AcDbEntity
  8
1
  6
Continuous
 62
     7
100
AcDbLine
 10
-1548.91220108042
 20
-107.0551263189369
 30
0.0
 11
-1570.91220108042
 21
-107.0551263189369
 31
0.0
  0
LINE
  5
632
330
A
100
AcDbEntity
  8
1
  6
DOT_CENTER
 62
     2
100
AcDbLine
 10
-1659.990635757174
 20
-133.0551263189369
 30
0.0
 11
-1687.790635757175
 21
-133.0551263189369
 31
0.0
  0
LINE
  5
633
330
A
100
AcDbEntity
  8
1
  6
DOT_CENTER
 62
     2
100
AcDbLine
 10
-1673.890635757175
 20
-84.55512631893714
 30
0.0
 11
-1673.890635757175
 21
-150.8635276806147
 31
0.0
  0
LINE
  5
634
330
A
100
AcDbEntity
  8
1
  6
Continuous
 62
     7
100
AcDbLine
 10
-1679.290635757175
 20
-107.0551263189369
 30
0.0
 11
-1679.290635757175
 21
-123.5867579272867
 31
0.0
  0
LINE
  5
635
330
A
100
AcDbEntity
  8
1
  6
Continuous
 62
     7
100
AcDbLine
 10
-1692.890635757175
 20
-107.0551263189369
 30
0.0
 11
-1679.290635757175
 21
-107.0551263189369
 31
0.0
  0
LINE
  5
636
330
A
100
AcDbEntity
  8
1
  6
Continuous
 62
     7
100
AcDbLine
 10
-1693.890635757175
 20
-142.0551263189369
 30
0.0
 11
-1693.890635757175
 21
-108.0551263189369
 31
0.0
  0
LINE
  5
637
330
A
100
AcDbEntity
  8
1
  6
Continuous
 62
     7
100
AcDbLine
 10
-1659.890635757175
 20
-148.0551263189369
 30
0.0
 11
-1687.890635757175
 21
-148.0551263189369
 31
0.0
  0
LINE
  5
638
330
A
100
AcDbEntity
  8
1
  6
Continuous
 62
     7
100
AcDbLine
 10
-1653.890635757175
 20
-108.0551263189369
 30
0.0
 11
-1653.890635757175
 21
-142.0551263189369
 31
0.0
  0
LINE
  5
639
330
A
100
AcDbEntity
  8
1
  6
Continuous
 62
     7
100
AcDbLine
 10
-1668.490635757175
 20
-107.0551263189369
 30
0.0
 11
-1654.890635757175
 21
-107.0551263189369
 31
0.0
  0
LINE
  5
63A
330
A
100
AcDbEntity
  8
1
  6
Continuous
 62
     7
100
AcDbLine
 10
-1668.490635757175
 20
-123.5867579272867
 30
0.0
 11
-1668.490635757175
 21
-107.0551263189369
 31
0.0
  0
LINE
  5
63B
330
A
100
AcDbEntity
  8
1
  6
Continuous
 62
     7
100
AcDbLine
 10
-1680.290635757175
 20
-108.0551263189369
 30
0.0
 11
-1680.290635757175
 21
-123.0226789604905
 31
0.0
  0
LINE
  5
63C
330
A
100
AcDbEntity
  8
1
  6
Continuous
 62
     7
100
AcDbLine
 10
-1692.890635757175
 20
-108.0551263189369
 30
0.0
 11
-1680.290635757175
 21
-108.0551263189369
 31
0.0
  0
LINE
  5
63D
330
A
100
AcDbEntity
  8
1
  6
Continuous
 62
     7
100
AcDbLine
 10
-1692.890635757175
 20
-142.0551263189369
 30
0.0
 11
-1692.890635757175
 21
-108.0551263189369
 31
0.0
  0
LINE
  5
63E
330
A
100
AcDbEntity
  8
1
  6
Continuous
 62
     7
100
AcDbLine
 10
-1659.890635757175
 20
-147.0551263189369
 30
0.0
 11
-1687.890635757175
 21
-147.0551263189369
 31
0.0
  0
LINE
  5
63F
330
A
100
AcDbEntity
  8
1
  6
Continuous
 62
     7
100
AcDbLine
 10
-1654.890635757175
 20
-108.0551263189369
 30
0.0
 11
-1654.890635757175
 21
-142.0551263189369
 31
0.0
  0
LINE
  5
640
330
A
100
AcDbEntity
  8
1
  6
Continuous
 62
     7
100
AcDbLine
 10
-1667.490635757174
 20
-108.0551263189369
 30
0.0
 11
-1654.890635757175
 21
-108.0551263189369
 31
0.0
  0
LINE
  5
641
330
A
100
AcDbEntity
  8
1
  6
Continuous
 62
     7
100
AcDbLine
 10
-1667.490635757174
 20
-123.0226789604905
 30
0.0
 11
-1667.490635757174
 21
-108.0551263189369
 31
0.0
  0
LINE
  5
642
330
A
100
AcDbEntity
  8
1
  6
DOT_CENTER
 62
     2
100
AcDbLine
 10
-1689.390635757175
 20
-113.5551263189369
 30
0.0
 11
-1689.390635757175
 21
-124.5551263189369
 31
0.0
  0
LINE
  5
643
330
A
100
AcDbEntity
  8
1
  6
DOT_CENTER
 62
     2
100
AcDbLine
 10
-1683.890635757175
 20
-119.0551263189369
 30
0.0
 11
-1694.890635757175
 21
-119.0551263189369
 31
0.0
  0
LINE
  5
644
330
A
100
AcDbEntity
  8
1
  6
DOT_CENTER
 62
     2
100
AcDbLine
 10
-1658.390635757175
 20
-113.5551263189369
 30
0.0
 11
-1658.390635757175
 21
-124.5551263189369
 31
0.0
  0
LINE
  5
645
330
A
100
AcDbEntity
  8
1
  6
DOT_CENTER
 62
     2
100
AcDbLine
 10
-1652.890635757175
 20
-119.0551263189369
 30
0.0
 11
-1663.890635757175
 21
-119.0551263189369
 31
0.0
  0
ARC
  5
64D
330
A
100
AcDbEntity
  8
1
  6
Continuous
 62
   133
100
AcDbCircle
 10
-1674.840635757175
 20
-113.205126318937
 30
0.0
 40
0.5
100
AcDbArc
 50
0.0
 51
90.0
  0
ARC
  5
64E
330
A
100
AcDbEntity
  8
1
  6
Continuous
 62
   133
100
AcDbCircle
 10
-1674.840635757175
 20
-111.3051263189369
 30
0.0
 40
0.5
100
AcDbArc
 50
270.0
 51
0.0
  0
ARC
  5
64F
330
A
100
AcDbEntity
  8
1
  6
Continuous
 62
   133
100
AcDbCircle
 10
-1672.940635757175
 20
-111.3051263189369
 30
0.0
 40
0.5
100
AcDbArc
 50
180.0
 51
270.0
  0
ARC
  5
650
330
A
100
AcDbEntity
  8
1
  6
Continuous
 62
   133
100
AcDbCircle
 10
-1672.940635757175
 20
-113.205126318937
 30
0.0
 40
0.5
100
AcDbArc
 50
90.0
 51
180.0
  0
LWPOLYLINE
  5
651
330
A
100
AcDbEntity
  8
1
  6
Continuous
 62
     7
100
AcDbPolyline
 90
        2
 70
     1
 43
0.0
 10
-1668.640635757175
 20
-133.0551263189369
 42
1.0
 10
-1679.140635757175
 20
-133.0551263189369
 42
1.0
  0
LWPOLYLINE
  5
652
330
A
100
AcDbEntity
  8
1
  6
Continuous
 62
     7
100
AcDbPolyline
 90
        2
 70
     1
 43
0.0
 10
-1673.890635757175
 20
-127.3051263189369
 42
1.0
 10
-1673.890635757175
 20
-138.8051263189369
 42
1.0
  0
LWPOLYLINE
  5
653
330
A
100
AcDbEntity
  8
1
  6
Continuous
 62
     7
100
AcDbPolyline
 90
        2
 70
     1
 43
0.0
 10
-1666.140635757175
 20
-133.0551263189369
 42
1.0
 10
-1681.640635757175
 20
-133.0551263189369
 42
1.0
  0
LWPOLYLINE
  5
654
330
A
100
AcDbEntity
  8
1
  6
Continuous
 62
     7
100
AcDbPolyline
 90
        2
 70
     1
 43
0.0
 10
-1667.140635757175
 20
-133.0551263189369
 42
1.0
 10
-1680.640635757175
 20
-133.0551263189369
 42
1.0
  0
LWPOLYLINE
  5
655
330
A
100
AcDbEntity
  8
1
  6
Continuous
 62
     7
100
AcDbPolyline
 90
        2
 70
     1
 43
0.0
 10
-1673.890635757175
 20
-108.455126318937
 42
1.0
 10
-1673.890635757175
 20
-116.0551263189368
 42
1.0
  0
ARC
  5
656
330
A
100
AcDbEntity
  8
1
  6
Continuous
 62
     7
100
AcDbCircle
 10
-1673.890635757175
 20
-133.0551263189369
 30
0.0
 40
10.80000000000001
100
AcDbArc
 50
119.3892799478884
 51
60.61072005211151
  0
LINE
  5
65A
330
A
100
AcDbEntity
  8
1
  6
Continuous
 62
   133
100
AcDbLine
 10
-1675.890635757175
 20
-111.8051263189369
 30
0.0
 11
-1675.890635757175
 21
-112.705126318937
 31
0.0
  0
LINE
  5
65B
330
A
100
AcDbEntity
  8
1
  6
Continuous
 62
   133
100
AcDbLine
 10
-1674.340635757175
 20
-111.3051263189369
 30
0.0
 11
-1674.340635757175
 21
-110.2551263189369
 31
0.0
  0
LINE
  5
65C
330
A
100
AcDbEntity
  8
1
  6
Continuous
 62
   133
100
AcDbLine
 10
-1674.340635757175
 20
-114.2551263189369
 30
0.0
 11
-1674.340635757175
 21
-113.205126318937
 31
0.0
  0
LINE
  5
65D
330
A
100
AcDbEntity
  8
1
  6
Continuous
 62
   133
100
AcDbLine
 10
-1673.440635757175
 20
-113.205126318937
 30
0.0
 11
-1673.440635757175
 21
-114.2551263189369
 31
0.0
  0
LINE
  5
65E
330
A
100
AcDbEntity
  8
1
  6
Continuous
 62
   133
100
AcDbLine
 10
-1673.440635757175
 20
-110.2551263189369
 30
0.0
 11
-1673.440635757175
 21
-111.3051263189369
 31
0.0
  0
LINE
  5
65F
330
A
100
AcDbEntity
  8
1
  6
Continuous
 62
   133
100
AcDbLine
 10
-1671.890635757175
 20
-111.8051263189369
 30
0.0
 11
-1671.890635757175
 21
-112.705126318937
 31
0.0
  0
LINE
  5
660
330
A
100
AcDbEntity
  8
1
  6
Continuous
 62
   133
100
AcDbLine
 10
-1674.340635757175
 20
-114.2551263189369
 30
0.0
 11
-1673.440635757175
 21
-114.2551263189369
 31
0.0
  0
LINE
  5
661
330
A
100
AcDbEntity
  8
1
  6
Continuous
 62
   133
100
AcDbLine
 10
-1674.840635757175
 20
-112.705126318937
 30
0.0
 11
-1675.890635757175
 21
-112.705126318937
 31
0.0
  0
LINE
  5
662
330
A
100
AcDbEntity
  8
1
  6
Continuous
 62
   133
100
AcDbLine
 10
-1671.890635757175
 20
-112.705126318937
 30
0.0
 11
-1672.940635757175
 21
-112.705126318937
 31
0.0
  0
LINE
  5
663
330
A
100
AcDbEntity
  8
1
  6
Continuous
 62
   133
100
AcDbLine
 10
-1672.940635757175
 20
-111.8051263189369
 30
0.0
 11
-1671.890635757175
 21
-111.8051263189369
 31
0.0
  0
LINE
  5
664
330
A
100
AcDbEntity
  8
1
  6
Continuous
 62
   133
100
AcDbLine
 10
-1675.890635757175
 20
-111.8051263189369
 30
0.0
 11
-1674.840635757175
 21
-111.8051263189369
 31
0.0
  0
LINE
  5
665
330
A
100
AcDbEntity
  8
1
  6
Continuous
 62
   133
100
AcDbLine
 10
-1674.340635757175
 20
-110.2551263189369
 30
0.0
 11
-1673.440635757175
 21
-110.2551263189369
 31
0.0
  0
LINE
  5
666
330
A
100
AcDbEntity
  8
1
  6
Continuous
 62
   133
100
AcDbLine
 10
-1674.923969090509
 20
-132.0217929856036
 30
0.0
 11
-1674.510635757174
 21
-129.955126318937
 31
0.0
  0
LINE
  5
667
330
A
100
AcDbEntity
  8
1
  6
Continuous
 62
   133
100
AcDbLine
 10
-1676.990635757175
 20
-132.4351263189369
 30
0.0
 11
-1674.923969090509
 21
-132.0217929856036
 31
0.0
  0
LINE
  5
668
330
A
100
AcDbEntity
  8
1
  6
Continuous
 62
   133
100
AcDbLine
 10
-1676.990635757175
 20
-133.6751263189369
 30
0.0
 11
-1676.990635757175
 21
-132.4351263189369
 31
0.0
  0
LINE
  5
669
330
A
100
AcDbEntity
  8
1
  6
Continuous
 62
   133
100
AcDbLine
 10
-1674.923969090509
 20
-134.0884596522702
 30
0.0
 11
-1676.990635757175
 21
-133.6751263189369
 31
0.0
  0
LINE
  5
66A
330
A
100
AcDbEntity
  8
1
  6
Continuous
 62
   133
100
AcDbLine
 10
-1674.510635757174
 20
-136.1551263189369
 30
0.0
 11
-1674.923969090509
 21
-134.0884596522702
 31
0.0
  0
LINE
  5
66B
330
A
100
AcDbEntity
  8
1
  6
Continuous
 62
   133
100
AcDbLine
 10
-1673.270635757174
 20
-136.1551263189369
 30
0.0
 11
-1674.510635757174
 21
-136.1551263189369
 31
0.0
  0
LINE
  5
66C
330
A
100
AcDbEntity
  8
1
  6
Continuous
 62
   133
100
AcDbLine
 10
-1672.857302423842
 20
-134.0884596522702
 30
0.0
 11
-1673.270635757174
 21
-136.1551263189369
 31
0.0
  0
LINE
  5
66D
330
A
100
AcDbEntity
  8
1
  6
Continuous
 62
   133
100
AcDbLine
 10
-1670.790635757175
 20
-133.6751263189369
 30
0.0
 11
-1672.857302423842
 21
-134.0884596522702
 31
0.0
  0
LINE
  5
66E
330
A
100
AcDbEntity
  8
1
  6
Continuous
 62
   133
100
AcDbLine
 10
-1670.790635757175
 20
-132.4351263189369
 30
0.0
 11
-1670.790635757175
 21
-133.6751263189369
 31
0.0
  0
LINE
  5
66F
330
A
100
AcDbEntity
  8
1
  6
Continuous
 62
   133
100
AcDbLine
 10
-1672.857302423842
 20
-132.0217929856036
 30
0.0
 11
-1670.790635757175
 21
-132.4351263189369
 31
0.0
  0
LINE
  5
670
330
A
100
AcDbEntity
  8
1
  6
Continuous
 62
   133
100
AcDbLine
 10
-1673.270635757174
 20
-129.955126318937
 30
0.0
 11
-1672.857302423842
 21
-132.0217929856036
 31
0.0
  0
LINE
  5
671
330
A
100
AcDbEntity
  8
1
  6
Continuous
 62
   133
100
AcDbLine
 10
-1674.510635757174
 20
-129.955126318937
 30
0.0
 11
-1673.270635757174
 21
-129.955126318937
 31
0.0
  0
LINE
  5
672
330
A
100
AcDbEntity
  8
1
  6
DOT_CENTER
 62
     2
100
AcDbLine
 10
-1668.401746868286
 20
-112.2551263189369
 30
0.0
 11
-1679.379524646064
 21
-112.2551263189369
 31
0.0
  0
LINE
  5
673
330
A
100
AcDbEntity
  8
1
  6
Continuous
 62
     7
100
AcDbLine
 10
-1668.590635757175
 20
-107.7551263189369
 30
0.0
 11
-1679.190635757175
 21
-107.7551263189369
 31
0.0
  0
LINE
  5
674
330
A
100
AcDbEntity
  8
1
  6
Continuous
 62
     7
100
AcDbLine
 10
-1679.190635757175
 20
-123.6450253630491
 30
0.0
 11
-1679.190635757175
 21
-107.0551263189369
 31
0.0
  0
LINE
  5
675
330
A
100
AcDbEntity
  8
1
  6
Continuous
 62
     7
100
AcDbLine
 10
-1668.590635757175
 20
-107.0551263189369
 30
0.0
 11
-1668.590635757175
 21
-123.6450253630491
 31
0.0
  0
LINE
  5
676
330
A
100
AcDbEntity
  8
1
  6
Continuous
 62
     7
100
AcDbLine
 10
-1679.190635757175
 20
-107.0551263189369
 30
0.0
 11
-1668.590635757175
 21
-107.0551263189369
 31
0.0
  0
ENDSEC
  0
SECTION
  2
OBJECTS
  0
DICTIONARY
  5
19
330
0
100
AcDbDictionary
281
     1
  3
ACAD_CIP_PREVIOUS_PRODUCT_INFO
350
448
  3
ACAD_COLOR
350
42A
  3
ACAD_GROUP
350
1A
  3
ACAD_LAYOUT
350
441
  3
ACAD_MATERIAL
350
3F8
  3
ACAD_MLEADERSTYLE
350
43F
  3
ACAD_MLINESTYLE
350
1B
  3
ACAD_PLOTSETTINGS
350
442
  3
ACAD_PLOTSTYLENAME
350
3F6
  3
ACAD_SCALELIST
350
42D
  3
ACAD_TABLESTYLE
350
42B
  3
ACAD_VISUALSTYLE
350
411
  3
ACDB_RECOMPOSE_DATA
350
6AB
  3
AcDbVariableDictionary
350
6A0
  3
ASE_INDEX_DICTIONARY
350
69D
  3
DWGPROPS
350
6AC
  0
DICTIONARY
  5
698
330
14
100
AcDbDictionary
280
     1
281
     1
  3
ADSK_XREC_LAYER_RECONCILED
360
699
  0
DICTIONARY
  5
69A
330
24
100
AcDbDictionary
280
     1
281
     1
  3
ADSK_XREC_LAYER_RECONCILED
360
69B
  0
DICTIONARY
  5
535
330
A
100
AcDbDictionary
280
     1
281
     1
  3
ACAD_SORTENTS
360
536
  0
DICTIONARY
  5
70B
330
1A4
100
AcDbDictionary
280
     1
281
     1
  3
ACAD_MTEXT_RT
360
70C
  0
DICTIONARY
  5
709
330
1A3
100
AcDbDictionary
280
     1
281
     1
  3
ACAD_MTEXT_RT
360
70A
  0
DICTIONARY
  5
707
330
1A2
100
AcDbDictionary
280
     1
281
     1
  3
ACAD_MTEXT_RT
360
708
  0
DICTIONARY
  5
705
330
1A1
100
AcDbDictionary
280
     1
281
     1
  3
ACAD_MTEXT_RT
360
706
  0
DICTIONARY
  5
703
330
19D
100
AcDbDictionary
280
     1
281
     1
  3
ACAD_MTEXT_RT
360
704
  0
DICTIONARY
  5
701
330
19C
100
AcDbDictionary
280
     1
281
     1
  3
ACAD_MTEXT_RT
360
702
  0
DICTIONARY
  5
6FF
330
19B
100
AcDbDictionary
280
     1
281
     1
  3
ACAD_MTEXT_RT
360
700
  0
DICTIONARY
  5
6FD
330
196
100
AcDbDictionary
280
     1
281
     1
  3
ACAD_MTEXT_RT
360
6FE
  0
DICTIONARY
  5
6FB
330
193
100
AcDbDictionary
280
     1
281
     1
  3
ACAD_MTEXT_RT
360
6FC
  0
DICTIONARY
  5
6F9
330
192
100
AcDbDictionary
280
     1
281
     1
  3
ACAD_MTEXT_RT
360
6FA
  0
DICTIONARY
  5
6F7
330
191
100
AcDbDictionary
280
     1
281
     1
  3
ACAD_MTEXT_RT
360
6F8
  0
DICTIONARY
  5
6F5
330
190
100
AcDbDictionary
280
     1
281
     1
  3
ACAD_MTEXT_RT
360
6F6
  0
DICTIONARY
  5
6F3
330
18F
100
AcDbDictionary
280
     1
281
     1
  3
ACAD_MTEXT_RT
360
6F4
  0
DICTIONARY
  5
6F1
330
18E
100
AcDbDictionary
280
     1
281
     1
  3
ACAD_MTEXT_RT
360
6F2
  0
DICTIONARY
  5
6EF
330
18D
100
AcDbDictionary
280
     1
281
     1
  3
ACAD_MTEXT_RT
360
6F0
  0
DICTIONARY
  5
6ED
330
18C
100
AcDbDictionary
280
     1
281
     1
  3
ACAD_MTEXT_RT
360
6EE
  0
DICTIONARY
  5
6EB
330
18B
100
AcDbDictionary
280
     1
281
     1
  3
ACAD_MTEXT_RT
360
6EC
  0
DICTIONARY
  5
6E9
330
18A
100
AcDbDictionary
280
     1
281
     1
  3
ACAD_MTEXT_RT
360
6EA
  0
DICTIONARY
  5
6E7
330
189
100
AcDbDictionary
280
     1
281
     1
  3
ACAD_MTEXT_RT
360
6E8
  0
DICTIONARY
  5
6E5
330
188
100
AcDbDictionary
280
     1
281
     1
  3
ACAD_MTEXT_RT
360
6E6
  0
DICTIONARY
  5
6E3
330
187
100
AcDbDictionary
280
     1
281
     1
  3
ACAD_MTEXT_RT
360
6E4
  0
DICTIONARY
  5
6E1
330
186
100
AcDbDictionary
280
     1
281
     1
  3
ACAD_MTEXT_RT
360
6E2
  0
DICTIONARY
  5
6DF
330
185
100
AcDbDictionary
280
     1
281
     1
  3
ACAD_MTEXT_RT
360
6E0
  0
DICTIONARY
  5
6DD
330
184
100
AcDbDictionary
280
     1
281
     1
  3
ACAD_MTEXT_RT
360
6DE
  0
DICTIONARY
  5
6DB
330
17F
100
AcDbDictionary
280
     1
281
     1
  3
ACAD_MTEXT_RT
360
6DC
  0
DICTIONARY
  5
6D9
330
17C
100
AcDbDictionary
280
     1
281
     1
  3
ACAD_MTEXT_RT
360
6DA
  0
DICTIONARY
  5
6D7
330
17B
100
AcDbDictionary
280
     1
281
     1
  3
ACAD_MTEXT_RT
360
6D8
  0
DICTIONARY
  5
6D5
330
178
100
AcDbDictionary
280
     1
281
     1
  3
ACAD_MTEXT_RT
360
6D6
  0
DICTIONARY
  5
6D3
330
177
100
AcDbDictionary
280
     1
281
     1
  3
ACAD_MTEXT_RT
360
6D4
  0
DICTIONARY
  5
6D1
330
176
100
AcDbDictionary
280
     1
281
     1
  3
ACAD_MTEXT_RT
360
6D2
  0
DICTIONARY
  5
6CF
330
175
100
AcDbDictionary
280
     1
281
     1
  3
ACAD_MTEXT_RT
360
6D0
  0
DICTIONARY
  5
6CD
330
170
100
AcDbDictionary
280
     1
281
     1
  3
ACAD_MTEXT_RT
360
6CE
  0
DICTIONARY
  5
6CB
330
16F
100
AcDbDictionary
280
     1
281
     1
  3
ACAD_MTEXT_RT
360
6CC
  0
DICTIONARY
  5
6C9
330
16E
100
AcDbDictionary
280
     1
281
     1
  3
ACAD_MTEXT_RT
360
6CA
  0
DICTIONARY
  5
6C7
330
16D
100
AcDbDictionary
280
     1
281
     1
  3
ACAD_MTEXT_RT
360
6C8
  0
DICTIONARY
  5
6C5
330
169
100
AcDbDictionary
280
     1
281
     1
  3
ACAD_MTEXT_RT
360
6C6
  0
DICTIONARY
  5
6C3
330
168
100
AcDbDictionary
280
     1
281
     1
  3
ACAD_MTEXT_RT
360
6C4
  0
DICTIONARY
  5
6C1
330
162
100
AcDbDictionary
280
     1
281
     1
  3
ACAD_MTEXT_RT
360
6C2
  0
DICTIONARY
  5
6BF
330
161
100
AcDbDictionary
280
     1
281
     1
  3
ACAD_MTEXT_RT
360
6C0
  0
DICTIONARY
  5
6BD
330
160
100
AcDbDictionary
280
     1
281
     1
  3
ACAD_MTEXT_RT
360
6BE
  0
DICTIONARY
  5
6BB
330
15F
100
AcDbDictionary
280
     1
281
     1
  3
ACAD_MTEXT_RT
360
6BC
  0
DICTIONARY
  5
6B9
330
15C
100
AcDbDictionary
280
     1
281
     1
  3
ACAD_MTEXT_RT
360
6BA
  0
DICTIONARY
  5
6B7
330
15B
100
AcDbDictionary
280
     1
281
     1
  3
ACAD_MTEXT_RT
360
6B8
  0
DICTIONARY
  5
6B5
330
15A
100
AcDbDictionary
280
     1
281
     1
  3
ACAD_MTEXT_RT
360
6B6
  0
DICTIONARY
  5
6B3
330
157
100
AcDbDictionary
280
     1
281
     1
  3
ACAD_MTEXT_RT
360
6B4
  0
DICTIONARY
  5
6B1
330
156
100
AcDbDictionary
280
     1
281
     1
  3
ACAD_MTEXT_RT
360
6B2
  0
DICTIONARY
  5
6AF
330
155
100
AcDbDictionary
280
     1
281
     1
  3
ACAD_MTEXT_RT
360
6B0
  0
DICTIONARY
  5
6AD
330
154
100
AcDbDictionary
280
     1
281
     1
  3
ACAD_MTEXT_RT
360
6AE
  0
XRECORD
  5
448
102
{ACAD_REACTORS
330
19
102
}
330
19
100
AcDbXrecord
280
     1
300
ACD
300
2012
300
ACD_F_S
  0
DICTIONARY
  5
42A
102
{ACAD_REACTORS
330
19
102
}
330
19
100
AcDbDictionary
281
     1
  0
DICTIONARY
  5
1A
102
{ACAD_REACTORS
330
19
102
}
330
19
100
AcDbDictionary
281
     1
  0
DICTIONARY
  5
441
102
{ACAD_REACTORS
330
19
102
}
330
19
100
AcDbDictionary
281
     1
  3
Model
350
443
  3
レイアウト1
350
444
  0
DICTIONARY
  5
3F8
102
{ACAD_REACTORS
330
19
102
}
330
19
100
AcDbDictionary
281
     1
  3
ByBlock
350
401
  3
ByLayer
350
3F9
  3
Global
350
409
  0
DICTIONARY
  5
43F
102
{ACAD_REACTORS
330
19
102
}
330
19
100
AcDbDictionary
281
     1
  3
Standard
350
440
  0
DICTIONARY
  5
1B
102
{ACAD_REACTORS
330
19
102
}
330
19
100
AcDbDictionary
281
     1
  3
STANDARD
350
1C
  0
DICTIONARY
  5
442
102
{ACAD_REACTORS
330
19
102
}
330
19
100
AcDbDictionary
281
     1
  0
ACDBDICTIONARYWDFLT
  5
3F6
102
{ACAD_REACTORS
330
19
102
}
330
19
100
AcDbDictionary
281
     1
  3
Normal
350
3F7
100
AcDbDictionaryWithDefault
340
3F7
  0
DICTIONARY
  5
42D
102
{ACAD_REACTORS
330
19
102
}
330
19
100
AcDbDictionary
281
     1
  3
A0
350
42E
  3
A1
350
42F
  3
A2
350
430
  3
A3
350
431
  3
A4
350
432
  3
A5
350
433
  3
A6
350
434
  3
A7
350
435
  3
A8
350
436
  3
A9
350
437
  3
B0
350
438
  3
B1
350
439
  3
B2
350
43A
  3
B3
350
43B
  3
B4
350
43C
  3
B5
350
43D
  3
B6
350
43E
  0
DICTIONARY
  5
42B
102
{ACAD_REACTORS
330
19
102
}
330
19
100
AcDbDictionary
281
     1
  3
Standard
350
42C
  0
DICTIONARY
  5
411
102
{ACAD_REACTORS
330
19
102
}
330
19
100
AcDbDictionary
281
     1
  3
2dWireframe
350
417
  3
Basic
350
416
  3
Brighten
350
41D
  3
ColorChange
350
421
  3
Conceptual
350
41A
  3
Dim
350
41C
  3
EdgeColorOff
350
429
  3
Facepattern
350
420
  3
Flat
350
412
  3
FlatWithEdges
350
413
  3
Gouraud
350
414
  3
GouraudWithEdges
350
415
  3
Hidden
350
419
  3
JitterOff
350
427
  3
Linepattern
350
41F
  3
OverhangOff
350
428
  3
Realistic
350
41B
  3
Shaded
350
426
  3
Shaded with edges
350
425
  3
Shades of Gray
350
422
  3
Sketchy
350
423
  3
Thicken
350
41E
  3
Wireframe
350
418
  3
X-Ray
350
424
  0
XRECORD
  5
6AB
102
{ACAD_REACTORS
330
19
102
}
330
19
100
AcDbXrecord
280
     1
 90
        1
330
42C
  0
DICTIONARY
  5
6A0
102
{ACAD_REACTORS
330
19
102
}
330
19
100
AcDbDictionary
281
     1
  3
CANNOSCALE
350
6A3
  3
CMLEADERSTYLE
350
6A2
  3
CTABLESTYLE
350
6A1
  3
DIMASSOC
350
6A6
  3
INDEXCTL
350
6A5
  3
SORTENTS
350
6A4
  3
XCLIPFRAME
350
6A7
  0
DICTIONARY
  5
69D
102
{ACAD_REACTORS
330
19
102
}
330
19
100
AcDbDictionary
281
     1
  3
ASEBlockHierarchyIndexRecord
350
69F
1001
DCO15
1040
1882590735.607
  0
XRECORD
  5
6AC
102
{ACAD_REACTORS
330
19
102
}
330
19
100
AcDbXrecord
280
     1
  1
DWGPROPS COOKIE
  2

  3

  4

  6

  7

  8
0035sekine
  9

300
=
301
=
302
=
303
=
304
=
305
=
306
=
307
=
308
=
309
=
 40
0.0014766550925926
 41
2305814.417110764
 42
2457592.456476933
  1

 90
        0
  0
XRECORD
  5
699
102
{ACAD_REACTORS
330
698
102
}
330
698
100
AcDbXrecord
280
     1
290
     1
  0
XRECORD
  5
69B
102
{ACAD_REACTORS
330
69A
102
}
330
69A
100
AcDbXrecord
280
     1
290
     1
  0
SORTENTSTABLE
  5
536
102
{ACAD_REACTORS
330
535
102
}
330
535
100
AcDbSortentsTable
330
A
331
65B
  5
5E9
331
639
  5
5CE
331
370
  5
645
331
345
  5
61A
331
628
  5
469
331
3AD
  5
682
331
66C
  5
5FA
331
5E0
  5
393
331
354
  5
629
331
37E
  5
653
331
343
  5
618
331
626
  5
467
331
3AB
  5
680
331
66A
  5
5F8
331
36F
  5
644
331
5DE
  5
391
331
352
  5
627
331
637
  5
5CC
331
37C
  5
651
331
341
  5
616
331
624
  5
464
331
668
  5
5F6
331
38B
  5
660
331
36D
  5
642
331
5DC
  5
38F
331
350
  5
625
331
635
  5
5CA
331
37A
  5
64F
331
34F
  5
624
331
666
  5
5F4
331
644
  5
5D9
331
622
  5
462
331
389
  5
65E
331
36B
  5
640
331
655
  5
5E3
331
633
  5
475
331
378
  5
64D
331
34D
  5
622
331
664
  5
5F2
331
642
  5
5D7
331
620
  5
460
331
369
  5
63E
331
3A6
  5
67B
331
653
  5
5E1
331
631
  5
473
331
34B
  5
620
331
662
  5
5F0
331
640
  5
5D5
331
395
  5
66A
331
675
  5
603
331
377
  5
64C
331
5F8
  5
3AF
331
3A4
  5
679
331
651
  5
5DF
331
62F
  5
471
331
386
  5
65B
331
349
  5
61E
331
3B1
  5
686
331
660
  5
5EE
331
63E
  5
5D3
331
673
  5
601
331
375
  5
64A
331
5F6
  5
3AD
331
3A2
  5
677
331
64F
  5
5DD
331
62D
  5
46E
331
384
  5
659
331
65E
  5
5EC
331
63C
  5
5D1
331
671
  5
5FF
331
373
  5
648
331
5F4
  5
3AB
331
3A0
  5
675
331
66F
  5
5FD
331
64D
  5
5DB
331
62B
  5
46C
331
382
  5
657
331
357
  5
62C
331
39F
  5
674
331
65C
  5
5EA
331
63A
  5
5CF
331
371
  5
646
331
346
  5
61B
331
629
  5
46A
331
3AE
  5
683
331
66D
  5
5FB
331
380
  5
655
331
5E1
  5
394
331
355
  5
62A
331
65A
  5
5E8
331
638
  5
5CD
331
37F
  5
654
331
344
  5
619
331
627
  5
468
331
3AC
  5
681
331
66B
  5
5F9
331
5DF
  5
392
331
353
  5
628
331
37D
  5
652
331
342
  5
617
331
625
  5
466
331
669
  5
5F7
331
36E
  5
643
331
5DD
  5
390
331
351
  5
626
331
636
  5
5CB
331
37B
  5
650
331
667
  5
5F5
331
645
  5
5DA
331
623
  5
463
331
38A
  5
65F
331
36C
  5
641
331
656
  5
5E4
331
634
  5
476
331
379
  5
64E
331
34E
  5
623
331
665
  5
5F3
331
643
  5
5D8
331
621
  5
461
331
388
  5
65D
331
36A
  5
63F
331
3A7
  5
67C
331
654
  5
5E2
331
632
  5
474
331
34C
  5
621
331
663
  5
5F1
331
641
  5
5D6
331
5F9
  5
3B0
331
3A5
  5
67A
331
652
  5
5E0
331
630
  5
472
331
387
  5
65C
331
676
  5
604
331
34A
  5
61F
331
3B2
  5
687
331
661
  5
5EF
331
63F
  5
5D4
331
61D
  5
45D
331
394
  5
669
331
674
  5
602
331
376
  5
64B
331
5F7
  5
3AE
331
3A3
  5
678
331
650
  5
5DE
331
62E
  5
46F
331
385
  5
65A
331
348
  5
61D
331
3B0
  5
685
331
65F
  5
5ED
331
63D
  5
5D2
331
672
  5
600
331
374
  5
649
331
5F5
  5
3AC
331
3A1
  5
676
331
64E
  5
5DC
331
62C
  5
46D
331
383
  5
658
331
65D
  5
5EB
331
63B
  5
5D0
331
670
  5
5FE
331
372
  5
647
331
347
  5
61C
331
62A
  5
46B
331
3AF
  5
684
331
66E
  5
5FC
331
381
  5
656
331
356
  5
62B
  0
XRECORD
  5
70C
102
{ACAD_REACTORS
330
70B
102
}
330
70B
100
AcDbXrecord
280
     1
 40
86044.0
  1
\U+0192N\U+0192\U+008D\U+0192\U+0081\U+0081[\U+0192g
  0
XRECORD
  5
70A
102
{ACAD_REACTORS
330
709
102
}
330
709
100
AcDbXrecord
280
     1
 40
302459.0
  1
\U+2022\U+00A7\U+008D\U+00E2\U+2039\U+00C1 \U+0192o\U+0192l\U+008D\U+00E2\U+2039\U+00C1\U+2022t M6
  0
XRECORD
  5
708
102
{ACAD_REACTORS
330
707
102
}
330
707
100
AcDbXrecord
280
     1
 40
184989.0
  1
\U+201A\U+00E0\U+201A\U+00E6\U+008F~\U+201A\U+00F9\U+201A\U+00D1M4\U+0081~12
  0
XRECORD
  5
706
102
{ACAD_REACTORS
330
705
102
}
330
705
100
AcDbXrecord
280
     1
 40
105094.0
  1
\U+02C6\U+0081\U+2030\U+201D\U+0192\U+0081\U+0192b\U+0192L
  0
XRECORD
  5
704
102
{ACAD_REACTORS
330
703
102
}
330
703
100
AcDbXrecord
280
     1
 40
29618.0
  1
\U+017Ds\U+201D\U+00E4\U+2022i
  0
XRECORD
  5
702
102
{ACAD_REACTORS
330
701
102
}
330
701
100
AcDbXrecord
280
     1
 40
317817.0
  1
\U+008D\U+00E2\U+2039\U+00C1\U+2022t\U+201A\U+00E0\U+201A\U+00E6\U+008F~\U+201A\U+00F9\U+201A\U+00D1
  0
XRECORD
  5
700
102
{ACAD_REACTORS
330
6FF
102
}
330
6FF
100
AcDbXrecord
280
     1
 40
350412.0
  1
\U+2019\U+00EF\U+201A%%c\U+0192{\U+0192\U+2039\U+0192g\U+0152\U+00E9\U+2019%%c\U+201A\U+00F9\U+201A\U+00D1
  0
XRECORD
  5
6FE
102
{ACAD_REACTORS
330
6FD
102
}
330
6FD
100
AcDbXrecord
280
     1
 40
6388.0
  1
\U+0081\U+00CF
  0
XRECORD
  5
6FC
102
{ACAD_REACTORS
330
6FB
102
}
330
6FB
100
AcDbXrecord
280
     1
 40
274718.0
  1
\U+201C\U+0152\U+2039\U+20AC\U+201Cs\U+2018\U+00F0\U+201C\U+0152\U+2039\U+00CC\U+201C*\U+2019J
  0
XRECORD
  5
6FA
102
{ACAD_REACTORS
330
6F9
102
}
330
6F9
100
AcDbXrecord
280
     1
 40
15843.0
  1
\U+00B2{\U+017D\U+00C5
  0
XRECORD
  5
6F8
102
{ACAD_REACTORS
330
6F7
102
}
330
6F7
100
AcDbXrecord
280
     1
 40
391180.0
  1
\U+008D\U+201A\U+2039\U+00C7\U+2039\U+00C1\U+2022\U+00B4\U+0160\U+201D\U+017D\U+00DB\U+2030\U+00FF\U+017D\U+00C5
  0
XRECORD
  5
6F6
102
{ACAD_REACTORS
330
6F5
102
}
330
6F5
100
AcDbXrecord
280
     1
 40
16619.0
  1
\U+017D\U+00D6\U+201Cx
  0
XRECORD
  5
6F4
102
{ACAD_REACTORS
330
6F3
102
}
330
6F3
100
AcDbXrecord
280
     1
 40
17643.0
  1
\U+2019S  \U+201C\U+00B2
  0
XRECORD
  5
6F2
102
{ACAD_REACTORS
330
6F1
102
}
330
6F1
100
AcDbXrecord
280
     1
 40
18174.0
  1
\U+0152\U+0081  \U+0090}
  0
XRECORD
  5
6F0
102
{ACAD_REACTORS
330
6EF
102
}
330
6EF
100
AcDbXrecord
280
     1
 40
17447.0
  1
\U+008F\U+00B0  \U+201DF
  0
XRECORD
  5
6EE
102
{ACAD_REACTORS
330
6ED
102
}
330
6ED
100
AcDbXrecord
280
     1
 40
18923.0
  1
\U+2039L   \U+017D\U+00B2
  0
XRECORD
  5
6EC
102
{ACAD_REACTORS
330
6EB
102
}
330
6EB
100
AcDbXrecord
280
     1
 40
53004.0
  1
\U+017Dd   \U+008F\U+00D0   \U+201A\U+00AF
  0
XRECORD
  5
6EA
102
{ACAD_REACTORS
330
6E9
102
}
330
6E9
100
AcDbXrecord
280
     1
 40
13191.0
  1
\U+0090\U+201D %%d%%d
  0
XRECORD
  5
6E8
102
{ACAD_REACTORS
330
6E7
102
}
330
6E7
100
AcDbXrecord
280
     1
 40
29091.0
  1
\U+008D\U+00DF   \U+017D\U+00A2
  0
XRECORD
  5
6E6
102
{ACAD_REACTORS
330
6E5
102
}
330
6E5
100
AcDbXrecord
280
     1
 40
25568.0
  1
\U+2022i        \U+00B2\U+00A5
  0
XRECORD
  5
6E4
102
{ACAD_REACTORS
330
6E3
102
}
330
6E3
100
AcDbXrecord
280
     1
 40
16741.0
  1
\U+2022i \U+201D\U+00E5
  0
XRECORD
  5
6E2
102
{ACAD_REACTORS
330
6E1
102
}
330
6E1
100
AcDbXrecord
280
     1
 40
19134.0
  1
\U+0090}\P\U+201D\U+00E5
  0
XRECORD
  5
6E0
102
{ACAD_REACTORS
330
6DF
102
}
330
6DF
100
AcDbXrecord
280
     1
 40
18980.0
  1
\U+0090}\P\U+00B2\U+00A5
  0
XRECORD
  5
6DE
102
{ACAD_REACTORS
330
6DD
102
}
330
6DD
100
AcDbXrecord
280
     1
 40
18800.0
  1
\U+2022i\P\U+00B2\U+00A5
  0
XRECORD
  5
6DC
102
{ACAD_REACTORS
330
6DB
102
}
330
6DB
100
AcDbXrecord
280
     1
 40
25044.0
  1
\U+02C6\U+00CF\U+008D\U+00E3
  0
XRECORD
  5
6DA
102
{ACAD_REACTORS
330
6D9
102
}
330
6D9
100
AcDbXrecord
280
     1
 40
23804.0
  1
\U+2019\U+2020\U+201C\U+2021
  0
XRECORD
  5
6D8
102
{ACAD_REACTORS
330
6D7
102
}
330
6D7
100
AcDbXrecord
280
     1
 40
16080.0
  1
\U+0160\U+00F8\U+008D^ 
  0
XRECORD
  5
6D6
102
{ACAD_REACTORS
330
6D5
102
}
330
6D5
100
AcDbXrecord
280
     1
 40
23171.0
  1
\U+2018g%%d\U+00CF\U+0090}
  0
XRECORD
  5
6D4
102
{ACAD_REACTORS
330
6D3
102
}
330
6D3
100
AcDbXrecord
280
     1
 40
515887.0
  1
\U+0192N\U+0192\U+008D\U+0192\U+0081\U+0081[\U+0192g\U+0152\U+00D0 \U+2022\\U+00B2%%d\U+008D\U+2022\U+0090F\U+201Ch\U+2018\U+2022
  0
XRECORD
  5
6D2
102
{ACAD_REACTORS
330
6D1
102
}
330
6D1
100
AcDbXrecord
280
     1
 40
235742.0
  1
6\U+0192i\U+0192C\U+0192\U+008D\U+0192\U+201C\U+2022\U+00C0\U+008D\U+2021\U+008D\U+00DF
  0
XRECORD
  5
6D0
102
{ACAD_REACTORS
330
6CF
102
}
330
6CF
100
AcDbXrecord
280
     1
 40
74943.0
  1
\U+0152\U+00E9\U+2019%%c\U+0192J\U+0192b\U+0192v
  0
XRECORD
  5
6CE
102
{ACAD_REACTORS
330
6CD
102
}
330
6CD
100
AcDbXrecord
280
     1
 40
114981.0
  1
\U+2019\U+2026\U+2019E\U+0192z\U+0192\U+2039\U+0192_\U+0081[
  0
XRECORD
  5
6CC
102
{ACAD_REACTORS
330
6CB
102
}
330
6CB
100
AcDbXrecord
280
     1
 40
93561.0
  1
\U+2019\U+00EF\U+201A%%c\U+0192{\U+0192\U+2039\U+0192g
  0
XRECORD
  5
6CA
102
{ACAD_REACTORS
330
6C9
102
}
330
6C9
100
AcDbXrecord
280
     1
 40
139780.0
  1
\U+0192\U+2030\U+0192\U+201C\U+0192i\U+0081[\U+00B2{\U+2018\U+00E4
  0
XRECORD
  5
6C8
102
{ACAD_REACTORS
330
6C7
102
}
330
6C7
100
AcDbXrecord
280
     1
 40
273102.0
  1
\U+0192x\U+0192A\U+0192\U+0160\U+0192\U+201C\U+0192O\U+201C*\U+201A%%c\U+017D\U+00E5%%d\U+00F8
  0
XRECORD
  5
6C6
102
{ACAD_REACTORS
330
6C5
102
}
330
6C5
100
AcDbXrecord
280
     1
 40
63091.0
  1
6\U+0192i\U+0192C\U+0192\U+008D\U+0192\U+201C
  0
XRECORD
  5
6C4
102
{ACAD_REACTORS
330
6C3
102
}
330
6C3
100
AcDbXrecord
280
     1
 40
692201.0
  1
\U+0192W\U+0192\U+2026\U+0192\U+2030\U+0192R\U+0192\U+201C\U+0081A\U+0192X\U+0192`\U+0081[\U+0192\U+2039\U+0192{\U+0081[\U+0192\U+2039,\U+2018\U+00A5
  0
XRECORD
  5
6C2
102
{ACAD_REACTORS
330
6C1
102
}
330
6C1
100
AcDbXrecord
280
     1
 40
14977.0
  1
\U+008D\U+2022\U+0090F
  0
XRECORD
  5
6C0
102
{ACAD_REACTORS
330
6BF
102
}
330
6BF
100
AcDbXrecord
280
     1
 40
86044.0
  1
\U+0192N\U+0192\U+008D\U+0192\U+0081\U+0081[\U+0192g
  0
XRECORD
  5
6BE
102
{ACAD_REACTORS
330
6BD
102
}
330
6BD
100
AcDbXrecord
280
     1
 40
45028.0
  1
\U+0192`\U+0192\U+2021\U+0192R\U+0090F
  0
XRECORD
  5
6BC
102
{ACAD_REACTORS
330
6BB
102
}
330
6BB
100
AcDbXrecord
280
     1
 40
39912.0
  1
\U+201D\U+2019\U+0081A\U+2018\U+00A5
  0
XRECORD
  5
6BA
102
{ACAD_REACTORS
330
6B9
102
}
330
6B9
100
AcDbXrecord
280
     1
 40
184657.0
  1
\U+0160\U+00DC\U+017DM\U+00B2\U+00C4\U+201A\U+00F9\U+201A\U+00D13.1\U+0081~20
  0
XRECORD
  5
6B8
102
{ACAD_REACTORS
330
6B7
102
}
330
6B7
100
AcDbXrecord
280
     1
 40
86044.0
  1
\U+0192N\U+0192\U+008D\U+0192\U+0081\U+0081[\U+0192g
  0
XRECORD
  5
6B6
102
{ACAD_REACTORS
330
6B5
102
}
330
6B5
100
AcDbXrecord
280
     1
 40
105094.0
  1
\U+02C6\U+0081\U+2030\U+201D\U+0192\U+0081\U+0192b\U+0192L
  0
XRECORD
  5
6B4
102
{ACAD_REACTORS
330
6B3
102
}
330
6B3
100
AcDbXrecord
280
     1
 40
96085.0
  1
\U+017Ds\U+201D\U+00E4\U+2022i \U+201C%%p\U+017D\U+00DA
  0
XRECORD
  5
6B2
102
{ACAD_REACTORS
330
6B1
102
}
330
6B1
100
AcDbXrecord
280
     1
 40
29618.0
  1
\U+017Ds\U+201D\U+00E4\U+2022i
  0
XRECORD
  5
6B0
102
{ACAD_REACTORS
330
6AF
102
}
330
6AF
100
AcDbXrecord
280
     1
 40
170303.0
  1
\U+0152\U+00E9\U+2019%%c\U+0192J\U+0192b\U+0192v\U+0192i\U+0192b\U+0192g
  0
XRECORD
  5
6AE
102
{ACAD_REACTORS
330
6AD
102
}
330
6AD
100
AcDbXrecord
280
     1
 40
226025.0
  1
\U+017D\U+00CC\U+2022t\U+201A\U+00A3%%dp\U+201CY\U+2022t\U+201A\U+00F9\U+201A\U+00D1
  0
LAYOUT
  5
443
102
{ACAD_XDICTIONARY
360
742
102
}
102
{ACAD_REACTORS
330
441
102
}
330
441
100
AcDbPlotSettings
  1

  2
\\asrv0030\DocuCentre 230 - 本社９階　開発部
  4

  6

 40
0.0
 41
0.0
 42
0.0
 43
0.0
 44
0.0
 45
0.0
 46
0.0
 47
0.0
 48
0.0
 49
0.0
140
0.0
141
0.0
142
1.0
143
1.0
 70
  1712
 72
     0
 73
     0
 74
     0
  7

 75
     0
147
1.0
148
0.0
149
0.0
100
AcDbLayout
  1
Model
 70
     1
 71
     0
 10
0.0
 20
0.0
 11
12.0
 21
9.0
 12
0.0
 22
0.0
 32
0.0
 14
0.0
 24
0.0
 34
0.0
 15
0.0
 25
0.0
 35
0.0
146
0.0
 13
0.0
 23
0.0
 33
0.0
 16
1.0
 26
0.0
 36
0.0
 17
0.0
 27
1.0
 37
0.0
 76
     0
330
A
331
15
  0
LAYOUT
  5
444
102
{ACAD_XDICTIONARY
360
744
102
}
102
{ACAD_REACTORS
330
441
102
}
330
441
100
AcDbPlotSettings
  1

  2
\\asrv0030\DocuCentre 230 - 本社９階　開発部
  4

  6

 40
0.0
 41
0.0
 42
0.0
 43
0.0
 44
0.0
 45
0.0
 46
0.0
 47
0.0
 48
0.0
 49
0.0
140
0.0
141
0.0
142
1.0
143
1.0
 70
   688
 72
     0
 73
     0
 74
     5
  7

 75
    16
147
1.0
148
0.0
149
0.0
100
AcDbLayout
  1
レイアウト1
 70
     0
 71
     1
 10
0.0
 20
0.0
 11
12.0
 21
9.0
 12
0.0
 22
0.0
 32
0.0
 14
1.000000000000000E+20
 24
1.000000000000000E+20
 34
1.000000000000000E+20
 15
-1.000000000000000E+20
 25
-1.000000000000000E+20
 35
-1.000000000000000E+20
146
0.0
 13
0.0
 23
0.0
 33
0.0
 16
1.0
 26
0.0
 36
0.0
 17
0.0
 27
1.0
 37
0.0
 76
     0
330
B
  0
MATERIAL
  5
401
102
{ACAD_XDICTIONARY
360
402
102
}
102
{ACAD_REACTORS
330
3F8
102
}
330
3F8
100
AcDbMaterial
  1
ByBlock
 72
     0
 43
0.0208333333333333
 43
0.0
 43
0.0
 43
0.0
 43
0.0
 43
0.0208333333333333
 43
0.0
 43
0.0
 43
0.0
 43
0.0
 43
1.0
 43
0.0
 43
0.0
 43
0.0
 43
0.0
 43
1.0
 77
     0
 47
0.0208333333333333
 47
0.0
 47
0.0
 47
0.0
 47
0.0
 47
0.0208333333333333
 47
0.0
 47
0.0
 47
0.0
 47
0.0
 47
1.0
 47
0.0
 47
0.0
 47
0.0
 47
0.0
 47
1.0
171
     0
 49
0.0208333333333333
 49
0.0
 49
0.0
 49
0.0
 49
0.0
 49
0.0208333333333333
 49
0.0
 49
0.0
 49
0.0
 49
0.0
 49
1.0
 49
0.0
 49
0.0
 49
0.0
 49
0.0
 49
1.0
175
     0
142
0.0208333333333333
142
0.0
142
0.0
142
0.0
142
0.0
142
0.0208333333333333
142
0.0
142
0.0
142
0.0
142
0.0
142
1.0
142
0.0
142
0.0
142
0.0
142
0.0
142
1.0
179
     0
144
0.0208333333333333
144
0.0
144
0.0
144
0.0
144
0.0
144
0.0208333333333333
144
0.0
144
0.0
144
0.0
144
0.0
144
1.0
144
0.0
144
0.0
144
0.0
144
0.0
144
1.0
147
0.0208333333333333
147
0.0
147
0.0
147
0.0
147
0.0
147
0.0208333333333333
147
0.0
147
0.0
147
0.0
147
0.0
147
1.0
147
0.0
147
0.0
147
0.0
147
0.0
147
1.0
  0
MATERIAL
  5
3F9
102
{ACAD_XDICTIONARY
360
3FA
102
}
102
{ACAD_REACTORS
330
3F8
102
}
330
3F8
100
AcDbMaterial
  1
ByLayer
 72
     0
 43
0.0208333333333333
 43
0.0
 43
0.0
 43
0.0
 43
0.0
 43
0.0208333333333333
 43
0.0
 43
0.0
 43
0.0
 43
0.0
 43
1.0
 43
0.0
 43
0.0
 43
0.0
 43
0.0
 43
1.0
 77
     0
 47
0.0208333333333333
 47
0.0
 47
0.0
 47
0.0
 47
0.0
 47
0.0208333333333333
 47
0.0
 47
0.0
 47
0.0
 47
0.0
 47
1.0
 47
0.0
 47
0.0
 47
0.0
 47
0.0
 47
1.0
171
     0
 49
0.0208333333333333
 49
0.0
 49
0.0
 49
0.0
 49
0.0
 49
0.0208333333333333
 49
0.0
 49
0.0
 49
0.0
 49
0.0
 49
1.0
 49
0.0
 49
0.0
 49
0.0
 49
0.0
 49
1.0
175
     0
142
0.0208333333333333
142
0.0
142
0.0
142
0.0
142
0.0
142
0.0208333333333333
142
0.0
142
0.0
142
0.0
142
0.0
142
1.0
142
0.0
142
0.0
142
0.0
142
0.0
142
1.0
179
     0
144
0.0208333333333333
144
0.0
144
0.0
144
0.0
144
0.0
144
0.0208333333333333
144
0.0
144
0.0
144
0.0
144
0.0
144
1.0
144
0.0
144
0.0
144
0.0
144
0.0
144
1.0
147
0.0208333333333333
147
0.0
147
0.0
147
0.0
147
0.0
147
0.0208333333333333
147
0.0
147
0.0
147
0.0
147
0.0
147
1.0
147
0.0
147
0.0
147
0.0
147
0.0
147
1.0
  0
MATERIAL
  5
409
102
{ACAD_XDICTIONARY
360
40A
102
}
102
{ACAD_REACTORS
330
3F8
102
}
330
3F8
100
AcDbMaterial
  1
Global
 72
     0
 43
0.0208333333333333
 43
0.0
 43
0.0
 43
0.0
 43
0.0
 43
0.0208333333333333
 43
0.0
 43
0.0
 43
0.0
 43
0.0
 43
1.0
 43
0.0
 43
0.0
 43
0.0
 43
0.0
 43
1.0
 77
     0
 47
0.0208333333333333
 47
0.0
 47
0.0
 47
0.0
 47
0.0
 47
0.0208333333333333
 47
0.0
 47
0.0
 47
0.0
 47
0.0
 47
1.0
 47
0.0
 47
0.0
 47
0.0
 47
0.0
 47
1.0
171
     0
 49
0.0208333333333333
 49
0.0
 49
0.0
 49
0.0
 49
0.0
 49
0.0208333333333333
 49
0.0
 49
0.0
 49
0.0
 49
0.0
 49
1.0
 49
0.0
 49
0.0
 49
0.0
 49
0.0
 49
1.0
175
     0
142
0.0208333333333333
142
0.0
142
0.0
142
0.0
142
0.0
142
0.0208333333333333
142
0.0
142
0.0
142
0.0
142
0.0
142
1.0
142
0.0
142
0.0
142
0.0
142
0.0
142
1.0
179
     0
144
0.0208333333333333
144
0.0
144
0.0
144
0.0
144
0.0
144
0.0208333333333333
144
0.0
144
0.0
144
0.0
144
0.0
144
1.0
144
0.0
144
0.0
144
0.0
144
0.0
144
1.0
147
0.0208333333333333
147
0.0
147
0.0
147
0.0
147
0.0
147
0.0208333333333333
147
0.0
147
0.0
147
0.0
147
0.0
147
1.0
147
0.0
147
0.0
147
0.0
147
0.0
147
1.0
  0
MLEADERSTYLE
  5
440
102
{ACAD_REACTORS
330
43F
102
}
330
43F
100
AcDbMLeaderStyle
170
     2
171
     1
172
     0
 90
        2
 40
0.0
 41
0.0
173
     1
 91
-1056964608
340
11
 92
       -2
290
     1
 42
2.0
291
     1
 43
0.36
  3
Standard
 44
4.0
300

342
17
174
     1
178
     6
175
     1
176
     0
 93
-1056964608
 45
4.0
292
     0
297
     0
 46
4.0
 94
-1056964608
 47
1.0
 49
1.0
140
1.0
293
     1
141
0.0
294
     1
177
     0
142
1.0
295
     0
296
     0
143
0.125
1001
ACAD_MLEADERVER
1070
     2
  0
MLINESTYLE
  5
1C
102
{ACAD_REACTORS
330
1B
102
}
330
1B
100
AcDbMlineStyle
  2
STANDARD
 70
     0
  3

 62
     0
 51
90.0
 52
90.0
 71
     2
 49
0.5
 62
   256
  6
BYLAYER
 49
-0.5
 62
   256
  6
BYLAYER
  0
ACDBPLACEHOLDER
  5
3F7
102
{ACAD_REACTORS
330
3F6
102
}
330
3F6
  0
SCALE
  5
42E
102
{ACAD_REACTORS
330
42D
102
}
330
42D
100
AcDbScale
 70
     0
300
1:1
140
1.0
141
1.0
290
     1
  0
SCALE
  5
42F
102
{ACAD_REACTORS
330
42D
102
}
330
42D
100
AcDbScale
 70
     0
300
1:2
140
1.0
141
2.0
290
     0
  0
SCALE
  5
430
102
{ACAD_REACTORS
330
42D
102
}
330
42D
100
AcDbScale
 70
     0
300
1:4
140
1.0
141
4.0
290
     0
  0
SCALE
  5
431
102
{ACAD_REACTORS
330
42D
102
}
330
42D
100
AcDbScale
 70
     0
300
1:5
140
1.0
141
5.0
290
     0
  0
SCALE
  5
432
102
{ACAD_REACTORS
330
42D
102
}
330
42D
100
AcDbScale
 70
     0
300
1:8
140
1.0
141
8.0
290
     0
  0
SCALE
  5
433
102
{ACAD_REACTORS
330
42D
102
}
330
42D
100
AcDbScale
 70
     0
300
1:10
140
1.0
141
10.0
290
     0
  0
SCALE
  5
434
102
{ACAD_REACTORS
330
42D
102
}
330
42D
100
AcDbScale
 70
     0
300
1:16
140
1.0
141
16.0
290
     0
  0
SCALE
  5
435
102
{ACAD_REACTORS
330
42D
102
}
330
42D
100
AcDbScale
 70
     0
300
1:20
140
1.0
141
20.0
290
     0
  0
SCALE
  5
436
102
{ACAD_REACTORS
330
42D
102
}
330
42D
100
AcDbScale
 70
     0
300
1:30
140
1.0
141
30.0
290
     0
  0
SCALE
  5
437
102
{ACAD_REACTORS
330
42D
102
}
330
42D
100
AcDbScale
 70
     0
300
1:40
140
1.0
141
40.0
290
     0
  0
SCALE
  5
438
102
{ACAD_REACTORS
330
42D
102
}
330
42D
100
AcDbScale
 70
     0
300
1:50
140
1.0
141
50.0
290
     0
  0
SCALE
  5
439
102
{ACAD_REACTORS
330
42D
102
}
330
42D
100
AcDbScale
 70
     0
300
1:100
140
1.0
141
100.0
290
     0
  0
SCALE
  5
43A
102
{ACAD_REACTORS
330
42D
102
}
330
42D
100
AcDbScale
 70
     0
300
2:1
140
2.0
141
1.0
290
     0
  0
SCALE
  5
43B
102
{ACAD_REACTORS
330
42D
102
}
330
42D
100
AcDbScale
 70
     0
300
4:1
140
4.0
141
1.0
290
     0
  0
SCALE
  5
43C
102
{ACAD_REACTORS
330
42D
102
}
330
42D
100
AcDbScale
 70
     0
300
8:1
140
8.0
141
1.0
290
     0
  0
SCALE
  5
43D
102
{ACAD_REACTORS
330
42D
102
}
330
42D
100
AcDbScale
 70
     0
300
10:1
140
10.0
141
1.0
290
     0
  0
SCALE
  5
43E
102
{ACAD_REACTORS
330
42D
102
}
330
42D
100
AcDbScale
 70
     0
300
100:1
140
100.0
141
1.0
290
     0
  0
TABLESTYLE
  5
42C
102
{ACAD_XDICTIONARY
360
6A9
102
}
102
{ACAD_REACTORS
330
42B
102
}
330
42B
100
AcDbTableStyle
  3
Standard
 70
     0
 71
     0
 40
1.5
 41
1.5
280
     0
281
     0
  7
STANDARD
140
4.5
170
     2
 62
     0
 63
     7
283
     0
274
    -2
284
     1
 64
     0
275
    -2
285
     1
 65
     0
276
    -2
286
     1
 66
     0
277
    -2
287
     1
 67
     0
278
    -2
288
     1
 68
     0
279
    -2
289
     1
 69
     0
  7
STANDARD
140
6.0
170
     5
 62
     0
 63
     7
283
     0
274
    -2
284
     1
 64
     0
275
    -2
285
     1
 65
     0
276
    -2
286
     1
 66
     0
277
    -2
287
     1
 67
     0
278
    -2
288
     1
 68
     0
279
    -2
289
     1
 69
     0
  7
STANDARD
140
4.5
170
     5
 62
     0
 63
     7
283
     0
274
    -2
284
     1
 64
     0
275
    -2
285
     1
 65
     0
276
    -2
286
     1
 66
     0
277
    -2
287
     1
 67
     0
278
    -2
288
     1
 68
     0
279
    -2
289
     1
 69
     0
  0
VISUALSTYLE
  5
417
102
{ACAD_XDICTIONARY
360
71A
102
}
102
{ACAD_REACTORS
330
411
102
}
330
411
100
AcDbVisualStyle
  2
2dWireframe
 70
     4
 71
     0
 72
     2
 73
     0
 90
        0
 40
-0.6
 41
-30.0
 62
     5
 63
     7
 74
     1
 91
        4
 64
     7
 65
   257
 75
     1
175
     1
 42
1.0
 92
        0
 66
   257
 43
1.0
 76
     1
 77
     6
 78
     2
 67
     7
 79
     5
170
     0
171
     0
290
     0
174
     0
 93
        1
 44
0.0
173
     0
291
     0
 45
0.0
1001
ACAD
1000
AcDbSavedByObjectVersion
1070
     0
  0
VISUALSTYLE
  5
416
102
{ACAD_XDICTIONARY
360
718
102
}
102
{ACAD_REACTORS
330
411
102
}
330
411
100
AcDbVisualStyle
  2
Basic
 70
     7
 71
     1
 72
     0
 73
     1
 90
        0
 40
-0.6
 41
-30.0
 62
     5
 63
     7
 74
     0
 91
        4
 64
     7
 65
   257
 75
     1
175
     1
 42
1.0
 92
        8
 66
     7
 43
1.0
 76
     1
 77
     6
 78
     2
 67
     7
 79
     5
170
     0
171
     0
290
     0
174
     0
 93
        1
 44
0.0
173
     0
291
     1
 45
0.0
1001
ACAD
1000
AcDbSavedByObjectVersion
1070
     0
  0
VISUALSTYLE
  5
41D
102
{ACAD_XDICTIONARY
360
726
102
}
102
{ACAD_REACTORS
330
411
102
}
330
411
100
AcDbVisualStyle
  2
Brighten
 70
    12
 71
     2
 72
     2
 73
     0
 90
        0
 40
-0.6
 41
-30.0
 62
     5
 63
     7
 74
     1
 91
        4
 64
     7
 65
   257
 75
     1
175
     1
 42
1.0
 92
        8
 66
     7
 43
1.0
 76
     1
 77
     6
 78
     2
 67
     7
 79
     5
170
     0
171
     0
290
     0
174
     0
 93
        1
 44
50.0
173
     0
291
     1
 45
0.0
1001
ACAD
1000
AcDbSavedByObjectVersion
1070
     0
  0
VISUALSTYLE
  5
421
102
{ACAD_XDICTIONARY
360
72E
102
}
102
{ACAD_REACTORS
330
411
102
}
330
411
100
AcDbVisualStyle
  2
ColorChange
 70
    16
 71
     2
 72
     2
 73
     3
 90
        0
 40
-0.6
 41
-30.0
 62
     5
 63
     8
 74
     1
 91
        4
 64
     7
 65
   257
 75
     1
175
     1
 42
1.0
 92
        8
 66
     8
 43
1.0
 76
     1
 77
     6
 78
     2
 67
     7
 79
     5
170
     0
171
     0
290
     0
174
     0
 93
        1
 44
0.0
173
     0
291
     1
 45
0.0
1001
ACAD
1000
AcDbSavedByObjectVersion
1070
     0
  0
VISUALSTYLE
  5
41A
102
{ACAD_XDICTIONARY
360
720
102
}
102
{ACAD_REACTORS
330
411
102
}
330
411
100
AcDbVisualStyle
  2
Conceptual
 70
     9
 71
     3
 72
     2
 73
     0
 90
        0
 40
-0.6
 41
-30.0
 62
     5
 63
     7
 74
     2
 91
        2
 64
     7
 65
   257
 75
     1
175
     1
 42
179.0
 92
        8
 66
     7
 43
1.0
 76
     1
 77
     6
 78
     2
 67
     7
 79
     3
170
     0
171
     0
290
     0
174
     0
 93
        1
 44
0.0
173
     0
291
     0
 45
0.0
1001
ACAD
1000
AcDbSavedByObjectVersion
1070
     0
  0
VISUALSTYLE
  5
41C
102
{ACAD_XDICTIONARY
360
724
102
}
102
{ACAD_REACTORS
330
411
102
}
330
411
100
AcDbVisualStyle
  2
Dim
 70
    11
 71
     2
 72
     2
 73
     0
 90
        0
 40
-0.6
 41
-30.0
 62
     5
 63
     7
 74
     1
 91
        4
 64
     7
 65
   257
 75
     1
175
     1
 42
1.0
 92
        8
 66
     7
 43
1.0
 76
     1
 77
     6
 78
     2
 67
     7
 79
     5
170
     0
171
     0
290
     0
174
     0
 93
        1
 44
-50.0
173
     0
291
     1
 45
0.0
1001
ACAD
1000
AcDbSavedByObjectVersion
1070
     0
  0
VISUALSTYLE
  5
429
102
{ACAD_XDICTIONARY
360
73E
102
}
102
{ACAD_REACTORS
330
411
102
}
330
411
100
AcDbVisualStyle
  2
EdgeColorOff
 70
    22
 71
     2
 72
     2
 73
     0
 90
        0
 40
-0.6
 41
-30.0
 62
     5
 63
     7
 74
     1
 91
        4
 64
     7
 65
   257
 75
     1
175
     1
 42
1.0
 92
        8
 66
     7
 43
1.0
 76
     1
 77
     6
 78
     2
 67
     7
 79
     5
170
     0
171
     0
290
     0
174
     0
 93
        1
 44
0.0
173
     0
291
     1
 45
0.0
1001
ACAD
1000
AcDbSavedByObjectVersion
1070
     0
  0
VISUALSTYLE
  5
420
102
{ACAD_XDICTIONARY
360
72C
102
}
102
{ACAD_REACTORS
330
411
102
}
330
411
100
AcDbVisualStyle
  2
Facepattern
 70
    15
 71
     2
 72
     2
 73
     0
 90
        0
 40
-0.6
 41
-30.0
 62
     5
 63
     7
 74
     1
 91
        4
 64
     7
 65
   257
 75
     1
175
     1
 42
1.0
 92
        8
 66
     7
 43
1.0
 76
     1
 77
     6
 78
     2
 67
     7
 79
     5
170
     0
171
     0
290
     0
174
     0
 93
        1
 44
0.0
173
     0
291
     1
 45
0.0
1001
ACAD
1000
AcDbSavedByObjectVersion
1070
     0
  0
VISUALSTYLE
  5
412
102
{ACAD_XDICTIONARY
360
710
102
}
102
{ACAD_REACTORS
330
411
102
}
330
411
100
AcDbVisualStyle
  2
Flat
 70
     0
 71
     2
 72
     1
 73
     1
 90
        2
 40
-0.6
 41
30.0
 62
     5
 63
     7
 74
     0
 91
        0
 64
     7
 65
   257
 75
     1
175
     1
 42
1.0
 92
        8
 66
     7
 43
1.0
 76
     1
 77
     6
 78
     2
 67
     7
 79
     5
170
     0
171
     0
290
     0
174
     0
 93
       13
 44
0.0
173
     0
291
     1
 45
0.0
1001
ACAD
1000
AcDbSavedByObjectVersion
1070
     0
  0
VISUALSTYLE
  5
413
102
{ACAD_XDICTIONARY
360
712
102
}
102
{ACAD_REACTORS
330
411
102
}
330
411
100
AcDbVisualStyle
  2
FlatWithEdges
 70
     1
 71
     2
 72
     1
 73
     1
 90
        2
 40
-0.6
 41
30.0
 62
     5
 63
     7
 74
     1
 91
        0
 64
     7
 65
   257
 75
     1
175
     1
 42
1.0
 92
        0
 66
   257
 43
1.0
 76
     1
 77
     6
 78
     2
 67
     7
 79
     5
170
     0
171
     0
290
     0
174
     0
 93
       13
 44
0.0
173
     0
291
     1
 45
0.0
1001
ACAD
1000
AcDbSavedByObjectVersion
1070
     0
  0
VISUALSTYLE
  5
414
102
{ACAD_XDICTIONARY
360
714
102
}
102
{ACAD_REACTORS
330
411
102
}
330
411
100
AcDbVisualStyle
  2
Gouraud
 70
     2
 71
     2
 72
     2
 73
     1
 90
        2
 40
-0.6
 41
30.0
 62
     5
 63
     7
 74
     0
 91
        0
 64
     7
 65
   257
 75
     1
175
     1
 42
1.0
 92
        0
 66
     7
 43
1.0
 76
     1
 77
     6
 78
     2
 67
     7
 79
     5
170
     0
171
     0
290
     0
174
     0
 93
       13
 44
0.0
173
     0
291
     1
 45
0.0
1001
ACAD
1000
AcDbSavedByObjectVersion
1070
     0
  0
VISUALSTYLE
  5
415
102
{ACAD_XDICTIONARY
360
716
102
}
102
{ACAD_REACTORS
330
411
102
}
330
411
100
AcDbVisualStyle
  2
GouraudWithEdges
 70
     3
 71
     2
 72
     2
 73
     1
 90
        2
 40
-0.6
 41
30.0
 62
     5
 63
     7
 74
     1
 91
        0
 64
     7
 65
   257
 75
     1
175
     1
 42
1.0
 92
        0
 66
   257
 43
1.0
 76
     1
 77
     6
 78
     2
 67
     7
 79
     5
170
     0
171
     0
290
     0
174
     0
 93
       13
 44
0.0
173
     0
291
     1
 45
0.0
1001
ACAD
1000
AcDbSavedByObjectVersion
1070
     0
  0
VISUALSTYLE
  5
419
102
{ACAD_XDICTIONARY
360
71E
102
}
102
{ACAD_REACTORS
330
411
102
}
330
411
100
AcDbVisualStyle
  2
Hidden
 70
     6
 71
     1
 72
     2
 73
     2
 90
        0
 40
-0.6
 41
-30.0
 62
     5
 63
     7
 74
     2
 91
        2
 64
     7
 65
   257
 75
     2
175
     1
 42
40.0
 92
        0
 66
   257
 43
1.0
 76
     1
 77
     6
 78
     2
 67
     7
 79
     3
170
     0
171
     0
290
     0
174
     0
 93
        1
 44
0.0
173
     0
291
     0
 45
0.0
1001
ACAD
1000
AcDbSavedByObjectVersion
1070
     0
  0
VISUALSTYLE
  5
427
102
{ACAD_XDICTIONARY
360
73A
102
}
102
{ACAD_REACTORS
330
411
102
}
330
411
100
AcDbVisualStyle
  2
JitterOff
 70
    20
 71
     2
 72
     2
 73
     0
 90
        0
 40
-0.6
 41
-30.0
 62
     5
 63
     7
 74
     1
 91
        4
 64
     7
 65
   257
 75
     1
175
     1
 42
1.0
 92
       10
 66
     7
 43
1.0
 76
     1
 77
     6
 78
     2
 67
     7
 79
     5
170
     0
171
     0
290
     0
174
     0
 93
        1
 44
0.0
173
     0
291
     1
 45
0.0
1001
ACAD
1000
AcDbSavedByObjectVersion
1070
     0
  0
VISUALSTYLE
  5
41F
102
{ACAD_XDICTIONARY
360
72A
102
}
102
{ACAD_REACTORS
330
411
102
}
330
411
100
AcDbVisualStyle
  2
Linepattern
 70
    14
 71
     2
 72
     2
 73
     0
 90
        0
 40
-0.6
 41
-30.0
 62
     5
 63
     7
 74
     1
 91
        4
 64
     7
 65
   257
 75
     7
175
     7
 42
1.0
 92
        8
 66
     7
 43
1.0
 76
     1
 77
     6
 78
     2
 67
     7
 79
     5
170
     0
171
     0
290
     0
174
     0
 93
        1
 44
0.0
173
     0
291
     1
 45
0.0
1001
ACAD
1000
AcDbSavedByObjectVersion
1070
     0
  0
VISUALSTYLE
  5
428
102
{ACAD_XDICTIONARY
360
73C
102
}
102
{ACAD_REACTORS
330
411
102
}
330
411
100
AcDbVisualStyle
  2
OverhangOff
 70
    21
 71
     2
 72
     2
 73
     0
 90
        0
 40
-0.6
 41
-30.0
 62
     5
 63
     7
 74
     1
 91
        4
 64
     7
 65
   257
 75
     1
175
     1
 42
1.0
 92
        9
 66
     7
 43
1.0
 76
     1
 77
     6
 78
     2
 67
     7
 79
     5
170
     0
171
     0
290
     0
174
     0
 93
        1
 44
0.0
173
     0
291
     1
 45
0.0
1001
ACAD
1000
AcDbSavedByObjectVersion
1070
     0
  0
VISUALSTYLE
  5
41B
102
{ACAD_XDICTIONARY
360
722
102
}
102
{ACAD_REACTORS
330
411
102
}
330
411
100
AcDbVisualStyle
  2
Realistic
 70
     8
 71
     2
 72
     3
 73
     0
 90
        2
 40
-0.6
 41
30.0
 62
     5
 63
     7
 74
     0
 91
        0
 64
     7
 65
   257
 75
     1
175
     1
 42
1.0
 92
        8
 66
   257
 43
1.0
 76
     1
 77
     6
 78
     2
 67
     7
 79
     3
170
     0
171
     0
290
     0
174
     0
 93
       13
 44
0.0
173
     0
291
     0
 45
0.0
1001
ACAD
1000
AcDbSavedByObjectVersion
1070
     0
  0
VISUALSTYLE
  5
426
102
{ACAD_XDICTIONARY
360
738
102
}
102
{ACAD_REACTORS
330
411
102
}
330
411
100
AcDbVisualStyle
  2
Shaded
 70
    27
 71
     2
 72
     2
 73
     1
 90
        2
 40
-0.6
 41
30.0
 62
     5
 63
     7
 74
     0
 91
        4
 64
     7
 65
   257
 75
     1
175
     1
 42
1.0
 92
        8
 66
   257
 43
1.0
 76
     1
 77
     6
 78
     2
 67
     8
 79
     3
170
     0
171
     0
290
     0
174
     0
 93
        5
 44
0.0
173
     0
291
     0
 45
0.0
1001
ACAD
1000
AcDbSavedByObjectVersion
1070
     0
  0
VISUALSTYLE
  5
425
102
{ACAD_XDICTIONARY
360
736
102
}
102
{ACAD_REACTORS
330
411
102
}
330
411
100
AcDbVisualStyle
  2
Shaded with edges
 70
    26
 71
     2
 72
     2
 73
     1
 90
        2
 40
-0.6
 41
30.0
 62
     5
 63
     7
 74
     1
 91
       10
 64
     7
 65
   257
 75
     2
175
     1
 42
1.0
 92
        8
 66
   257
 43
1.0
 76
     1
 77
     6
 78
     2
 67
     7
 79
     3
170
     0
171
     0
290
     0
174
     0
 93
        5
 44
0.0
173
     0
291
     0
 45
0.0
1001
ACAD
1000
AcDbSavedByObjectVersion
1070
     0
  0
VISUALSTYLE
  5
422
102
{ACAD_XDICTIONARY
360
730
102
}
102
{ACAD_REACTORS
330
411
102
}
330
411
100
AcDbVisualStyle
  2
Shades of Gray
 70
    23
 71
     2
 72
     2
 73
     3
 90
        0
 40
-0.6
 41
-30.0
 62
     5
 63
     7
 74
     2
 91
        2
 64
     7
 65
     7
 75
     1
175
     1
 42
40.0
 92
        8
 66
     7
 43
1.0
 76
     1
 77
     6
 78
     2
 67
     7
 79
     3
170
     0
171
     0
290
     0
174
     0
 93
        1
 44
0.0
173
     0
291
     0
 45
0.0
1001
ACAD
1000
AcDbSavedByObjectVersion
1070
     0
  0
VISUALSTYLE
  5
423
102
{ACAD_XDICTIONARY
360
732
102
}
102
{ACAD_REACTORS
330
411
102
}
330
411
100
AcDbVisualStyle
  2
Sketchy
 70
    24
 71
     1
 72
     2
 73
     2
 90
        0
 40
-0.6
 41
-30.0
 62
     5
 63
     7
 74
     2
 91
        2
 64
     7
 65
     7
 75
     1
175
     1
 42
40.0
 92
       11
 66
     7
 43
1.0
 76
     1
 77
     6
 78
     2
 67
     7
 79
     6
170
     0
171
     0
290
     0
174
     0
 93
        1
 44
0.0
173
     0
291
     0
 45
0.0
1001
ACAD
1000
AcDbSavedByObjectVersion
1070
     0
  0
VISUALSTYLE
  5
41E
102
{ACAD_XDICTIONARY
360
728
102
}
102
{ACAD_REACTORS
330
411
102
}
330
411
100
AcDbVisualStyle
  2
Thicken
 70
    13
 71
     2
 72
     2
 73
     0
 90
        0
 40
-0.6
 41
-30.0
 62
     5
 63
     7
 74
     1
 91
        4
 64
     7
 65
   257
 75
     1
175
     1
 42
1.0
 92
       12
 66
     7
 43
1.0
 76
     1
 77
     6
 78
     2
 67
     7
 79
     5
170
     0
171
     0
290
     0
174
     0
 93
        1
 44
0.0
173
     0
291
     1
 45
0.0
1001
ACAD
1000
AcDbSavedByObjectVersion
1070
     0
  0
VISUALSTYLE
  5
418
102
{ACAD_XDICTIONARY
360
71C
102
}
102
{ACAD_REACTORS
330
411
102
}
330
411
100
AcDbVisualStyle
  2
Wireframe
 70
     5
 71
     0
 72
     2
 73
     0
 90
        0
 40
-0.6
 41
-30.0
 62
     5
 63
     7
 74
     1
 91
        4
 64
     7
 65
   257
 75
     1
175
     1
 42
1.0
 92
        0
 66
   257
 43
1.0
 76
     1
 77
     6
 78
     2
 67
     7
 79
     3
170
     0
171
     0
290
     0
174
     0
 93
        1
 44
0.0
173
     0
291
     0
 45
0.0
1001
ACAD
1000
AcDbSavedByObjectVersion
1070
     0
  0
VISUALSTYLE
  5
424
102
{ACAD_XDICTIONARY
360
734
102
}
102
{ACAD_REACTORS
330
411
102
}
330
411
100
AcDbVisualStyle
  2
X-Ray
 70
    25
 71
     2
 72
     2
 73
     1
 90
        1
 40
0.5
 41
-30.0
 62
     5
 63
     7
 74
     1
 91
        0
 64
     7
 65
   257
 75
     1
175
     1
 42
1.0
 92
        8
 66
     7
 43
1.0
 76
     1
 77
     6
 78
     2
 67
     7
 79
     3
170
     0
171
     0
290
     0
174
     0
 93
       13
 44
0.0
173
     0
291
     0
 45
0.0
1001
ACAD
1000
AcDbSavedByObjectVersion
1070
     0
  0
DICTIONARYVAR
  5
6A3
102
{ACAD_REACTORS
330
6A0
102
}
330
6A0
100
DictionaryVariables
280
     0
  1
1:1
  0
DICTIONARYVAR
  5
6A2
102
{ACAD_REACTORS
330
6A0
102
}
330
6A0
100
DictionaryVariables
280
     0
  1
STANDARD
  0
DICTIONARYVAR
  5
6A1
102
{ACAD_REACTORS
330
6A0
102
}
330
6A0
100
DictionaryVariables
280
     0
  1
STANDARD
  0
DICTIONARYVAR
  5
6A6
102
{ACAD_REACTORS
330
6A0
102
}
330
6A0
100
DictionaryVariables
280
     0
  1
1
  0
DICTIONARYVAR
  5
6A5
102
{ACAD_REACTORS
330
6A0
102
}
330
6A0
100
DictionaryVariables
280
     0
  1
0
  0
DICTIONARYVAR
  5
6A4
102
{ACAD_REACTORS
330
6A0
102
}
330
6A0
100
DictionaryVariables
280
     0
  1
127
  0
DICTIONARYVAR
  5
6A7
102
{ACAD_REACTORS
330
6A0
102
}
330
6A0
100
DictionaryVariables
280
     0
  1
2
  0
XRECORD
  5
69F
102
{ACAD_REACTORS
330
69D
102
}
330
69D
100
AcDbXrecord
280
     1
330
29
330
2C
330
33
330
34
330
35
330
33E
330
53C
330
53D
330
546
330
547
330
552
330
553
330
55C
330
55D
330
566
330
567
330
570
330
571
330
57A
330
57B
330
585
330
586
330
590
330
591
330
59A
330
59B
330
5A4
330
5A5
330
5AE
330
5AF
330
5B8
330
5B9
330
5C4
330
5C5
  0
DICTIONARY
  5
742
330
443
100
AcDbDictionary
280
     1
281
     1
  3
ACAD_XREC_ROUNDTRIP
360
743
  0
DICTIONARY
  5
744
330
444
100
AcDbDictionary
280
     1
281
     1
  3
ACAD_XREC_ROUNDTRIP
360
745
  0
DICTIONARY
  5
402
330
401
100
AcDbDictionary
280
     1
281
     1
  3
ACAD_XREC_ROUNDTRIP
360
70E
  3
BUMPTILE
360
404
  3
DIFFUSETILE
360
403
  3
OPACITYTILE
360
407
  3
REFLECTIONTILE
360
406
  3
REFRACTIONTILE
360
408
  3
SPECULARTILE
360
405
  0
DICTIONARY
  5
3FA
330
3F9
100
AcDbDictionary
280
     1
281
     1
  3
ACAD_XREC_ROUNDTRIP
360
70D
  3
BUMPTILE
360
3FC
  3
DIFFUSETILE
360
3FB
  3
OPACITYTILE
360
3FF
  3
REFLECTIONTILE
360
3FE
  3
REFRACTIONTILE
360
400
  3
SPECULARTILE
360
3FD
  0
DICTIONARY
  5
40A
330
409
100
AcDbDictionary
280
     1
281
     1
  3
ACAD_XREC_ROUNDTRIP
360
70F
  3
BUMPTILE
360
40C
  3
DIFFUSETILE
360
40B
  3
OPACITYTILE
360
40F
  3
REFLECTIONTILE
360
40E
  3
REFRACTIONTILE
360
410
  3
SPECULARTILE
360
40D
  0
DICTIONARY
  5
6A9
330
42C
100
AcDbDictionary
280
     1
281
     1
  3
ACAD_ROUNDTRIP_2008_TABLESTYLE_CELLSTYLEMAP
360
6AA
  3
ACAD_XREC_ROUNDTRIP
360
740
  0
DICTIONARY
  5
71A
330
417
100
AcDbDictionary
280
     1
281
     1
  3
ACAD_XREC_ROUNDTRIP
360
71B
  0
DICTIONARY
  5
718
330
416
100
AcDbDictionary
280
     1
281
     1
  3
ACAD_XREC_ROUNDTRIP
360
719
  0
DICTIONARY
  5
726
330
41D
100
AcDbDictionary
280
     1
281
     1
  3
ACAD_XREC_ROUNDTRIP
360
727
  0
DICTIONARY
  5
72E
330
421
100
AcDbDictionary
280
     1
281
     1
  3
ACAD_XREC_ROUNDTRIP
360
72F
  0
DICTIONARY
  5
720
330
41A
100
AcDbDictionary
280
     1
281
     1
  3
ACAD_XREC_ROUNDTRIP
360
721
  0
DICTIONARY
  5
724
330
41C
100
AcDbDictionary
280
     1
281
     1
  3
ACAD_XREC_ROUNDTRIP
360
725
  0
DICTIONARY
  5
73E
330
429
100
AcDbDictionary
280
     1
281
     1
  3
ACAD_XREC_ROUNDTRIP
360
73F
  0
DICTIONARY
  5
72C
330
420
100
AcDbDictionary
280
     1
281
     1
  3
ACAD_XREC_ROUNDTRIP
360
72D
  0
DICTIONARY
  5
710
330
412
100
AcDbDictionary
280
     1
281
     1
  3
ACAD_XREC_ROUNDTRIP
360
711
  0
DICTIONARY
  5
712
330
413
100
AcDbDictionary
280
     1
281
     1
  3
ACAD_XREC_ROUNDTRIP
360
713
  0
DICTIONARY
  5
714
330
414
100
AcDbDictionary
280
     1
281
     1
  3
ACAD_XREC_ROUNDTRIP
360
715
  0
DICTIONARY
  5
716
330
415
100
AcDbDictionary
280
     1
281
     1
  3
ACAD_XREC_ROUNDTRIP
360
717
  0
DICTIONARY
  5
71E
330
419
100
AcDbDictionary
280
     1
281
     1
  3
ACAD_XREC_ROUNDTRIP
360
71F
  0
DICTIONARY
  5
73A
330
427
100
AcDbDictionary
280
     1
281
     1
  3
ACAD_XREC_ROUNDTRIP
360
73B
  0
DICTIONARY
  5
72A
330
41F
100
AcDbDictionary
280
     1
281
     1
  3
ACAD_XREC_ROUNDTRIP
360
72B
  0
DICTIONARY
  5
73C
330
428
100
AcDbDictionary
280
     1
281
     1
  3
ACAD_XREC_ROUNDTRIP
360
73D
  0
DICTIONARY
  5
722
330
41B
100
AcDbDictionary
280
     1
281
     1
  3
ACAD_XREC_ROUNDTRIP
360
723
  0
DICTIONARY
  5
738
330
426
100
AcDbDictionary
280
     1
281
     1
  3
ACAD_XREC_ROUNDTRIP
360
739
  0
DICTIONARY
  5
736
330
425
100
AcDbDictionary
280
     1
281
     1
  3
ACAD_XREC_ROUNDTRIP
360
737
  0
DICTIONARY
  5
730
330
422
100
AcDbDictionary
280
     1
281
     1
  3
ACAD_XREC_ROUNDTRIP
360
731
  0
DICTIONARY
  5
732
330
423
100
AcDbDictionary
280
     1
281
     1
  3
ACAD_XREC_ROUNDTRIP
360
733
  0
DICTIONARY
  5
728
330
41E
100
AcDbDictionary
280
     1
281
     1
  3
ACAD_XREC_ROUNDTRIP
360
729
  0
DICTIONARY
  5
71C
330
418
100
AcDbDictionary
280
     1
281
     1
  3
ACAD_XREC_ROUNDTRIP
360
71D
  0
DICTIONARY
  5
734
330
424
100
AcDbDictionary
280
     1
281
     1
  3
ACAD_XREC_ROUNDTRIP
360
735
  0
XRECORD
  5
743
102
{ACAD_REACTORS
330
742
102
}
330
742
100
AcDbXrecord
280
     1
102
SHADEPLOT
 70
     0
102
SHADEPLOTRESLEVEL
 70
     2
102
SHADEPLOTCUSTOMDPI
 70
   300
  0
XRECORD
  5
745
102
{ACAD_REACTORS
330
744
102
}
330
744
100
AcDbXrecord
280
     1
102
SHADEPLOT
 70
     0
102
SHADEPLOTRESLEVEL
 70
     2
102
SHADEPLOTCUSTOMDPI
 70
   300
  0
XRECORD
  5
70E
102
{ACAD_REACTORS
330
402
102
}
330
402
100
AcDbXrecord
280
     1
102
MATERIAL
148
0.0
149
0.0
149
0.0
 93
        0
 94
      127
282
     0
 72
     0
 77
     0
171
     0
175
     0
179
     0
273
     0
  0
XRECORD
  5
404
102
{ACAD_REACTORS
330
402
102
}
330
402
100
AcDbXrecord
280
     1
270
     1
271
     1
  0
XRECORD
  5
403
102
{ACAD_REACTORS
330
402
102
}
330
402
100
AcDbXrecord
280
     1
270
     1
271
     1
  0
XRECORD
  5
407
102
{ACAD_REACTORS
330
402
102
}
330
402
100
AcDbXrecord
280
     1
270
     1
271
     1
  0
XRECORD
  5
406
102
{ACAD_REACTORS
330
402
102
}
330
402
100
AcDbXrecord
280
     1
270
     1
271
     1
  0
XRECORD
  5
408
102
{ACAD_REACTORS
330
402
102
}
330
402
100
AcDbXrecord
280
     1
270
     1
271
     1
  0
XRECORD
  5
405
102
{ACAD_REACTORS
330
402
102
}
330
402
100
AcDbXrecord
280
     1
270
     1
271
     1
  0
XRECORD
  5
70D
102
{ACAD_REACTORS
330
3FA
102
}
330
3FA
100
AcDbXrecord
280
     1
102
MATERIAL
148
0.0
149
0.0
149
0.0
 93
        0
 94
      127
282
     0
 72
     0
 77
     0
171
     0
175
     0
179
     0
273
     0
  0
XRECORD
  5
3FC
102
{ACAD_REACTORS
330
3FA
102
}
330
3FA
100
AcDbXrecord
280
     1
270
     1
271
     1
  0
XRECORD
  5
3FB
102
{ACAD_REACTORS
330
3FA
102
}
330
3FA
100
AcDbXrecord
280
     1
270
     1
271
     1
  0
XRECORD
  5
3FF
102
{ACAD_REACTORS
330
3FA
102
}
330
3FA
100
AcDbXrecord
280
     1
270
     1
271
     1
  0
XRECORD
  5
3FE
102
{ACAD_REACTORS
330
3FA
102
}
330
3FA
100
AcDbXrecord
280
     1
270
     1
271
     1
  0
XRECORD
  5
400
102
{ACAD_REACTORS
330
3FA
102
}
330
3FA
100
AcDbXrecord
280
     1
270
     1
271
     1
  0
XRECORD
  5
3FD
102
{ACAD_REACTORS
330
3FA
102
}
330
3FA
100
AcDbXrecord
280
     1
270
     1
271
     1
  0
XRECORD
  5
70F
102
{ACAD_REACTORS
330
40A
102
}
330
40A
100
AcDbXrecord
280
     1
102
MATERIAL
148
0.0
149
0.0
149
0.0
 93
        0
 94
      127
282
     0
 72
     0
 77
     0
171
     0
175
     0
179
     0
273
     0
  0
XRECORD
  5
40C
102
{ACAD_REACTORS
330
40A
102
}
330
40A
100
AcDbXrecord
280
     1
270
     1
271
     1
  0
XRECORD
  5
40B
102
{ACAD_REACTORS
330
40A
102
}
330
40A
100
AcDbXrecord
280
     1
270
     1
271
     1
  0
XRECORD
  5
40F
102
{ACAD_REACTORS
330
40A
102
}
330
40A
100
AcDbXrecord
280
     1
270
     1
271
     1
  0
XRECORD
  5
40E
102
{ACAD_REACTORS
330
40A
102
}
330
40A
100
AcDbXrecord
280
     1
270
     1
271
     1
  0
XRECORD
  5
410
102
{ACAD_REACTORS
330
40A
102
}
330
40A
100
AcDbXrecord
280
     1
270
     1
271
     1
  0
XRECORD
  5
40D
102
{ACAD_REACTORS
330
40A
102
}
330
40A
100
AcDbXrecord
280
     1
270
     1
271
     1
  0
CELLSTYLEMAP
  5
6AA
102
{ACAD_REACTORS
330
6A9
102
}
330
6A9
100
AcDbCellStyleMap
 90
        3
300
CELLSTYLE
  1
TABLEFORMAT_BEGIN
 90
        5
170
     1
 91
        0
 92
    32768
 62
   257
 93
        1
300
CONTENTFORMAT
  1
CONTENTFORMAT_BEGIN
 90
        0
 91
        0
 92
      512
 93
        0
300

 40
0.0
140
1.0
 94
        5
 62
     0
340
17
144
6.0
309
CONTENTFORMAT_END
171
     1
301
MARGIN
  1
CELLMARGIN_BEGIN
 40
1.5
 40
1.5
 40
1.5
 40
1.5
 40
4.5
 40
4.5
309
CELLMARGIN_END
 94
        6
 95
        1
302
GRIDFORMAT
  1
GRIDFORMAT_BEGIN
 90
        0
 91
        1
 62
     0
 92
       -2
340
0
 93
        0
 40
1.125
309
GRIDFORMAT_END
 95
        2
302
GRIDFORMAT
  1
GRIDFORMAT_BEGIN
 90
        0
 91
        1
 62
     0
 92
       -2
340
0
 93
        0
 40
1.125
309
GRIDFORMAT_END
 95
        4
302
GRIDFORMAT
  1
GRIDFORMAT_BEGIN
 90
        0
 91
        1
 62
     0
 92
       -2
340
0
 93
        0
 40
1.125
309
GRIDFORMAT_END
 95
        8
302
GRIDFORMAT
  1
GRIDFORMAT_BEGIN
 90
        0
 91
        1
 62
     0
 92
       -2
340
0
 93
        0
 40
1.125
309
GRIDFORMAT_END
 95
       16
302
GRIDFORMAT
  1
GRIDFORMAT_BEGIN
 90
        0
 91
        1
 62
     0
 92
       -2
340
0
 93
        0
 40
1.125
309
GRIDFORMAT_END
 95
       32
302
GRIDFORMAT
  1
GRIDFORMAT_BEGIN
 90
        0
 91
        1
 62
     0
 92
       -2
340
0
 93
        0
 40
1.125
309
GRIDFORMAT_END
309
TABLEFORMAT_END
  1
CELLSTYLE_BEGIN
 90
        1
 91
        1
300
_TITLE
309
CELLSTYLE_END
300
CELLSTYLE
  1
TABLEFORMAT_BEGIN
 90
        5
170
     1
 91
        0
 92
        0
 62
   257
 93
        1
300
CONTENTFORMAT
  1
CONTENTFORMAT_BEGIN
 90
        0
 91
        0
 92
      512
 93
        0
300

 40
0.0
140
1.0
 94
        5
 62
     0
340
17
144
4.5
309
CONTENTFORMAT_END
171
     1
301
MARGIN
  1
CELLMARGIN_BEGIN
 40
1.5
 40
1.5
 40
1.5
 40
1.5
 40
4.5
 40
4.5
309
CELLMARGIN_END
 94
        6
 95
        1
302
GRIDFORMAT
  1
GRIDFORMAT_BEGIN
 90
        0
 91
        1
 62
     0
 92
       -2
340
0
 93
        0
 40
1.125
309
GRIDFORMAT_END
 95
        2
302
GRIDFORMAT
  1
GRIDFORMAT_BEGIN
 90
        0
 91
        1
 62
     0
 92
       -2
340
0
 93
        0
 40
1.125
309
GRIDFORMAT_END
 95
        4
302
GRIDFORMAT
  1
GRIDFORMAT_BEGIN
 90
        0
 91
        1
 62
     0
 92
       -2
340
0
 93
        0
 40
1.125
309
GRIDFORMAT_END
 95
        8
302
GRIDFORMAT
  1
GRIDFORMAT_BEGIN
 90
        0
 91
        1
 62
     0
 92
       -2
340
0
 93
        0
 40
1.125
309
GRIDFORMAT_END
 95
       16
302
GRIDFORMAT
  1
GRIDFORMAT_BEGIN
 90
        0
 91
        1
 62
     0
 92
       -2
340
0
 93
        0
 40
1.125
309
GRIDFORMAT_END
 95
       32
302
GRIDFORMAT
  1
GRIDFORMAT_BEGIN
 90
        0
 91
        1
 62
     0
 92
       -2
340
0
 93
        0
 40
1.125
309
GRIDFORMAT_END
309
TABLEFORMAT_END
  1
CELLSTYLE_BEGIN
 90
        2
 91
        1
300
_HEADER
309
CELLSTYLE_END
300
CELLSTYLE
  1
TABLEFORMAT_BEGIN
 90
        5
170
     1
 91
        0
 92
        0
 62
   257
 93
        1
300
CONTENTFORMAT
  1
CONTENTFORMAT_BEGIN
 90
        0
 91
        0
 92
      512
 93
        0
300

 40
0.0
140
1.0
 94
        2
 62
     0
340
17
144
4.5
309
CONTENTFORMAT_END
171
     1
301
MARGIN
  1
CELLMARGIN_BEGIN
 40
1.5
 40
1.5
 40
1.5
 40
1.5
 40
4.5
 40
4.5
309
CELLMARGIN_END
 94
        6
 95
        1
302
GRIDFORMAT
  1
GRIDFORMAT_BEGIN
 90
        0
 91
        1
 62
     0
 92
       -2
340
0
 93
        0
 40
1.125
309
GRIDFORMAT_END
 95
        2
302
GRIDFORMAT
  1
GRIDFORMAT_BEGIN
 90
        0
 91
        1
 62
     0
 92
       -2
340
0
 93
        0
 40
1.125
309
GRIDFORMAT_END
 95
        4
302
GRIDFORMAT
  1
GRIDFORMAT_BEGIN
 90
        0
 91
        1
 62
     0
 92
       -2
340
0
 93
        0
 40
1.125
309
GRIDFORMAT_END
 95
        8
302
GRIDFORMAT
  1
GRIDFORMAT_BEGIN
 90
        0
 91
        1
 62
     0
 92
       -2
340
0
 93
        0
 40
1.125
309
GRIDFORMAT_END
 95
       16
302
GRIDFORMAT
  1
GRIDFORMAT_BEGIN
 90
        0
 91
        1
 62
     0
 92
       -2
340
0
 93
        0
 40
1.125
309
GRIDFORMAT_END
 95
       32
302
GRIDFORMAT
  1
GRIDFORMAT_BEGIN
 90
        0
 91
        1
 62
     0
 92
       -2
340
0
 93
        0
 40
1.125
309
GRIDFORMAT_END
309
TABLEFORMAT_END
  1
CELLSTYLE_BEGIN
 90
        3
 91
        2
300
_DATA
309
CELLSTYLE_END
  0
XRECORD
  5
740
102
{ACAD_REACTORS
330
6A9
102
}
330
6A9
100
AcDbXrecord
280
     1
102
ACAD_ROUNDTRIP_PRE2007_TABLESTYLE
 90
      512
 91
        0
  1

 92
      512
 93
        0
  2

 94
      512
 95
        0
  3

  0
XRECORD
  5
71B
102
{ACAD_REACTORS
330
71A
102
}
330
71A
100
AcDbXrecord
280
     1
102
RTVSPropertyOp0
 70
     1
102
RTVSPropertyOp1
 70
     1
102
RTVSPropertyOp2
 70
     1
102
RTVSPropertyOp3
 70
     1
102
RTVSPropertyOp4
 70
     1
102
RTVSPropertyOp5
 70
     1
102
RTVSPropertyOp6
 70
     1
102
RTVSPropertyOp7
 70
     1
102
RTVSPropertyOp8
 70
     1
102
RTVSPropertyOp9
 70
     1
102
RTVSPropertyOp10
 70
     1
102
RTVSPropertyOp11
 70
     1
102
RTVSPropertyOp12
 70
     1
102
RTVSPropertyOp13
 70
     1
102
RTVSPropertyOp14
 70
     1
102
RTVSPropertyOp15
 70
     1
102
RTVSPropertyOp16
 70
     1
102
RTVSPropertyOp17
 70
     1
102
RTVSPropertyOp18
 70
     1
102
RTVSPropertyOp19
 70
     1
102
RTVSPropertyOp20
 70
     1
102
RTVSPropertyOp21
 70
     1
102
RTVSPropertyOp22
 70
     1
102
RTVSPropertyOp23
 70
     1
102
RTVSPropertyOp24
 70
     1
102
RTVSPropertyOp25
 70
     1
102
RTVSPropertyOp26
 70
     1
102
RTVSPropertyOp27
 70
     1
102
RTVSPropertyOp28
 70
     1
102
RTVSPropertyOp29
 70
     1
102
RTVSPropertyOp30
 70
     1
102
RTVSPropertyOp31
 70
     1
102
RTVSPropertyOp32
 70
     1
  0
XRECORD
  5
719
102
{ACAD_REACTORS
330
718
102
}
330
718
100
AcDbXrecord
280
     1
102
RTVSPropertyOp0
 70
     1
102
RTVSPropertyOp1
 70
     1
102
RTVSPropertyOp2
 70
     1
102
RTVSPropertyOp3
 70
     1
102
RTVSPropertyOp4
 70
     1
102
RTVSPropertyOp5
 70
     1
102
RTVSPropertyOp6
 70
     1
102
RTVSPropertyOp7
 70
     1
102
RTVSPropertyOp8
 70
     1
102
RTVSPropertyOp9
 70
     1
102
RTVSPropertyOp10
 70
     1
102
RTVSPropertyOp11
 70
     1
102
RTVSPropertyOp12
 70
     1
102
RTVSPropertyOp13
 70
     1
102
RTVSPropertyOp14
 70
     1
102
RTVSPropertyOp15
 70
     1
102
RTVSPropertyOp16
 70
     1
102
RTVSPropertyOp17
 70
     1
102
RTVSPropertyOp18
 70
     1
102
RTVSPropertyOp19
 70
     1
102
RTVSPropertyOp20
 70
     1
102
RTVSPropertyOp21
 70
     1
102
RTVSPropertyOp22
 70
     1
102
RTVSPropertyOp23
 70
     1
102
RTVSPropertyOp24
 70
     1
102
RTVSPropertyOp25
 70
     1
102
RTVSPropertyOp26
 70
     1
102
RTVSPropertyOp27
 70
     1
102
RTVSPropertyOp28
 70
     1
102
RTVSPropertyOp29
 70
     1
102
RTVSPropertyOp30
 70
     1
102
RTVSPropertyOp31
 70
     1
102
RTVSPropertyOp32
 70
     1
  0
XRECORD
  5
727
102
{ACAD_REACTORS
330
726
102
}
330
726
100
AcDbXrecord
280
     1
102
RTVSPropertyOp0
 70
     1
102
RTVSPropertyOp1
 70
     1
102
RTVSPropertyOp2
 70
     1
102
RTVSPropertyOp3
 70
     1
102
RTVSPropertyOp4
 70
     1
102
RTVSPropertyOp5
 70
     1
102
RTVSPropertyOp6
 70
     1
102
RTVSPropertyOp7
 70
     1
102
RTVSPropertyOp8
 70
     1
102
RTVSPropertyOp9
 70
     1
102
RTVSPropertyOp10
 70
     1
102
RTVSPropertyOp11
 70
     1
102
RTVSPropertyOp12
 70
     1
102
RTVSPropertyOp13
 70
     1
102
RTVSPropertyOp14
 70
     1
102
RTVSPropertyOp15
 70
     1
102
RTVSPropertyOp16
 70
     1
102
RTVSPropertyOp17
 70
     1
102
RTVSPropertyOp18
 70
     1
102
RTVSPropertyOp19
 70
     1
102
RTVSPropertyOp20
 70
     1
102
RTVSPropertyOp21
 70
     1
102
RTVSPropertyOp22
 70
     1
102
RTVSPropertyOp23
 70
     1
102
RTVSPropertyOp24
 70
     1
102
RTVSPropertyOp25
 70
     1
102
RTVSPropertyOp26
 70
     1
102
RTVSPropertyOp27
 70
     1
102
RTVSPropertyOp28
 70
     1
102
RTVSPropertyOp29
 70
     1
102
RTVSPropertyOp30
 70
     1
102
RTVSPropertyOp31
 70
     1
102
RTVSPropertyOp32
 70
     1
  0
XRECORD
  5
72F
102
{ACAD_REACTORS
330
72E
102
}
330
72E
100
AcDbXrecord
280
     1
102
RTVSPropertyOp0
 70
     1
102
RTVSPropertyOp1
 70
     1
102
RTVSPropertyOp2
 70
     1
102
RTVSPropertyOp3
 70
     1
102
RTVSPropertyOp4
 70
     1
102
RTVSPropertyOp5
 70
     1
102
RTVSPropertyOp6
 70
     1
102
RTVSPropertyOp7
 70
     1
102
RTVSPropertyOp8
 70
     1
102
RTVSPropertyOp9
 70
     1
102
RTVSPropertyOp10
 70
     1
102
RTVSPropertyOp11
 70
     1
102
RTVSPropertyOp12
 70
     1
102
RTVSPropertyOp13
 70
     1
102
RTVSPropertyOp14
 70
     1
102
RTVSPropertyOp15
 70
     1
102
RTVSPropertyOp16
 70
     1
102
RTVSPropertyOp17
 70
     1
102
RTVSPropertyOp18
 70
     1
102
RTVSPropertyOp19
 70
     1
102
RTVSPropertyOp20
 70
     1
102
RTVSPropertyOp21
 70
     1
102
RTVSPropertyOp22
 70
     1
102
RTVSPropertyOp23
 70
     1
102
RTVSPropertyOp24
 70
     1
102
RTVSPropertyOp25
 70
     1
102
RTVSPropertyOp26
 70
     1
102
RTVSPropertyOp27
 70
     1
102
RTVSPropertyOp28
 70
     1
102
RTVSPropertyOp29
 70
     1
102
RTVSPropertyOp30
 70
     1
102
RTVSPropertyOp31
 70
     1
102
RTVSPropertyOp32
 70
     1
  0
XRECORD
  5
721
102
{ACAD_REACTORS
330
720
102
}
330
720
100
AcDbXrecord
280
     1
102
RTVSPropertyOp0
 70
     1
102
RTVSPropertyOp1
 70
     1
102
RTVSPropertyOp2
 70
     1
102
RTVSPropertyOp3
 70
     1
102
RTVSPropertyOp4
 70
     1
102
RTVSPropertyOp5
 70
     1
102
RTVSPropertyOp6
 70
     1
102
RTVSPropertyOp7
 70
     1
102
RTVSPropertyOp8
 70
     1
102
RTVSPropertyOp9
 70
     1
102
RTVSPropertyOp10
 70
     1
102
RTVSPropertyOp11
 70
     1
102
RTVSPropertyOp12
 70
     1
102
RTVSPropertyOp13
 70
     1
102
RTVSPropertyOp14
 70
     1
102
RTVSPropertyOp15
 70
     1
102
RTVSPropertyOp16
 70
     1
102
RTVSPropertyOp17
 70
     1
102
RTVSPropertyOp18
 70
     1
102
RTVSPropertyOp19
 70
     1
102
RTVSPropertyOp20
 70
     1
102
RTVSPropertyOp21
 70
     1
102
RTVSPropertyOp22
 70
     1
102
RTVSPropertyOp23
 70
     1
102
RTVSPropertyOp24
 70
     1
102
RTVSPropertyOp25
 70
     1
102
RTVSPropertyOp26
 70
     1
102
RTVSPropertyOp27
 70
     1
102
RTVSPropertyOp28
 70
     1
102
RTVSPropertyOp29
 70
     1
102
RTVSPropertyOp30
 70
     1
102
RTVSPropertyOp31
 70
     1
102
RTVSPropertyOp32
 70
     1
  0
XRECORD
  5
725
102
{ACAD_REACTORS
330
724
102
}
330
724
100
AcDbXrecord
280
     1
102
RTVSPropertyOp0
 70
     1
102
RTVSPropertyOp1
 70
     1
102
RTVSPropertyOp2
 70
     1
102
RTVSPropertyOp3
 70
     1
102
RTVSPropertyOp4
 70
     1
102
RTVSPropertyOp5
 70
     1
102
RTVSPropertyOp6
 70
     1
102
RTVSPropertyOp7
 70
     1
102
RTVSPropertyOp8
 70
     1
102
RTVSPropertyOp9
 70
     1
102
RTVSPropertyOp10
 70
     1
102
RTVSPropertyOp11
 70
     1
102
RTVSPropertyOp12
 70
     1
102
RTVSPropertyOp13
 70
     1
102
RTVSPropertyOp14
 70
     1
102
RTVSPropertyOp15
 70
     1
102
RTVSPropertyOp16
 70
     1
102
RTVSPropertyOp17
 70
     1
102
RTVSPropertyOp18
 70
     1
102
RTVSPropertyOp19
 70
     1
102
RTVSPropertyOp20
 70
     1
102
RTVSPropertyOp21
 70
     1
102
RTVSPropertyOp22
 70
     1
102
RTVSPropertyOp23
 70
     1
102
RTVSPropertyOp24
 70
     1
102
RTVSPropertyOp25
 70
     1
102
RTVSPropertyOp26
 70
     1
102
RTVSPropertyOp27
 70
     1
102
RTVSPropertyOp28
 70
     1
102
RTVSPropertyOp29
 70
     1
102
RTVSPropertyOp30
 70
     1
102
RTVSPropertyOp31
 70
     1
102
RTVSPropertyOp32
 70
     1
  0
XRECORD
  5
73F
102
{ACAD_REACTORS
330
73E
102
}
330
73E
100
AcDbXrecord
280
     1
102
RTVSPropertyOp0
 70
     0
102
RTVSPropertyOp1
 70
     0
102
RTVSPropertyOp2
 70
     0
102
RTVSPropertyOp3
 70
     0
102
RTVSPropertyOp4
 70
     0
102
RTVSPropertyOp5
 70
     0
102
RTVSPropertyOp6
 70
     0
102
RTVSPropertyOp7
 70
     0
102
RTVSPropertyOp8
 70
     0
102
RTVSPropertyOp9
 70
     0
102
RTVSPropertyOp10
 70
     0
102
RTVSPropertyOp11
 70
     0
102
RTVSPropertyOp12
 70
     0
102
RTVSPropertyOp13
 70
     0
102
RTVSPropertyOp14
 70
     2
102
RTVSPropertyOp15
 70
     0
102
RTVSPropertyOp16
 70
     0
102
RTVSPropertyOp17
 70
     0
102
RTVSPropertyOp18
 70
     0
102
RTVSPropertyOp19
 70
     0
102
RTVSPropertyOp20
 70
     0
102
RTVSPropertyOp21
 70
     0
102
RTVSPropertyOp22
 70
     0
102
RTVSPropertyOp23
 70
     0
102
RTVSPropertyOp24
 70
     0
102
RTVSPropertyOp25
 70
     0
102
RTVSPropertyOp26
 70
     0
102
RTVSPropertyOp27
 70
     0
102
RTVSPropertyOp28
 70
     0
102
RTVSPropertyOp29
 70
     0
102
RTVSPropertyOp30
 70
     0
102
RTVSPropertyOp31
 70
     0
102
RTVSPropertyOp32
 70
     0
  0
XRECORD
  5
72D
102
{ACAD_REACTORS
330
72C
102
}
330
72C
100
AcDbXrecord
280
     1
102
RTVSPropertyOp0
 70
     1
102
RTVSPropertyOp1
 70
     1
102
RTVSPropertyOp2
 70
     1
102
RTVSPropertyOp3
 70
     1
102
RTVSPropertyOp4
 70
     1
102
RTVSPropertyOp5
 70
     1
102
RTVSPropertyOp6
 70
     1
102
RTVSPropertyOp7
 70
     1
102
RTVSPropertyOp8
 70
     1
102
RTVSPropertyOp9
 70
     1
102
RTVSPropertyOp10
 70
     1
102
RTVSPropertyOp11
 70
     1
102
RTVSPropertyOp12
 70
     1
102
RTVSPropertyOp13
 70
     1
102
RTVSPropertyOp14
 70
     1
102
RTVSPropertyOp15
 70
     1
102
RTVSPropertyOp16
 70
     1
102
RTVSPropertyOp17
 70
     1
102
RTVSPropertyOp18
 70
     1
102
RTVSPropertyOp19
 70
     1
102
RTVSPropertyOp20
 70
     1
102
RTVSPropertyOp21
 70
     1
102
RTVSPropertyOp22
 70
     1
102
RTVSPropertyOp23
 70
     1
102
RTVSPropertyOp24
 70
     1
102
RTVSPropertyOp25
 70
     1
102
RTVSPropertyOp26
 70
     1
102
RTVSPropertyOp27
 70
     1
102
RTVSPropertyOp28
 70
     1
102
RTVSPropertyOp29
 70
     1
102
RTVSPropertyOp30
 70
     1
102
RTVSPropertyOp31
 70
     1
102
RTVSPropertyOp32
 70
     1
  0
XRECORD
  5
711
102
{ACAD_REACTORS
330
710
102
}
330
710
100
AcDbXrecord
280
     1
102
RTVSPropertyOp0
 70
     1
102
RTVSPropertyOp1
 70
     1
102
RTVSPropertyOp2
 70
     1
102
RTVSPropertyOp3
 70
     1
102
RTVSPropertyOp4
 70
     1
102
RTVSPropertyOp5
 70
     1
102
RTVSPropertyOp6
 70
     1
102
RTVSPropertyOp7
 70
     1
102
RTVSPropertyOp8
 70
     1
102
RTVSPropertyOp9
 70
     1
102
RTVSPropertyOp10
 70
     1
102
RTVSPropertyOp11
 70
     1
102
RTVSPropertyOp12
 70
     1
102
RTVSPropertyOp13
 70
     1
102
RTVSPropertyOp14
 70
     1
102
RTVSPropertyOp15
 70
     1
102
RTVSPropertyOp16
 70
     1
102
RTVSPropertyOp17
 70
     1
102
RTVSPropertyOp18
 70
     1
102
RTVSPropertyOp19
 70
     1
102
RTVSPropertyOp20
 70
     1
102
RTVSPropertyOp21
 70
     1
102
RTVSPropertyOp22
 70
     1
102
RTVSPropertyOp23
 70
     1
102
RTVSPropertyOp24
 70
     1
102
RTVSPropertyOp25
 70
     1
102
RTVSPropertyOp26
 70
     1
102
RTVSPropertyOp27
 70
     1
102
RTVSPropertyOp28
 70
     1
102
RTVSPropertyOp29
 70
     1
102
RTVSPropertyOp30
 70
     1
102
RTVSPropertyOp31
 70
     1
102
RTVSPropertyOp32
 70
     1
  0
XRECORD
  5
713
102
{ACAD_REACTORS
330
712
102
}
330
712
100
AcDbXrecord
280
     1
102
RTVSPropertyOp0
 70
     1
102
RTVSPropertyOp1
 70
     1
102
RTVSPropertyOp2
 70
     1
102
RTVSPropertyOp3
 70
     1
102
RTVSPropertyOp4
 70
     1
102
RTVSPropertyOp5
 70
     1
102
RTVSPropertyOp6
 70
     1
102
RTVSPropertyOp7
 70
     1
102
RTVSPropertyOp8
 70
     1
102
RTVSPropertyOp9
 70
     1
102
RTVSPropertyOp10
 70
     1
102
RTVSPropertyOp11
 70
     1
102
RTVSPropertyOp12
 70
     1
102
RTVSPropertyOp13
 70
     1
102
RTVSPropertyOp14
 70
     1
102
RTVSPropertyOp15
 70
     1
102
RTVSPropertyOp16
 70
     1
102
RTVSPropertyOp17
 70
     1
102
RTVSPropertyOp18
 70
     1
102
RTVSPropertyOp19
 70
     1
102
RTVSPropertyOp20
 70
     1
102
RTVSPropertyOp21
 70
     1
102
RTVSPropertyOp22
 70
     1
102
RTVSPropertyOp23
 70
     1
102
RTVSPropertyOp24
 70
     1
102
RTVSPropertyOp25
 70
     1
102
RTVSPropertyOp26
 70
     1
102
RTVSPropertyOp27
 70
     1
102
RTVSPropertyOp28
 70
     1
102
RTVSPropertyOp29
 70
     1
102
RTVSPropertyOp30
 70
     1
102
RTVSPropertyOp31
 70
     1
102
RTVSPropertyOp32
 70
     1
  0
XRECORD
  5
715
102
{ACAD_REACTORS
330
714
102
}
330
714
100
AcDbXrecord
280
     1
102
RTVSPropertyOp0
 70
     1
102
RTVSPropertyOp1
 70
     1
102
RTVSPropertyOp2
 70
     1
102
RTVSPropertyOp3
 70
     1
102
RTVSPropertyOp4
 70
     1
102
RTVSPropertyOp5
 70
     1
102
RTVSPropertyOp6
 70
     1
102
RTVSPropertyOp7
 70
     1
102
RTVSPropertyOp8
 70
     1
102
RTVSPropertyOp9
 70
     1
102
RTVSPropertyOp10
 70
     1
102
RTVSPropertyOp11
 70
     1
102
RTVSPropertyOp12
 70
     1
102
RTVSPropertyOp13
 70
     1
102
RTVSPropertyOp14
 70
     1
102
RTVSPropertyOp15
 70
     1
102
RTVSPropertyOp16
 70
     1
102
RTVSPropertyOp17
 70
     1
102
RTVSPropertyOp18
 70
     1
102
RTVSPropertyOp19
 70
     1
102
RTVSPropertyOp20
 70
     1
102
RTVSPropertyOp21
 70
     1
102
RTVSPropertyOp22
 70
     1
102
RTVSPropertyOp23
 70
     1
102
RTVSPropertyOp24
 70
     1
102
RTVSPropertyOp25
 70
     1
102
RTVSPropertyOp26
 70
     1
102
RTVSPropertyOp27
 70
     1
102
RTVSPropertyOp28
 70
     1
102
RTVSPropertyOp29
 70
     1
102
RTVSPropertyOp30
 70
     1
102
RTVSPropertyOp31
 70
     1
102
RTVSPropertyOp32
 70
     1
  0
XRECORD
  5
717
102
{ACAD_REACTORS
330
716
102
}
330
716
100
AcDbXrecord
280
     1
102
RTVSPropertyOp0
 70
     1
102
RTVSPropertyOp1
 70
     1
102
RTVSPropertyOp2
 70
     1
102
RTVSPropertyOp3
 70
     1
102
RTVSPropertyOp4
 70
     1
102
RTVSPropertyOp5
 70
     1
102
RTVSPropertyOp6
 70
     1
102
RTVSPropertyOp7
 70
     1
102
RTVSPropertyOp8
 70
     1
102
RTVSPropertyOp9
 70
     1
102
RTVSPropertyOp10
 70
     1
102
RTVSPropertyOp11
 70
     1
102
RTVSPropertyOp12
 70
     1
102
RTVSPropertyOp13
 70
     1
102
RTVSPropertyOp14
 70
     1
102
RTVSPropertyOp15
 70
     1
102
RTVSPropertyOp16
 70
     1
102
RTVSPropertyOp17
 70
     1
102
RTVSPropertyOp18
 70
     1
102
RTVSPropertyOp19
 70
     1
102
RTVSPropertyOp20
 70
     1
102
RTVSPropertyOp21
 70
     1
102
RTVSPropertyOp22
 70
     1
102
RTVSPropertyOp23
 70
     1
102
RTVSPropertyOp24
 70
     1
102
RTVSPropertyOp25
 70
     1
102
RTVSPropertyOp26
 70
     1
102
RTVSPropertyOp27
 70
     1
102
RTVSPropertyOp28
 70
     1
102
RTVSPropertyOp29
 70
     1
102
RTVSPropertyOp30
 70
     1
102
RTVSPropertyOp31
 70
     1
102
RTVSPropertyOp32
 70
     1
  0
XRECORD
  5
71F
102
{ACAD_REACTORS
330
71E
102
}
330
71E
100
AcDbXrecord
280
     1
102
RTVSPropertyOp0
 70
     1
102
RTVSPropertyOp1
 70
     1
102
RTVSPropertyOp2
 70
     1
102
RTVSPropertyOp3
 70
     1
102
RTVSPropertyOp4
 70
     1
102
RTVSPropertyOp5
 70
     1
102
RTVSPropertyOp6
 70
     1
102
RTVSPropertyOp7
 70
     1
102
RTVSPropertyOp8
 70
     1
102
RTVSPropertyOp9
 70
     1
102
RTVSPropertyOp10
 70
     1
102
RTVSPropertyOp11
 70
     1
102
RTVSPropertyOp12
 70
     1
102
RTVSPropertyOp13
 70
     1
102
RTVSPropertyOp14
 70
     1
102
RTVSPropertyOp15
 70
     1
102
RTVSPropertyOp16
 70
     1
102
RTVSPropertyOp17
 70
     1
102
RTVSPropertyOp18
 70
     1
102
RTVSPropertyOp19
 70
     1
102
RTVSPropertyOp20
 70
     1
102
RTVSPropertyOp21
 70
     1
102
RTVSPropertyOp22
 70
     1
102
RTVSPropertyOp23
 70
     1
102
RTVSPropertyOp24
 70
     1
102
RTVSPropertyOp25
 70
     1
102
RTVSPropertyOp26
 70
     1
102
RTVSPropertyOp27
 70
     1
102
RTVSPropertyOp28
 70
     1
102
RTVSPropertyOp29
 70
     1
102
RTVSPropertyOp30
 70
     1
102
RTVSPropertyOp31
 70
     1
102
RTVSPropertyOp32
 70
     1
  0
XRECORD
  5
73B
102
{ACAD_REACTORS
330
73A
102
}
330
73A
100
AcDbXrecord
280
     1
102
RTVSPropertyOp0
 70
     0
102
RTVSPropertyOp1
 70
     0
102
RTVSPropertyOp2
 70
     0
102
RTVSPropertyOp3
 70
     0
102
RTVSPropertyOp4
 70
     0
102
RTVSPropertyOp5
 70
     0
102
RTVSPropertyOp6
 70
     0
102
RTVSPropertyOp7
 70
     0
102
RTVSPropertyOp8
 70
     0
102
RTVSPropertyOp9
 70
     0
102
RTVSPropertyOp10
 70
     0
102
RTVSPropertyOp11
 70
     0
102
RTVSPropertyOp12
 70
     0
102
RTVSPropertyOp13
 70
     0
102
RTVSPropertyOp14
 70
     2
102
RTVSPropertyOp15
 70
     0
102
RTVSPropertyOp16
 70
     0
102
RTVSPropertyOp17
 70
     0
102
RTVSPropertyOp18
 70
     0
102
RTVSPropertyOp19
 70
     0
102
RTVSPropertyOp20
 70
     0
102
RTVSPropertyOp21
 70
     0
102
RTVSPropertyOp22
 70
     0
102
RTVSPropertyOp23
 70
     0
102
RTVSPropertyOp24
 70
     0
102
RTVSPropertyOp25
 70
     0
102
RTVSPropertyOp26
 70
     0
102
RTVSPropertyOp27
 70
     0
102
RTVSPropertyOp28
 70
     0
102
RTVSPropertyOp29
 70
     0
102
RTVSPropertyOp30
 70
     0
102
RTVSPropertyOp31
 70
     0
102
RTVSPropertyOp32
 70
     0
  0
XRECORD
  5
72B
102
{ACAD_REACTORS
330
72A
102
}
330
72A
100
AcDbXrecord
280
     1
102
RTVSPropertyOp0
 70
     1
102
RTVSPropertyOp1
 70
     1
102
RTVSPropertyOp2
 70
     1
102
RTVSPropertyOp3
 70
     1
102
RTVSPropertyOp4
 70
     1
102
RTVSPropertyOp5
 70
     1
102
RTVSPropertyOp6
 70
     1
102
RTVSPropertyOp7
 70
     1
102
RTVSPropertyOp8
 70
     1
102
RTVSPropertyOp9
 70
     1
102
RTVSPropertyOp10
 70
     1
102
RTVSPropertyOp11
 70
     1
102
RTVSPropertyOp12
 70
     1
102
RTVSPropertyOp13
 70
     1
102
RTVSPropertyOp14
 70
     1
102
RTVSPropertyOp15
 70
     1
102
RTVSPropertyOp16
 70
     1
102
RTVSPropertyOp17
 70
     1
102
RTVSPropertyOp18
 70
     1
102
RTVSPropertyOp19
 70
     1
102
RTVSPropertyOp20
 70
     1
102
RTVSPropertyOp21
 70
     1
102
RTVSPropertyOp22
 70
     1
102
RTVSPropertyOp23
 70
     1
102
RTVSPropertyOp24
 70
     1
102
RTVSPropertyOp25
 70
     1
102
RTVSPropertyOp26
 70
     1
102
RTVSPropertyOp27
 70
     1
102
RTVSPropertyOp28
 70
     1
102
RTVSPropertyOp29
 70
     1
102
RTVSPropertyOp30
 70
     1
102
RTVSPropertyOp31
 70
     1
102
RTVSPropertyOp32
 70
     1
  0
XRECORD
  5
73D
102
{ACAD_REACTORS
330
73C
102
}
330
73C
100
AcDbXrecord
280
     1
102
RTVSPropertyOp0
 70
     0
102
RTVSPropertyOp1
 70
     0
102
RTVSPropertyOp2
 70
     0
102
RTVSPropertyOp3
 70
     0
102
RTVSPropertyOp4
 70
     0
102
RTVSPropertyOp5
 70
     0
102
RTVSPropertyOp6
 70
     0
102
RTVSPropertyOp7
 70
     0
102
RTVSPropertyOp8
 70
     0
102
RTVSPropertyOp9
 70
     0
102
RTVSPropertyOp10
 70
     0
102
RTVSPropertyOp11
 70
     0
102
RTVSPropertyOp12
 70
     0
102
RTVSPropertyOp13
 70
     0
102
RTVSPropertyOp14
 70
     2
102
RTVSPropertyOp15
 70
     0
102
RTVSPropertyOp16
 70
     0
102
RTVSPropertyOp17
 70
     0
102
RTVSPropertyOp18
 70
     0
102
RTVSPropertyOp19
 70
     0
102
RTVSPropertyOp20
 70
     0
102
RTVSPropertyOp21
 70
     0
102
RTVSPropertyOp22
 70
     0
102
RTVSPropertyOp23
 70
     0
102
RTVSPropertyOp24
 70
     0
102
RTVSPropertyOp25
 70
     0
102
RTVSPropertyOp26
 70
     0
102
RTVSPropertyOp27
 70
     0
102
RTVSPropertyOp28
 70
     0
102
RTVSPropertyOp29
 70
     0
102
RTVSPropertyOp30
 70
     0
102
RTVSPropertyOp31
 70
     0
102
RTVSPropertyOp32
 70
     0
  0
XRECORD
  5
723
102
{ACAD_REACTORS
330
722
102
}
330
722
100
AcDbXrecord
280
     1
102
RTVSPropertyOp0
 70
     1
102
RTVSPropertyOp1
 70
     1
102
RTVSPropertyOp2
 70
     1
102
RTVSPropertyOp3
 70
     1
102
RTVSPropertyOp4
 70
     1
102
RTVSPropertyOp5
 70
     1
102
RTVSPropertyOp6
 70
     1
102
RTVSPropertyOp7
 70
     1
102
RTVSPropertyOp8
 70
     1
102
RTVSPropertyOp9
 70
     1
102
RTVSPropertyOp10
 70
     1
102
RTVSPropertyOp11
 70
     1
102
RTVSPropertyOp12
 70
     1
102
RTVSPropertyOp13
 70
     1
102
RTVSPropertyOp14
 70
     1
102
RTVSPropertyOp15
 70
     1
102
RTVSPropertyOp16
 70
     1
102
RTVSPropertyOp17
 70
     1
102
RTVSPropertyOp18
 70
     1
102
RTVSPropertyOp19
 70
     1
102
RTVSPropertyOp20
 70
     1
102
RTVSPropertyOp21
 70
     1
102
RTVSPropertyOp22
 70
     1
102
RTVSPropertyOp23
 70
     1
102
RTVSPropertyOp24
 70
     1
102
RTVSPropertyOp25
 70
     1
102
RTVSPropertyOp26
 70
     1
102
RTVSPropertyOp27
 70
     1
102
RTVSPropertyOp28
 70
     1
102
RTVSPropertyOp29
 70
     1
102
RTVSPropertyOp30
 70
     1
102
RTVSPropertyOp31
 70
     1
102
RTVSPropertyOp32
 70
     1
  0
XRECORD
  5
739
102
{ACAD_REACTORS
330
738
102
}
330
738
100
AcDbXrecord
280
     1
102
RTVSPropertyOp0
 70
     1
102
RTVSPropertyOp1
 70
     1
102
RTVSPropertyOp2
 70
     1
102
RTVSPropertyOp3
 70
     1
102
RTVSPropertyOp4
 70
     1
102
RTVSPropertyOp5
 70
     1
102
RTVSPropertyOp6
 70
     1
102
RTVSPropertyOp7
 70
     1
102
RTVSPropertyOp8
 70
     1
102
RTVSPropertyOp9
 70
     1
102
RTVSPropertyOp10
 70
     1
102
RTVSPropertyOp11
 70
     1
102
RTVSPropertyOp12
 70
     1
102
RTVSPropertyOp13
 70
     1
102
RTVSPropertyOp14
 70
     1
102
RTVSPropertyOp15
 70
     1
102
RTVSPropertyOp16
 70
     1
102
RTVSPropertyOp17
 70
     1
102
RTVSPropertyOp18
 70
     1
102
RTVSPropertyOp19
 70
     1
102
RTVSPropertyOp20
 70
     1
102
RTVSPropertyOp21
 70
     1
102
RTVSPropertyOp22
 70
     1
102
RTVSPropertyOp23
 70
     1
102
RTVSPropertyOp24
 70
     1
102
RTVSPropertyOp25
 70
     1
102
RTVSPropertyOp26
 70
     1
102
RTVSPropertyOp27
 70
     1
102
RTVSPropertyOp28
 70
     1
102
RTVSPropertyOp29
 70
     1
102
RTVSPropertyOp30
 70
     1
102
RTVSPropertyOp31
 70
     1
102
RTVSPropertyOp32
 70
     1
  0
XRECORD
  5
737
102
{ACAD_REACTORS
330
736
102
}
330
736
100
AcDbXrecord
280
     1
102
RTVSPropertyOp0
 70
     1
102
RTVSPropertyOp1
 70
     1
102
RTVSPropertyOp2
 70
     1
102
RTVSPropertyOp3
 70
     1
102
RTVSPropertyOp4
 70
     1
102
RTVSPropertyOp5
 70
     1
102
RTVSPropertyOp6
 70
     1
102
RTVSPropertyOp7
 70
     1
102
RTVSPropertyOp8
 70
     1
102
RTVSPropertyOp9
 70
     1
102
RTVSPropertyOp10
 70
     1
102
RTVSPropertyOp11
 70
     1
102
RTVSPropertyOp12
 70
     1
102
RTVSPropertyOp13
 70
     1
102
RTVSPropertyOp14
 70
     1
102
RTVSPropertyOp15
 70
     1
102
RTVSPropertyOp16
 70
     1
102
RTVSPropertyOp17
 70
     1
102
RTVSPropertyOp18
 70
     1
102
RTVSPropertyOp19
 70
     1
102
RTVSPropertyOp20
 70
     1
102
RTVSPropertyOp21
 70
     1
102
RTVSPropertyOp22
 70
     1
102
RTVSPropertyOp23
 70
     1
102
RTVSPropertyOp24
 70
     1
102
RTVSPropertyOp25
 70
     1
102
RTVSPropertyOp26
 70
     1
102
RTVSPropertyOp27
 70
     1
102
RTVSPropertyOp28
 70
     1
102
RTVSPropertyOp29
 70
     1
102
RTVSPropertyOp30
 70
     1
102
RTVSPropertyOp31
 70
     1
102
RTVSPropertyOp32
 70
     1
  0
XRECORD
  5
731
102
{ACAD_REACTORS
330
730
102
}
330
730
100
AcDbXrecord
280
     1
102
RTVSPropertyOp0
 70
     1
102
RTVSPropertyOp1
 70
     1
102
RTVSPropertyOp2
 70
     1
102
RTVSPropertyOp3
 70
     1
102
RTVSPropertyOp4
 70
     1
102
RTVSPropertyOp5
 70
     1
102
RTVSPropertyOp6
 70
     1
102
RTVSPropertyOp7
 70
     1
102
RTVSPropertyOp8
 70
     1
102
RTVSPropertyOp9
 70
     1
102
RTVSPropertyOp10
 70
     1
102
RTVSPropertyOp11
 70
     1
102
RTVSPropertyOp12
 70
     1
102
RTVSPropertyOp13
 70
     1
102
RTVSPropertyOp14
 70
     1
102
RTVSPropertyOp15
 70
     1
102
RTVSPropertyOp16
 70
     1
102
RTVSPropertyOp17
 70
     1
102
RTVSPropertyOp18
 70
     1
102
RTVSPropertyOp19
 70
     1
102
RTVSPropertyOp20
 70
     1
102
RTVSPropertyOp21
 70
     1
102
RTVSPropertyOp22
 70
     1
102
RTVSPropertyOp23
 70
     1
102
RTVSPropertyOp24
 70
     1
102
RTVSPropertyOp25
 70
     1
102
RTVSPropertyOp26
 70
     1
102
RTVSPropertyOp27
 70
     1
102
RTVSPropertyOp28
 70
     1
102
RTVSPropertyOp29
 70
     1
102
RTVSPropertyOp30
 70
     1
102
RTVSPropertyOp31
 70
     1
102
RTVSPropertyOp32
 70
     1
  0
XRECORD
  5
733
102
{ACAD_REACTORS
330
732
102
}
330
732
100
AcDbXrecord
280
     1
102
RTVSPropertyOp0
 70
     1
102
RTVSPropertyOp1
 70
     1
102
RTVSPropertyOp2
 70
     1
102
RTVSPropertyOp3
 70
     1
102
RTVSPropertyOp4
 70
     1
102
RTVSPropertyOp5
 70
     1
102
RTVSPropertyOp6
 70
     1
102
RTVSPropertyOp7
 70
     1
102
RTVSPropertyOp8
 70
     1
102
RTVSPropertyOp9
 70
     1
102
RTVSPropertyOp10
 70
     1
102
RTVSPropertyOp11
 70
     1
102
RTVSPropertyOp12
 70
     1
102
RTVSPropertyOp13
 70
     1
102
RTVSPropertyOp14
 70
     1
102
RTVSPropertyOp15
 70
     1
102
RTVSPropertyOp16
 70
     1
102
RTVSPropertyOp17
 70
     1
102
RTVSPropertyOp18
 70
     1
102
RTVSPropertyOp19
 70
     1
102
RTVSPropertyOp20
 70
     1
102
RTVSPropertyOp21
 70
     1
102
RTVSPropertyOp22
 70
     1
102
RTVSPropertyOp23
 70
     1
102
RTVSPropertyOp24
 70
     1
102
RTVSPropertyOp25
 70
     1
102
RTVSPropertyOp26
 70
     1
102
RTVSPropertyOp27
 70
     1
102
RTVSPropertyOp28
 70
     1
102
RTVSPropertyOp29
 70
     1
102
RTVSPropertyOp30
 70
     1
102
RTVSPropertyOp31
 70
     1
102
RTVSPropertyOp32
 70
     1
  0
XRECORD
  5
729
102
{ACAD_REACTORS
330
728
102
}
330
728
100
AcDbXrecord
280
     1
102
RTVSPropertyOp0
 70
     1
102
RTVSPropertyOp1
 70
     1
102
RTVSPropertyOp2
 70
     1
102
RTVSPropertyOp3
 70
     1
102
RTVSPropertyOp4
 70
     1
102
RTVSPropertyOp5
 70
     1
102
RTVSPropertyOp6
 70
     1
102
RTVSPropertyOp7
 70
     1
102
RTVSPropertyOp8
 70
     1
102
RTVSPropertyOp9
 70
     1
102
RTVSPropertyOp10
 70
     1
102
RTVSPropertyOp11
 70
     1
102
RTVSPropertyOp12
 70
     1
102
RTVSPropertyOp13
 70
     1
102
RTVSPropertyOp14
 70
     1
102
RTVSPropertyOp15
 70
     1
102
RTVSPropertyOp16
 70
     1
102
RTVSPropertyOp17
 70
     1
102
RTVSPropertyOp18
 70
     1
102
RTVSPropertyOp19
 70
     1
102
RTVSPropertyOp20
 70
     1
102
RTVSPropertyOp21
 70
     1
102
RTVSPropertyOp22
 70
     1
102
RTVSPropertyOp23
 70
     1
102
RTVSPropertyOp24
 70
     1
102
RTVSPropertyOp25
 70
     1
102
RTVSPropertyOp26
 70
     1
102
RTVSPropertyOp27
 70
     1
102
RTVSPropertyOp28
 70
     1
102
RTVSPropertyOp29
 70
     1
102
RTVSPropertyOp30
 70
     1
102
RTVSPropertyOp31
 70
     1
102
RTVSPropertyOp32
 70
     1
  0
XRECORD
  5
71D
102
{ACAD_REACTORS
330
71C
102
}
330
71C
100
AcDbXrecord
280
     1
102
RTVSPropertyOp0
 70
     1
102
RTVSPropertyOp1
 70
     1
102
RTVSPropertyOp2
 70
     1
102
RTVSPropertyOp3
 70
     1
102
RTVSPropertyOp4
 70
     1
102
RTVSPropertyOp5
 70
     1
102
RTVSPropertyOp6
 70
     1
102
RTVSPropertyOp7
 70
     1
102
RTVSPropertyOp8
 70
     1
102
RTVSPropertyOp9
 70
     1
102
RTVSPropertyOp10
 70
     1
102
RTVSPropertyOp11
 70
     1
102
RTVSPropertyOp12
 70
     1
102
RTVSPropertyOp13
 70
     1
102
RTVSPropertyOp14
 70
     1
102
RTVSPropertyOp15
 70
     1
102
RTVSPropertyOp16
 70
     1
102
RTVSPropertyOp17
 70
     1
102
RTVSPropertyOp18
 70
     1
102
RTVSPropertyOp19
 70
     1
102
RTVSPropertyOp20
 70
     1
102
RTVSPropertyOp21
 70
     1
102
RTVSPropertyOp22
 70
     1
102
RTVSPropertyOp23
 70
     1
102
RTVSPropertyOp24
 70
     1
102
RTVSPropertyOp25
 70
     1
102
RTVSPropertyOp26
 70
     1
102
RTVSPropertyOp27
 70
     1
102
RTVSPropertyOp28
 70
     1
102
RTVSPropertyOp29
 70
     1
102
RTVSPropertyOp30
 70
     1
102
RTVSPropertyOp31
 70
     1
102
RTVSPropertyOp32
 70
     1
  0
XRECORD
  5
735
102
{ACAD_REACTORS
330
734
102
}
330
734
100
AcDbXrecord
280
     1
102
RTVSPropertyOp0
 70
     1
102
RTVSPropertyOp1
 70
     1
102
RTVSPropertyOp2
 70
     1
102
RTVSPropertyOp3
 70
     1
102
RTVSPropertyOp4
 70
     1
102
RTVSPropertyOp5
 70
     1
102
RTVSPropertyOp6
 70
     1
102
RTVSPropertyOp7
 70
     1
102
RTVSPropertyOp8
 70
     1
102
RTVSPropertyOp9
 70
     1
102
RTVSPropertyOp10
 70
     1
102
RTVSPropertyOp11
 70
     1
102
RTVSPropertyOp12
 70
     1
102
RTVSPropertyOp13
 70
     1
102
RTVSPropertyOp14
 70
     1
102
RTVSPropertyOp15
 70
     1
102
RTVSPropertyOp16
 70
     1
102
RTVSPropertyOp17
 70
     1
102
RTVSPropertyOp18
 70
     1
102
RTVSPropertyOp19
 70
     1
102
RTVSPropertyOp20
 70
     1
102
RTVSPropertyOp21
 70
     1
102
RTVSPropertyOp22
 70
     1
102
RTVSPropertyOp23
 70
     1
102
RTVSPropertyOp24
 70
     1
102
RTVSPropertyOp25
 70
     1
102
RTVSPropertyOp26
 70
     1
102
RTVSPropertyOp27
 70
     1
102
RTVSPropertyOp28
 70
     1
102
RTVSPropertyOp29
 70
     1
102
RTVSPropertyOp30
 70
     1
102
RTVSPropertyOp31
 70
     1
102
RTVSPropertyOp32
 70
     1
  0
ENDSEC
  0
EOF
